  0
SECTION
  2
HEADER
  9
$ACADVER
  1
AC1009
  9
$INSBASE
 10
0.0
 20
0.0
 30
0.0
  9
$EXTMIN
 10
0.0
 20
0.0
 30
0.0
  9
$EXTMAX
 10
38.75
 20
25.29999999999999
 30
0.0
  9
$LIMMIN
 10
0.0
 20
0.0
  9
$LIMMAX
 10
75.0
 20
50.0
  9
$ORTHOMODE
 70
     0
  9
$REGENMODE
 70
     0
  9
$FILLMODE
 70
     1
  9
$QTEXTMODE
 70
     0
  9
$MIRRTEXT
 70
     0
  9
$DRAGMODE
 70
     2
  9
$LTSCALE
 40
1.0
  9
$OSMODE
 70
    37
  9
$ATTMODE
 70
     1
  9
$TEXTSIZE
 40
0.312
  9
$TRACEWID
 40
0.05
  9
$TEXTSTYLE
  7
TXT
  9
$CLAYER
  8
OBJECT
  9
$CELTYPE
  6
BYLAYER
  9
$CECOLOR
 62
   256
  9
$DIMSCALE
 40
2.5
  9
$DIMASZ
 40
0.18
  9
$DIMEXO
 40
0.063
  9
$DIMDLI
 40
0.281
  9
$DIMRND
 40
0.0
  9
$DIMDLE
 40
0.0
  9
$DIMEXE
 40
0.093
  9
$DIMTP
 40
0.0
  9
$DIMTM
 40
0.0
  9
$DIMTXT
 40
0.125
  9
$DIMCEN
 40
0.09
  9
$DIMTSZ
 40
0.0
  9
$DIMTOL
 70
     0
  9
$DIMLIM
 70
     0
  9
$DIMTIH
 70
     1
  9
$DIMTOH
 70
     1
  9
$DIMSE1
 70
     0
  9
$DIMSE2
 70
     0
  9
$DIMTAD
 70
     0
  9
$DIMZIN
 70
     0
  9
$DIMBLK
  1

  9
$DIMASO
 70
     1
  9
$DIMSHO
 70
     1
  9
$DIMPOST
  1

  9
$DIMAPOST
  1

  9
$DIMALT
 70
     0
  9
$DIMALTD
 70
     2
  9
$DIMALTF
 40
25.399999999999999
  9
$DIMLFAC
 40
1.0
  9
$DIMTOFL
 70
     0
  9
$DIMTVP
 40
0.0
  9
$DIMTIX
 70
     0
  9
$DIMSOXD
 70
     0
  9
$DIMSAH
 70
     0
  9
$DIMBLK1
  1

  9
$DIMBLK2
  1

  9
$DIMSTYLE
  2
STD
  9
$DIMCLRD
 70
     0
  9
$DIMCLRE
 70
     0
  9
$DIMCLRT
 70
     0
  9
$DIMTFAC
 40
1.0
  9
$DIMGAP
 40
0.09
  9
$LUNITS
 70
     2
  9
$LUPREC
 70
     3
  9
$SKETCHINC
 40
0.1
  9
$FILLETRAD
 40
0.0
  9
$AUNITS
 70
     0
  9
$AUPREC
 70
     0
  9
$MENU
  1
acad
  9
$ELEVATION
 40
0.0
  9
$PELEVATION
 40
0.0
  9
$THICKNESS
 40
0.0
  9
$LIMCHECK
 70
     0
  9
$BLIPMODE
 70
     0
  9
$CHAMFERA
 40
0.0
  9
$CHAMFERB
 40
0.0
  9
$SKPOLY
 70
     0
  9
$TDCREATE
 40
2449133.4872805551
  9
$TDUPDATE
 40
2451668.4604179389
  9
$TDINDWG
 40
0.1070869213
  9
$TDUSRTIMER
 40
0.1070869213
  9
$USRTIMER
 70
     1
  9
$ANGBASE
 50
0.0
  9
$ANGDIR
 70
     0
  9
$PDMODE
 70
     0
  9
$PDSIZE
 40
0.0
  9
$PLINEWID
 40
0.0
  9
$COORDS
 70
     1
  9
$SPLFRAME
 70
     0
  9
$SPLINETYPE
 70
     6
  9
$SPLINESEGS
 70
     8
  9
$ATTDIA
 70
     0
  9
$ATTREQ
 70
     1
  9
$HANDLING
 70
  4097
  9
$HANDSEED
  5
10FB
  9
$SURFTAB1
 70
     6
  9
$SURFTAB2
 70
     6
  9
$SURFTYPE
 70
     6
  9
$SURFU
 70
     6
  9
$SURFV
 70
     6
  9
$UCSNAME
  2

  9
$UCSORG
 10
0.0
 20
0.0
 30
0.0
  9
$UCSXDIR
 10
1.0
 20
0.0
 30
0.0
  9
$UCSYDIR
 10
0.0
 20
1.0
 30
0.0
  9
$PUCSNAME
  2

  9
$PUCSORG
 10
0.0
 20
0.0
 30
0.0
  9
$PUCSXDIR
 10
1.0
 20
0.0
 30
0.0
  9
$PUCSYDIR
 10
0.0
 20
1.0
 30
0.0
  9
$USERI1
 70
     0
  9
$USERI2
 70
     0
  9
$USERI3
 70
     0
  9
$USERI4
 70
     0
  9
$USERI5
 70
     0
  9
$USERR1
 40
0.0
  9
$USERR2
 40
0.0
  9
$USERR3
 40
0.0
  9
$USERR4
 40
0.0
  9
$USERR5
 40
0.0
  9
$WORLDVIEW
 70
     1
  9
$SHADEDGE
 70
     3
  9
$SHADEDIF
 70
    70
  9
$TILEMODE
 70
     1
  9
$MAXACTVP
 70
    16
  9
$PLIMCHECK
 70
     0
  9
$PEXTMIN
 10
1.0000000000000000E+020
 20
1.0000000000000000E+020
 30
1.0000000000000000E+020
  9
$PEXTMAX
 10
-1.0000000000000000E+020
 20
-1.0000000000000000E+020
 30
-1.0000000000000000E+020
  9
$PLIMMIN
 10
0.0
 20
0.0
  9
$PLIMMAX
 10
12.0
 20
9.0
  9
$UNITMODE
 70
     0
  9
$VISRETAIN
 70
     0
  9
$PLINEGEN
 70
     0
  9
$PSLTSCALE
 70
     1
  0
ENDSEC
  0
SECTION
  2
TABLES
  0
TABLE
  2
VPORT
 70
     2
  0
VPORT
  2
*ACTIVE
 70
     0
 10
0.0
 20
0.0
 11
1.0
 21
1.0
 12
19.75022889596567
 22
12.64989420124018
 13
0.0
 23
0.0
 14
1.0
 24
1.0
 15
0.0
 25
0.0
 16
0.0
 26
0.0
 36
1.0
 17
0.0
 27
0.0
 37
0.0
 40
25.59234799957731
 41
1.84313725490196
 42
50.0
 43
0.0
 44
0.0
 50
0.0
 51
0.0
 71
     0
 72
   100
 73
     1
 74
     0
 75
     0
 76
     0
 77
     0
 78
     0
  0
ENDTAB
  0
TABLE
  2
LTYPE
 70
     7
  0
LTYPE
  2
CONTINUOUS
 70
     0
  3
Solid line
 72
    65
 73
     0
 40
0.0
  0
LTYPE
  2
HIDDEN
 70
     0
  3
_ _ _ _ _ _ _ _ _ _ _ _ _ _ _ _ _ _ _ _ _ _ _
 72
    65
 73
     2
 40
0.375
 49
0.25
 49
-0.125
  0
LTYPE
  2
PHANTOM
 70
     0
  3
_____ _ _ _____ _ _ _____ _ _ _____ _ _ ____
 72
    65
 73
     6
 40
2.5
 49
1.25
 49
-0.25
 49
0.25
 49
-0.25
 49
0.25
 49
-0.25
  0
LTYPE
  2
CENTER
 70
     0
  3
____ _ ____ _ ____ _ ____ _ ____ _ ____ _ ____
 72
    65
 73
     4
 40
2.0
 49
1.25
 49
-0.25
 49
0.25
 49
-0.25
  0
LTYPE
  2
PHANTOM2
 70
     0
  3
___ _ _ ___ _ _ ___ _ _ ___ _ _ ___ _ _ ___ _ _
 72
    65
 73
     6
 40
1.25
 49
0.625
 49
-0.125
 49
0.125
 49
-0.125
 49
0.125
 49
-0.125
  0
LTYPE
  2
HIDDEN2
 70
     0
  3
_ _ _ _ _ _ _ _ _ _ _ _ _ _ _ _ _ _ _ _ _ _ _ _
 72
    65
 73
     2
 40
0.1875
 49
0.125
 49
-0.0625
  0
LTYPE
  2
CENTER2
 70
     0
  3
Center (.5x) ___ _ ___ _ ___ _ ___ _ ___ _ ___
 72
    65
 73
     4
 40
1.125
 49
0.75
 49
-0.125
 49
0.125
 49
-0.125
  0
ENDTAB
  0
TABLE
  2
LAYER
 70
    10
  0
LAYER
  2
0
 70
     0
 62
     7
  6
CONTINUOUS
  0
LAYER
  2
DEFPOINTS
 70
     0
 62
     7
  6
CONTINUOUS
  0
LAYER
  2
OBJECT
 70
     0
 62
     7
  6
CONTINUOUS
  0
LAYER
  2
DIM
 70
     0
 62
     7
  6
CONTINUOUS
  0
LAYER
  2
HIDDEN
 70
     0
 62
     7
  6
HIDDEN
  0
LAYER
  2
BEND
 70
     0
 62
     7
  6
PHANTOM
  0
LAYER
  2
TEXT
 70
     0
 62
     7
  6
CONTINUOUS
  0
LAYER
  2
TITLE
 70
     0
 62
     7
  6
CONTINUOUS
  0
LAYER
  2
CENTER
 70
     0
 62
     7
  6
CENTER
  0
LAYER
  2
HIDDEN2
 70
     0
 62
     7
  6
HIDDEN2
  0
ENDTAB
  0
TABLE
  2
STYLE
 70
     2
  0
STYLE
  2
STANDARD
 70
     0
 40
0.0
 41
1.0
 50
0.0
 71
     0
 42
0.2
  3
txt
  4

  0
STYLE
  2
TXT
 70
     0
 40
0.0
 41
0.75
 50
0.0
 71
     0
 42
0.312
  3
TXT.shx
  4

  0
ENDTAB
  0
TABLE
  2
VIEW
 70
     0
  0
ENDTAB
  0
TABLE
  2
UCS
 70
     0
  0
ENDTAB
  0
TABLE
  2
APPID
 70
     1
  0
APPID
  2
ACAD
 70
     0
  0
ENDTAB
  0
TABLE
  2
DIMSTYLE
 70
     3
  0
DIMSTYLE
  2
STD
 70
     0
  3

  4

  5

  6

  7

 40
2.5
 41
0.18
 42
0.063
 43
0.281
 44
0.093
 45
0.0
 46
0.0
 47
0.0
 48
0.0
140
0.125
141
0.09
142
0.0
143
25.399999999999999
144
1.0
145
0.0
146
1.0
147
0.09
 71
     0
 72
     0
 73
     1
 74
     1
 75
     0
 76
     0
 77
     0
 78
     0
170
     0
171
     2
172
     0
173
     0
174
     0
175
     0
176
     0
177
     0
178
     0
  0
DIMSTYLE
  2
23NSTD
 70
     0
  3

  4

  5

  6

  7

 40
2.0
 41
0.18
 42
0.063
 43
0.281
 44
0.093
 45
0.0
 46
0.0
 47
0.0
 48
0.0
140
0.125
141
0.09
142
0.0
143
25.399999999999999
144
1.0
145
0.0
146
1.0
147
0.09
 71
     0
 72
     0
 73
     1
 74
     1
 75
     0
 76
     0
 77
     0
 78
     0
170
     0
171
     2
172
     0
173
     0
174
     0
175
     0
176
     0
177
     0
178
     0
  0
DIMSTYLE
  2
23NSTDI
 70
     0
  3

  4

  5

  6

  7

 40
2.0
 41
0.18
 42
0.063
 43
0.281
 44
0.093
 45
0.0
 46
0.0
 47
0.0
 48
0.0
140
0.125
141
0.09
142
0.0
143
25.399999999999999
144
1.0
145
0.0
146
1.0
147
0.09
 71
     0
 72
     0
 73
     1
 74
     1
 75
     0
 76
     0
 77
     0
 78
     0
170
     0
171
     2
172
     0
173
     0
174
     1
175
     0
176
     0
177
     0
178
     0
  0
ENDTAB
  0
ENDSEC
  0
SECTION
  2
BLOCKS
  0
BLOCK
  8
0
  2
$MODEL_SPACE
 70
     0
 10
0.0
 20
0.0
 30
0.0
  3
$MODEL_SPACE
  1

  0
ENDBLK
  5
5B
  8
0
  0
BLOCK
 67
     1
  8
0
  2
$PAPER_SPACE
 70
     0
 10
0.0
 20
0.0
 30
0.0
  3
$PAPER_SPACE
  1

  0
ENDBLK
  5
59
 67
     1
  8
0
  0
BLOCK
  8
0
  2
*D0
 70
     1
 10
0.0
 20
0.0
 30
0.0
  3
*D0
  1

  0
LINE
  5
8D2
  8
DIM
 62
     0
 10
23.288872261747109
 20
13.91706041123196
 30
0.0
 11
22.668663960205819
 21
13.91706041123196
 31
0.0
  0
LINE
  5
8D3
  8
DIM
 62
     0
 10
23.288872261747109
 20
12.16706041123196
 30
0.0
 11
22.668663960205819
 21
12.16706041123196
 31
0.0
  0
LINE
  5
8D4
  8
DIM
 62
     0
 10
22.901163960205821
 20
14.367060411231961
 30
0.0
 11
22.901163960205821
 21
14.817060411231971
 31
0.0
  0
LINE
  5
8D5
  8
DIM
 62
     0
 10
22.901163960205821
 20
11.717060411231961
 30
0.0
 11
22.901163960205821
 21
11.267060411231959
 31
0.0
  0
SOLID
  5
8D6
  8
DIM
 62
     0
 10
22.826163960205822
 20
14.367060411231961
 30
0.0
 11
22.97616396020582
 21
14.367060411231961
 31
0.0
 12
22.901163960205821
 22
13.91706041123196
 32
0.0
 13
22.901163960205821
 23
13.91706041123196
 33
0.0
  0
SOLID
  5
8D7
  8
DIM
 62
     0
 10
22.826163960205822
 20
11.717060411231961
 30
0.0
 11
22.97616396020582
 21
11.717060411231961
 31
0.0
 12
22.901163960205821
 22
12.16706041123196
 32
0.0
 13
22.901163960205821
 23
12.16706041123196
 33
0.0
  0
TEXT
  5
8D8
  8
OBJECT
 62
     0
 10
22.823038960205821
 20
12.88581041123197
 30
0.0
 40
0.3125
  1
F
 41
0.75
  7
TXT
  0
POINT
  5
8D9
  8
DEFPOINTS
 62
     0
 10
23.446372261747111
 20
13.91706041123196
 30
0.0
  0
POINT
  5
8DA
  8
DEFPOINTS
 62
     0
 10
23.446372261747111
 20
12.16706041123196
 30
0.0
  0
POINT
  5
8DB
  8
DEFPOINTS
 62
     0
 10
22.901163960205821
 20
12.16706041123196
 30
0.0
  0
ENDBLK
  5
844
  8
0
  0
BLOCK
  8
0
  2
*D1
 70
     1
 10
0.0
 20
0.0
 30
0.0
  3
*D1
  1

  0
LINE
  5
1083
  8
DIM
 62
     0
 10
25.17012020049771
 20
19.48342608024091
 30
0.0
 11
25.17012020049771
 21
20.886732031752452
 31
0.0
  0
LINE
  5
1084
  8
DIM
 62
     0
 10
24.108120200497709
 20
19.48342608024091
 30
0.0
 11
24.108120200497709
 21
20.886732031752452
 31
0.0
  0
LINE
  5
1085
  8
DIM
 62
     0
 10
25.620120200497709
 20
20.65423203175245
 30
0.0
 11
26.070120200497708
 21
20.65423203175245
 31
0.0
  0
LINE
  5
1086
  8
DIM
 62
     0
 10
23.658120200497709
 20
20.65423203175245
 30
0.0
 11
23.20812020049771
 21
20.65423203175245
 31
0.0
  0
SOLID
  5
1087
  8
DIM
 62
     0
 10
25.620120200497709
 20
20.72923203175246
 30
0.0
 11
25.620120200497709
 21
20.579232031752461
 31
0.0
 12
25.17012020049771
 22
20.65423203175245
 32
0.0
 13
25.17012020049771
 23
20.65423203175245
 33
0.0
  0
SOLID
  5
1088
  8
DIM
 62
     0
 10
23.658120200497709
 20
20.72923203175246
 30
0.0
 11
23.658120200497709
 21
20.579232031752461
 31
0.0
 12
24.108120200497709
 22
20.65423203175245
 32
0.0
 13
24.108120200497709
 23
20.65423203175245
 33
0.0
  0
TEXT
  5
1089
  8
OBJECT
 62
     0
 10
22.162807700497709
 20
20.49798203175245
 30
0.0
 40
0.3125
  1
1.062
 41
0.75
  7
TXT
  0
POINT
  5
108A
  8
DEFPOINTS
 62
     0
 10
25.17012020049771
 20
19.325926080240912
 30
0.0
  0
POINT
  5
108B
  8
DEFPOINTS
 62
     0
 10
24.108120200497709
 20
19.325926080240912
 30
0.0
  0
POINT
  5
108C
  8
DEFPOINTS
 62
     0
 10
24.108120200497709
 20
20.65423203175245
 30
0.0
  0
ENDBLK
  5
851
  8
0
  0
BLOCK
  8
0
  2
*D2
 70
     1
 10
0.0
 20
0.0
 30
0.0
  3
*D2
  1

  0
LINE
  5
10A7
  8
DIM
 62
     0
 10
11.014120200497709
 20
11.82156041123196
 30
0.0
 11
11.014120200497709
 21
10.41800598487217
 31
0.0
  0
LINE
  5
10A8
  8
DIM
 62
     0
 10
28.639120200497711
 20
12.02556041123195
 30
0.0
 11
28.639120200497711
 21
10.41800598487217
 31
0.0
  0
LINE
  5
10A9
  8
DIM
 62
     0
 10
11.46412020049771
 20
10.65050598487217
 30
0.0
 11
19.52349520049771
 21
10.65050598487217
 31
0.0
  0
LINE
  5
10AA
  8
DIM
 62
     0
 10
28.189120200497712
 20
10.65050598487217
 30
0.0
 11
20.129745200497709
 21
10.65050598487217
 31
0.0
  0
SOLID
  5
10AB
  8
DIM
 62
     0
 10
11.46412020049771
 20
10.72550598487217
 30
0.0
 11
11.46412020049771
 21
10.575505984872169
 31
0.0
 12
11.014120200497709
 22
10.65050598487217
 32
0.0
 13
11.014120200497709
 23
10.65050598487217
 33
0.0
  0
SOLID
  5
10AC
  8
DIM
 62
     0
 10
28.189120200497712
 20
10.72550598487217
 30
0.0
 11
28.189120200497712
 21
10.575505984872169
 31
0.0
 12
28.639120200497711
 22
10.65050598487217
 32
0.0
 13
28.639120200497711
 23
10.65050598487217
 33
0.0
  0
TEXT
  5
10AD
  8
OBJECT
 62
     0
 10
19.748495200497711
 20
10.49425598487217
 30
0.0
 40
0.3125
  1
A
 41
0.75
  7
TXT
  0
POINT
  5
10AE
  8
DEFPOINTS
 62
     0
 10
11.014120200497709
 20
11.979060411231959
 30
0.0
  0
POINT
  5
10AF
  8
DEFPOINTS
 62
     0
 10
28.639120200497711
 20
12.183060411231949
 30
0.0
  0
POINT
  5
10B0
  8
DEFPOINTS
 62
     0
 10
28.639120200497711
 20
10.65050598487217
 30
0.0
  0
ENDBLK
  5
85E
  8
0
  0
BLOCK
  8
0
  2
*D3
 70
     1
 10
0.0
 20
0.0
 30
0.0
  3
*D3
  1

  0
LINE
  5
8F0
  8
DIM
 62
     0
 10
18.515120200497719
 20
18.106426080240929
 30
0.0
 11
18.515120200497719
 21
15.61617452965227
 31
0.0
  0
LINE
  5
8F1
  8
DIM
 62
     0
 10
27.701120200497719
 20
18.106426080240929
 30
0.0
 11
27.701120200497719
 21
15.61617452965227
 31
0.0
  0
LINE
  5
8F2
  8
DIM
 62
     0
 10
18.965120200497719
 20
15.84867452965227
 30
0.0
 11
22.804995200497711
 21
15.84867452965227
 31
0.0
  0
LINE
  5
8F3
  8
DIM
 62
     0
 10
27.25112020049772
 20
15.84867452965227
 30
0.0
 11
23.411245200497721
 21
15.84867452965227
 31
0.0
  0
SOLID
  5
8F4
  8
DIM
 62
     0
 10
18.965120200497719
 20
15.923674529652271
 30
0.0
 11
18.965120200497719
 21
15.77367452965227
 31
0.0
 12
18.515120200497719
 22
15.84867452965227
 32
0.0
 13
18.515120200497719
 23
15.84867452965227
 33
0.0
  0
SOLID
  5
8F5
  8
DIM
 62
     0
 10
27.25112020049772
 20
15.923674529652271
 30
0.0
 11
27.25112020049772
 21
15.77367452965227
 31
0.0
 12
27.701120200497719
 22
15.84867452965227
 32
0.0
 13
27.701120200497719
 23
15.84867452965227
 33
0.0
  0
TEXT
  5
8F6
  8
OBJECT
 62
     0
 10
23.029995200497709
 20
15.69242452965227
 30
0.0
 40
0.3125
  1
C
 41
0.75
  7
TXT
  0
POINT
  5
8F7
  8
DEFPOINTS
 62
     0
 10
18.515120200497719
 20
18.263926080240928
 30
0.0
  0
POINT
  5
8F8
  8
DEFPOINTS
 62
     0
 10
27.701120200497719
 20
18.263926080240928
 30
0.0
  0
POINT
  5
8F9
  8
DEFPOINTS
 62
     0
 10
27.701120200497719
 20
15.84867452965227
 30
0.0
  0
ENDBLK
  5
86B
  8
0
  0
BLOCK
  8
0
  2
*D4
 70
     1
 10
0.0
 20
0.0
 30
0.0
  3
*D4
  1

  0
LINE
  5
8FA
  8
DIM
 62
     0
 10
11.98959615372708
 20
19.79492608024092
 30
0.0
 11
12.26269030275793
 21
19.79492608024092
 31
0.0
  0
LINE
  5
8FB
  8
DIM
 62
     0
 10
11.98959615372708
 20
17.79492608024092
 30
0.0
 11
12.26269030275793
 21
17.79492608024092
 31
0.0
  0
LINE
  5
8FC
  8
DIM
 62
     0
 10
12.03019030275793
 20
20.244926080240919
 30
0.0
 11
12.03019030275793
 21
20.694926080240919
 31
0.0
  0
LINE
  5
8FD
  8
DIM
 62
     0
 10
12.03019030275793
 20
17.344926080240921
 30
0.0
 11
12.03019030275793
 21
16.894926080240921
 31
0.0
  0
SOLID
  5
8FE
  8
DIM
 62
     0
 10
11.955190302757931
 20
20.244926080240919
 30
0.0
 11
12.105190302757929
 21
20.244926080240919
 31
0.0
 12
12.03019030275793
 22
19.79492608024092
 32
0.0
 13
12.03019030275793
 23
19.79492608024092
 33
0.0
  0
SOLID
  5
8FF
  8
DIM
 62
     0
 10
11.955190302757931
 20
17.344926080240921
 30
0.0
 11
12.105190302757929
 21
17.344926080240921
 31
0.0
 12
12.03019030275793
 22
17.79492608024092
 32
0.0
 13
12.03019030275793
 23
17.79492608024092
 33
0.0
  0
TEXT
  5
900
  8
OBJECT
 62
     0
 10
11.95206530275793
 20
18.63867608024092
 30
0.0
 40
0.3125
  1
H
 41
0.75
  7
TXT
  0
POINT
  5
901
  8
DEFPOINTS
 62
     0
 10
11.83209615372707
 20
19.79492608024092
 30
0.0
  0
POINT
  5
902
  8
DEFPOINTS
 62
     0
 10
11.83209615372707
 20
17.79492608024092
 30
0.0
  0
POINT
  5
903
  8
DEFPOINTS
 62
     0
 10
12.03019030275793
 20
17.79492608024092
 30
0.0
  0
ENDBLK
  5
877
  8
0
  0
BLOCK
  8
0
  2
*D5
 70
     1
 10
0.0
 20
0.0
 30
0.0
  3
*D5
  1

  0
LINE
  5
904
  8
DIM
 62
     0
 10
18.515120200497719
 20
18.106426080240929
 30
0.0
 11
18.515120200497719
 21
16.447049150575651
 31
0.0
  0
LINE
  5
905
  8
DIM
 62
     0
 10
21.577120200497721
 20
18.106426080240929
 30
0.0
 11
21.577120200497721
 21
16.447049150575651
 31
0.0
  0
LINE
  5
906
  8
DIM
 62
     0
 10
18.965120200497719
 20
16.679549150575639
 30
0.0
 11
19.74299520049771
 21
16.679549150575639
 31
0.0
  0
LINE
  5
907
  8
DIM
 62
     0
 10
21.127120200497721
 20
16.679549150575639
 30
0.0
 11
20.349245200497709
 21
16.679549150575639
 31
0.0
  0
SOLID
  5
908
  8
DIM
 62
     0
 10
18.965120200497719
 20
16.754549150575649
 30
0.0
 11
18.965120200497719
 21
16.60454915057565
 31
0.0
 12
18.515120200497719
 22
16.679549150575639
 32
0.0
 13
18.515120200497719
 23
16.679549150575639
 33
0.0
  0
SOLID
  5
909
  8
DIM
 62
     0
 10
21.127120200497721
 20
16.754549150575649
 30
0.0
 11
21.127120200497721
 21
16.60454915057565
 31
0.0
 12
21.577120200497721
 22
16.679549150575639
 32
0.0
 13
21.577120200497721
 23
16.679549150575639
 33
0.0
  0
TEXT
  5
90A
  8
OBJECT
 62
     0
 10
19.967995200497711
 20
16.523299150575639
 30
0.0
 40
0.3125
  1
D
 41
0.75
  7
TXT
  0
POINT
  5
90B
  8
DEFPOINTS
 62
     0
 10
18.515120200497719
 20
18.263926080240928
 30
0.0
  0
POINT
  5
90C
  8
DEFPOINTS
 62
     0
 10
21.577120200497721
 20
18.263926080240928
 30
0.0
  0
POINT
  5
90D
  8
DEFPOINTS
 62
     0
 10
21.577120200497721
 20
16.679549150575639
 30
0.0
  0
ENDBLK
  5
884
  8
0
  0
BLOCK
  8
0
  2
*D6
 70
     1
 10
0.0
 20
0.0
 30
0.0
  3
*D6
  1

  0
LINE
  5
90E
  8
DIM
 62
     0
 10
25.82886325498604
 20
13.91706041123196
 30
0.0
 11
26.425283486343119
 21
13.91706041123196
 31
0.0
  0
LINE
  5
90F
  8
DIM
 62
     0
 10
25.327620200497709
 20
14.10506041123195
 30
0.0
 11
26.425283486343119
 21
14.10506041123195
 31
0.0
  0
LINE
  5
910
  8
DIM
 62
     0
 10
26.192783486343121
 20
13.467060411231969
 30
0.0
 11
26.192783486343121
 21
13.017060411231959
 31
0.0
  0
LINE
  5
911
  8
DIM
 62
     0
 10
26.192783486343121
 20
14.555060411231951
 30
0.0
 11
26.192783486343121
 21
15.00506041123195
 31
0.0
  0
LINE
  5
912
  8
DIM
 62
     0
 10
26.192783486343121
 20
15.00506041123195
 30
0.0
 11
26.64278348634312
 21
15.00506041123195
 31
0.0
  0
SOLID
  5
913
  8
DIM
 62
     0
 10
26.117783486343122
 20
13.467060411231969
 30
0.0
 11
26.26778348634312
 21
13.467060411231969
 31
0.0
 12
26.192783486343121
 22
13.91706041123196
 32
0.0
 13
26.192783486343121
 23
13.91706041123196
 33
0.0
  0
SOLID
  5
914
  8
DIM
 62
     0
 10
26.117783486343122
 20
14.555060411231951
 30
0.0
 11
26.26778348634312
 21
14.555060411231951
 31
0.0
 12
26.192783486343121
 22
14.10506041123195
 32
0.0
 13
26.192783486343121
 23
14.10506041123195
 33
0.0
  0
TEXT
  5
915
  8
OBJECT
 62
     0
 10
26.867783486343122
 20
14.848810411231961
 30
0.0
 40
0.3125
  1
0.188
 41
0.75
  7
TXT
  0
POINT
  5
916
  8
DEFPOINTS
 62
     0
 10
25.671363254986051
 20
13.91706041123196
 30
0.0
  0
POINT
  5
917
  8
DEFPOINTS
 62
     0
 10
25.17012020049771
 20
14.10506041123195
 30
0.0
  0
POINT
  5
918
  8
DEFPOINTS
 62
     0
 10
26.192783486343121
 20
14.10506041123195
 30
0.0
  0
ENDBLK
  5
891
  8
0
  0
BLOCK
  8
0
  2
*D7
 70
     1
 10
0.0
 20
0.0
 30
0.0
  3
*D7
  1

  0
LINE
  5
919
  8
DIM
 62
     0
 10
25.166943374214711
 20
12.16706041123196
 30
0.0
 11
24.733596052377379
 21
12.16706041123196
 31
0.0
  0
LINE
  5
91A
  8
DIM
 62
     0
 10
25.166943374214711
 20
12.04206041123196
 30
0.0
 11
24.733596052377379
 21
12.04206041123196
 31
0.0
  0
LINE
  5
91B
  8
DIM
 62
     0
 10
24.966096052377381
 20
12.617060411231961
 30
0.0
 11
24.966096052377381
 21
13.06706041123196
 31
0.0
  0
LINE
  5
91C
  8
DIM
 62
     0
 10
24.966096052377381
 20
11.592060411231961
 30
0.0
 11
24.966096052377381
 21
11.142060411231959
 31
0.0
  0
LINE
  5
91D
  8
DIM
 62
     0
 10
24.966096052377381
 20
11.142060411231959
 30
0.0
 11
24.516096052377382
 21
11.142060411231959
 31
0.0
  0
SOLID
  5
91E
  8
DIM
 62
     0
 10
24.891096052377382
 20
12.617060411231961
 30
0.0
 11
25.04109605237738
 21
12.617060411231961
 31
0.0
 12
24.966096052377381
 22
12.16706041123196
 32
0.0
 13
24.966096052377381
 23
12.16706041123196
 33
0.0
  0
SOLID
  5
91F
  8
DIM
 62
     0
 10
24.891096052377382
 20
11.592060411231961
 30
0.0
 11
25.04109605237738
 21
11.592060411231961
 31
0.0
 12
24.966096052377381
 22
12.04206041123196
 32
0.0
 13
24.966096052377381
 23
12.04206041123196
 33
0.0
  0
TEXT
  5
920
  8
OBJECT
 62
     0
 10
23.47078355237737
 20
10.985810411231959
 30
0.0
 40
0.3125
  1
0.125
 41
0.75
  7
TXT
  0
POINT
  5
921
  8
DEFPOINTS
 62
     0
 10
25.324443374214709
 20
12.16706041123196
 30
0.0
  0
POINT
  5
922
  8
DEFPOINTS
 62
     0
 10
25.324443374214709
 20
12.04206041123196
 30
0.0
  0
POINT
  5
923
  8
DEFPOINTS
 62
     0
 10
24.966096052377381
 20
12.04206041123196
 30
0.0
  0
ENDBLK
  5
89E
  8
0
  0
BLOCK
  8
0
  2
*D8
 70
     1
 10
0.0
 20
0.0
 30
0.0
  3
*D8
  1

  0
LINE
  5
924
  8
DIM
 62
     0
 10
27.701120200497719
 20
18.106426080240929
 30
0.0
 11
27.701120200497719
 21
15.61617452965227
 31
0.0
  0
LINE
  5
925
  8
DIM
 62
     0
 10
28.639120200497722
 20
17.591426080240911
 30
0.0
 11
28.639120200497722
 21
15.61617452965227
 31
0.0
  0
LINE
  5
926
  8
DIM
 62
     0
 10
27.25112020049772
 20
15.84867452965227
 30
0.0
 11
26.801120200497721
 21
15.84867452965227
 31
0.0
  0
LINE
  5
927
  8
DIM
 62
     0
 10
29.089120200497721
 20
15.84867452965227
 30
0.0
 11
29.53912020049772
 21
15.84867452965227
 31
0.0
  0
SOLID
  5
928
  8
DIM
 62
     0
 10
27.25112020049772
 20
15.923674529652271
 30
0.0
 11
27.25112020049772
 21
15.77367452965227
 31
0.0
 12
27.701120200497719
 22
15.84867452965227
 32
0.0
 13
27.701120200497719
 23
15.84867452965227
 33
0.0
  0
SOLID
  5
929
  8
DIM
 62
     0
 10
29.089120200497721
 20
15.923674529652271
 30
0.0
 11
29.089120200497721
 21
15.77367452965227
 31
0.0
 12
28.639120200497722
 22
15.84867452965227
 32
0.0
 13
28.639120200497722
 23
15.84867452965227
 33
0.0
  0
TEXT
  5
92A
  8
OBJECT
 62
     0
 10
28.09199520049772
 20
15.69242452965227
 30
0.0
 40
0.3125
  1
B
 41
0.75
  7
TXT
  0
POINT
  5
92B
  8
DEFPOINTS
 62
     0
 10
27.701120200497719
 20
18.263926080240928
 30
0.0
  0
POINT
  5
92C
  8
DEFPOINTS
 62
     0
 10
28.639120200497722
 20
17.74892608024091
 30
0.0
  0
POINT
  5
92D
  8
DEFPOINTS
 62
     0
 10
28.639120200497722
 20
15.84867452965227
 30
0.0
  0
ENDBLK
  5
8AB
  8
0
  0
BLOCK
  8
0
  2
*D9
 70
     1
 10
0.0
 20
0.0
 30
0.0
  3
*D9
  1

  0
LINE
  5
92E
  8
DIM
 62
     0
 10
25.327620200497719
 20
18.263926080240928
 30
0.0
 11
26.425283486343119
 21
18.263926080240928
 31
0.0
  0
LINE
  5
92F
  8
DIM
 62
     0
 10
25.327620200497709
 20
19.325926080240912
 30
0.0
 11
26.425283486343119
 21
19.325926080240912
 31
0.0
  0
LINE
  5
930
  8
DIM
 62
     0
 10
26.192783486343121
 20
17.813926080240929
 30
0.0
 11
26.192783486343121
 21
17.36392608024093
 31
0.0
  0
LINE
  5
931
  8
DIM
 62
     0
 10
26.192783486343121
 20
19.775926080240911
 30
0.0
 11
26.192783486343121
 21
20.22592608024091
 31
0.0
  0
SOLID
  5
932
  8
DIM
 62
     0
 10
26.117783486343122
 20
17.813926080240929
 30
0.0
 11
26.26778348634312
 21
17.813926080240929
 31
0.0
 12
26.192783486343121
 22
18.263926080240928
 32
0.0
 13
26.192783486343121
 23
18.263926080240928
 33
0.0
  0
SOLID
  5
933
  8
DIM
 62
     0
 10
26.117783486343122
 20
19.775926080240911
 30
0.0
 11
26.26778348634312
 21
19.775926080240911
 31
0.0
 12
26.192783486343121
 22
19.325926080240912
 32
0.0
 13
26.192783486343121
 23
19.325926080240912
 33
0.0
  0
TEXT
  5
934
  8
OBJECT
 62
     0
 10
25.782627236343121
 20
18.638676080240931
 30
0.0
 40
0.3125
  1
1.062
 41
0.75
  7
TXT
  0
POINT
  5
935
  8
DEFPOINTS
 62
     0
 10
25.17012020049772
 20
18.263926080240928
 30
0.0
  0
POINT
  5
936
  8
DEFPOINTS
 62
     0
 10
25.17012020049771
 20
19.325926080240912
 30
0.0
  0
POINT
  5
937
  8
DEFPOINTS
 62
     0
 10
26.192783486343121
 20
19.325926080240912
 30
0.0
  0
ENDBLK
  5
8B8
  8
0
  0
BLOCK
  8
0
  2
*D10
 70
     1
 10
0.0
 20
0.0
 30
0.0
  3
*D10
  1

  0
LINE
  5
938
  8
DIM
 62
     0
 10
10.918620200497701
 20
13.979060411231959
 30
0.0
 11
9.4091757931790152
 21
13.979060411231959
 31
0.0
  0
LINE
  5
939
  8
DIM
 62
     0
 10
10.85662020049771
 20
11.979060411231959
 30
0.0
 11
9.4091757931790152
 21
11.979060411231959
 31
0.0
  0
LINE
  5
93A
  8
DIM
 62
     0
 10
9.6416757931790151
 20
14.42906041123196
 30
0.0
 11
9.6416757931790151
 21
14.87906041123196
 31
0.0
  0
LINE
  5
93B
  8
DIM
 62
     0
 10
9.6416757931790151
 20
11.52906041123196
 30
0.0
 11
9.6416757931790151
 21
11.079060411231961
 31
0.0
  0
SOLID
  5
93C
  8
DIM
 62
     0
 10
9.5666757931790176
 20
14.42906041123196
 30
0.0
 11
9.7166757931790162
 21
14.42906041123196
 31
0.0
 12
9.6416757931790151
 22
13.979060411231959
 32
0.0
 13
9.6416757931790151
 23
13.979060411231959
 33
0.0
  0
SOLID
  5
93D
  8
DIM
 62
     0
 10
9.5666757931790158
 20
11.52906041123196
 30
0.0
 11
9.7166757931790144
 21
11.52906041123196
 31
0.0
 12
9.6416757931790151
 22
11.979060411231959
 32
0.0
 13
9.6416757931790151
 23
11.979060411231959
 33
0.0
  0
TEXT
  5
93E
  8
OBJECT
 62
     0
 10
9.5635507931790134
 20
12.822810411231959
 30
0.0
 40
0.3125
  1
E
 41
0.75
  7
TXT
  0
POINT
  5
93F
  8
DEFPOINTS
 62
     0
 10
11.0761202004977
 20
13.979060411231959
 30
0.0
  0
POINT
  5
940
  8
DEFPOINTS
 62
     0
 10
11.014120200497709
 20
11.979060411231959
 30
0.0
  0
POINT
  5
941
  8
DEFPOINTS
 62
     0
 10
9.6416757931790151
 20
11.979060411231959
 30
0.0
  0
ENDBLK
  5
8C4
  8
0
  0
BLOCK
  8
0
  2
*D11
 70
     1
 10
0.0
 20
0.0
 30
0.0
  3
*D11
  1

  0
LINE
  5
942
  8
DIM
 62
     0
 10
8.4278308439766132
 20
12.025560411231959
 30
0.0
 11
8.4278308439766132
 21
10.73563977003661
 31
0.0
  0
LINE
  5
943
  8
DIM
 62
     0
 10
6.3358308439766002
 20
12.025560411231959
 30
0.0
 11
6.3358308439766002
 21
10.73563977003661
 31
0.0
  0
LINE
  5
944
  8
DIM
 62
     0
 10
7.977830843976613
 20
10.968139770036609
 30
0.0
 11
7.6849558439766064
 21
10.968139770036609
 31
0.0
  0
LINE
  5
945
  8
DIM
 62
     0
 10
6.7858308439766004
 20
10.968139770036609
 30
0.0
 11
7.0787058439766071
 21
10.968139770036609
 31
0.0
  0
SOLID
  5
946
  8
DIM
 62
     0
 10
7.977830843976613
 20
11.043139770036611
 30
0.0
 11
7.977830843976613
 21
10.89313977003661
 31
0.0
 12
8.4278308439766132
 22
10.968139770036609
 32
0.0
 13
8.4278308439766132
 23
10.968139770036609
 33
0.0
  0
SOLID
  5
947
  8
DIM
 62
     0
 10
6.7858308439766004
 20
11.043139770036611
 30
0.0
 11
6.7858308439766004
 21
10.89313977003661
 31
0.0
 12
6.3358308439766002
 22
10.968139770036609
 32
0.0
 13
6.3358308439766002
 23
10.968139770036609
 33
0.0
  0
TEXT
  5
948
  8
OBJECT
 62
     0
 10
7.3037058439766058
 20
10.811889770036609
 30
0.0
 40
0.3125
  1
G
 41
0.75
  7
TXT
  0
POINT
  5
949
  8
DEFPOINTS
 62
     0
 10
8.4278308439766132
 20
12.18306041123196
 30
0.0
  0
POINT
  5
94A
  8
DEFPOINTS
 62
     0
 10
6.3358308439766002
 20
12.18306041123196
 30
0.0
  0
POINT
  5
94B
  8
DEFPOINTS
 62
     0
 10
6.3358308439766002
 20
10.968139770036609
 30
0.0
  0
ENDBLK
  5
8D1
  8
0
  0
BLOCK
  8
0
  2
*D12
 70
     1
 10
0.0
 20
0.0
 30
0.0
  3
*D12
  1

  0
LINE
  5
108E
  8
DIM
 62
     0
 10
34.443282262582301
 20
8.2077644939147678
 30
0.0
 11
33.438224647539869
 21
8.2077644939147678
 31
0.0
  0
LINE
  5
108F
  8
DIM
 62
     0
 10
34.443282262582301
 20
9.8077644939147692
 30
0.0
 11
33.438224647539869
 21
9.8077644939147692
 31
0.0
  0
LINE
  5
1090
  8
DIM
 62
     0
 10
33.670724647539878
 20
7.7577644939147667
 30
0.0
 11
33.670724647539878
 21
7.3077644939147666
 31
0.0
  0
LINE
  5
1091
  8
DIM
 62
     0
 10
33.670724647539878
 20
10.25776449391476
 30
0.0
 11
33.670724647539878
 21
10.70776449391477
 31
0.0
  0
SOLID
  5
1092
  8
DIM
 62
     0
 10
33.595724647539868
 20
7.7577644939147667
 30
0.0
 11
33.74572464753988
 21
7.7577644939147667
 31
0.0
 12
33.670724647539878
 22
8.2077644939147678
 32
0.0
 13
33.670724647539878
 23
8.2077644939147678
 33
0.0
  0
SOLID
  5
1093
  8
DIM
 62
     0
 10
33.595724647539868
 20
10.25776449391476
 30
0.0
 11
33.74572464753988
 21
10.25776449391476
 31
0.0
 12
33.670724647539878
 22
9.8077644939147692
 32
0.0
 13
33.670724647539878
 23
9.8077644939147692
 33
0.0
  0
TEXT
  5
1094
  8
OBJECT
 62
     0
 10
33.280099647539878
 20
8.8515144939147739
 30
0.0
 40
0.3125
  1
1.600
 41
0.75
  7
TXT
  0
POINT
  5
1095
  8
DEFPOINTS
 62
     0
 10
34.600782262582307
 20
8.2077644939147678
 30
0.0
  0
POINT
  5
1096
  8
DEFPOINTS
 62
     0
 10
34.600782262582307
 20
9.8077644939147692
 30
0.0
  0
POINT
  5
1097
  8
DEFPOINTS
 62
     0
 10
33.670724647539878
 20
9.8077644939147692
 30
0.0
  0
ENDBLK
  5
1099
  8
0
  0
BLOCK
  8
0
  2
*D13
 70
     1
 10
0.0
 20
0.0
 30
0.0
  3
*D13
  1

  0
LINE
  5
109B
  8
DIM
 62
     0
 10
34.600782262582307
 20
7.0000196401455357
 30
0.0
 11
34.600782262582307
 21
6.1544626370678737
 31
0.0
  0
LINE
  5
109C
  8
DIM
 62
     0
 10
35.9757822625823
 20
7.0000196401455357
 30
0.0
 11
35.9757822625823
 21
6.1544626370678737
 31
0.0
  0
LINE
  5
109D
  8
DIM
 62
     0
 10
34.150782262582297
 20
6.3869626370678736
 30
0.0
 11
33.700782262582308
 21
6.3869626370678736
 31
0.0
  0
LINE
  5
109E
  8
DIM
 62
     0
 10
36.42578226258231
 20
6.3869626370678736
 30
0.0
 11
36.875782262582298
 21
6.3869626370678736
 31
0.0
  0
SOLID
  5
109F
  8
DIM
 62
     0
 10
34.150782262582297
 20
6.4619626370678738
 30
0.0
 11
34.150782262582297
 21
6.3119626370678743
 31
0.0
 12
34.600782262582307
 22
6.3869626370678736
 32
0.0
 13
34.600782262582307
 23
6.3869626370678736
 33
0.0
  0
SOLID
  5
10A0
  8
DIM
 62
     0
 10
36.42578226258231
 20
6.4619626370678738
 30
0.0
 11
36.42578226258231
 21
6.3119626370678743
 31
0.0
 12
35.9757822625823
 22
6.3869626370678736
 32
0.0
 13
35.9757822625823
 23
6.3869626370678736
 33
0.0
  0
TEXT
  5
10A1
  8
OBJECT
 62
     0
 10
34.8585947625823
 20
6.2307126370678736
 30
0.0
 40
0.3125
  1
1.375
 41
0.75
  7
TXT
  0
POINT
  5
10A2
  8
DEFPOINTS
 62
     0
 10
34.600782262582307
 20
7.1575196401455363
 30
0.0
  0
POINT
  5
10A3
  8
DEFPOINTS
 62
     0
 10
35.9757822625823
 20
7.1575196401455363
 30
0.0
  0
POINT
  5
10A4
  8
DEFPOINTS
 62
     0
 10
35.9757822625823
 20
6.3869626370678736
 30
0.0
  0
ENDBLK
  5
10A6
  8
0
  0
ENDSEC
  0
SECTION
  2
ENTITIES
  0
TEXT
  5
4F0
  8
TEXT
 10
0.6628125000000074
 20
24.2001979891002
 30
0.0
 40
0.3125
  1
NAME
 41
0.75
  7
TXT
 72
     1
 11
1.0925000000000069
 21
24.2001979891002
 31
0.0
  0
TEXT
  5
4F1
  8
TEXT
 10
0.6628125000000074
 20
24.721031322433539
 30
0.0
 40
0.3125
  1
PART
 41
0.75
  7
TXT
 72
     1
 11
1.0925000000000069
 21
24.721031322433539
 31
0.0
  0
TEXT
  5
4F2
  8
TEXT
 10
20.23312499999999
 20
24.2001979891002
 30
0.0
 40
0.3125
  1
No.
 41
0.75
  7
TXT
 72
     1
 11
20.46749999999999
 21
24.2001979891002
 31
0.0
  0
TEXT
  5
4F3
  8
TEXT
 10
20.03781249999999
 20
24.721031322433539
 30
0.0
 40
0.3125
  1
PART
 41
0.75
  7
TXT
 72
     1
 11
20.46749999999999
 21
24.721031322433539
 31
0.0
  0
LINE
  5
4F4
  8
TITLE
 10
21.405000000000001
 20
25.145
 30
0.0
 11
21.405000000000001
 21
24.100000000000001
 31
0.0
  0
LINE
  5
4F5
  8
TITLE
 10
19.530000000000001
 20
25.145
 30
0.0
 11
19.530000000000001
 21
24.100000000000001
 31
0.0
  0
LINE
  5
4F6
  8
TITLE
 10
19.375
 20
25.145
 30
0.0
 11
19.375
 21
24.100000000000001
 31
0.0
  0
LINE
  5
4F7
  8
TITLE
 10
2.0300000000000069
 20
24.100000000000001
 30
0.0
 11
2.030000000000002
 21
25.145
 31
0.0
  0
LINE
  5
4F8
  8
TITLE
 10
0.1550000000000029
 20
24.100000000000001
 30
0.0
 11
38.594999999999999
 21
24.100000000000001
 31
0.0
  0
LINE
  5
4F9
  8
TITLE
 10
38.594999999999999
 20
25.145
 30
0.0
 11
38.594999999999999
 21
0.154999999999994
 31
0.0
  0
LINE
  5
4FA
  8
TITLE
 10
0.1550000000000029
 20
25.145
 30
0.0
 11
38.594999999999999
 21
25.145
 31
0.0
  0
LINE
  5
4FB
  8
TITLE
 10
0.1550000000000029
 20
0.1550000000000029
 30
0.0
 11
0.1550000000000029
 21
25.145
 31
0.0
  0
LINE
  5
4FC
  8
TITLE
 10
38.594999999999999
 20
0.154999999999994
 30
0.0
 11
0.1550000000000029
 21
0.1550000000000029
 31
0.0
  0
LINE
  5
4FD
  8
TITLE
 10
38.75
 20
0.0
 30
0.0
 11
0.0
 21
0.0
 31
0.0
  0
LINE
  5
4FE
  8
TITLE
 10
38.75
 20
25.29999999999999
 30
0.0
 11
38.75
 21
0.0
 31
0.0
  0
LINE
  5
4FF
  8
TITLE
 10
0.0000000000000089
 20
25.29999999999999
 30
0.0
 11
38.75
 21
25.29999999999999
 31
0.0
  0
LINE
  5
500
  8
TITLE
 10
0.0
 20
0.0
 30
0.0
 11
0.0000000000000089
 21
25.29999999999999
 31
0.0
  0
ARC
  5
501
  8
OBJECT
 10
8.2398308439765966
 20
13.79106041123196
 30
0.0
 40
0.188
 50
0.0
 51
89.999999999999915
  0
ARC
  5
502
  8
OBJECT
 10
6.5238308439766159
 20
13.79106041123196
 30
0.0
 40
0.188
 50
90.0
 51
180.0
  0
LINE
  5
503
  8
OBJECT
 10
7.3038308439766029
 20
14.183060411231949
 30
0.0
 11
7.3038308439766029
 21
13.99506041123197
 31
0.0
  0
LINE
  5
504
  8
OBJECT
 10
6.9598308439765946
 20
14.183060411231949
 30
0.0
 11
6.9598308439765946
 21
13.99506041123197
 31
0.0
  0
LINE
  5
505
  8
OBJECT
 10
6.1478308439766121
 20
12.417060411231949
 30
0.0
 11
6.3358308439766002
 21
12.417060411231949
 31
0.0
  0
LINE
  5
506
  8
OBJECT
 10
6.1478308439766121
 20
13.16706041123197
 30
0.0
 11
6.3358308439766002
 21
13.16706041123197
 31
0.0
  0
LINE
  5
507
  8
OBJECT
 10
8.4278308439766132
 20
13.79106041123196
 30
0.0
 11
8.4278308439766132
 21
12.18306041123196
 31
0.0
  0
LINE
  5
508
  8
OBJECT
 10
6.3358308439766002
 20
13.79106041123196
 30
0.0
 11
6.3358308439766002
 21
12.18306041123196
 31
0.0
  0
POLYLINE
  5
509
  8
OBJECT
 66
     1
 10
0.0
 20
0.0
 30
0.0
  0
VERTEX
  5
10C1
  8
OBJECT
 10
7.4288308439766029
 20
12.63506041123196
 30
0.0
  0
VERTEX
  5
10C2
  8
OBJECT
 10
8.1468308439766073
 20
12.63506041123196
 30
0.0
  0
VERTEX
  5
10C3
  8
OBJECT
 10
8.1468308439766073
 20
13.35306041123196
 30
0.0
  0
VERTEX
  5
10C4
  8
OBJECT
 10
7.4288308439766029
 20
13.35306041123196
 30
0.0
  0
VERTEX
  5
10C5
  8
OBJECT
 10
7.4288308439766029
 20
12.63506041123196
 30
0.0
  0
SEQEND
  5
10C6
  8
OBJECT
  0
POLYLINE
  5
510
  8
OBJECT
 66
     1
 10
0.0
 20
0.0
 30
0.0
  0
VERTEX
  5
10C7
  8
OBJECT
 10
7.6628308439766117
 20
12.76006041123196
 30
0.0
  0
VERTEX
  5
10C8
  8
OBJECT
 10
7.9128308439766117
 20
12.76006041123196
 30
0.0
  0
VERTEX
  5
10C9
  8
OBJECT
 10
7.9128308439766117
 20
13.22806041123196
 30
0.0
  0
VERTEX
  5
10CA
  8
OBJECT
 10
7.6628308439766117
 20
13.22806041123196
 30
0.0
  0
VERTEX
  5
10CB
  8
OBJECT
 10
7.6628308439766117
 20
12.76006041123196
 30
0.0
  0
SEQEND
  5
10CC
  8
OBJECT
  0
LINE
  5
517
  8
OBJECT
 10
7.958830843976604
 20
12.79106041123195
 30
0.0
 11
7.958830843976604
 21
13.10306041123196
 31
0.0
  0
LINE
  5
518
  8
OBJECT
 10
7.6168308439766061
 20
12.79106041123195
 30
0.0
 11
7.6168308439766061
 21
13.10306041123196
 31
0.0
  0
TEXT
  5
519
  8
OBJECT
 10
8.0693308439766103
 20
12.93306041123196
 30
0.0
 40
0.062
  1
A
 41
0.75
 72
     1
 11
8.0848308439766097
 21
12.93306041123196
 31
0.0
  0
LINE
  5
51A
  8
OBJECT
 10
6.7568308439766058
 20
11.979060411231959
 30
0.0
 11
8.0068308439766067
 21
11.979060411231959
 31
0.0
  0
LINE
  5
51B
  8
OBJECT
 10
7.9128308439766117
 20
12.88506041123196
 30
0.0
 11
7.6628308439766117
 21
12.88506041123196
 31
0.0
  0
ARC
  5
51C
  8
OBJECT
 10
8.0068308439766067
 20
12.04106041123196
 30
0.0
 40
0.062
 50
270.0
 51
0.0
  0
ARC
  5
51D
  8
OBJECT
 10
8.3658308439766014
 20
12.18306041123196
 30
0.0
 40
0.062
 50
270.0
 51
0.0
  0
LINE
  5
51E
  8
OBJECT
 10
8.2878308439766268
 20
12.281273614667549
 30
0.0
 11
8.3146408161265608
 21
12.30808358681748
 31
0.0
  0
LINE
  5
51F
  8
OBJECT
 10
8.30904404741222
 20
12.26006041123196
 30
0.0
 11
8.3358540195621522
 21
12.28687038338189
 31
0.0
  0
LINE
  5
520
  8
OBJECT
 10
8.30904404741222
 20
12.26006041123196
 30
0.0
 11
8.3358540195621522
 21
12.23325043908201
 31
0.0
  0
LINE
  5
521
  8
OBJECT
 10
8.2878308439766126
 20
12.238847207796359
 30
0.0
 11
8.3146408161265608
 21
12.21203723564642
 31
0.0
  0
ARC
  5
522
  8
OBJECT
 10
8.2878308439766126
 20
12.26006041123196
 30
0.0
 40
0.055
 50
119.1733798681274
 51
150.82662013187249
  0
ARC
  5
523
  8
OBJECT
 10
8.2878308439766126
 20
12.26006041123196
 30
0.0
 40
0.055
 50
29.173379868127981
 51
60.826620131872019
  0
ARC
  5
524
  8
OBJECT
 10
8.2878308439766126
 20
12.26006041123196
 30
0.0
 40
0.055
 50
299.17337986812743
 51
330.82662013187252
  0
LINE
  5
525
  8
OBJECT
 10
8.2398076683910855
 20
12.23325043908201
 30
0.0
 11
8.2666176405410194
 21
12.26006041123196
 31
0.0
  0
LINE
  5
526
  8
OBJECT
 10
8.2610208718266787
 20
12.21203723564642
 30
0.0
 11
8.2878308439766126
 21
12.238847207796359
 31
0.0
  0
LINE
  5
527
  8
OBJECT
 10
8.2610208718266787
 20
12.30808358681748
 30
0.0
 11
8.2878308439766126
 21
12.281273614667549
 31
0.0
  0
LINE
  5
528
  8
OBJECT
 10
8.2398076683910855
 20
12.28687038338189
 30
0.0
 11
8.2666176405410194
 21
12.26006041123196
 31
0.0
  0
ARC
  5
529
  8
OBJECT
 10
8.2878308439766126
 20
12.26006041123196
 30
0.0
 40
0.055
 50
209.17337986812791
 51
240.82662013187201
  0
CIRCLE
  5
52A
  8
OBJECT
 10
8.2878308439766126
 20
12.26006041123196
 30
0.0
 40
0.102
  0
LINE
  5
52B
  8
OBJECT
 10
8.0688308439766043
 20
12.12106041123195
 30
0.0
 11
8.3658308439766014
 21
12.12106041123195
 31
0.0
  0
LINE
  5
52C
  8
OBJECT
 10
8.0688308439766043
 20
12.12106041123195
 30
0.0
 11
8.0688308439766043
 21
12.04106041123196
 31
0.0
  0
LINE
  5
52D
  8
OBJECT
 10
7.9128308439766117
 20
12.79106041123195
 30
0.0
 11
7.958830843976604
 21
12.79106041123195
 31
0.0
  0
LINE
  5
52E
  8
OBJECT
 10
7.9128308439766117
 20
12.88506041123196
 30
0.0
 11
7.958830843976604
 21
12.88506041123196
 31
0.0
  0
TEXT
  5
52F
  8
OBJECT
 10
8.0693308439766103
 20
12.846727384004041
 30
0.0
 40
0.062
  1
M
 41
0.75
 72
     1
 11
8.0848308439766097
 21
12.846727384004041
 31
0.0
  0
TEXT
  5
530
  8
OBJECT
 10
8.0693308439766103
 20
12.760394356776111
 30
0.0
 40
0.062
  1
P
 41
0.75
 72
     1
 11
8.0848308439766097
 21
12.760394356776111
 31
0.0
  0
ARC
  5
531
  8
OBJECT
 10
6.7568308439766058
 20
12.04106041123196
 30
0.0
 40
0.062
 50
180.0
 51
270.0
  0
ARC
  5
532
  8
OBJECT
 10
6.3978308439766121
 20
12.18306041123196
 30
0.0
 40
0.062
 50
180.0
 51
270.0
  0
CIRCLE
  5
533
  8
OBJECT
 10
6.475830843976615
 20
12.26006041123196
 30
0.0
 40
0.102
  0
ARC
  5
534
  8
OBJECT
 10
6.475830843976615
 20
12.26006041123196
 30
0.0
 40
0.055
 50
299.17337986812799
 51
330.82662013187201
  0
LINE
  5
535
  8
OBJECT
 10
6.5238540195621422
 20
12.28687038338189
 30
0.0
 11
6.4970440474122082
 21
12.26006041123196
 31
0.0
  0
LINE
  5
536
  8
OBJECT
 10
6.5026408161265339
 20
12.30808358681748
 30
0.0
 11
6.475830843976615
 21
12.281273614667549
 31
0.0
  0
LINE
  5
537
  8
OBJECT
 10
6.5026408161265339
 20
12.21203723564642
 30
0.0
 11
6.475830843976615
 21
12.238847207796359
 31
0.0
  0
LINE
  5
538
  8
OBJECT
 10
6.5238540195621422
 20
12.23325043908201
 30
0.0
 11
6.4970440474122082
 21
12.26006041123196
 31
0.0
  0
ARC
  5
539
  8
OBJECT
 10
6.475830843976615
 20
12.26006041123196
 30
0.0
 40
0.055
 50
209.1733798681274
 51
240.82662013187249
  0
ARC
  5
53A
  8
OBJECT
 10
6.475830843976615
 20
12.26006041123196
 30
0.0
 40
0.055
 50
119.1733798681279
 51
150.82662013187189
  0
ARC
  5
53B
  8
OBJECT
 10
6.475830843976615
 20
12.26006041123196
 30
0.0
 40
0.055
 50
29.17337986812743
 51
60.826620131872581
  0
LINE
  5
53C
  8
OBJECT
 10
6.475830843976615
 20
12.238847207796359
 30
0.0
 11
6.4490208718266659
 21
12.21203723564642
 31
0.0
  0
LINE
  5
53D
  8
OBJECT
 10
6.4546176405410067
 20
12.26006041123196
 30
0.0
 11
6.4278076683910728
 21
12.23325043908201
 31
0.0
  0
LINE
  5
53E
  8
OBJECT
 10
6.4546176405410067
 20
12.26006041123196
 30
0.0
 11
6.4278076683910728
 21
12.28687038338189
 31
0.0
  0
LINE
  5
53F
  8
OBJECT
 10
6.4758308439765999
 20
12.281273614667549
 30
0.0
 11
6.4490208718266659
 21
12.30808358681748
 31
0.0
  0
LINE
  5
540
  8
OBJECT
 10
6.6948308439766091
 20
12.12106041123195
 30
0.0
 11
6.6948308439766091
 21
12.04106041123196
 31
0.0
  0
LINE
  5
541
  8
OBJECT
 10
6.3978308439766121
 20
12.12106041123195
 30
0.0
 11
6.6948308439766091
 21
12.12106041123195
 31
0.0
  0
LINE
  5
542
  8
OBJECT
 10
7.6628308439766117
 20
12.79106041123195
 30
0.0
 11
7.6168308439766061
 21
12.79106041123195
 31
0.0
  0
LINE
  5
543
  8
OBJECT
 10
7.6628308439766117
 20
12.88506041123196
 30
0.0
 11
7.6168308439766061
 21
12.88506041123196
 31
0.0
  0
LINE
  5
544
  8
OBJECT
 10
6.5238308439766159
 20
13.979060411231959
 30
0.0
 11
8.2398308439765966
 21
13.979060411231959
 31
0.0
  0
LINE
  5
545
  8
OBJECT
 10
7.9128308439766117
 20
13.10306041123196
 30
0.0
 11
7.958830843976604
 21
13.10306041123196
 31
0.0
  0
TEXT
  5
546
  8
OBJECT
 10
8.0538308439766091
 20
13.04106041123195
 30
0.0
 40
0.062
  1
15
 41
0.75
 72
     1
 11
8.0848308439766097
 21
13.04106041123195
 31
0.0
  0
CIRCLE
  5
547
  8
OBJECT
 10
8.2258308439766008
 20
13.635060411231949
 30
0.0
 40
0.102
  0
ARC
  5
548
  8
OBJECT
 10
8.2258308439766008
 20
13.635060411231949
 30
0.0
 40
0.055
 50
209.17337986812791
 51
240.82662013187201
  0
LINE
  5
549
  8
OBJECT
 10
8.1778076683910736
 20
13.66187038338189
 30
0.0
 11
8.2046176405410076
 21
13.635060411231949
 31
0.0
  0
LINE
  5
54A
  8
OBJECT
 10
8.1990208718266668
 20
13.68308358681748
 30
0.0
 11
8.2258308439766008
 21
13.656273614667549
 31
0.0
  0
LINE
  5
54B
  8
OBJECT
 10
8.1990208718266668
 20
13.58703723564641
 30
0.0
 11
8.2258308439766008
 21
13.613847207796359
 31
0.0
  0
LINE
  5
54C
  8
OBJECT
 10
8.1778076683910736
 20
13.60825043908201
 30
0.0
 11
8.2046176405410076
 21
13.635060411231949
 31
0.0
  0
ARC
  5
54D
  8
OBJECT
 10
8.2258308439766008
 20
13.635060411231949
 30
0.0
 40
0.055
 50
299.17337986812743
 51
330.82662013187252
  0
ARC
  5
54E
  8
OBJECT
 10
8.2258308439766008
 20
13.635060411231949
 30
0.0
 40
0.055
 50
29.173379868127981
 51
60.826620131872019
  0
ARC
  5
54F
  8
OBJECT
 10
8.2258308439766008
 20
13.635060411231949
 30
0.0
 40
0.055
 50
119.1733798681274
 51
150.82662013187249
  0
LINE
  5
550
  8
OBJECT
 10
8.2258308439766008
 20
13.613847207796359
 30
0.0
 11
8.2526408161265472
 21
13.58703723564641
 31
0.0
  0
LINE
  5
551
  8
OBJECT
 10
8.2470440474122082
 20
13.635060411231949
 30
0.0
 11
8.2738540195621422
 21
13.60825043908201
 31
0.0
  0
LINE
  5
552
  8
OBJECT
 10
8.2470440474122082
 20
13.635060411231949
 30
0.0
 11
8.2738540195621422
 21
13.66187038338189
 31
0.0
  0
LINE
  5
553
  8
OBJECT
 10
8.225830843976615
 20
13.656273614667549
 30
0.0
 11
8.2526408161265472
 21
13.68308358681748
 31
0.0
  0
LINE
  5
554
  8
OBJECT
 10
7.6628308439766117
 20
13.10306041123196
 30
0.0
 11
7.6168308439766061
 21
13.10306041123196
 31
0.0
  0
LINE
  5
555
  8
OBJECT
 10
7.3818308439766058
 20
13.99506041123197
 30
0.0
 11
7.3946513567971168
 21
13.979060411231959
 31
0.0
  0
LINE
  5
556
  8
OBJECT
 10
6.8818308439766058
 20
13.99506041123197
 30
0.0
 11
6.8690103311560948
 21
13.979060411231959
 31
0.0
  0
LINE
  5
557
  8
OBJECT
 10
7.38183084397662
 20
13.99506041123197
 30
0.0
 11
6.8818308439766058
 21
13.99506041123197
 31
0.0
  0
LINE
  5
558
  8
OBJECT
 10
6.5378308439765984
 20
13.656273614667549
 30
0.0
 11
6.5110208718266502
 21
13.68308358681748
 31
0.0
  0
LINE
  5
559
  8
OBJECT
 10
6.5166176405410052
 20
13.635060411231949
 30
0.0
 11
6.489807668391057
 21
13.66187038338189
 31
0.0
  0
LINE
  5
55A
  8
OBJECT
 10
6.5166176405410052
 20
13.635060411231949
 30
0.0
 11
6.489807668391057
 21
13.60825043908201
 31
0.0
  0
LINE
  5
55B
  8
OBJECT
 10
6.5378308439765984
 20
13.613847207796359
 30
0.0
 11
6.5110208718266502
 21
13.58703723564641
 31
0.0
  0
ARC
  5
55C
  8
OBJECT
 10
6.5378308439765984
 20
13.635060411231949
 30
0.0
 40
0.055
 50
29.17337986812743
 51
60.826620131872581
  0
ARC
  5
55D
  8
OBJECT
 10
6.5378308439765984
 20
13.635060411231949
 30
0.0
 40
0.055
 50
119.1733798681279
 51
150.82662013187189
  0
ARC
  5
55E
  8
OBJECT
 10
6.5378308439765984
 20
13.635060411231949
 30
0.0
 40
0.055
 50
209.1733798681274
 51
240.82662013187249
  0
LINE
  5
55F
  8
OBJECT
 10
6.5858540195621389
 20
13.60825043908201
 30
0.0
 11
6.5590440474121907
 21
13.635060411231949
 31
0.0
  0
LINE
  5
560
  8
OBJECT
 10
6.5646408161265457
 20
13.58703723564641
 30
0.0
 11
6.5378308439765984
 21
13.613847207796359
 31
0.0
  0
LINE
  5
561
  8
OBJECT
 10
6.5646408161265457
 20
13.68308358681748
 30
0.0
 11
6.5378308439765984
 21
13.656273614667549
 31
0.0
  0
LINE
  5
562
  8
OBJECT
 10
6.5858540195621389
 20
13.66187038338189
 30
0.0
 11
6.5590440474121907
 21
13.635060411231949
 31
0.0
  0
ARC
  5
563
  8
OBJECT
 10
6.5378308439765984
 20
13.635060411231949
 30
0.0
 40
0.055
 50
299.17337986812799
 51
330.82662013187201
  0
CIRCLE
  5
564
  8
OBJECT
 10
6.5378308439765984
 20
13.635060411231949
 30
0.0
 40
0.102
  0
LINE
  5
565
  8
OBJECT
 10
6.1478308439766121
 20
12.417060411231949
 30
0.0
 11
6.1478308439766121
 21
13.16706041123197
 31
0.0
  0
ARC
  5
566
  8
OBJECT
 10
5.4618320278795141
 20
12.88506041123196
 30
0.0
 40
0.0935013297872338
 50
89.694423233593596
 51
270.30557676640632
  0
ARC
  5
567
  8
OBJECT
 10
5.4608346874540148
 20
12.69806041123196
 30
0.0
 40
0.0935013297872338
 50
269.69442323359362
 51
90.305576766406404
  0
LINE
  5
568
  8
OBJECT
 10
5.4603360172412509
 20
12.60456041123196
 30
0.0
 11
5.4613333576667653
 21
12.79156041123197
 31
0.0
  0
LINE
  5
569
  8
OBJECT
 10
5.4623306980922637
 20
12.60456041123196
 30
0.0
 11
6.1478308439766121
 21
12.60456041123197
 31
0.0
  0
LINE
  5
56A
  8
OBJECT
 10
5.4603360172412367
 20
12.97956041123196
 30
0.0
 11
6.1478308439766121
 21
12.97956041123197
 31
0.0
  0
LINE
  5
56B
  8
OBJECT
 10
7.3038308439766029
 20
14.183060411231949
 30
0.0
 11
6.9598308439765946
 21
14.183060411231949
 31
0.0
  0
LINE
  5
56C
  8
OBJECT
 10
11.264120200497709
 20
19.79492608024092
 30
0.0
 11
28.389120200497722
 21
19.79492608024092
 31
0.0
  0
LINE
  5
56D
  8
OBJECT
 10
28.389120200497722
 20
17.79492608024092
 30
0.0
 11
11.264120200497709
 21
17.79492608024092
 31
0.0
  0
LINE
  5
56E
  8
OBJECT
 10
18.85884712794201
 20
21.76345155321572
 30
0.0
 11
17.60884712794201
 21
21.76345155321572
 31
0.0
  0
LINE
  5
56F
  8
OBJECT
 10
18.85884712794201
 20
21.357451553215721
 30
0.0
 11
17.60884712794201
 21
21.357451553215721
 31
0.0
  0
LINE
  5
570
  8
OBJECT
 10
18.046847127942002
 20
22.029451553215711
 30
0.0
 11
17.60884712794201
 21
21.76345155321572
 31
0.0
  0
LINE
  5
571
  8
OBJECT
 10
17.327847127942
 20
21.872951553215721
 30
0.0
 11
17.789151639220211
 21
21.872951553215721
 31
0.0
  0
LINE
  5
572
  8
OBJECT
 10
17.327847127942
 20
21.247951553215721
 30
0.0
 11
17.789151639220211
 21
21.247951553215721
 31
0.0
  0
LINE
  5
573
  8
OBJECT
 10
18.046847127942002
 20
21.09145155321573
 30
0.0
 11
17.60884712794201
 21
21.357451553215721
 31
0.0
  0
LINE
  5
574
  8
OBJECT
 10
12.7946202004977
 20
20.106926080240921
 30
0.0
 11
13.6696202004977
 21
20.106926080240921
 31
0.0
  0
ARC
  5
575
  8
OBJECT
 10
13.669620200497709
 20
21.122951553215721
 30
0.0
 40
0.25
 50
90.0
 51
180.0
  0
ARC
  5
576
  8
OBJECT
 10
13.669620200497709
 20
21.122951553215721
 30
0.0
 40
0.625
 50
90.0
 51
180.0
  0
LINE
  5
577
  8
OBJECT
 10
11.014120200497709
 20
17.74892608024091
 30
0.0
 11
11.014120200497709
 21
19.840926080240919
 31
0.0
  0
LINE
  5
578
  8
OBJECT
 10
11.264120200497709
 20
17.74892608024091
 30
0.0
 11
11.264120200497709
 21
19.840926080240919
 31
0.0
  0
LINE
  5
579
  8
OBJECT
 10
10.82712020049771
 20
18.217926080240911
 30
0.0
 11
10.82712020049771
 21
18.55992608024092
 31
0.0
  0
LINE
  5
57A
  8
OBJECT
 10
10.93612020049771
 20
18.029926080240919
 30
0.0
 11
10.93612020049771
 21
18.747926080240909
 31
0.0
  0
LINE
  5
57B
  8
OBJECT
 10
10.93612020049771
 20
18.26392608024091
 30
0.0
 11
10.82712020049771
 21
18.2639260802409
 31
0.0
  0
LINE
  5
57C
  8
OBJECT
 10
10.93612020049771
 20
18.217926080240911
 30
0.0
 11
10.82712020049771
 21
18.217926080240911
 31
0.0
  0
LINE
  5
57D
  8
OBJECT
 10
10.9821202004977
 20
18.052426080240899
 30
0.0
 11
11.014120200497709
 21
18.052426080240899
 31
0.0
  0
LINE
  5
57E
  8
OBJECT
 10
11.014120200497709
 20
17.74892608024091
 30
0.0
 11
11.264120200497709
 21
17.74892608024091
 31
0.0
  0
LINE
  5
57F
  8
OBJECT
 10
10.9821202004977
 20
17.849426080240921
 30
0.0
 11
11.014120200497709
 21
17.849426080240921
 31
0.0
  0
ARC
  5
580
  8
OBJECT
 10
11.07110117875858
 20
17.950926080240912
 30
0.0
 40
0.1349809782608721
 50
131.23974529801319
 51
228.76025470198721
  0
LINE
  5
581
  8
OBJECT
 10
10.9821202004977
 20
18.05242608024091
 30
0.0
 11
10.9821202004977
 21
17.849426080240921
 31
0.0
  0
LINE
  5
582
  8
OBJECT
 10
10.93612020049771
 20
18.029926080240919
 30
0.0
 11
11.014120200497709
 21
18.029926080240919
 31
0.0
  0
LINE
  5
583
  8
OBJECT
 10
10.93612020049771
 20
18.51392608024091
 30
0.0
 11
10.82712020049771
 21
18.5139260802409
 31
0.0
  0
LINE
  5
584
  8
OBJECT
 10
10.93612020049771
 20
18.55992608024092
 30
0.0
 11
10.82712020049771
 21
18.55992608024092
 31
0.0
  0
LINE
  5
585
  8
OBJECT
 10
10.9821202004977
 20
19.53742608024093
 30
0.0
 11
10.9821202004977
 21
19.740426080240919
 31
0.0
  0
ARC
  5
586
  8
OBJECT
 10
11.07110117875858
 20
19.638926080240928
 30
0.0
 40
0.1349809782608721
 50
131.23974529801271
 51
228.7602547019867
  0
LINE
  5
587
  8
OBJECT
 10
11.264120200497709
 20
19.840926080240919
 30
0.0
 11
11.014120200497709
 21
19.840926080240919
 31
0.0
  0
LINE
  5
588
  8
OBJECT
 10
10.9821202004977
 20
19.740426080240919
 30
0.0
 11
11.014120200497709
 21
19.740426080240919
 31
0.0
  0
LINE
  5
589
  8
OBJECT
 10
10.9821202004977
 20
19.537426080240941
 30
0.0
 11
11.014120200497709
 21
19.537426080240941
 31
0.0
  0
LINE
  5
58A
  8
OBJECT
 10
10.93612020049771
 20
18.747926080240909
 30
0.0
 11
11.014120200497709
 21
18.747926080240909
 31
0.0
  0
LINE
  5
58B
  8
OBJECT
 10
12.7946202004977
 20
20.106926080240921
 30
0.0
 11
12.7946202004977
 21
19.79492608024092
 31
0.0
  0
ARC
  5
58C
  8
OBJECT
 10
14.07612020049771
 20
22.327184144757091
 30
0.0
 40
3.5632580645161611
 50
262.43671959085071
 51
277.56328040914917
  0
ARC
  5
58D
  8
OBJECT
 10
14.07612020049771
 20
15.762668015724749
 30
0.0
 40
3.5632580645161611
 50
82.436719590850757
 51
97.563280409149243
  0
POLYLINE
  5
58E
  8
OBJECT
 66
     1
 10
0.0
 20
0.0
 30
0.0
  0
VERTEX
  5
10CD
  8
OBJECT
 10
13.68512020049771
 20
19.216926080240931
 30
0.0
  0
VERTEX
  5
10CE
  8
OBJECT
 10
13.68512020049771
 20
18.872926080240909
 30
0.0
  0
VERTEX
  5
10CF
  8
OBJECT
 10
14.4671202004977
 20
18.872926080240909
 30
0.0
  0
VERTEX
  5
10D0
  8
OBJECT
 10
14.4671202004977
 20
19.216926080240931
 30
0.0
  0
VERTEX
  5
10D1
  8
OBJECT
 10
13.68512020049771
 20
19.216926080240931
 30
0.0
  0
SEQEND
  5
10D2
  8
OBJECT
  0
LINE
  5
595
  8
OBJECT
 10
13.4671202004977
 20
18.73242608024092
 30
0.0
 11
14.68512020049771
 21
18.73242608024092
 31
0.0
  0
LINE
  5
596
  8
OBJECT
 10
13.4671202004977
 20
19.35742608024092
 30
0.0
 11
14.68512020049771
 21
19.35742608024092
 31
0.0
  0
LINE
  5
597
  8
OBJECT
 10
13.90312020049771
 20
19.216926080240931
 30
0.0
 11
13.90312020049771
 21
18.872926080240909
 31
0.0
  0
LINE
  5
598
  8
OBJECT
 10
13.6071202004977
 20
18.79492608024092
 30
0.0
 11
13.4671202004977
 21
18.73242608024092
 31
0.0
  0
LINE
  5
599
  8
OBJECT
 10
13.6071202004977
 20
19.29492608024092
 30
0.0
 11
13.4671202004977
 21
19.35742608024092
 31
0.0
  0
ARC
  5
59A
  8
OBJECT
 10
14.599684716626751
 20
19.04492608024092
 30
0.0
 40
1.023564516129043
 50
165.86280976599389
 51
194.137190234006
  0
LINE
  5
59B
  8
OBJECT
 10
13.4671202004977
 20
19.35742608024092
 30
0.0
 11
13.4671202004977
 21
18.73242608024092
 31
0.0
  0
LINE
  5
59C
  8
OBJECT
 10
14.545120200497699
 20
19.29492608024092
 30
0.0
 11
14.68512020049771
 21
19.35742608024092
 31
0.0
  0
LINE
  5
59D
  8
OBJECT
 10
14.545120200497699
 20
18.79492608024092
 30
0.0
 11
14.68512020049771
 21
18.73242608024092
 31
0.0
  0
ARC
  5
59E
  8
OBJECT
 10
13.552555684368659
 20
19.04492608024092
 30
0.0
 40
1.023564516129043
 50
345.8628097659938
 51
14.137190234006111
  0
LINE
  5
59F
  8
OBJECT
 10
14.68512020049771
 20
19.35742608024092
 30
0.0
 11
14.68512020049771
 21
18.73242608024092
 31
0.0
  0
LINE
  5
5A0
  8
OBJECT
 10
13.044620200497709
 20
20.106926080240921
 30
0.0
 11
13.044620200497709
 21
21.122951553215721
 31
0.0
  0
LINE
  5
5A1
  8
OBJECT
 10
13.419620200497709
 20
20.106926080240921
 30
0.0
 11
13.419620200497709
 21
21.122951553215721
 31
0.0
  0
LINE
  5
5A2
  8
OBJECT
 10
15.012244543240779
 20
21.747951553215721
 30
0.0
 11
17.327847127942
 21
21.747951553215721
 31
0.0
  0
LINE
  5
5A3
  8
OBJECT
 10
15.014239224091799
 20
21.37295155321571
 30
0.0
 11
17.327847127942
 21
21.37295155321571
 31
0.0
  0
LINE
  5
5A4
  8
OBJECT
 10
13.6696202004977
 20
20.106926080240921
 30
0.0
 11
13.6696202004977
 21
19.79492608024092
 31
0.0
  0
CIRCLE
  5
5A5
  8
OBJECT
 10
16.95212020049771
 20
18.79492608024092
 30
0.0
 40
0.1875
  0
LINE
  5
5A6
  8
OBJECT
 10
13.669620200497709
 20
21.37295155321571
 30
0.0
 11
14.71338405699893
 21
21.37295155321571
 31
0.0
  0
LINE
  5
5A7
  8
OBJECT
 10
13.669620200497709
 20
21.747951553215721
 30
0.0
 11
14.71238138320216
 21
21.747951553215721
 31
0.0
  0
ARC
  5
5A8
  8
OBJECT
 10
15.013740553879041
 20
21.46745155321571
 30
0.0
 40
0.0935013297872338
 50
89.694423233593596
 51
270.30557676640632
  0
LINE
  5
5A9
  8
OBJECT
 10
14.71338405699893
 20
21.37295155321571
 30
0.0
 11
14.71238138320216
 21
21.56095155321572
 31
0.0
  0
ARC
  5
5AA
  8
OBJECT
 10
14.71288005341491
 20
21.46745155321571
 30
0.0
 40
0.0935013297872338
 50
89.694423233593596
 51
270.30557676640632
  0
ARC
  5
5AB
  8
OBJECT
 10
15.01274321345355
 20
21.654451553215711
 30
0.0
 40
0.0935013297872338
 50
269.69442323359362
 51
90.305576766406404
  0
LINE
  5
5AC
  8
OBJECT
 10
15.012244543240779
 20
21.747951553215721
 30
0.0
 11
15.013241883666289
 21
21.56095155321572
 31
0.0
  0
ARC
  5
5AD
  8
OBJECT
 10
14.711882712989411
 20
21.654451553215711
 30
0.0
 40
0.0935013297872338
 50
269.69442323359362
 51
90.305576766406404
  0
LINE
  5
5AE
  8
OBJECT
 10
17.327847127942
 20
21.872951553215721
 30
0.0
 11
17.327847127942
 21
21.247951553215721
 31
0.0
  0
LINE
  5
5AF
  8
OBJECT
 10
17.60884712794201
 20
21.76345155321572
 30
0.0
 11
17.60884712794201
 21
21.357451553215721
 31
0.0
  0
LINE
  5
5B0
  8
OBJECT
 10
18.85884712794201
 20
22.029451553215711
 30
0.0
 11
18.046847127942002
 21
22.029451553215711
 31
0.0
  0
LINE
  5
5B1
  8
OBJECT
 10
18.85884712794201
 20
21.09145155321573
 30
0.0
 11
18.046847127942002
 21
21.09145155321573
 31
0.0
  0
LINE
  5
5B2
  8
OBJECT
 10
17.827847127942
 20
21.76345155321572
 30
0.0
 11
17.827847127942011
 21
21.357451553215721
 31
0.0
  0
LINE
  5
5B3
  8
OBJECT
 10
18.85884712794201
 20
22.029451553215711
 30
0.0
 11
18.85884712794201
 21
21.09145155321573
 31
0.0
  0
ARC
  5
5B4
  8
OBJECT
 10
19.576847127941999
 20
21.560451553215721
 30
0.0
 40
0.094
 50
270.0
 51
90.0
  0
LINE
  5
5B5
  8
OBJECT
 10
18.85884712794201
 20
21.46645155321572
 30
0.0
 11
19.576847127941999
 21
21.46645155321572
 31
0.0
  0
LINE
  5
5B6
  8
OBJECT
 10
19.546847127942009
 20
21.325451553215721
 30
0.0
 11
18.85884712794201
 21
21.325451553215721
 31
0.0
  0
LINE
  5
5B7
  8
OBJECT
 10
19.546847127942009
 20
21.279451553215711
 30
0.0
 11
18.85884712794201
 21
21.279451553215711
 31
0.0
  0
LINE
  5
5B8
  8
OBJECT
 10
19.546847127942009
 20
21.279451553215711
 30
0.0
 11
19.546847127942009
 21
21.325451553215721
 31
0.0
  0
LINE
  5
5B9
  8
OBJECT
 10
18.85884712794201
 20
21.654451553215711
 30
0.0
 11
19.576847127941999
 21
21.654451553215711
 31
0.0
  0
LINE
  5
5BA
  8
OBJECT
 10
19.546847127942009
 20
21.84145155321572
 30
0.0
 11
18.85884712794201
 21
21.84145155321572
 31
0.0
  0
LINE
  5
5BB
  8
OBJECT
 10
19.546847127942009
 20
21.79545155321572
 30
0.0
 11
18.85884712794201
 21
21.79545155321572
 31
0.0
  0
LINE
  5
5BC
  8
OBJECT
 10
19.546847127942009
 20
21.84145155321572
 30
0.0
 11
19.546847127942009
 21
21.79545155321572
 31
0.0
  0
ARC
  5
5BD
  8
OBJECT
 10
28.582139222236851
 20
17.950926080240912
 30
0.0
 40
0.1349809782608721
 50
311.23974529801268
 51
48.760254701986739
  0
ARC
  5
5BE
  8
OBJECT
 10
28.582139222236851
 20
19.638926080240928
 30
0.0
 40
0.1349809782608721
 50
311.23974529801319
 51
48.760254701987229
  0
LINE
  5
5BF
  8
OBJECT
 10
27.264120200497711
 20
18.450926080240912
 30
0.0
 11
27.70212020049771
 21
18.450926080240912
 31
0.0
  0
LINE
  5
5C0
  8
OBJECT
 10
27.264120200497711
 20
18.638926080240928
 30
0.0
 11
27.70212020049771
 21
18.638926080240928
 31
0.0
  0
LINE
  5
5C1
  8
OBJECT
 10
27.3101202004977
 20
18.496926080240922
 30
0.0
 11
27.656120200497721
 21
18.496926080240922
 31
0.0
  0
LINE
  5
5C2
  8
OBJECT
 10
27.3101202004977
 20
18.592926080240922
 30
0.0
 11
27.656120200497721
 21
18.592926080240911
 31
0.0
  0
LINE
  5
5C3
  8
OBJECT
 10
27.608120200497709
 20
19.092926080240911
 30
0.0
 11
27.654120200497712
 21
19.138926080240928
 31
0.0
  0
LINE
  5
5C4
  8
OBJECT
 10
27.608120200497709
 20
18.996926080240929
 30
0.0
 11
27.654120200497712
 21
18.950926080240912
 31
0.0
  0
LINE
  5
5C5
  8
OBJECT
 10
27.279120200497701
 20
18.950926080240912
 30
0.0
 11
27.654120200497712
 21
18.950926080240912
 31
0.0
  0
LINE
  5
5C6
  8
OBJECT
 10
27.279120200497701
 20
19.138926080240928
 30
0.0
 11
27.654120200497712
 21
19.138926080240928
 31
0.0
  0
LINE
  5
5C7
  8
OBJECT
 10
28.232120200497722
 20
18.263926080240928
 30
0.0
 11
27.17012020049771
 21
18.263926080240928
 31
0.0
  0
LINE
  5
5C8
  8
OBJECT
 10
28.232120200497711
 20
19.325926080240912
 30
0.0
 11
27.17012020049771
 21
19.325926080240912
 31
0.0
  0
LINE
  5
5C9
  8
OBJECT
 10
27.17012020049771
 20
18.263926080240928
 30
0.0
 11
27.17012020049771
 21
19.325926080240912
 31
0.0
  0
LINE
  5
5CA
  8
OBJECT
 10
27.264120200497711
 20
18.638926080240928
 30
0.0
 11
27.264120200497711
 21
18.450926080240912
 31
0.0
  0
LINE
  5
5CB
  8
OBJECT
 10
27.3101202004977
 20
18.592926080240922
 30
0.0
 11
27.3101202004977
 21
18.496926080240922
 31
0.0
  0
LINE
  5
5CC
  8
OBJECT
 10
27.310120200497721
 20
18.592926080240911
 30
0.0
 11
27.264120200497711
 21
18.638926080240928
 31
0.0
  0
LINE
  5
5CD
  8
OBJECT
 10
27.310120200497721
 20
18.496926080240929
 30
0.0
 11
27.264120200497711
 21
18.450926080240912
 31
0.0
  0
LINE
  5
5CE
  8
OBJECT
 10
27.325120200497711
 20
19.092926080240911
 30
0.0
 11
27.279120200497712
 21
19.138926080240928
 31
0.0
  0
LINE
  5
5CF
  8
OBJECT
 10
27.325120200497711
 20
18.996926080240929
 30
0.0
 11
27.279120200497712
 21
18.950926080240912
 31
0.0
  0
LINE
  5
5D0
  8
OBJECT
 10
27.608120200497709
 20
18.996926080240929
 30
0.0
 11
27.608120200497709
 21
19.092926080240922
 31
0.0
  0
LINE
  5
5D1
  8
OBJECT
 10
27.325120200497711
 20
18.996926080240922
 30
0.0
 11
27.608120200497709
 21
18.996926080240929
 31
0.0
  0
LINE
  5
5D2
  8
OBJECT
 10
27.325120200497711
 20
19.092926080240922
 30
0.0
 11
27.608120200497709
 21
19.092926080240922
 31
0.0
  0
LINE
  5
5D3
  8
OBJECT
 10
27.325120200497711
 20
18.996926080240922
 30
0.0
 11
27.325120200497711
 21
19.092926080240922
 31
0.0
  0
LINE
  5
5D4
  8
OBJECT
 10
27.279120200497701
 20
18.950926080240912
 30
0.0
 11
27.279120200497701
 21
19.138926080240928
 31
0.0
  0
LINE
  5
5D5
  8
OBJECT
 10
28.389120200497722
 20
17.74892608024091
 30
0.0
 11
28.389120200497722
 21
19.840926080240919
 31
0.0
  0
LINE
  5
5D6
  8
OBJECT
 10
28.232120200497722
 20
18.263926080240928
 30
0.0
 11
28.232120200497711
 21
19.325926080240912
 31
0.0
  0
LINE
  5
5D7
  8
OBJECT
 10
28.639120200497722
 20
17.74892608024091
 30
0.0
 11
28.639120200497722
 21
19.840926080240919
 31
0.0
  0
LINE
  5
5D8
  8
OBJECT
 10
28.671120200497722
 20
18.05242608024091
 30
0.0
 11
28.671120200497722
 21
17.849426080240921
 31
0.0
  0
LINE
  5
5D9
  8
OBJECT
 10
28.671120200497722
 20
17.849426080240921
 30
0.0
 11
28.639120200497722
 21
17.849426080240921
 31
0.0
  0
LINE
  5
5DA
  8
OBJECT
 10
28.671120200497722
 20
18.052426080240899
 30
0.0
 11
28.639120200497722
 21
18.052426080240899
 31
0.0
  0
LINE
  5
5DB
  8
OBJECT
 10
28.639120200497722
 20
17.74892608024091
 30
0.0
 11
28.389120200497722
 21
17.74892608024091
 31
0.0
  0
LINE
  5
5DC
  8
OBJECT
 10
27.70212020049771
 20
18.638926080240928
 30
0.0
 11
27.702120200497721
 21
18.450926080240912
 31
0.0
  0
LINE
  5
5DD
  8
OBJECT
 10
27.656120200497721
 20
18.592926080240911
 30
0.0
 11
27.656120200497721
 21
18.496926080240922
 31
0.0
  0
LINE
  5
5DE
  8
OBJECT
 10
27.656120200497721
 20
18.592926080240911
 30
0.0
 11
27.70212020049771
 21
18.638926080240928
 31
0.0
  0
LINE
  5
5DF
  8
OBJECT
 10
27.656120200497721
 20
18.496926080240929
 30
0.0
 11
27.70212020049771
 21
18.450926080240912
 31
0.0
  0
LINE
  5
5E0
  8
OBJECT
 10
27.654120200497712
 20
18.950926080240912
 30
0.0
 11
27.654120200497712
 21
19.138926080240928
 31
0.0
  0
LINE
  5
5E1
  8
OBJECT
 10
28.107120200497722
 20
18.638926080240928
 30
0.0
 11
28.107120200497722
 21
18.950926080240912
 31
0.0
  0
LINE
  5
5E2
  8
OBJECT
 10
28.107120200497722
 20
18.950926080240912
 30
0.0
 11
27.967120200497721
 21
18.950926080240912
 31
0.0
  0
LINE
  5
5E3
  8
OBJECT
 10
28.107120200497722
 20
18.638926080240928
 30
0.0
 11
27.967120200497721
 21
18.638926080240928
 31
0.0
  0
ARC
  5
5E4
  8
OBJECT
 10
27.95186438654423
 20
18.79492608024092
 30
0.0
 40
0.1567441860465107
 50
84.414595268572455
 51
275.5854047314275
  0
LINE
  5
5E5
  8
OBJECT
 10
28.061120200497719
 20
18.68492608024092
 30
0.0
 11
28.061120200497719
 21
18.904926080240919
 31
0.0
  0
LINE
  5
5E6
  8
OBJECT
 10
28.061120200497719
 20
18.68492608024092
 30
0.0
 11
27.967120200497721
 21
18.68492608024092
 31
0.0
  0
LINE
  5
5E7
  8
OBJECT
 10
28.061120200497719
 20
18.904926080240919
 30
0.0
 11
27.967120200497721
 21
18.904926080240919
 31
0.0
  0
ARC
  5
5E8
  8
OBJECT
 10
27.952136073513589
 20
18.79492608024092
 30
0.0
 40
0.1110158730158726
 50
82.242950994303882
 51
277.7570490056961
  0
LINE
  5
5E9
  8
OBJECT
 10
28.061120200497719
 20
18.904926080240919
 30
0.0
 11
28.107120200497722
 21
18.950926080240912
 31
0.0
  0
LINE
  5
5EA
  8
OBJECT
 10
28.061120200497719
 20
18.68492608024092
 30
0.0
 11
28.107120200497722
 21
18.638926080240928
 31
0.0
  0
LINE
  5
5EB
  8
OBJECT
 10
28.671120200497722
 20
19.537426080240941
 30
0.0
 11
28.639120200497722
 21
19.537426080240941
 31
0.0
  0
LINE
  5
5EC
  8
OBJECT
 10
28.671120200497722
 20
19.740426080240919
 30
0.0
 11
28.639120200497722
 21
19.740426080240919
 31
0.0
  0
LINE
  5
5ED
  8
OBJECT
 10
28.389120200497722
 20
19.840926080240919
 30
0.0
 11
28.639120200497722
 21
19.840926080240919
 31
0.0
  0
LINE
  5
5EE
  8
OBJECT
 10
28.671120200497722
 20
19.53742608024093
 30
0.0
 11
28.671120200497722
 21
19.740426080240919
 31
0.0
  0
CIRCLE
  5
5EF
  8
OBJECT
 10
33.097031378400871
 20
13.63506041123197
 30
0.0
 40
0.102
  0
LINE
  5
5F0
  8
OBJECT
 10
33.04900820281533
 20
13.60825043908202
 30
0.0
 11
33.075818174965278
 21
13.63506041123197
 31
0.0
  0
LINE
  5
5F1
  8
OBJECT
 10
33.118244581836457
 20
13.63506041123197
 30
0.0
 11
33.145054553986412
 21
13.60825043908202
 31
0.0
  0
LINE
  5
5F2
  8
OBJECT
 10
33.299031378400869
 20
13.79106041123196
 30
0.0
 11
33.299031378400869
 21
12.183060411231949
 31
0.0
  0
LINE
  5
5F3
  8
OBJECT
 10
31.207031378400849
 20
13.79106041123196
 30
0.0
 11
31.20703137840086
 21
12.18306041123197
 31
0.0
  0
LINE
  5
5F4
  8
OBJECT
 10
31.387818174965251
 20
13.63506041123197
 30
0.0
 11
31.36100820281532
 21
13.60825043908202
 31
0.0
  0
LINE
  5
5F5
  8
OBJECT
 10
31.457054553986389
 20
13.60825043908202
 30
0.0
 11
31.430244581836462
 21
13.63506041123197
 31
0.0
  0
CIRCLE
  5
5F6
  8
OBJECT
 10
31.409031378400861
 20
13.63506041123197
 30
0.0
 40
0.102
  0
LINE
  5
5F7
  8
OBJECT
 10
32.784031378400847
 20
14.105060411231969
 30
0.0
 11
31.722031378400871
 21
14.105060411231969
 31
0.0
  0
LINE
  5
5F8
  8
OBJECT
 10
33.111031378400853
 20
13.979060411231959
 30
0.0
 11
31.395031378400869
 21
13.979060411231959
 31
0.0
  0
LINE
  5
5F9
  8
OBJECT
 10
31.722031378400871
 20
14.105060411231969
 30
0.0
 11
31.722031378400871
 21
13.979060411231959
 31
0.0
  0
ARC
  5
5FA
  8
OBJECT
 10
31.395031378400869
 20
13.79106041123196
 30
0.0
 40
0.188
 50
90.000000000000057
 51
180.0
  0
LINE
  5
5FB
  8
OBJECT
 10
31.409031378400851
 20
13.65627361466756
 30
0.0
 11
31.38222140625091
 21
13.68308358681749
 31
0.0
  0
LINE
  5
5FC
  8
OBJECT
 10
31.387818174965251
 20
13.63506041123197
 30
0.0
 11
31.36100820281532
 21
13.661870383381901
 31
0.0
  0
ARC
  5
5FD
  8
OBJECT
 10
31.409031378400861
 20
13.63506041123197
 30
0.0
 40
0.055
 50
29.17337986812743
 51
60.826620131872559
  0
ARC
  5
5FE
  8
OBJECT
 10
31.409031378400861
 20
13.63506041123197
 30
0.0
 40
0.055
 50
119.1733798681279
 51
150.82662013187189
  0
LINE
  5
5FF
  8
OBJECT
 10
31.435841350550799
 20
13.68308358681749
 30
0.0
 11
31.409031378400861
 21
13.65627361466756
 31
0.0
  0
LINE
  5
600
  8
OBJECT
 10
31.457054553986389
 20
13.661870383381901
 30
0.0
 11
31.430244581836462
 21
13.63506041123197
 31
0.0
  0
LINE
  5
601
  8
OBJECT
 10
32.784031378400847
 20
14.105060411231969
 30
0.0
 11
32.784031378400847
 21
13.979060411231959
 31
0.0
  0
LINE
  5
602
  8
OBJECT
 10
33.04900820281533
 20
13.661870383381901
 30
0.0
 11
33.075818174965278
 21
13.63506041123197
 31
0.0
  0
LINE
  5
603
  8
OBJECT
 10
33.070221406250923
 20
13.68308358681749
 30
0.0
 11
33.097031378400871
 21
13.65627361466756
 31
0.0
  0
ARC
  5
604
  8
OBJECT
 10
33.097031378400871
 20
13.63506041123197
 30
0.0
 40
0.055
 50
29.173379868127991
 51
60.826620131871998
  0
ARC
  5
605
  8
OBJECT
 10
33.097031378400871
 20
13.63506041123197
 30
0.0
 40
0.055
 50
119.1733798681274
 51
150.82662013187249
  0
LINE
  5
606
  8
OBJECT
 10
33.118244581836457
 20
13.63506041123197
 30
0.0
 11
33.145054553986412
 21
13.661870383381901
 31
0.0
  0
LINE
  5
607
  8
OBJECT
 10
33.097031378400871
 20
13.65627361466756
 30
0.0
 11
33.123841350550819
 21
13.68308358681749
 31
0.0
  0
ARC
  5
608
  8
OBJECT
 10
33.111031378400853
 20
13.79106041123196
 30
0.0
 40
0.188
 50
0.0
 51
90.0
  0
LINE
  5
609
  8
OBJECT
 10
33.48703137840085
 20
13.16706041123197
 30
0.0
 11
33.299031378400869
 21
13.16706041123197
 31
0.0
  0
LINE
  5
60A
  8
OBJECT
 10
33.48703137840085
 20
12.41706041123196
 30
0.0
 11
33.299031378400869
 21
12.41706041123196
 31
0.0
  0
LINE
  5
60B
  8
OBJECT
 10
31.409031378400861
 20
13.61384720779637
 30
0.0
 11
31.38222140625091
 21
13.587037235646431
 31
0.0
  0
ARC
  5
60C
  8
OBJECT
 10
31.409031378400861
 20
13.63506041123197
 30
0.0
 40
0.055
 50
209.1733798681274
 51
240.82662013187249
  0
LINE
  5
60D
  8
OBJECT
 10
31.435841350550799
 20
13.587037235646431
 30
0.0
 11
31.409031378400861
 21
13.61384720779637
 31
0.0
  0
ARC
  5
60E
  8
OBJECT
 10
31.409031378400861
 20
13.63506041123197
 30
0.0
 40
0.055
 50
299.17337986812799
 51
330.82662013187201
  0
ARC
  5
60F
  8
OBJECT
 10
33.097031378400871
 20
13.63506041123197
 30
0.0
 40
0.055
 50
209.17337986812791
 51
240.82662013187201
  0
LINE
  5
610
  8
OBJECT
 10
33.070221406250923
 20
13.587037235646431
 30
0.0
 11
33.097031378400871
 21
13.61384720779637
 31
0.0
  0
ARC
  5
611
  8
OBJECT
 10
33.097031378400871
 20
13.63506041123197
 30
0.0
 40
0.055
 50
299.17337986812743
 51
330.82662013187252
  0
LINE
  5
612
  8
OBJECT
 10
33.097031378400871
 20
13.61384720779637
 30
0.0
 11
33.123841350550819
 21
13.587037235646431
 31
0.0
  0
LINE
  5
613
  8
OBJECT
 10
32.706031378400859
 20
12.12106041123195
 30
0.0
 11
31.800031378400849
 21
12.12106041123195
 31
0.0
  0
ARC
  5
614
  8
OBJECT
 10
31.269031378400861
 20
12.18306041123197
 30
0.0
 40
0.062
 50
180.0
 51
270.0
  0
LINE
  5
615
  8
OBJECT
 10
31.716819225431269
 20
12.07042694326727
 30
0.0
 11
31.80003137840087
 21
12.16706041123196
 31
0.0
  0
LINE
  5
616
  8
OBJECT
 10
31.69566484636557
 20
12.068848258262371
 30
0.0
 11
31.67141624469026
 21
12.08972899859387
 31
0.0
  0
LINE
  5
617
  8
OBJECT
 10
31.669837559685341
 20
12.110883377659579
 30
0.0
 11
31.70851281270058
 21
12.15579657470953
 31
0.0
  0
ARC
  5
618
  8
OBJECT
 10
31.705452693395959
 20
12.08021479029766
 30
0.0
 40
0.015
 50
229.26789330029121
 51
319.26789330029197
  0
ARC
  5
619
  8
OBJECT
 10
31.681204091720652
 20
12.10109553062917
 30
0.0
 40
0.015
 50
139.26789330029209
 51
229.26789330029899
  0
ARC
  5
61A
  8
OBJECT
 10
31.702679207216288
 20
12.159927029443869
 30
0.0
 40
0.0071478394818953
 50
313.83599473977648
 51
93.644793903285716
  0
LINE
  5
61B
  8
OBJECT
 10
31.800031378400849
 20
12.16706041123196
 30
0.0
 11
31.519031378400861
 21
12.16706041123196
 31
0.0
  0
LINE
  5
61C
  8
OBJECT
 10
31.519031378400861
 20
12.121060411231969
 30
0.0
 11
31.269031378400861
 21
12.121060411231969
 31
0.0
  0
LINE
  5
61D
  8
OBJECT
 10
31.800031378400849
 20
12.16706041123196
 30
0.0
 11
31.800031378400849
 21
12.121060411231969
 31
0.0
  0
LINE
  5
61E
  8
OBJECT
 10
31.519031378400861
 20
12.16706041123196
 30
0.0
 11
31.519031378400861
 21
12.121060411231969
 31
0.0
  0
CIRCLE
  5
61F
  8
OBJECT
 10
31.34703137840085
 20
12.26006041123196
 30
0.0
 40
0.102
  0
ARC
  5
620
  8
OBJECT
 10
31.34703137840085
 20
12.26006041123196
 30
0.0
 40
0.055
 50
299.17337986812799
 51
330.82662013187201
  0
LINE
  5
621
  8
OBJECT
 10
31.39505455398638
 20
12.286870383381901
 30
0.0
 11
31.368244581836439
 21
12.26006041123196
 31
0.0
  0
LINE
  5
622
  8
OBJECT
 10
31.373841350550791
 20
12.30808358681749
 30
0.0
 11
31.34703137840085
 21
12.28127361466756
 31
0.0
  0
LINE
  5
623
  8
OBJECT
 10
31.373841350550791
 20
12.21203723564642
 30
0.0
 11
31.34703137840085
 21
12.23884720779637
 31
0.0
  0
LINE
  5
624
  8
OBJECT
 10
31.39505455398638
 20
12.23325043908202
 30
0.0
 11
31.368244581836439
 21
12.26006041123196
 31
0.0
  0
ARC
  5
625
  8
OBJECT
 10
31.34703137840085
 20
12.26006041123196
 30
0.0
 40
0.055
 50
209.1733798681274
 51
240.82662013187249
  0
ARC
  5
626
  8
OBJECT
 10
31.34703137840085
 20
12.26006041123196
 30
0.0
 40
0.055
 50
119.1733798681279
 51
150.82662013187189
  0
ARC
  5
627
  8
OBJECT
 10
31.34703137840085
 20
12.26006041123196
 30
0.0
 40
0.055
 50
29.17337986812743
 51
60.826620131872559
  0
LINE
  5
628
  8
OBJECT
 10
31.34703137840085
 20
12.23884720779637
 30
0.0
 11
31.320221406250901
 21
12.21203723564642
 31
0.0
  0
LINE
  5
629
  8
OBJECT
 10
31.325818174965239
 20
12.26006041123196
 30
0.0
 11
31.299008202815308
 21
12.23325043908202
 31
0.0
  0
LINE
  5
62A
  8
OBJECT
 10
31.325818174965239
 20
12.26006041123196
 30
0.0
 11
31.299008202815308
 21
12.286870383381901
 31
0.0
  0
LINE
  5
62B
  8
OBJECT
 10
31.347031378400839
 20
12.28127361466756
 30
0.0
 11
31.320221406250901
 21
12.30808358681749
 31
0.0
  0
ARC
  5
62C
  8
OBJECT
 10
33.237031378400857
 20
12.183060411231949
 30
0.0
 40
0.062
 50
270.0
 51
0.0
  0
ARC
  5
62D
  8
OBJECT
 10
32.803383549585433
 20
12.159927029443869
 30
0.0
 40
0.0071478394818953
 50
86.355206096714284
 51
226.16400526022349
  0
ARC
  5
62E
  8
OBJECT
 10
32.824858665081059
 20
12.10109553062917
 30
0.0
 40
0.015
 50
310.73210669970092
 51
40.73210669970787
  0
ARC
  5
62F
  8
OBJECT
 10
32.800610063405749
 20
12.08021479029766
 30
0.0
 40
0.015
 50
220.73210669970791
 51
310.73210669970871
  0
LINE
  5
630
  8
OBJECT
 10
32.83622519711637
 20
12.110883377659579
 30
0.0
 11
32.797549944101128
 21
12.15579657470953
 31
0.0
  0
LINE
  5
631
  8
OBJECT
 10
32.810397910436151
 20
12.068848258262371
 30
0.0
 11
32.834646512111462
 21
12.08972899859387
 31
0.0
  0
LINE
  5
632
  8
OBJECT
 10
32.789243531370438
 20
12.07042694326727
 30
0.0
 11
32.706031378400851
 21
12.16706041123196
 31
0.0
  0
LINE
  5
633
  8
OBJECT
 10
32.98703137840085
 20
12.16706041123196
 30
0.0
 11
32.706031378400859
 21
12.16706041123196
 31
0.0
  0
LINE
  5
634
  8
OBJECT
 10
32.706031378400859
 20
12.16706041123196
 30
0.0
 11
32.706031378400859
 21
12.121060411231969
 31
0.0
  0
LINE
  5
635
  8
OBJECT
 10
32.98703137840085
 20
12.16706041123196
 30
0.0
 11
32.98703137840085
 21
12.121060411231969
 31
0.0
  0
LINE
  5
636
  8
OBJECT
 10
33.237031378400857
 20
12.12106041123195
 30
0.0
 11
32.98703137840085
 21
12.12106041123195
 31
0.0
  0
LINE
  5
637
  8
OBJECT
 10
33.159031378400861
 20
12.28127361466756
 30
0.0
 11
33.185841350550803
 21
12.30808358681749
 31
0.0
  0
LINE
  5
638
  8
OBJECT
 10
33.180244581836462
 20
12.26006041123196
 30
0.0
 11
33.207054553986389
 21
12.286870383381901
 31
0.0
  0
LINE
  5
639
  8
OBJECT
 10
33.180244581836462
 20
12.26006041123196
 30
0.0
 11
33.207054553986389
 21
12.23325043908202
 31
0.0
  0
LINE
  5
63A
  8
OBJECT
 10
33.159031378400847
 20
12.23884720779637
 30
0.0
 11
33.185841350550803
 21
12.21203723564642
 31
0.0
  0
ARC
  5
63B
  8
OBJECT
 10
33.159031378400847
 20
12.26006041123196
 30
0.0
 40
0.055
 50
119.1733798681274
 51
150.82662013187249
  0
ARC
  5
63C
  8
OBJECT
 10
33.159031378400847
 20
12.26006041123196
 30
0.0
 40
0.055
 50
29.173379868127991
 51
60.826620131871998
  0
ARC
  5
63D
  8
OBJECT
 10
33.159031378400847
 20
12.26006041123196
 30
0.0
 40
0.055
 50
299.17337986812743
 51
330.82662013187252
  0
LINE
  5
63E
  8
OBJECT
 10
33.111008202815327
 20
12.23325043908202
 30
0.0
 11
33.137818174965261
 21
12.26006041123196
 31
0.0
  0
LINE
  5
63F
  8
OBJECT
 10
33.132221406250927
 20
12.21203723564642
 30
0.0
 11
33.159031378400847
 21
12.23884720779637
 31
0.0
  0
LINE
  5
640
  8
OBJECT
 10
33.132221406250927
 20
12.30808358681749
 30
0.0
 11
33.159031378400847
 21
12.28127361466756
 31
0.0
  0
LINE
  5
641
  8
OBJECT
 10
33.111008202815327
 20
12.286870383381901
 30
0.0
 11
33.137818174965261
 21
12.26006041123196
 31
0.0
  0
ARC
  5
642
  8
OBJECT
 10
33.159031378400847
 20
12.26006041123196
 30
0.0
 40
0.055
 50
209.17337986812791
 51
240.82662013187201
  0
CIRCLE
  5
643
  8
OBJECT
 10
33.159031378400847
 20
12.26006041123196
 30
0.0
 40
0.102
  0
LINE
  5
644
  8
OBJECT
 10
33.48703137840085
 20
12.41706041123196
 30
0.0
 11
33.48703137840085
 21
13.16706041123197
 31
0.0
  0
LINE
  5
645
  8
OBJECT
 10
34.172531524285198
 20
12.60456041123197
 30
0.0
 11
33.48703137840085
 21
12.60456041123197
 31
0.0
  0
LINE
  5
646
  8
OBJECT
 10
34.174526205136232
 20
12.97956041123196
 30
0.0
 11
33.48703137840085
 21
12.979560411231979
 31
0.0
  0
LINE
  5
647
  8
OBJECT
 10
34.17452620513621
 20
12.60456041123197
 30
0.0
 11
34.173528864710697
 21
12.79156041123197
 31
0.0
  0
ARC
  5
648
  8
OBJECT
 10
34.173030194497947
 20
12.88506041123197
 30
0.0
 40
0.0935013297872338
 50
269.69442323359362
 51
90.305576766406404
  0
ARC
  5
649
  8
OBJECT
 10
34.174027534923447
 20
12.698060411231969
 30
0.0
 40
0.0935013297872338
 50
89.694423233593596
 51
270.30557676640632
  0
LINE
  5
64A
  8
OBJECT
 10
25.17012020049771
 20
19.325926080240912
 30
0.0
 11
24.108120200497709
 21
19.325926080240912
 31
0.0
  0
LINE
  5
64B
  8
OBJECT
 10
25.17012020049772
 20
18.263926080240928
 30
0.0
 11
24.108120200497709
 21
18.263926080240928
 31
0.0
  0
LINE
  5
64C
  8
OBJECT
 10
24.108120200497709
 20
18.263926080240928
 30
0.0
 11
24.108120200497709
 21
19.325926080240912
 31
0.0
  0
LINE
  5
64D
  8
OBJECT
 10
24.2171202004977
 20
19.138926080240928
 30
0.0
 11
24.5921202004977
 21
19.138926080240928
 31
0.0
  0
LINE
  5
64E
  8
OBJECT
 10
24.2171202004977
 20
18.950926080240912
 30
0.0
 11
24.5921202004977
 21
18.950926080240912
 31
0.0
  0
LINE
  5
64F
  8
OBJECT
 10
24.546120200497711
 20
18.996926080240929
 30
0.0
 11
24.5921202004977
 21
18.950926080240912
 31
0.0
  0
LINE
  5
650
  8
OBJECT
 10
24.546120200497711
 20
19.092926080240911
 30
0.0
 11
24.5921202004977
 21
19.138926080240928
 31
0.0
  0
LINE
  5
651
  8
OBJECT
 10
24.248120200497699
 20
18.592926080240922
 30
0.0
 11
24.594120200497709
 21
18.592926080240911
 31
0.0
  0
LINE
  5
652
  8
OBJECT
 10
24.248120200497699
 20
18.496926080240922
 30
0.0
 11
24.594120200497709
 21
18.496926080240922
 31
0.0
  0
LINE
  5
653
  8
OBJECT
 10
24.20212020049771
 20
18.638926080240928
 30
0.0
 11
24.640120200497702
 21
18.638926080240928
 31
0.0
  0
LINE
  5
654
  8
OBJECT
 10
24.20212020049771
 20
18.450926080240912
 30
0.0
 11
24.640120200497702
 21
18.450926080240912
 31
0.0
  0
LINE
  5
655
  8
OBJECT
 10
24.2171202004977
 20
18.950926080240912
 30
0.0
 11
24.2171202004977
 21
19.138926080240928
 31
0.0
  0
LINE
  5
656
  8
OBJECT
 10
24.263120200497699
 20
18.996926080240922
 30
0.0
 11
24.263120200497699
 21
19.092926080240922
 31
0.0
  0
LINE
  5
657
  8
OBJECT
 10
24.263120200497699
 20
19.092926080240922
 30
0.0
 11
24.546120200497711
 21
19.092926080240922
 31
0.0
  0
LINE
  5
658
  8
OBJECT
 10
24.263120200497699
 20
18.996926080240922
 30
0.0
 11
24.546120200497711
 21
18.996926080240929
 31
0.0
  0
LINE
  5
659
  8
OBJECT
 10
24.546120200497711
 20
18.996926080240929
 30
0.0
 11
24.546120200497711
 21
19.092926080240922
 31
0.0
  0
LINE
  5
65A
  8
OBJECT
 10
24.263120200497699
 20
18.996926080240929
 30
0.0
 11
24.21712020049771
 21
18.950926080240912
 31
0.0
  0
LINE
  5
65B
  8
OBJECT
 10
24.263120200497699
 20
19.092926080240911
 30
0.0
 11
24.21712020049771
 21
19.138926080240928
 31
0.0
  0
LINE
  5
65C
  8
OBJECT
 10
24.24812020049772
 20
18.496926080240929
 30
0.0
 11
24.20212020049771
 21
18.450926080240912
 31
0.0
  0
LINE
  5
65D
  8
OBJECT
 10
24.24812020049772
 20
18.592926080240911
 30
0.0
 11
24.20212020049771
 21
18.638926080240928
 31
0.0
  0
LINE
  5
65E
  8
OBJECT
 10
24.248120200497699
 20
18.592926080240922
 30
0.0
 11
24.248120200497699
 21
18.496926080240922
 31
0.0
  0
LINE
  5
65F
  8
OBJECT
 10
24.20212020049771
 20
18.638926080240928
 30
0.0
 11
24.20212020049771
 21
18.450926080240912
 31
0.0
  0
LINE
  5
660
  8
OBJECT
 10
24.5921202004977
 20
18.950926080240912
 30
0.0
 11
24.5921202004977
 21
19.138926080240928
 31
0.0
  0
LINE
  5
661
  8
OBJECT
 10
24.594120200497709
 20
18.496926080240929
 30
0.0
 11
24.640120200497702
 21
18.450926080240912
 31
0.0
  0
LINE
  5
662
  8
OBJECT
 10
24.594120200497709
 20
18.592926080240911
 30
0.0
 11
24.640120200497702
 21
18.638926080240928
 31
0.0
  0
LINE
  5
663
  8
OBJECT
 10
24.594120200497709
 20
18.592926080240911
 30
0.0
 11
24.594120200497709
 21
18.496926080240922
 31
0.0
  0
LINE
  5
664
  8
OBJECT
 10
24.640120200497702
 20
18.638926080240928
 30
0.0
 11
24.640120200497709
 21
18.450926080240912
 31
0.0
  0
LINE
  5
665
  8
OBJECT
 10
24.99912020049771
 20
18.68492608024092
 30
0.0
 11
25.04512020049772
 21
18.638926080240928
 31
0.0
  0
LINE
  5
666
  8
OBJECT
 10
24.99912020049771
 20
18.904926080240919
 30
0.0
 11
25.04512020049772
 21
18.950926080240912
 31
0.0
  0
ARC
  5
667
  8
OBJECT
 10
24.890136073513581
 20
18.79492608024092
 30
0.0
 40
0.1110158730158726
 50
82.242950994303882
 51
277.7570490056961
  0
LINE
  5
668
  8
OBJECT
 10
24.99912020049771
 20
18.904926080240919
 30
0.0
 11
24.90512020049772
 21
18.904926080240919
 31
0.0
  0
LINE
  5
669
  8
OBJECT
 10
24.99912020049771
 20
18.68492608024092
 30
0.0
 11
24.90512020049772
 21
18.68492608024092
 31
0.0
  0
LINE
  5
66A
  8
OBJECT
 10
24.99912020049771
 20
18.68492608024092
 30
0.0
 11
24.99912020049771
 21
18.904926080240919
 31
0.0
  0
ARC
  5
66B
  8
OBJECT
 10
24.889864386544222
 20
18.79492608024092
 30
0.0
 40
0.1567441860465107
 50
84.414595268572455
 51
275.5854047314275
  0
LINE
  5
66C
  8
OBJECT
 10
25.04512020049772
 20
18.638926080240928
 30
0.0
 11
24.90512020049772
 21
18.638926080240928
 31
0.0
  0
LINE
  5
66D
  8
OBJECT
 10
25.04512020049772
 20
18.950926080240912
 30
0.0
 11
24.90512020049772
 21
18.950926080240912
 31
0.0
  0
LINE
  5
66E
  8
OBJECT
 10
25.04512020049772
 20
18.638926080240928
 30
0.0
 11
25.04512020049772
 21
18.950926080240912
 31
0.0
  0
LINE
  5
66F
  8
OBJECT
 10
25.17012020049772
 20
18.263926080240928
 30
0.0
 11
25.17012020049771
 21
19.325926080240912
 31
0.0
  0
LINE
  5
670
  8
OBJECT
 10
22.108120200497709
 20
19.325926080240912
 30
0.0
 11
21.046120200497711
 21
19.325926080240912
 31
0.0
  0
LINE
  5
671
  8
OBJECT
 10
22.108120200497719
 20
18.263926080240928
 30
0.0
 11
21.046120200497711
 21
18.263926080240928
 31
0.0
  0
LINE
  5
672
  8
OBJECT
 10
21.046120200497711
 20
18.263926080240928
 30
0.0
 11
21.046120200497711
 21
19.325926080240912
 31
0.0
  0
LINE
  5
673
  8
OBJECT
 10
21.155120200497699
 20
19.138926080240928
 30
0.0
 11
21.530120200497699
 21
19.138926080240928
 31
0.0
  0
LINE
  5
674
  8
OBJECT
 10
21.155120200497699
 20
18.950926080240912
 30
0.0
 11
21.530120200497699
 21
18.950926080240912
 31
0.0
  0
LINE
  5
675
  8
OBJECT
 10
21.48412020049771
 20
18.996926080240929
 30
0.0
 11
21.530120200497699
 21
18.950926080240912
 31
0.0
  0
LINE
  5
676
  8
OBJECT
 10
21.48412020049771
 20
19.092926080240911
 30
0.0
 11
21.530120200497699
 21
19.138926080240928
 31
0.0
  0
LINE
  5
677
  8
OBJECT
 10
21.186120200497712
 20
18.592926080240922
 30
0.0
 11
21.532120200497712
 21
18.592926080240911
 31
0.0
  0
LINE
  5
678
  8
OBJECT
 10
21.186120200497712
 20
18.496926080240922
 30
0.0
 11
21.532120200497712
 21
18.496926080240922
 31
0.0
  0
LINE
  5
679
  8
OBJECT
 10
21.140120200497709
 20
18.638926080240928
 30
0.0
 11
21.578120200497711
 21
18.638926080240928
 31
0.0
  0
LINE
  5
67A
  8
OBJECT
 10
21.140120200497709
 20
18.450926080240912
 30
0.0
 11
21.578120200497711
 21
18.450926080240912
 31
0.0
  0
LINE
  5
67B
  8
OBJECT
 10
21.155120200497699
 20
18.950926080240912
 30
0.0
 11
21.155120200497699
 21
19.138926080240928
 31
0.0
  0
LINE
  5
67C
  8
OBJECT
 10
21.201120200497709
 20
18.996926080240922
 30
0.0
 11
21.201120200497709
 21
19.092926080240922
 31
0.0
  0
LINE
  5
67D
  8
OBJECT
 10
21.201120200497709
 20
19.092926080240922
 30
0.0
 11
21.48412020049771
 21
19.092926080240922
 31
0.0
  0
LINE
  5
67E
  8
OBJECT
 10
21.201120200497709
 20
18.996926080240922
 30
0.0
 11
21.48412020049771
 21
18.996926080240929
 31
0.0
  0
LINE
  5
67F
  8
OBJECT
 10
21.48412020049771
 20
18.996926080240929
 30
0.0
 11
21.48412020049771
 21
19.092926080240922
 31
0.0
  0
LINE
  5
680
  8
OBJECT
 10
21.201120200497709
 20
18.996926080240929
 30
0.0
 11
21.155120200497709
 21
18.950926080240912
 31
0.0
  0
LINE
  5
681
  8
OBJECT
 10
21.201120200497709
 20
19.092926080240911
 30
0.0
 11
21.155120200497709
 21
19.138926080240928
 31
0.0
  0
LINE
  5
682
  8
OBJECT
 10
21.186120200497719
 20
18.496926080240929
 30
0.0
 11
21.140120200497709
 21
18.450926080240912
 31
0.0
  0
LINE
  5
683
  8
OBJECT
 10
21.186120200497719
 20
18.592926080240911
 30
0.0
 11
21.140120200497709
 21
18.638926080240928
 31
0.0
  0
LINE
  5
684
  8
OBJECT
 10
21.186120200497712
 20
18.592926080240922
 30
0.0
 11
21.186120200497712
 21
18.496926080240922
 31
0.0
  0
LINE
  5
685
  8
OBJECT
 10
21.140120200497709
 20
18.638926080240928
 30
0.0
 11
21.140120200497709
 21
18.450926080240912
 31
0.0
  0
LINE
  5
686
  8
OBJECT
 10
21.530120200497699
 20
18.950926080240912
 30
0.0
 11
21.530120200497699
 21
19.138926080240928
 31
0.0
  0
LINE
  5
687
  8
OBJECT
 10
21.532120200497712
 20
18.496926080240929
 30
0.0
 11
21.578120200497711
 21
18.450926080240912
 31
0.0
  0
LINE
  5
688
  8
OBJECT
 10
21.532120200497712
 20
18.592926080240911
 30
0.0
 11
21.578120200497711
 21
18.638926080240928
 31
0.0
  0
LINE
  5
689
  8
OBJECT
 10
21.532120200497712
 20
18.592926080240911
 30
0.0
 11
21.532120200497712
 21
18.496926080240922
 31
0.0
  0
LINE
  5
68A
  8
OBJECT
 10
21.578120200497711
 20
18.638926080240928
 30
0.0
 11
21.578120200497722
 21
18.450926080240912
 31
0.0
  0
LINE
  5
68B
  8
OBJECT
 10
21.937120200497709
 20
18.68492608024092
 30
0.0
 11
21.983120200497719
 21
18.638926080240928
 31
0.0
  0
LINE
  5
68C
  8
OBJECT
 10
21.937120200497709
 20
18.904926080240919
 30
0.0
 11
21.983120200497719
 21
18.950926080240912
 31
0.0
  0
ARC
  5
68D
  8
OBJECT
 10
21.828136073513591
 20
18.79492608024092
 30
0.0
 40
0.1110158730158726
 50
82.242950994303882
 51
277.7570490056961
  0
LINE
  5
68E
  8
OBJECT
 10
21.937120200497709
 20
18.904926080240919
 30
0.0
 11
21.843120200497719
 21
18.904926080240919
 31
0.0
  0
LINE
  5
68F
  8
OBJECT
 10
21.937120200497709
 20
18.68492608024092
 30
0.0
 11
21.843120200497719
 21
18.68492608024092
 31
0.0
  0
LINE
  5
690
  8
OBJECT
 10
21.937120200497709
 20
18.68492608024092
 30
0.0
 11
21.937120200497709
 21
18.904926080240919
 31
0.0
  0
ARC
  5
691
  8
OBJECT
 10
21.827864386544221
 20
18.79492608024092
 30
0.0
 40
0.1567441860465107
 50
84.414595268572455
 51
275.5854047314275
  0
LINE
  5
692
  8
OBJECT
 10
21.983120200497719
 20
18.638926080240928
 30
0.0
 11
21.843120200497719
 21
18.638926080240928
 31
0.0
  0
LINE
  5
693
  8
OBJECT
 10
21.983120200497719
 20
18.950926080240912
 30
0.0
 11
21.843120200497719
 21
18.950926080240912
 31
0.0
  0
LINE
  5
694
  8
OBJECT
 10
21.983120200497719
 20
18.638926080240928
 30
0.0
 11
21.983120200497719
 21
18.950926080240912
 31
0.0
  0
LINE
  5
695
  8
OBJECT
 10
22.108120200497719
 20
18.263926080240928
 30
0.0
 11
22.108120200497709
 21
19.325926080240912
 31
0.0
  0
LINE
  5
696
  8
OBJECT
 10
19.046120200497711
 20
19.325926080240912
 30
0.0
 11
17.98412020049771
 21
19.325926080240912
 31
0.0
  0
LINE
  5
697
  8
OBJECT
 10
19.046120200497722
 20
18.263926080240928
 30
0.0
 11
17.98412020049771
 21
18.263926080240928
 31
0.0
  0
LINE
  5
698
  8
OBJECT
 10
17.98412020049771
 20
18.263926080240928
 30
0.0
 11
17.98412020049771
 21
19.325926080240912
 31
0.0
  0
LINE
  5
699
  8
OBJECT
 10
18.093120200497701
 20
19.138926080240928
 30
0.0
 11
18.468120200497701
 21
19.138926080240928
 31
0.0
  0
LINE
  5
69A
  8
OBJECT
 10
18.093120200497701
 20
18.950926080240912
 30
0.0
 11
18.468120200497701
 21
18.950926080240912
 31
0.0
  0
LINE
  5
69B
  8
OBJECT
 10
18.422120200497709
 20
18.996926080240929
 30
0.0
 11
18.468120200497701
 21
18.950926080240912
 31
0.0
  0
LINE
  5
69C
  8
OBJECT
 10
18.422120200497709
 20
19.092926080240911
 30
0.0
 11
18.468120200497701
 21
19.138926080240928
 31
0.0
  0
LINE
  5
69D
  8
OBJECT
 10
18.1241202004977
 20
18.592926080240922
 30
0.0
 11
18.470120200497711
 21
18.592926080240911
 31
0.0
  0
LINE
  5
69E
  8
OBJECT
 10
18.1241202004977
 20
18.496926080240922
 30
0.0
 11
18.470120200497711
 21
18.496926080240922
 31
0.0
  0
LINE
  5
69F
  8
OBJECT
 10
18.078120200497711
 20
18.638926080240928
 30
0.0
 11
18.516120200497699
 21
18.638926080240928
 31
0.0
  0
LINE
  5
6A0
  8
OBJECT
 10
18.078120200497711
 20
18.450926080240912
 30
0.0
 11
18.516120200497699
 21
18.450926080240912
 31
0.0
  0
LINE
  5
6A1
  8
OBJECT
 10
18.093120200497701
 20
18.950926080240912
 30
0.0
 11
18.093120200497701
 21
19.138926080240928
 31
0.0
  0
LINE
  5
6A2
  8
OBJECT
 10
18.139120200497711
 20
18.996926080240922
 30
0.0
 11
18.139120200497711
 21
19.092926080240922
 31
0.0
  0
LINE
  5
6A3
  8
OBJECT
 10
18.139120200497711
 20
19.092926080240922
 30
0.0
 11
18.422120200497709
 21
19.092926080240922
 31
0.0
  0
LINE
  5
6A4
  8
OBJECT
 10
18.139120200497711
 20
18.996926080240922
 30
0.0
 11
18.422120200497709
 21
18.996926080240929
 31
0.0
  0
LINE
  5
6A5
  8
OBJECT
 10
18.422120200497709
 20
18.996926080240929
 30
0.0
 11
18.422120200497709
 21
19.092926080240922
 31
0.0
  0
LINE
  5
6A6
  8
OBJECT
 10
18.139120200497711
 20
18.996926080240929
 30
0.0
 11
18.093120200497712
 21
18.950926080240912
 31
0.0
  0
LINE
  5
6A7
  8
OBJECT
 10
18.139120200497711
 20
19.092926080240911
 30
0.0
 11
18.093120200497712
 21
19.138926080240928
 31
0.0
  0
LINE
  5
6A8
  8
OBJECT
 10
18.124120200497721
 20
18.496926080240929
 30
0.0
 11
18.078120200497711
 21
18.450926080240912
 31
0.0
  0
LINE
  5
6A9
  8
OBJECT
 10
18.124120200497721
 20
18.592926080240911
 30
0.0
 11
18.078120200497711
 21
18.638926080240928
 31
0.0
  0
LINE
  5
6AA
  8
OBJECT
 10
18.1241202004977
 20
18.592926080240922
 30
0.0
 11
18.1241202004977
 21
18.496926080240922
 31
0.0
  0
LINE
  5
6AB
  8
OBJECT
 10
18.078120200497711
 20
18.638926080240928
 30
0.0
 11
18.078120200497711
 21
18.450926080240912
 31
0.0
  0
LINE
  5
6AC
  8
OBJECT
 10
18.468120200497701
 20
18.950926080240912
 30
0.0
 11
18.468120200497701
 21
19.138926080240928
 31
0.0
  0
LINE
  5
6AD
  8
OBJECT
 10
18.470120200497711
 20
18.496926080240929
 30
0.0
 11
18.516120200497699
 21
18.450926080240912
 31
0.0
  0
LINE
  5
6AE
  8
OBJECT
 10
18.470120200497711
 20
18.592926080240911
 30
0.0
 11
18.516120200497699
 21
18.638926080240928
 31
0.0
  0
LINE
  5
6AF
  8
OBJECT
 10
18.470120200497711
 20
18.592926080240911
 30
0.0
 11
18.470120200497711
 21
18.496926080240922
 31
0.0
  0
LINE
  5
6B0
  8
OBJECT
 10
18.516120200497699
 20
18.638926080240928
 30
0.0
 11
18.516120200497721
 21
18.450926080240912
 31
0.0
  0
LINE
  5
6B1
  8
OBJECT
 10
18.875120200497712
 20
18.68492608024092
 30
0.0
 11
18.921120200497722
 21
18.638926080240928
 31
0.0
  0
LINE
  5
6B2
  8
OBJECT
 10
18.875120200497712
 20
18.904926080240919
 30
0.0
 11
18.921120200497722
 21
18.950926080240912
 31
0.0
  0
ARC
  5
6B3
  8
OBJECT
 10
18.766136073513589
 20
18.79492608024092
 30
0.0
 40
0.1110158730158726
 50
82.242950994303882
 51
277.7570490056961
  0
LINE
  5
6B4
  8
OBJECT
 10
18.875120200497712
 20
18.904926080240919
 30
0.0
 11
18.781120200497721
 21
18.904926080240919
 31
0.0
  0
LINE
  5
6B5
  8
OBJECT
 10
18.875120200497712
 20
18.68492608024092
 30
0.0
 11
18.781120200497721
 21
18.68492608024092
 31
0.0
  0
LINE
  5
6B6
  8
OBJECT
 10
18.875120200497712
 20
18.68492608024092
 30
0.0
 11
18.875120200497712
 21
18.904926080240919
 31
0.0
  0
ARC
  5
6B7
  8
OBJECT
 10
18.76586438654423
 20
18.79492608024092
 30
0.0
 40
0.1567441860465107
 50
84.414595268572455
 51
275.5854047314275
  0
LINE
  5
6B8
  8
OBJECT
 10
18.921120200497722
 20
18.638926080240928
 30
0.0
 11
18.781120200497721
 21
18.638926080240928
 31
0.0
  0
LINE
  5
6B9
  8
OBJECT
 10
18.921120200497722
 20
18.950926080240912
 30
0.0
 11
18.781120200497721
 21
18.950926080240912
 31
0.0
  0
LINE
  5
6BA
  8
OBJECT
 10
18.921120200497722
 20
18.638926080240928
 30
0.0
 11
18.921120200497722
 21
18.950926080240912
 31
0.0
  0
LINE
  5
6BB
  8
OBJECT
 10
19.046120200497722
 20
18.263926080240928
 30
0.0
 11
19.046120200497711
 21
19.325926080240912
 31
0.0
  0
LINE
  5
6BC
  8
OBJECT
 10
28.546120200497711
 20
7.8700466776490714
 30
0.0
 11
11.1071202004977
 21
7.8700466776490643
 31
0.0
  0
LINE
  5
6BD
  8
OBJECT
 10
28.546120200497711
 20
7.9092952793243816
 30
0.0
 11
11.1071202004977
 21
7.9092952793243816
 31
0.0
  0
LINE
  5
6BE
  8
OBJECT
 10
28.639120200497722
 20
8.0038739643292711
 30
0.0
 11
11.1071202004977
 21
8.0038739643292711
 31
0.0
  0
LINE
  5
6BF
  8
OBJECT
 10
28.639120200497722
 20
8.9098739643292717
 30
0.0
 11
11.1071202004977
 21
8.9098739643292646
 31
0.0
  0
LINE
  5
6C0
  8
OBJECT
 10
28.546120200497711
 20
9.0044526493341621
 30
0.0
 11
11.1071202004977
 21
9.0044526493341621
 31
0.0
  0
LINE
  5
6C1
  8
OBJECT
 10
28.546120200497711
 20
9.0437012510094732
 30
0.0
 11
11.1071202004977
 21
9.0437012510094803
 31
0.0
  0
LINE
  5
6C2
  8
OBJECT
 10
18.046847127942002
 20
6.1603484913544611
 30
0.0
 11
17.60884712794201
 21
5.8943484913544699
 31
0.0
  0
LINE
  5
6C3
  8
OBJECT
 10
17.327847127942
 20
6.003848491354467
 30
0.0
 11
17.789151639220211
 21
6.003848491354467
 31
0.0
  0
LINE
  5
6C4
  8
OBJECT
 10
17.327847127942
 20
5.378848491354467
 30
0.0
 11
17.789151639220211
 21
5.378848491354467
 31
0.0
  0
LINE
  5
6C5
  8
OBJECT
 10
18.046847127942002
 20
5.2223484913544729
 30
0.0
 11
17.60884712794201
 21
5.488348491354464
 31
0.0
  0
LINE
  5
6C6
  8
OBJECT
 10
28.389120200497722
 20
9.4568739643292687
 30
0.0
 11
11.264120200497709
 21
9.4568739643292687
 31
0.0
  0
LINE
  5
6C7
  8
OBJECT
 10
11.264120200497709
 20
7.4568739643292679
 30
0.0
 11
28.389120200497722
 21
7.4568739643292679
 31
0.0
  0
LINE
  5
6C8
  8
OBJECT
 10
12.7946202004977
 20
7.1448739643292711
 30
0.0
 11
13.6696202004977
 21
7.1448739643292711
 31
0.0
  0
ARC
  5
6C9
  8
OBJECT
 10
13.669620200497709
 20
6.128848491354467
 30
0.0
 40
0.625
 50
180.0
 51
270.0
  0
ARC
  5
6CA
  8
OBJECT
 10
13.669620200497709
 20
6.128848491354467
 30
0.0
 40
0.25
 50
180.0
 51
270.0
  0
LINE
  5
6CB
  8
OBJECT
 10
13.419620200497709
 20
7.1448739643292711
 30
0.0
 11
13.419620200497709
 21
6.128848491354467
 31
0.0
  0
LINE
  5
6CC
  8
OBJECT
 10
13.044620200497709
 20
7.1448739643292711
 30
0.0
 11
13.044620200497709
 21
6.128848491354467
 31
0.0
  0
LINE
  5
6CD
  8
OBJECT
 10
10.9821202004977
 20
9.2613739643292732
 30
0.0
 11
10.9821202004977
 21
9.4643739643292601
 31
0.0
  0
ARC
  5
6CE
  8
OBJECT
 10
11.07110117875858
 20
9.3628739643292676
 30
0.0
 40
0.1349809782608721
 50
131.23974529801271
 51
228.7602547019867
  0
LINE
  5
6CF
  8
OBJECT
 10
11.264120200497709
 20
9.5028739643292681
 30
0.0
 11
11.264120200497709
 21
9.1908739643292705
 31
0.0
  0
LINE
  5
6D0
  8
OBJECT
 10
11.014120200497709
 20
9.4408739643292705
 30
0.0
 11
11.014120200497709
 21
7.4728739643292661
 31
0.0
  0
LINE
  5
6D1
  8
OBJECT
 10
11.1071202004977
 20
9.1908739643292705
 30
0.0
 11
11.1071202004977
 21
7.4108739643292694
 31
0.0
  0
ARC
  5
6D2
  8
OBJECT
 10
11.0761202004977
 20
7.4728739643292661
 30
0.0
 40
0.062
 50
180.0
 51
270.0
  0
LINE
  5
6D3
  8
OBJECT
 10
11.264120200497709
 20
7.7228739643292661
 30
0.0
 11
11.264120200497709
 21
7.4108739643292694
 31
0.0
  0
LINE
  5
6D4
  8
OBJECT
 10
11.264120200497709
 20
7.7228739643292661
 30
0.0
 11
11.1071202004977
 21
7.7228739643292661
 31
0.0
  0
LINE
  5
6D5
  8
OBJECT
 10
10.9821202004977
 20
7.6523739643292572
 30
0.0
 11
11.014120200497709
 21
7.6523739643292572
 31
0.0
  0
LINE
  5
6D6
  8
OBJECT
 10
10.9821202004977
 20
7.4493739643292747
 30
0.0
 11
11.014120200497709
 21
7.4493739643292747
 31
0.0
  0
LINE
  5
6D7
  8
OBJECT
 10
11.264120200497709
 20
7.4108739643292694
 30
0.0
 11
11.0761202004977
 21
7.4108739643292694
 31
0.0
  0
ARC
  5
6D8
  8
OBJECT
 10
11.07110117875858
 20
7.5508739643292691
 30
0.0
 40
0.1349809782608721
 50
131.23974529801319
 51
228.76025470198721
  0
LINE
  5
6D9
  8
OBJECT
 10
10.9821202004977
 20
7.6523739643292643
 30
0.0
 11
10.9821202004977
 21
7.4493739643292747
 31
0.0
  0
LINE
  5
6DA
  8
OBJECT
 10
10.93612020049771
 20
9.033873964329274
 30
0.0
 11
10.82712020049771
 21
9.0338739643292811
 31
0.0
  0
LINE
  5
6DB
  8
OBJECT
 10
10.93612020049771
 20
8.6918739643292753
 30
0.0
 11
10.82712020049771
 21
8.6918739643292753
 31
0.0
  0
LINE
  5
6DC
  8
OBJECT
 10
10.93612020049771
 20
8.7378739643292747
 30
0.0
 11
10.82712020049771
 21
8.7378739643292818
 31
0.0
  0
LINE
  5
6DD
  8
OBJECT
 10
10.93612020049771
 20
8.9878739643292747
 30
0.0
 11
10.82712020049771
 21
8.9878739643292818
 31
0.0
  0
LINE
  5
6DE
  8
OBJECT
 10
10.82712020049771
 20
9.0338739643292811
 30
0.0
 11
10.82712020049771
 21
8.6918739643292753
 31
0.0
  0
LINE
  5
6DF
  8
OBJECT
 10
11.014120200497709
 20
7.7698739643292782
 30
0.0
 11
11.1071202004977
 21
7.7698739643292782
 31
0.0
  0
LINE
  5
6E0
  8
OBJECT
 10
11.014120200497709
 20
9.1438739643292664
 30
0.0
 11
11.1071202004977
 21
9.1438739643292664
 31
0.0
  0
LINE
  5
6E1
  8
OBJECT
 10
11.264120200497709
 20
8.9098739643292717
 30
0.0
 11
11.264120200497709
 21
8.0038739643292711
 31
0.0
  0
LINE
  5
6E2
  8
OBJECT
 10
11.264120200497709
 20
9.1908739643292705
 30
0.0
 11
11.1071202004977
 21
9.1908739643292705
 31
0.0
  0
LINE
  5
6E3
  8
OBJECT
 10
10.93612020049771
 20
9.2218739643292693
 30
0.0
 11
11.014120200497709
 21
9.2218739643292693
 31
0.0
  0
LINE
  5
6E4
  8
OBJECT
 10
10.93612020049771
 20
8.5038739643292711
 30
0.0
 11
11.014120200497709
 21
8.5038739643292711
 31
0.0
  0
LINE
  5
6E5
  8
OBJECT
 10
10.93612020049771
 20
9.2218739643292693
 30
0.0
 11
10.93612020049771
 21
8.5038739643292711
 31
0.0
  0
LINE
  5
6E6
  8
OBJECT
 10
10.9821202004977
 20
9.2613739643292874
 30
0.0
 11
11.014120200497709
 21
9.2613739643292874
 31
0.0
  0
ARC
  5
6E7
  8
OBJECT
 10
11.0761202004977
 20
9.4408739643292705
 30
0.0
 40
0.062
 50
90.0
 51
180.0
  0
LINE
  5
6E8
  8
OBJECT
 10
10.9821202004977
 20
9.4643739643292601
 30
0.0
 11
11.014120200497709
 21
9.4643739643292601
 31
0.0
  0
LINE
  5
6E9
  8
OBJECT
 10
11.0761202004977
 20
9.5028739643292681
 30
0.0
 11
11.264120200497709
 21
9.5028739643292681
 31
0.0
  0
LINE
  5
6EA
  8
OBJECT
 10
12.7946202004977
 20
7.1448739643292711
 30
0.0
 11
12.7946202004977
 21
7.4568739643292679
 31
0.0
  0
LINE
  5
6EB
  8
OBJECT
 10
15.031674121837931
 20
5.878848491354467
 30
0.0
 11
17.327847127942
 21
5.878848491354467
 31
0.0
  0
LINE
  5
6EC
  8
OBJECT
 10
15.029679440986911
 20
5.503848491354467
 30
0.0
 11
17.327847127942
 21
5.503848491354467
 31
0.0
  0
LINE
  5
6ED
  8
OBJECT
 10
13.669620200497709
 20
5.503848491354467
 30
0.0
 11
14.72981628094829
 21
5.503848491354467
 31
0.0
  0
LINE
  5
6EE
  8
OBJECT
 10
13.669620200497709
 20
5.878848491354467
 30
0.0
 11
14.730818954745059
 21
5.878848491354467
 31
0.0
  0
ARC
  5
6EF
  8
OBJECT
 10
15.030178111199669
 20
5.5973484913544729
 30
0.0
 40
0.0935013297872338
 50
269.69442323359362
 51
90.305576766406404
  0
ARC
  5
6F0
  8
OBJECT
 10
15.03117545162517
 20
5.7843484913544714
 30
0.0
 40
0.0935013297872338
 50
89.694423233593596
 51
270.30557676640632
  0
ARC
  5
6F1
  8
OBJECT
 10
14.73031495116104
 20
5.7843484913544714
 30
0.0
 40
0.0935013297872338
 50
89.694423233593596
 51
270.30557676640632
  0
ARC
  5
6F2
  8
OBJECT
 10
14.72931761073554
 20
5.5973484913544729
 30
0.0
 40
0.0935013297872338
 50
269.69442323359362
 51
90.305576766406404
  0
LINE
  5
6F3
  8
OBJECT
 10
14.730818954745059
 20
5.878848491354467
 30
0.0
 11
14.72981628094829
 21
5.6908484913544646
 31
0.0
  0
LINE
  5
6F4
  8
OBJECT
 10
15.029679440986911
 20
5.503848491354467
 30
0.0
 11
15.030676781412421
 21
5.6908484913544646
 31
0.0
  0
LINE
  5
6F5
  8
OBJECT
 10
17.60884712794201
 20
5.488348491354464
 30
0.0
 11
17.60884712794201
 21
5.8943484913544699
 31
0.0
  0
LINE
  5
6F6
  8
OBJECT
 10
17.327847127942
 20
5.378848491354467
 30
0.0
 11
17.327847127942
 21
6.003848491354467
 31
0.0
  0
LINE
  5
6F7
  8
OBJECT
 10
13.6696202004977
 20
7.1448739643292711
 30
0.0
 11
13.6696202004977
 21
7.4568739643292679
 31
0.0
  0
LINE
  5
6F8
  8
OBJECT
 10
18.85884712794201
 20
6.160348491354469
 30
0.0
 11
18.046847127942002
 21
6.160348491354469
 31
0.0
  0
LINE
  5
6F9
  8
OBJECT
 10
18.85884712794201
 20
5.2223484913544729
 30
0.0
 11
18.046847127942002
 21
5.2223484913544729
 31
0.0
  0
LINE
  5
6FA
  8
OBJECT
 10
19.546847127942009
 20
5.9723484913544729
 30
0.0
 11
18.85884712794201
 21
5.9723484913544729
 31
0.0
  0
LINE
  5
6FB
  8
OBJECT
 10
19.546847127942009
 20
5.9263484913544673
 30
0.0
 11
18.85884712794201
 21
5.9263484913544673
 31
0.0
  0
LINE
  5
6FC
  8
OBJECT
 10
19.546847127942009
 20
5.4563484913544684
 30
0.0
 11
18.85884712794201
 21
5.4563484913544684
 31
0.0
  0
LINE
  5
6FD
  8
OBJECT
 10
19.546847127942009
 20
5.4103484913544611
 30
0.0
 11
18.85884712794201
 21
5.410348491354469
 31
0.0
  0
LINE
  5
6FE
  8
OBJECT
 10
18.85884712794201
 20
5.785348491354469
 30
0.0
 11
19.576847127941999
 21
5.785348491354469
 31
0.0
  0
LINE
  5
6FF
  8
OBJECT
 10
18.85884712794201
 20
5.5973484913544729
 30
0.0
 11
19.576847127941999
 21
5.5973484913544729
 31
0.0
  0
LINE
  5
700
  8
OBJECT
 10
18.85884712794201
 20
5.2223484913544729
 30
0.0
 11
18.85884712794201
 21
6.160348491354469
 31
0.0
  0
LINE
  5
701
  8
OBJECT
 10
19.546847127942009
 20
5.9723484913544729
 30
0.0
 11
19.546847127942009
 21
5.9263484913544673
 31
0.0
  0
LINE
  5
702
  8
OBJECT
 10
19.546847127942009
 20
5.4103484913544611
 30
0.0
 11
19.546847127942009
 21
5.4563484913544684
 31
0.0
  0
ARC
  5
703
  8
OBJECT
 10
19.576847127941999
 20
5.691348491354467
 30
0.0
 40
0.094
 50
270.0
 51
90.0
  0
ARC
  5
704
  8
OBJECT
 10
28.582139222236851
 20
9.3628739643292676
 30
0.0
 40
0.1349809782608721
 50
311.23974529801319
 51
48.76025470198725
  0
ARC
  5
705
  8
OBJECT
 10
28.582139222236851
 20
7.5508739643292691
 30
0.0
 40
0.1349809782608721
 50
311.23974529801268
 51
48.760254701986739
  0
LINE
  5
706
  8
OBJECT
 10
28.671120200497722
 20
9.2613739643292732
 30
0.0
 11
28.671120200497722
 21
9.4643739643292601
 31
0.0
  0
LINE
  5
707
  8
OBJECT
 10
28.639120200497722
 20
9.4408739643292705
 30
0.0
 11
28.639120200497722
 21
7.4728739643292661
 31
0.0
  0
LINE
  5
708
  8
OBJECT
 10
28.389120200497722
 20
9.5028739643292681
 30
0.0
 11
28.389120200497722
 21
9.1908739643292705
 31
0.0
  0
LINE
  5
709
  8
OBJECT
 10
28.546120200497711
 20
7.7228739643292741
 30
0.0
 11
28.546120200497711
 21
8.0038739643292711
 31
0.0
  0
ARC
  5
70A
  8
OBJECT
 10
28.57712020049771
 20
7.4728739643292661
 30
0.0
 40
0.062
 50
270.0
 51
0.0
  0
LINE
  5
70B
  8
OBJECT
 10
28.389120200497722
 20
7.7228739643292661
 30
0.0
 11
28.389120200497722
 21
7.4108739643292694
 31
0.0
  0
LINE
  5
70C
  8
OBJECT
 10
28.639120200497711
 20
7.7228739643292741
 30
0.0
 11
28.389120200497722
 21
7.7228739643292661
 31
0.0
  0
LINE
  5
70D
  8
OBJECT
 10
28.671120200497722
 20
7.6523739643292643
 30
0.0
 11
28.671120200497722
 21
7.4493739643292747
 31
0.0
  0
LINE
  5
70E
  8
OBJECT
 10
28.671120200497722
 20
7.4493739643292747
 30
0.0
 11
28.639120200497722
 21
7.4493739643292747
 31
0.0
  0
LINE
  5
70F
  8
OBJECT
 10
28.671120200497722
 20
7.6523739643292572
 30
0.0
 11
28.639120200497722
 21
7.6523739643292572
 31
0.0
  0
LINE
  5
710
  8
OBJECT
 10
28.389120200497722
 20
7.4108739643292694
 30
0.0
 11
28.57712020049771
 21
7.4108739643292694
 31
0.0
  0
LINE
  5
711
  8
OBJECT
 10
28.389120200497722
 20
8.9098739643292717
 30
0.0
 11
28.389120200497722
 21
8.0038739643292711
 31
0.0
  0
LINE
  5
712
  8
OBJECT
 10
28.546120200497711
 20
9.1908739643292705
 30
0.0
 11
28.546120200497711
 21
8.9098739643292717
 31
0.0
  0
LINE
  5
713
  8
OBJECT
 10
28.639120200497711
 20
9.1908739643292705
 30
0.0
 11
28.389120200497722
 21
9.1908739643292705
 31
0.0
  0
LINE
  5
714
  8
OBJECT
 10
28.671120200497722
 20
9.2613739643292874
 30
0.0
 11
28.639120200497722
 21
9.2613739643292874
 31
0.0
  0
ARC
  5
715
  8
OBJECT
 10
28.57712020049771
 20
9.4408739643292705
 30
0.0
 40
0.062
 50
0.0
 51
90.0
  0
LINE
  5
716
  8
OBJECT
 10
28.671120200497722
 20
9.4643739643292601
 30
0.0
 11
28.639120200497722
 21
9.4643739643292601
 31
0.0
  0
LINE
  5
717
  8
OBJECT
 10
28.57712020049771
 20
9.5028739643292681
 30
0.0
 11
28.389120200497722
 21
9.5028739643292681
 31
0.0
  0
LINE
  5
718
  8
OBJECT
 10
11.107120200497709
 20
12.104060411231959
 30
0.0
 11
28.546120200497711
 21
12.104060411231959
 31
0.0
  0
LINE
  5
719
  8
OBJECT
 10
11.264120200497709
 20
13.57306041123196
 30
0.0
 11
28.389120200497722
 21
13.57306041123196
 31
0.0
  0
LINE
  5
71A
  8
OBJECT
 10
11.264120200497709
 20
12.16706041123196
 30
0.0
 11
28.389120200497722
 21
12.16706041123196
 31
0.0
  0
LINE
  5
71B
  8
OBJECT
 10
11.107120200497709
 20
12.04206041123196
 30
0.0
 11
28.546120200497711
 21
12.04206041123196
 31
0.0
  0
LINE
  5
71C
  8
OBJECT
 10
11.264120200497709
 20
13.91706041123196
 30
0.0
 11
28.389120200497722
 21
13.91706041123196
 31
0.0
  0
LINE
  5
71D
  8
OBJECT
 10
11.014120200497709
 20
13.91706041123196
 30
0.0
 11
11.014120200497709
 21
11.979060411231959
 31
0.0
  0
LINE
  5
71E
  8
OBJECT
 10
11.264120200497709
 20
13.979060411231959
 30
0.0
 11
11.264120200497709
 21
12.12106041123195
 31
0.0
  0
ARC
  5
71F
  8
OBJECT
 10
10.447208611930829
 20
13.194609574945639
 30
0.0
 40
0.4900545886768541
 50
320.82710583545253
 51
3.9140194955547218
  0
LINE
  5
720
  8
OBJECT
 10
10.93612020049771
 20
12.635060411231949
 30
0.0
 11
10.93612020049771
 21
13.35306041123196
 31
0.0
  0
LINE
  5
721
  8
OBJECT
 10
10.82712020049771
 20
12.885060411231949
 30
0.0
 11
10.93612020049771
 21
12.760060411231949
 31
0.0
  0
ARC
  5
722
  8
OBJECT
 10
11.0761202004977
 20
12.183060411231949
 30
0.0
 40
0.062
 50
180.0
 51
270.0
  0
LINE
  5
723
  8
OBJECT
 10
10.9821202004977
 20
12.15856041123196
 30
0.0
 11
10.9821202004977
 21
12.361560411231951
 31
0.0
  0
ARC
  5
724
  8
OBJECT
 10
11.07110117875858
 20
12.260060411231949
 30
0.0
 40
0.1349809782608721
 50
131.23974529801271
 51
228.7602547019867
  0
LINE
  5
725
  8
OBJECT
 10
10.9821202004977
 20
12.361560411231951
 30
0.0
 11
11.014120200497709
 21
12.361560411231951
 31
0.0
  0
LINE
  5
726
  8
OBJECT
 10
10.9821202004977
 20
12.15856041123196
 30
0.0
 11
11.014120200497709
 21
12.15856041123196
 31
0.0
  0
LINE
  5
727
  8
OBJECT
 10
11.1071202004977
 20
12.121060411231939
 30
0.0
 11
11.1071202004977
 21
11.979060411231959
 31
0.0
  0
LINE
  5
728
  8
OBJECT
 10
11.01412020049775
 20
11.979060411231959
 30
0.0
 11
11.107120200497709
 21
11.979060411231959
 31
0.0
  0
LINE
  5
729
  8
OBJECT
 10
11.0761202004977
 20
12.12106041123195
 30
0.0
 11
11.264120200497709
 21
12.12106041123195
 31
0.0
  0
LINE
  5
72A
  8
OBJECT
 10
10.93612020049771
 20
12.635060411231949
 30
0.0
 11
11.014120200497709
 21
12.635060411231949
 31
0.0
  0
ARC
  5
72B
  8
OBJECT
 10
11.0761202004977
 20
13.91706041123196
 30
0.0
 40
0.062
 50
90.00000000000081
 51
180.0
  0
LINE
  5
72C
  8
OBJECT
 10
10.9821202004977
 20
13.533560411231971
 30
0.0
 11
11.014120200497709
 21
13.533560411231971
 31
0.0
  0
LINE
  5
72D
  8
OBJECT
 10
10.9821202004977
 20
13.736560411231951
 30
0.0
 11
11.014120200497709
 21
13.736560411231951
 31
0.0
  0
ARC
  5
72E
  8
OBJECT
 10
11.07110117875858
 20
13.635060411231949
 30
0.0
 40
0.1349809782608721
 50
131.23974529801271
 51
228.7602547019867
  0
LINE
  5
72F
  8
OBJECT
 10
10.9821202004977
 20
13.533560411231971
 30
0.0
 11
10.9821202004977
 21
13.736560411231951
 31
0.0
  0
LINE
  5
730
  8
OBJECT
 10
11.0761202004977
 20
13.979060411231959
 30
0.0
 11
11.264120200497709
 21
13.979060411231959
 31
0.0
  0
LINE
  5
731
  8
OBJECT
 10
10.93612020049771
 20
13.35306041123196
 30
0.0
 11
11.014120200497709
 21
13.35306041123196
 31
0.0
  0
LINE
  5
732
  8
OBJECT
 10
13.53837371072748
 20
13.99506041123197
 30
0.0
 11
14.631373710727489
 21
13.99506041123197
 31
0.0
  0
ARC
  5
733
  8
OBJECT
 10
14.27773977632401
 20
14.44484378675693
 30
0.0
 40
0.4498761092304343
 50
215.58436299762741
 51
271.16336885332009
  0
LINE
  5
734
  8
OBJECT
 10
13.538373710727489
 20
13.99506041123197
 30
0.0
 11
13.475873710727489
 21
13.91706041123196
 31
0.0
  0
LINE
  5
735
  8
OBJECT
 10
13.9118737107275
 20
14.183060411231949
 30
0.0
 11
13.693873710727489
 21
13.99506041123197
 31
0.0
  0
LINE
  5
736
  8
OBJECT
 10
14.631373710727489
 20
13.99506041123197
 30
0.0
 11
14.693873710727489
 21
13.91706041123196
 31
0.0
  0
ARC
  5
737
  8
OBJECT
 10
16.952120200497699
 20
13.620849473731971
 30
0.0
 40
0.3902109374999867
 50
61.281326911509659
 51
118.71867308849031
  0
LINE
  5
738
  8
OBJECT
 10
16.764620200497699
 20
13.963060411231959
 30
0.0
 11
17.139620200497699
 21
13.963060411231959
 31
0.0
  0
LINE
  5
739
  8
OBJECT
 10
16.764620200497699
 20
13.963060411231959
 30
0.0
 11
16.764620200497699
 21
13.91706041123196
 31
0.0
  0
LINE
  5
73A
  8
OBJECT
 10
17.139620200497699
 20
13.963060411231959
 30
0.0
 11
17.139620200497699
 21
13.91706041123196
 31
0.0
  0
ARC
  5
73B
  8
OBJECT
 10
28.58213922223684
 20
13.635060411231949
 30
0.0
 40
0.1349809782608721
 50
311.23974529801319
 51
48.760254701987243
  0
ARC
  5
73C
  8
OBJECT
 10
28.58213922223684
 20
12.260060411231949
 30
0.0
 40
0.1349809782608721
 50
311.23974529801319
 51
48.760254701987243
  0
LINE
  5
73D
  8
OBJECT
 10
27.17012020049771
 20
14.10506041123195
 30
0.0
 11
28.232120200497711
 21
14.10506041123195
 31
0.0
  0
LINE
  5
73E
  8
OBJECT
 10
27.17012020049771
 20
14.10506041123195
 30
0.0
 11
27.17012020049771
 21
13.91706041123196
 31
0.0
  0
LINE
  5
73F
  8
OBJECT
 10
28.389120200497711
 20
13.979060411231959
 30
0.0
 11
28.389120200497711
 21
12.12106041123195
 31
0.0
  0
LINE
  5
740
  8
OBJECT
 10
28.639120200497711
 20
13.91706041123196
 30
0.0
 11
28.639120200497711
 21
12.183060411231949
 31
0.0
  0
ARC
  5
741
  8
OBJECT
 10
28.577120200497699
 20
12.183060411231949
 30
0.0
 40
0.062
 50
270.0
 51
0.0
  0
LINE
  5
742
  8
OBJECT
 10
28.577120200497699
 20
12.12106041123195
 30
0.0
 11
28.389120200497711
 21
12.12106041123195
 31
0.0
  0
LINE
  5
743
  8
OBJECT
 10
28.546120200497711
 20
12.121060411231939
 30
0.0
 11
28.546120200497711
 21
12.04206041123196
 31
0.0
  0
LINE
  5
744
  8
OBJECT
 10
28.671120200497722
 20
12.15856041123196
 30
0.0
 11
28.639120200497711
 21
12.15856041123196
 31
0.0
  0
LINE
  5
745
  8
OBJECT
 10
28.671120200497722
 20
12.361560411231951
 30
0.0
 11
28.639120200497711
 21
12.361560411231951
 31
0.0
  0
LINE
  5
746
  8
OBJECT
 10
28.671120200497722
 20
12.15856041123196
 30
0.0
 11
28.671120200497722
 21
12.361560411231951
 31
0.0
  0
ARC
  5
747
  8
OBJECT
 10
28.577120200497699
 20
13.91706041123196
 30
0.0
 40
0.062
 50
0.0
 51
89.999999999999204
  0
LINE
  5
748
  8
OBJECT
 10
28.577120200497699
 20
13.979060411231959
 30
0.0
 11
28.389120200497711
 21
13.979060411231959
 31
0.0
  0
LINE
  5
749
  8
OBJECT
 10
28.671120200497722
 20
13.533560411231971
 30
0.0
 11
28.671120200497722
 21
13.736560411231951
 31
0.0
  0
LINE
  5
74A
  8
OBJECT
 10
28.671120200497722
 20
13.736560411231951
 30
0.0
 11
28.639120200497711
 21
13.736560411231951
 31
0.0
  0
LINE
  5
74B
  8
OBJECT
 10
28.671120200497722
 20
13.533560411231971
 30
0.0
 11
28.639120200497711
 21
13.533560411231971
 31
0.0
  0
LINE
  5
74C
  8
OBJECT
 10
28.232120200497711
 20
14.10506041123195
 30
0.0
 11
28.232120200497711
 21
13.91706041123196
 31
0.0
  0
LINE
  5
74D
  8
OBJECT
 10
24.108120200497709
 20
14.10506041123195
 30
0.0
 11
25.17012020049771
 21
14.10506041123195
 31
0.0
  0
LINE
  5
74E
  8
OBJECT
 10
24.108120200497709
 20
14.10506041123195
 30
0.0
 11
24.108120200497709
 21
13.91706041123196
 31
0.0
  0
LINE
  5
74F
  8
OBJECT
 10
25.17012020049771
 20
14.10506041123195
 30
0.0
 11
25.17012020049771
 21
13.91706041123196
 31
0.0
  0
LINE
  5
750
  8
OBJECT
 10
21.046120200497711
 20
14.10506041123195
 30
0.0
 11
22.108120200497709
 21
14.10506041123195
 31
0.0
  0
LINE
  5
751
  8
OBJECT
 10
21.046120200497711
 20
14.10506041123195
 30
0.0
 11
21.046120200497711
 21
13.91706041123196
 31
0.0
  0
LINE
  5
752
  8
OBJECT
 10
22.108120200497709
 20
14.10506041123195
 30
0.0
 11
22.108120200497709
 21
13.91706041123196
 31
0.0
  0
LINE
  5
753
  8
OBJECT
 10
17.98412020049771
 20
14.10506041123195
 30
0.0
 11
19.046120200497711
 21
14.10506041123195
 31
0.0
  0
LINE
  5
754
  8
OBJECT
 10
17.98412020049771
 20
14.10506041123195
 30
0.0
 11
17.98412020049771
 21
13.91706041123196
 31
0.0
  0
LINE
  5
755
  8
OBJECT
 10
19.046120200497711
 20
14.10506041123195
 30
0.0
 11
19.046120200497711
 21
13.91706041123196
 31
0.0
  0
DIMENSION
  5
756
  8
DIM
  2
*D5
 10
21.577120200497721
 20
16.679549150575639
 30
0.0
 11
20.046120200497711
 21
16.679549150575639
 31
0.0
 70
     0
  1
D
 13
18.515120200497719
 23
18.263926080240928
 33
0.0
 14
21.577120200497721
 24
18.263926080240928
 34
0.0
1001
ACAD
1000
DSTYLE
1002
{
1070
    40
1040
2.5
1002
}
  0
DIMENSION
  5
757
  8
DIM
  2
*D3
 10
27.701120200497719
 20
15.84867452965227
 30
0.0
 11
23.108120200497709
 21
15.84867452965227
 31
0.0
 70
     0
  1
C
 13
18.515120200497719
 23
18.263926080240928
 33
0.0
 14
27.701120200497719
 24
18.263926080240928
 34
0.0
1001
ACAD
1000
DSTYLE
1002
{
1070
    40
1040
2.5
1002
}
  0
DIMENSION
  5
758
  8
DIM
  2
*D8
 10
28.639120200497722
 20
15.84867452965227
 30
0.0
 11
28.17012020049772
 21
15.84867452965227
 31
0.0
 70
     0
  1
B
 13
27.701120200497719
 23
18.263926080240928
 33
0.0
 14
28.639120200497722
 24
17.74892608024091
 34
0.0
1001
ACAD
1000
DSTYLE
1002
{
1070
    40
1040
2.5
1002
}
  0
DIMENSION
  5
759
  8
DIM
  2
*D2
 10
28.639120200497711
 20
10.65050598487217
 30
0.0
 11
19.826620200497711
 21
10.65050598487217
 31
0.0
 70
     0
  1
A
 13
11.014120200497709
 23
11.979060411231959
 33
0.0
 14
28.639120200497711
 24
12.183060411231949
 34
0.0
1001
ACAD
1000
DSTYLE
1002
{
1070
    40
1040
2.5
1002
}
  0
DIMENSION
  5
75A
  8
DIM
  2
*D10
 10
9.6416757931790151
 20
11.979060411231959
 30
0.0
 11
9.6416757931790134
 21
12.979060411231959
 31
0.0
 70
     0
  1
E
 13
11.0761202004977
 23
13.979060411231959
 33
0.0
 14
11.014120200497709
 24
11.979060411231959
 34
0.0
 50
90.0
1001
ACAD
1000
DSTYLE
1002
{
1070
    40
1040
2.5
1002
}
  0
DIMENSION
  5
75B
  8
DIM
  2
*D11
 10
6.3358308439766002
 20
10.968139770036609
 30
0.0
 11
7.3818308439766058
 21
10.968139770036609
 31
0.0
 70
     0
  1
G
 13
8.4278308439766132
 23
12.18306041123196
 33
0.0
 14
6.3358308439766002
 24
12.18306041123196
 34
0.0
1001
ACAD
1000
DSTYLE
1002
{
1070
    40
1040
2.5
1002
}
  0
DIMENSION
  5
75C
  8
DIM
  2
*D4
 10
12.03019030275793
 20
17.79492608024092
 30
0.0
 11
12.03019030275793
 21
18.79492608024092
 31
0.0
 70
     0
  1
H
 13
11.83209615372707
 23
19.79492608024092
 33
0.0
 14
11.83209615372707
 24
17.79492608024092
 34
0.0
 50
90.0
1001
ACAD
1000
DSTYLE
1002
{
1070
    40
1040
2.5
1002
}
  0
DIMENSION
  5
75D
  8
DIM
  2
*D9
 10
26.192783486343121
 20
19.325926080240912
 30
0.0
 11
26.192783486343121
 21
18.794926080240931
 31
0.0
 70
     0
 13
25.17012020049772
 23
18.263926080240928
 33
0.0
 14
25.17012020049771
 24
19.325926080240912
 34
0.0
 50
90.0
1001
ACAD
1000
DSTYLE
1002
{
1070
    40
1040
2.5
1002
}
  0
DIMENSION
  5
75E
  8
DIM
  2
*D1
 10
24.108120200497709
 20
20.65423203175245
 30
0.0
 11
22.572963950497709
 21
20.65423203175245
 31
0.0
 70
     0
 13
25.17012020049771
 23
19.325926080240912
 33
0.0
 14
24.108120200497709
 24
19.325926080240912
 34
0.0
1001
ACAD
1000
DSTYLE
1002
{
1070
    40
1040
2.5
1002
}
  0
DIMENSION
  5
75F
  8
DIM
  2
*D6
 10
26.192783486343121
 20
14.10506041123195
 30
0.0
 11
27.277939736343122
 21
15.005060411231961
 31
0.0
 70
     0
 13
25.671363254986051
 23
13.91706041123196
 33
0.0
 14
25.17012020049771
 24
14.10506041123195
 34
0.0
 50
90.0
1001
ACAD
1000
DSTYLE
1002
{
1070
    40
1040
2.5
1002
}
  0
LINE
  5
761
  8
OBJECT
 10
34.600782262582307
 20
9.8077644939147692
 30
0.0
 11
34.600782262582307
 21
8.2077644939147678
 31
0.0
  0
LINE
  5
762
  8
OBJECT
 10
34.600782262582307
 20
8.2077644939147678
 30
0.0
 11
35.9757822625823
 21
8.2077644939147678
 31
0.0
  0
LINE
  5
763
  8
OBJECT
 10
35.9757822625823
 20
8.2077644939147678
 30
0.0
 11
35.9757822625823
 21
9.8077644939147692
 31
0.0
  0
LINE
  5
764
  8
OBJECT
 10
35.9757822625823
 20
9.8077644939147692
 30
0.0
 11
34.600782262582307
 21
9.8077644939147692
 31
0.0
  0
LINE
  5
765
  8
HIDDEN
 10
34.660782262582309
 20
9.8077644939147692
 30
0.0
 11
34.660782262582309
 21
8.2077644939147678
 31
0.0
  0
LINE
  5
766
  8
HIDDEN
 10
35.915782262582312
 20
8.2077644939147678
 30
0.0
 11
35.915782262582312
 21
9.8077644939147692
 31
0.0
  0
LINE
  5
767
  8
OBJECT
 10
34.709782262582301
 20
9.8077644939147692
 30
0.0
 11
34.709782262582301
 21
8.2077644939147678
 31
0.0
  0
LINE
  5
768
  8
OBJECT
 10
35.866782262582312
 20
8.2077644939147678
 30
0.0
 11
35.866782262582312
 21
9.8077644939147692
 31
0.0
  0
CIRCLE
  5
769
  8
OBJECT
 10
35.2882822625823
 20
9.0077644939147685
 30
0.0
 40
0.0935
  0
LINE
  5
76A
  8
OBJECT
 10
34.600782262582307
 20
7.422519640145536
 30
0.0
 11
34.600782262582307
 21
7.1575196401455363
 31
0.0
  0
LINE
  5
76B
  8
OBJECT
 10
34.600782262582307
 20
7.1575196401455363
 30
0.0
 11
35.9757822625823
 21
7.1575196401455363
 31
0.0
  0
LINE
  5
76C
  8
OBJECT
 10
35.9757822625823
 20
7.422519640145536
 30
0.0
 11
35.9757822625823
 21
7.1575196401455363
 31
0.0
  0
LINE
  5
76D
  8
OBJECT
 10
34.600782262582307
 20
7.422519640145536
 30
0.0
 11
34.709782262582301
 21
7.422519640145536
 31
0.0
  0
LINE
  5
76E
  8
OBJECT
 10
34.709782262582301
 20
7.422519640145536
 30
0.0
 11
34.709782262582301
 21
7.3625196401455337
 31
0.0
  0
LINE
  5
76F
  8
OBJECT
 10
34.660782262582309
 20
7.3625196401455337
 30
0.0
 11
34.709782262582301
 21
7.3625196401455337
 31
0.0
  0
LINE
  5
770
  8
OBJECT
 10
34.660782262582309
 20
7.3625196401455337
 30
0.0
 11
34.660782262582309
 21
7.217519640145535
 31
0.0
  0
LINE
  5
771
  8
OBJECT
 10
34.660782262582309
 20
7.217519640145535
 30
0.0
 11
35.915782262582312
 21
7.217519640145535
 31
0.0
  0
LINE
  5
772
  8
OBJECT
 10
35.915782262582312
 20
7.3625196401455337
 30
0.0
 11
35.915782262582312
 21
7.217519640145535
 31
0.0
  0
LINE
  5
773
  8
OBJECT
 10
35.866782262582312
 20
7.422519640145536
 30
0.0
 11
35.866782262582312
 21
7.3625196401455382
 31
0.0
  0
LINE
  5
774
  8
OBJECT
 10
35.866782262582312
 20
7.3625196401455382
 30
0.0
 11
35.915782262582312
 21
7.3625196401455382
 31
0.0
  0
LINE
  5
775
  8
OBJECT
 10
35.866782262582312
 20
7.422519640145536
 30
0.0
 11
35.9757822625823
 21
7.422519640145536
 31
0.0
  0
LINE
  5
776
  8
HIDDEN
 10
35.194782262582308
 20
7.1575196401455363
 30
0.0
 11
35.142625058313328
 21
7.217519640145535
 31
0.0
  0
LINE
  5
777
  8
HIDDEN
 10
35.381782262582313
 20
7.1575196401455363
 30
0.0
 11
35.433939466851278
 21
7.217519640145535
 31
0.0
  0
CIRCLE
  5
778
  8
OBJECT
 10
35.2882822625823
 20
9.0077644939147685
 30
0.0
 40
0.1455
  0
DIMENSION
  5
779
  8
DIM
  2
*D12
 10
33.670724647539878
 20
9.8077644939147692
 30
0.0
 11
33.670724647539878
 21
9.0077644939147739
 31
0.0
 70
     0
 13
34.600782262582307
 23
8.2077644939147678
 33
0.0
 14
34.600782262582307
 24
9.8077644939147692
 34
0.0
 50
90.0
  0
DIMENSION
  5
77A
  8
DIM
  2
*D13
 10
35.9757822625823
 20
6.3869626370678736
 30
0.0
 11
35.2882822625823
 21
6.3869626370678736
 31
0.0
 70
     0
 13
34.600782262582307
 23
7.1575196401455363
 33
0.0
 14
35.9757822625823
 24
7.1575196401455363
 34
0.0
  0
POLYLINE
  5
77B
  8
DIM
 66
     1
 10
0.0
 20
0.0
 30
0.0
 41
0.16875
  0
VERTEX
  5
10D3
  8
DIM
 10
16.244814094207481
 20
21.747951553215721
 30
0.0
  0
VERTEX
  5
10D4
  8
DIM
 10
15.870394626730221
 20
21.997571388914022
 30
0.0
 41
0.0
  0
VERTEX
  5
10D5
  8
DIM
 10
14.573537020774751
 20
22.86216687777533
 30
0.0
 41
0.0
  0
VERTEX
  5
10D6
  8
DIM
 10
14.261037020774751
 20
22.86216687777533
 30
0.0
 41
0.0
  0
SEQEND
  5
10D7
  8
DIM
  0
TEXT
  5
781
  8
DIM
 10
7.932912020774757
 20
22.70591687777533
 30
0.0
 40
0.3125
  1
14 GAUGE 3 WIRE POWER CORD
 41
0.75
  7
TXT
 72
     2
 11
13.948537020774751
 21
22.70591687777533
 31
0.0
  0
TEXT
  5
782
  8
DIM
 10
11.448537020774751
 20
22.185083544442001
 30
0.0
 40
0.3125
  1
6 FOOT LONG
 41
0.75
  7
TXT
 72
     2
 11
13.948537020774751
 21
22.185083544442001
 31
0.0
  0
POLYLINE
  5
783
  8
DIM
 66
     1
 10
0.0
 20
0.0
 30
0.0
 41
0.16875
  0
VERTEX
  5
10D8
  8
DIM
 10
18.62422082681946
 20
22.029451553215711
 30
0.0
  0
VERTEX
  5
10D9
  8
DIM
 10
18.955765155228232
 20
22.333718472712359
 30
0.0
 41
0.0
  0
VERTEX
  5
10DA
  8
DIM
 10
19.917889464292031
 20
23.286324389396309
 30
0.0
 41
0.0
  0
VERTEX
  5
10DB
  8
DIM
 10
20.230389464292031
 20
23.286324389396309
 30
0.0
 41
0.0
  0
SEQEND
  5
10DC
  8
DIM
  0
TEXT
  5
789
  8
DIM
 10
20.542889464292031
 20
23.130074389396309
 30
0.0
 40
0.3125
  1
MOLDED ON 3-PRONG PLUG
 41
0.75
  7
TXT
  0
POLYLINE
  5
78A
  8
DIM
 66
     1
 10
0.0
 20
0.0
 30
0.0
 41
0.16875
  0
VERTEX
  5
10DD
  8
DIM
 10
27.568057808350432
 20
19.325926080240912
 30
0.0
  0
VERTEX
  5
10DE
  8
DIM
 10
27.713666670163601
 20
19.751717178505629
 30
0.0
 41
0.0
  0
VERTEX
  5
10DF
  8
DIM
 10
28.403696345066791
 20
21.769509842040481
 30
0.0
 41
0.0
  0
VERTEX
  5
10E0
  8
DIM
 10
28.716196345066791
 20
21.769509842040481
 30
0.0
 41
0.0
  0
SEQEND
  5
10E1
  8
DIM
  0
TEXT
  5
790
  8
DIM
 10
29.028696345066791
 20
21.613259842040481
 30
0.0
 40
0.3125
  1
GROUNDING TYPE 15 AMP 125 VOLT 
 41
0.75
  7
TXT
  0
TEXT
  5
791
  8
DIM
 10
29.028696345066791
 20
21.092426508707149
 30
0.0
 40
0.3125
  1
RECEPTACLE
 41
0.75
  7
TXT
  0
POLYLINE
  5
792
  8
DIM
 66
     1
 10
0.0
 20
0.0
 30
0.0
 41
0.16875
  0
VERTEX
  5
10E2
  8
DIM
 10
7.9754678385224764
 20
13.35306041123196
 30
0.0
  0
VERTEX
  5
10E3
  8
DIM
 10
7.8714456260265511
 20
13.79087244773558
 30
0.0
 41
0.0
  0
VERTEX
  5
10E4
  8
DIM
 10
7.3971240011220507
 20
15.787212571392191
 30
0.0
 41
0.0
  0
VERTEX
  5
10E5
  8
DIM
 10
7.0846240011220507
 20
15.787212571392191
 30
0.0
 41
0.0
  0
SEQEND
  5
10E6
  8
DIM
  0
TEXT
  5
798
  8
DIM
 10
0.4439990011220516
 20
15.630962571392191
 30
0.0
 40
0.3125
  1
CIRCUIT BREAKER THERMAL TYPE
 41
0.75
  7
TXT
 72
     2
 11
6.7721240011220507
 21
15.630962571392191
 31
0.0
  0
TEXT
  5
799
  8
DIM
 10
3.4127490011220512
 20
15.11012923805885
 30
0.0
 40
0.3125
  1
15 AMP 125 VOLT
 41
0.75
  7
TXT
 72
     2
 11
6.7721240011220507
 21
15.11012923805885
 31
0.0
  0
TEXT
  5
79A
  8
DIM
 10
4.3488746181496927
 20
14.589295904725519
 30
0.0
 40
0.3125
  1
WITH RESET
 41
0.75
  7
TXT
 72
     2
 11
6.6144996181496927
 21
14.589295904725519
 31
0.0
  0
POLYLINE
  5
79B
  8
DIM
 66
     1
 10
0.0
 20
0.0
 30
0.0
 41
0.16875
  0
VERTEX
  5
10E7
  8
DIM
 10
13.6696202004977
 20
20.066785961353681
 30
0.0
  0
VERTEX
  5
10E8
  8
DIM
 10
14.06872505827725
 20
20.274668891140529
 30
0.0
 41
0.0
  0
VERTEX
  5
10E9
  8
DIM
 10
14.591752574708631
 20
20.54709978331212
 30
0.0
 41
0.0
  0
VERTEX
  5
10EA
  8
DIM
 10
14.904252574708631
 20
20.54709978331212
 30
0.0
 41
0.0
  0
SEQEND
  5
10EB
  8
DIM
  0
TEXT
  5
7A1
  8
DIM
 10
15.216752574708631
 20
20.39084978331212
 30
0.0
 40
0.3125
  1
STRAIN RELIEF
 41
0.75
  7
TXT
  0
POLYLINE
  5
7A2
  8
DIM
 66
     1
 10
0.0
 20
0.0
 30
0.0
 41
0.16875
  0
VERTEX
  5
10EC
  8
DIM
 10
13.792545145860011
 20
18.73242608024092
 30
0.0
  0
VERTEX
  5
10ED
  8
DIM
 10
13.556918674169721
 20
18.34904615661582
 30
0.0
 41
0.0
  0
VERTEX
  5
10EE
  8
DIM
 10
12.46435760141455
 20
16.521978679287731
 30
0.0
 41
0.0
  0
VERTEX
  5
10EF
  8
DIM
 10
12.15185760141455
 20
16.521978679287731
 30
0.0
 41
0.0
  0
SEQEND
  5
10F0
  8
DIM
  0
TEXT
  5
7A8
  8
DIM
 10
9.4956076014145552
 20
16.365728679287731
 30
0.0
 40
0.3125
  1
ILLUMINATED
 41
0.75
  7
TXT
 72
     2
 11
11.83935760141455
 21
16.365728679287731
 31
0.0
  0
TEXT
  5
7A9
  8
DIM
 10
8.6362326014145552
 20
15.8448953459544
 30
0.0
 40
0.3125
  1
ON/ OFF SWITCH
 41
0.75
  7
TXT
 72
     2
 11
11.83935760141455
 21
15.8448953459544
 31
0.0
  0
POLYLINE
  5
7AA
  8
DIM
 66
     1
 10
0.0
 20
0.0
 30
0.0
 41
0.16875
  0
VERTEX
  5
10F1
  8
DIM
 10
17.061911349322809
 20
18.642932153916011
 30
0.0
  0
VERTEX
  5
10F2
  8
DIM
 10
17.221676082381869
 20
18.22224791357586
 30
0.0
 41
0.0
  0
VERTEX
  5
10F3
  8
DIM
 10
17.677012022258129
 20
17.02328084306723
 30
0.0
 41
0.0
  0
VERTEX
  5
10F4
  8
DIM
 10
17.281382363078869
 20
17.02328084306723
 30
0.0
 41
0.0
  0
SEQEND
  5
10F5
  8
DIM
  0
TEXT
  5
7B0
  8
DIM
 10
13.458262022258131
 20
16.86703084306723
 30
0.0
 40
0.3125
  1
SURGE PROTECTION
 41
0.75
  7
TXT
  0
TEXT
  5
7B1
  8
DIM
 10
14.005137022258131
 20
16.346197509733901
 30
0.0
 40
0.3125
  1
INDICATOR LAMP
 41
0.75
  7
TXT
  0
TEXT
  5
7B2
  8
TEXT
 10
33.09676644202969
 20
5.3012776214976496
 30
0.0
 40
0.312
  1
%%UMOUNTING CLIP DETAIL
 41
0.75
  7
TXT
 72
     1
 11
35.284666442029689
 21
5.3012776214976496
 31
0.0
  0
TEXT
  5
7B3
  8
DIM
 10
20.345590673570332
 20
16.86621139418035
 30
0.0
 40
0.312
  1
TYP.
 41
0.75
  7
TXT
  0
LINE
  5
7B4
  8
TITLE
 10
38.594999999999999
 20
0.6749999999999942
 30
0.0
 11
0.1550000000000029
 21
0.675000000000003
 31
0.0
  0
LINE
  5
7B5
  8
TITLE
 10
38.594999999999999
 20
1.1949999999999941
 30
0.0
 11
0.1550000000000029
 21
1.1950000000000021
 31
0.0
  0
LINE
  5
7B6
  8
TITLE
 10
38.594999999999999
 20
1.7149999999999941
 30
0.0
 11
0.1550000000000029
 21
1.7150000000000021
 31
0.0
  0
LINE
  5
7B7
  8
TITLE
 10
38.594999999999999
 20
2.2349999999999941
 30
0.0
 11
0.1550000000000029
 21
2.2350000000000021
 31
0.0
  0
LINE
  5
7B8
  8
TITLE
 10
38.594999999999999
 20
2.7549999999999941
 30
0.0
 11
0.1550000000000029
 21
2.755000000000003
 31
0.0
  0
LINE
  5
7B9
  8
TITLE
 10
38.594999999999999
 20
3.2749999999999941
 30
0.0
 11
0.1550000000000029
 21
3.275000000000003
 31
0.0
  0
LINE
  5
7BA
  8
TITLE
 10
38.594999999999999
 20
4.3149999999999942
 30
0.0
 11
0.1550000000000029
 21
4.3150000000000031
 31
0.0
  0
TEXT
  5
7BB
  8
TEXT
 10
1.0980877600578891
 20
10.37228688815971
 30
0.0
 40
0.312
  1
%%UMATERIAL:
 41
0.75
  7
TXT
  0
TEXT
  5
7BC
  8
TEXT
 10
1.5463932897230781
 20
9.8522868881597176
 30
0.0
 40
0.312
  1
HOUSING (TOP & BOTTOM CHANNELS) &
 41
0.75
  7
TXT
  0
TEXT
  5
7BD
  8
TEXT
 10
1.9674737872223651
 20
9.3322868881597181
 30
0.0
 40
0.312
  1
MTG. CLIPS - ALUMINUM EXTRUSIONS
 41
0.75
  7
TXT
  0
TEXT
  5
7BE
  8
TEXT
 10
1.5463932897230781
 20
8.8122868881597185
 30
0.0
 40
0.312
  1
END CAPS - ABS PLASTIC
 41
0.75
  7
TXT
  0
TEXT
  5
7BF
  8
TEXT
 10
1.0980877600578891
 20
7.7787710870930242
 30
0.0
 40
0.312
  1
%%UFINISH:
 41
0.75
  7
TXT
  0
TEXT
  5
7C0
  8
TEXT
 10
1.5463932897230781
 20
7.2587710870930238
 30
0.0
 40
0.312
  1
HOUSING - GREY
 41
0.75
  7
TXT
  0
TEXT
  5
7C1
  8
TEXT
 10
1.5463932897230781
 20
6.2187710870930246
 30
0.0
 40
0.312
  1
RECEPTACLES, POWER CORD & END
 41
0.75
  7
TXT
  0
TEXT
  5
7C2
  8
TEXT
 10
1.9674737872223651
 20
5.698771087093025
 30
0.0
 40
0.312
  1
CAPS - BLACK
 41
0.75
  7
TXT
  0
TEXT
  5
7C3
  8
TEXT
 10
1.5463932897230781
 20
4.6587710870930259
 30
0.0
 40
0.312
  1
MTG. CLIPS - NATURAL
 41
0.75
  7
TXT
  0
TEXT
  5
7C4
  8
TEXT
 10
7.2604397412697592
 20
24.39562963760093
 30
0.0
 40
0.468
  1
POWER OUTLET STRIP
 41
0.75
  7
TXT
 72
     1
 11
10.36093974126975
 21
24.39562963760093
 31
0.0
  0
TEXT
  5
7C5
  8
TEXT
 10
26.721447941462799
 20
24.39562963760093
 30
0.0
 40
0.468
  1
POS-4-S  TO  POS-66
 41
0.75
  7
TXT
 72
     1
 11
29.997447941462799
 21
24.39562963760093
 31
0.0
  0
TEXT
  5
7C6
  8
TEXT
 10
1.556122432331992
 20
2.8642568621330762
 30
0.0
 40
0.312
  1
POS-4-S
 41
0.75
  7
TXT
 72
     1
 11
2.336122432331992
 21
2.8642568621330762
 31
0.0
  0
TEXT
  5
7C7
  8
TEXT
 10
1.790122432331992
 20
2.3442568621330762
 30
0.0
 40
0.312
  1
POS-6
 41
0.75
  7
TXT
 72
     1
 11
2.336122432331992
 21
2.3442568621330762
 31
0.0
  0
TEXT
  5
7C8
  8
TEXT
 10
1.556122432331992
 20
1.8242568621330759
 30
0.0
 40
0.312
  1
POS-7-S
 41
0.75
  7
TXT
 72
     1
 11
2.336122432331992
 21
1.8242568621330759
 31
0.0
  0
TEXT
  5
7C9
  8
TEXT
 10
1.556122432331992
 20
1.3042568621330759
 30
0.0
 40
0.312
  1
POS-9-S
 41
0.75
  7
TXT
 72
     1
 11
2.336122432331992
 21
1.3042568621330759
 31
0.0
  0
TEXT
  5
7CA
  8
TEXT
 10
1.5171224323319921
 20
0.7842568621330766
 30
0.0
 40
0.312
  1
POS-11-S
 41
0.75
  7
TXT
 72
     1
 11
2.336122432331992
 21
0.7842568621330766
 31
0.0
  0
TEXT
  5
7CB
  8
TEXT
 10
1.673122432331992
 20
0.2642568621330765
 30
0.0
 40
0.312
  1
POS-66
 41
0.75
  7
TXT
 72
     1
 11
2.336122432331992
 21
0.2642568621330765
 31
0.0
  0
TEXT
  5
7CC
  8
TEXT
 10
1.5643124880862229
 20
3.6299942050664522
 30
0.0
 40
0.312
  1
PART NO.
 41
0.75
  7
TXT
 72
     1
 11
2.3833124880862231
 21
3.6299942050664522
 31
0.0
  0
TEXT
  5
7CD
  8
TEXT
 10
5.0649663210899698
 20
3.8695139426664649
 30
0.0
 40
0.312
  1
QTY. OF
 41
0.75
  7
TXT
 72
     1
 11
5.7669663210899698
 21
3.8695139426664649
 31
0.0
  0
TEXT
  5
7CE
  8
TEXT
 10
4.9869663210899704
 20
3.4384265725331371
 30
0.0
 40
0.312
  1
OUTLETS
 41
0.75
  7
TXT
 72
     1
 11
5.7669663210899698
 21
3.4384265725331371
 31
0.0
  0
TEXT
  5
7CF
  8
TEXT
 10
5.5329663210899698
 20
2.8748775293331339
 30
0.0
 40
0.312
  1
(4)
 41
0.75
  7
TXT
 72
     1
 11
5.7669663210899698
 21
2.8748775293331339
 31
0.0
  0
TEXT
  5
7D0
  8
TEXT
 10
5.5329663210899698
 20
2.3548775293331339
 30
0.0
 40
0.312
  1
(6)
 41
0.75
  7
TXT
 72
     1
 11
5.7669663210899698
 21
2.3548775293331339
 31
0.0
  0
TEXT
  5
7D1
  8
TEXT
 10
5.5329663210899698
 20
1.8348775293331341
 30
0.0
 40
0.312
  1
(7)
 41
0.75
  7
TXT
 72
     1
 11
5.7669663210899698
 21
1.8348775293331341
 31
0.0
  0
TEXT
  5
7D2
  8
TEXT
 10
5.5329663210899698
 20
1.3148775293331341
 30
0.0
 40
0.312
  1
(9)
 41
0.75
  7
TXT
 72
     1
 11
5.7669663210899698
 21
1.3148775293331341
 31
0.0
  0
TEXT
  5
7D3
  8
TEXT
 10
5.4939663210899701
 20
0.7948775293331348
 30
0.0
 40
0.312
  1
(11)
 41
0.75
  7
TXT
 72
     1
 11
5.7669663210899698
 21
0.7948775293331348
 31
0.0
  0
TEXT
  5
7D4
  8
TEXT
 10
5.5329663210899698
 20
0.2748775293331347
 30
0.0
 40
0.312
  1
(6)
 41
0.75
  7
TXT
 72
     1
 11
5.7669663210899698
 21
0.2748775293331347
 31
0.0
  0
TEXT
  5
7D5
  8
TEXT
 10
7.9128475439975192
 20
3.8695139426664649
 30
0.0
 40
0.312
  1
SURGE
 41
0.75
  7
TXT
 72
     1
 11
8.4588475439975195
 21
3.8695139426664649
 31
0.0
  0
TEXT
  5
7D6
  8
TEXT
 10
7.3278475439975193
 20
3.4384265725331371
 30
0.0
 40
0.312
  1
SUPPRESSED
 41
0.75
  7
TXT
 72
     1
 11
8.4588475439975195
 21
3.4384265725331371
 31
0.0
  0
TEXT
  5
7D7
  8
TEXT
 10
8.1468475439975201
 20
2.8603611815997998
 30
0.0
 40
0.312
  1
YES
 41
0.75
  7
TXT
 72
     1
 11
8.4588475439975195
 21
2.8603611815997998
 31
0.0
  0
TEXT
  5
7D8
  8
TEXT
 10
8.2638475439975192
 20
2.3403611815997998
 30
0.0
 40
0.312
  1
NO
 41
0.75
  7
TXT
 72
     1
 11
8.4588475439975195
 21
2.3403611815997998
 31
0.0
  0
TEXT
  5
7D9
  8
TEXT
 10
8.1468475439975201
 20
1.8203611815998
 30
0.0
 40
0.312
  1
YES
 41
0.75
  7
TXT
 72
     1
 11
8.4588475439975195
 21
1.8203611815998
 31
0.0
  0
TEXT
  5
7DA
  8
TEXT
 10
8.1468475439975201
 20
1.3003611815998
 30
0.0
 40
0.312
  1
YES
 41
0.75
  7
TXT
 72
     1
 11
8.4588475439975195
 21
1.3003611815998
 31
0.0
  0
TEXT
  5
7DB
  8
TEXT
 10
8.1468475439975201
 20
0.7803611815998002
 30
0.0
 40
0.312
  1
YES
 41
0.75
  7
TXT
 72
     1
 11
8.4588475439975195
 21
0.7803611815998002
 31
0.0
  0
TEXT
  5
7DC
  8
TEXT
 10
8.1468475439975201
 20
0.2603611815998001
 30
0.0
 40
0.312
  1
YES
 41
0.75
  7
TXT
 72
     1
 11
8.4588475439975195
 21
0.2603611815998001
 31
0.0
  0
TEXT
  5
7DD
  8
TEXT
 10
10.750890382141231
 20
1.3042568621330759
 30
0.0
 40
0.312
  1
60.125
 41
0.75
  7
TXT
 72
     1
 11
11.277390382141229
 21
1.3042568621330759
 31
0.0
  0
TEXT
  5
7DE
  8
TEXT
 10
10.78989038214123
 20
0.2642568621330765
 30
0.0
 40
0.312
  1
13.000
 41
0.75
  7
TXT
 72
     1
 11
11.277390382141229
 21
0.2642568621330765
 31
0.0
  0
TEXT
  5
7DF
  8
TEXT
 10
10.73139038214123
 20
0.7842568621330766
 30
0.0
 40
0.312
  1
72.125
 41
0.75
  7
TXT
 72
     1
 11
11.277390382141229
 21
0.7842568621330766
 31
0.0
  0
TEXT
  5
7E0
  8
TEXT
 10
10.73139038214123
 20
1.8242568621330759
 30
0.0
 40
0.312
  1
48.125
 41
0.75
  7
TXT
 72
     1
 11
11.277390382141229
 21
1.8242568621330759
 31
0.0
  0
TEXT
  5
7E1
  8
TEXT
 10
10.750890382141231
 20
2.3442568621330762
 30
0.0
 40
0.312
  1
12.250
 41
0.75
  7
TXT
 72
     1
 11
11.277390382141229
 21
2.3442568621330762
 31
0.0
  0
TEXT
  5
7E2
  8
TEXT
 10
10.73139038214123
 20
2.8642568621330762
 30
0.0
 40
0.312
  1
17.625
 41
0.75
  7
TXT
 72
     1
 11
11.277390382141229
 21
2.8642568621330762
 31
0.0
  0
TEXT
  5
7E3
  8
TEXT
 10
11.24658043789546
 20
3.6299942050664522
 30
0.0
 40
0.312
  1
A
 41
0.75
  7
TXT
 72
     1
 11
11.32458043789546
 21
3.6299942050664522
 31
0.0
  0
TEXT
  5
7E4
  8
TEXT
 10
13.33540834354862
 20
0.2642568621330765
 30
0.0
 40
0.312
  1
0.969
 41
0.75
  7
TXT
 72
     1
 11
13.783908343548619
 21
0.2642568621330765
 31
0.0
  0
TEXT
  5
7E5
  8
TEXT
 10
13.315908343548619
 20
0.7842568621330766
 30
0.0
 40
0.312
  1
4.625
 41
0.75
  7
TXT
 72
     1
 11
13.783908343548619
 21
0.7842568621330766
 31
0.0
  0
TEXT
  5
7E6
  8
TEXT
 10
13.315908343548619
 20
1.3042568621330759
 30
0.0
 40
0.312
  1
4.625
 41
0.75
  7
TXT
 72
     1
 11
13.783908343548619
 21
1.3042568621330759
 31
0.0
  0
TEXT
  5
7E7
  8
TEXT
 10
13.315908343548619
 20
1.8242568621330759
 30
0.0
 40
0.312
  1
4.625
 41
0.75
  7
TXT
 72
     1
 11
13.783908343548619
 21
1.8242568621330759
 31
0.0
  0
TEXT
  5
7E8
  8
TEXT
 10
13.33540834354862
 20
2.3442568621330762
 30
0.0
 40
0.312
  1
0.969
 41
0.75
  7
TXT
 72
     1
 11
13.783908343548619
 21
2.3442568621330762
 31
0.0
  0
TEXT
  5
7E9
  8
TEXT
 10
13.33540834354862
 20
2.8642568621330762
 30
0.0
 40
0.312
  1
0.938
 41
0.75
  7
TXT
 72
     1
 11
13.783908343548619
 21
2.8642568621330762
 31
0.0
  0
TEXT
  5
7EA
  8
TEXT
 10
13.753098399302861
 20
3.6299942050664522
 30
0.0
 40
0.312
  1
B
 41
0.75
  7
TXT
 72
     1
 11
13.83109839930286
 21
3.6299942050664522
 31
0.0
  0
TEXT
  5
7EB
  8
TEXT
 10
15.87548408623436
 20
1.3042568621330759
 30
0.0
 40
0.312
  1
(8) SPACES @ 6.000 = 48.000
 41
0.75
  7
TXT
 72
     1
 11
18.64448408623436
 21
1.3042568621330759
 31
0.0
  0
TEXT
  5
7EC
  8
TEXT
 10
15.95348408623436
 20
0.2642568621330765
 30
0.0
 40
0.312
  1
(5) SPACES @ 1.250 = 6.250
 41
0.75
  7
TXT
 72
     1
 11
18.64448408623436
 21
0.2642568621330765
 31
0.0
  0
TEXT
  5
7ED
  8
TEXT
 10
15.836484086234361
 20
0.7842568621330766
 30
0.0
 40
0.312
  1
(10) SPACES @ 6.000 = 60.000
 41
0.75
  7
TXT
 72
     1
 11
18.64448408623436
 21
0.7842568621330766
 31
0.0
  0
TEXT
  5
7EE
  8
TEXT
 10
15.95348408623436
 20
2.3442568621330762
 30
0.0
 40
0.312
  1
(5) SPACES @ 1.250 = 6.250
 41
0.75
  7
TXT
 72
     1
 11
18.64448408623436
 21
2.3442568621330762
 31
0.0
  0
TEXT
  5
7EF
  8
TEXT
 10
15.87548408623436
 20
1.8242568621330759
 30
0.0
 40
0.312
  1
(6) SPACES @ 6.000 = 36.000
 41
0.75
  7
TXT
 72
     1
 11
18.64448408623436
 21
1.8242568621330759
 31
0.0
  0
TEXT
  5
7F0
  8
TEXT
 10
15.933984086234361
 20
2.8642568621330762
 30
0.0
 40
0.312
  1
(3) SPACES @ 3.062 = 9.188
 41
0.75
  7
TXT
 72
     1
 11
18.64448408623436
 21
2.8642568621330762
 31
0.0
  0
TEXT
  5
7F1
  8
TEXT
 10
18.613674141988589
 20
3.6299942050664509
 30
0.0
 40
0.312
  1
C
 41
0.75
  7
TXT
 72
     1
 11
18.691674141988589
 21
3.6299942050664509
 31
0.0
  0
TEXT
  5
7F2
  8
TEXT
 10
23.249835011193539
 20
1.3042568621330759
 30
0.0
 40
0.312
  1
6.000
 41
0.75
  7
TXT
 72
     1
 11
23.659335011193541
 21
1.3042568621330759
 31
0.0
  0
TEXT
  5
7F3
  8
TEXT
 10
23.249835011193539
 20
0.2642568621330765
 30
0.0
 40
0.312
  1
1.250
 41
0.75
  7
TXT
 72
     1
 11
23.659335011193541
 21
0.2642568621330765
 31
0.0
  0
TEXT
  5
7F4
  8
TEXT
 10
23.249835011193539
 20
0.7842568621330766
 30
0.0
 40
0.312
  1
6.000
 41
0.75
  7
TXT
 72
     1
 11
23.659335011193541
 21
0.7842568621330766
 31
0.0
  0
TEXT
  5
7F5
  8
TEXT
 10
23.249835011193539
 20
2.3442568621330762
 30
0.0
 40
0.312
  1
1.250
 41
0.75
  7
TXT
 72
     1
 11
23.659335011193541
 21
2.3442568621330762
 31
0.0
  0
TEXT
  5
7F6
  8
TEXT
 10
23.249835011193539
 20
1.8242568621330759
 30
0.0
 40
0.312
  1
6.000
 41
0.75
  7
TXT
 72
     1
 11
23.659335011193541
 21
1.8242568621330759
 31
0.0
  0
TEXT
  5
7F7
  8
TEXT
 10
23.210835011193542
 20
2.8642568621330762
 30
0.0
 40
0.312
  1
3.062
 41
0.75
  7
TXT
 72
     1
 11
23.659335011193541
 21
2.8642568621330762
 31
0.0
  0
TEXT
  5
7F8
  8
TEXT
 10
23.62852506694777
 20
3.6299942050664522
 30
0.0
 40
0.312
  1
D
 41
0.75
  7
TXT
 72
     1
 11
23.706525066947769
 21
3.6299942050664522
 31
0.0
  0
TEXT
  5
7F9
  8
TEXT
 10
25.861623096975752
 20
1.3042568621330759
 30
0.0
 40
0.312
  1
2.000
 41
0.75
  7
TXT
 72
     1
 11
26.27112309697576
 21
1.3042568621330759
 31
0.0
  0
TEXT
  5
7FA
  8
TEXT
 10
25.861623096975752
 20
0.2642568621330765
 30
0.0
 40
0.312
  1
2.000
 41
0.75
  7
TXT
 72
     1
 11
26.27112309697576
 21
0.2642568621330765
 31
0.0
  0
TEXT
  5
7FB
  8
TEXT
 10
25.861623096975752
 20
0.7842568621330766
 30
0.0
 40
0.312
  1
2.000
 41
0.75
  7
TXT
 72
     1
 11
26.27112309697576
 21
0.7842568621330766
 31
0.0
  0
TEXT
  5
7FC
  8
TEXT
 10
25.842123096975762
 20
2.3442568621330762
 30
0.0
 40
0.312
  1
1.828
 41
0.75
  7
TXT
 72
     1
 11
26.27112309697576
 21
2.3442568621330762
 31
0.0
  0
TEXT
  5
7FD
  8
TEXT
 10
25.861623096975752
 20
1.8242568621330759
 30
0.0
 40
0.312
  1
2.000
 41
0.75
  7
TXT
 72
     1
 11
26.27112309697576
 21
1.8242568621330759
 31
0.0
  0
TEXT
  5
7FE
  8
TEXT
 10
25.861623096975752
 20
2.8642568621330762
 30
0.0
 40
0.312
  1
2.000
 41
0.75
  7
TXT
 72
     1
 11
26.27112309697576
 21
2.8642568621330762
 31
0.0
  0
TEXT
  5
7FF
  8
TEXT
 10
26.240313152729989
 20
3.6299942050664509
 30
0.0
 40
0.312
  1
E
 41
0.75
  7
TXT
 72
     1
 11
26.318313152729989
 21
3.6299942050664509
 31
0.0
  0
TEXT
  5
800
  8
TEXT
 10
30.939114142020969
 20
1.304256862133075
 30
0.0
 40
0.312
  1
2.093
 41
0.75
  7
TXT
 72
     1
 11
31.387614142020968
 21
1.304256862133075
 31
0.0
  0
TEXT
  5
801
  8
TEXT
 10
30.939114142020969
 20
0.2642568621330756
 30
0.0
 40
0.312
  1
2.093
 41
0.75
  7
TXT
 72
     1
 11
31.387614142020968
 21
0.2642568621330756
 31
0.0
  0
TEXT
  5
802
  8
TEXT
 10
30.939114142020969
 20
0.7842568621330757
 30
0.0
 40
0.312
  1
2.093
 41
0.75
  7
TXT
 72
     1
 11
31.387614142020968
 21
0.7842568621330757
 31
0.0
  0
TEXT
  5
803
  8
TEXT
 10
30.95861414202097
 20
2.3442568621330748
 30
0.0
 40
0.312
  1
1.843
 41
0.75
  7
TXT
 72
     1
 11
31.387614142020968
 21
2.3442568621330748
 31
0.0
  0
TEXT
  5
804
  8
TEXT
 10
30.939114142020969
 20
1.824256862133075
 30
0.0
 40
0.312
  1
2.093
 41
0.75
  7
TXT
 72
     1
 11
31.387614142020968
 21
1.824256862133075
 31
0.0
  0
TEXT
  5
805
  8
TEXT
 10
30.939114142020969
 20
2.8642568621330748
 30
0.0
 40
0.312
  1
2.093
 41
0.75
  7
TXT
 72
     1
 11
31.387614142020968
 21
2.8642568621330748
 31
0.0
  0
TEXT
  5
806
  8
TEXT
 10
31.356804197775201
 20
3.62999420506645
 30
0.0
 40
0.312
  1
G
 41
0.75
  7
TXT
 72
     1
 11
31.4348041977752
 21
3.62999420506645
 31
0.0
  0
TEXT
  5
807
  8
TEXT
 10
33.62801727283545
 20
1.304256862133075
 30
0.0
 40
0.312
  1
2.000
 41
0.75
  7
TXT
 72
     1
 11
34.037517272835451
 21
1.304256862133075
 31
0.0
  0
TEXT
  5
808
  8
TEXT
 10
33.62801727283545
 20
0.2642568621330756
 30
0.0
 40
0.312
  1
2.000
 41
0.75
  7
TXT
 72
     1
 11
34.037517272835451
 21
0.2642568621330756
 31
0.0
  0
TEXT
  5
809
  8
TEXT
 10
33.62801727283545
 20
0.7842568621330757
 30
0.0
 40
0.312
  1
2.000
 41
0.75
  7
TXT
 72
     1
 11
34.037517272835451
 21
0.7842568621330757
 31
0.0
  0
TEXT
  5
80A
  8
TEXT
 10
33.62801727283545
 20
1.824256862133075
 30
0.0
 40
0.312
  1
2.000
 41
0.75
  7
TXT
 72
     1
 11
34.037517272835451
 21
1.824256862133075
 31
0.0
  0
TEXT
  5
80B
  8
TEXT
 10
33.62801727283545
 20
2.3442568621330748
 30
0.0
 40
0.312
  1
1.750
 41
0.75
  7
TXT
 72
     1
 11
34.037517272835451
 21
2.3442568621330748
 31
0.0
  0
TEXT
  5
80C
  8
TEXT
 10
33.62801727283545
 20
2.8642568621330748
 30
0.0
 40
0.312
  1
2.000
 41
0.75
  7
TXT
 72
     1
 11
34.037517272835451
 21
2.8642568621330748
 31
0.0
  0
TEXT
  5
80D
  8
TEXT
 10
34.006707328589691
 20
3.62999420506645
 30
0.0
 40
0.312
  1
H
 41
0.75
  7
TXT
 72
     1
 11
34.084707328589687
 21
3.62999420506645
 31
0.0
  0
LINE
  5
80E
  8
TITLE
 10
4.4527220852038658
 20
0.1550000000000029
 30
0.0
 11
4.4527220852038658
 21
4.3150000000000022
 31
0.0
  0
LINE
  5
80F
  8
TITLE
 10
7.031840132386999
 20
0.1550000000000029
 30
0.0
 11
7.0318401323870026
 21
4.3150000000000022
 31
0.0
  0
LINE
  5
810
  8
TITLE
 10
9.9740361591214892
 20
0.155000000000002
 30
0.0
 11
9.9740361591214892
 21
4.3150000000000013
 31
0.0
  0
LINE
  5
811
  8
TITLE
 10
12.553154206304621
 20
0.155000000000002
 30
0.0
 11
12.553154206304621
 21
4.3150000000000013
 31
0.0
  0
LINE
  5
812
  8
TITLE
 10
15.13227225348775
 20
0.1550000000000011
 30
0.0
 11
15.13227225348775
 21
4.3150000000000004
 31
0.0
  0
LINE
  5
813
  8
TITLE
 10
22.42132086537196
 20
0.1550000000000011
 30
0.0
 11
22.42132086537196
 21
4.3150000000000004
 31
0.0
  0
LINE
  5
814
  8
TITLE
 10
25.000438912555101
 20
0.1549999999999985
 30
0.0
 11
25.000438912555101
 21
4.3149999999999968
 31
0.0
  0
LINE
  5
815
  8
TITLE
 10
27.57955695973823
 20
0.1549999999999985
 30
0.0
 11
27.57955695973823
 21
4.3149999999999968
 31
0.0
  0
LINE
  5
816
  8
TITLE
 10
30.15867500692136
 20
0.1549999999999976
 30
0.0
 11
30.15867500692136
 21
4.3149999999999959
 31
0.0
  0
LINE
  5
817
  8
TITLE
 10
32.737793054104493
 20
0.1549999999999967
 30
0.0
 11
32.7377930541045
 21
4.3149999999999951
 31
0.0
  0
TEXT
  5
818
  8
TEXT
 10
36.685034389680162
 20
1.3148775293331341
 30
0.0
 40
0.312
  1
(3)
 41
0.75
  7
TXT
 72
     1
 11
36.919034389680156
 21
1.3148775293331341
 31
0.0
  0
TEXT
  5
819
  8
TEXT
 10
36.685034389680162
 20
0.7948775293331348
 30
0.0
 40
0.312
  1
(3)
 41
0.75
  7
TXT
 72
     1
 11
36.919034389680156
 21
0.7948775293331348
 31
0.0
  0
TEXT
  5
81A
  8
TEXT
 10
36.685034389680162
 20
0.2748775293331347
 30
0.0
 40
0.312
  1
(2)
 41
0.75
  7
TXT
 72
     1
 11
36.919034389680156
 21
0.2748775293331347
 31
0.0
  0
TEXT
  5
81B
  8
TEXT
 10
35.905034389680161
 20
3.4384265725331371
 30
0.0
 40
0.312
  1
MTG. CLIPS
 41
0.75
  7
TXT
 72
     1
 11
36.919034389680156
 21
3.4384265725331371
 31
0.0
  0
TEXT
  5
81C
  8
TEXT
 10
36.217034389680158
 20
3.8695139426664649
 30
0.0
 40
0.312
  1
QTY. OF
 41
0.75
  7
TXT
 72
     1
 11
36.919034389680156
 21
3.8695139426664649
 31
0.0
  0
TEXT
  5
81D
  8
TEXT
 10
36.685034389680162
 20
2.8748775293331339
 30
0.0
 40
0.312
  1
(2)
 41
0.75
  7
TXT
 72
     1
 11
36.919034389680156
 21
2.8748775293331339
 31
0.0
  0
TEXT
  5
81E
  8
TEXT
 10
36.685034389680162
 20
2.3548775293331339
 30
0.0
 40
0.312
  1
(2)
 41
0.75
  7
TXT
 72
     1
 11
36.919034389680156
 21
2.3548775293331339
 31
0.0
  0
TEXT
  5
81F
  8
TEXT
 10
36.685034389680162
 20
1.8348775293331341
 30
0.0
 40
0.312
  1
(2)
 41
0.75
  7
TXT
 72
     1
 11
36.919034389680156
 21
1.8348775293331341
 31
0.0
  0
LINE
  5
820
  8
TITLE
 10
35.316911101287623
 20
0.1549999999999967
 30
0.0
 11
35.31691110128763
 21
4.3149999999999951
 31
0.0
  0
DIMENSION
  5
821
  8
DIM
  2
*D0
 10
22.901163960205821
 20
12.16706041123196
 30
0.0
 11
22.901163960205821
 21
13.04206041123197
 31
0.0
 70
     0
  1
F
 13
23.446372261747111
 23
13.91706041123196
 33
0.0
 14
23.446372261747111
 24
12.16706041123196
 34
0.0
 50
90.0
1001
ACAD
1000
DSTYLE
1002
{
1070
    40
1040
2.5
1002
}
  0
DIMENSION
  5
822
  8
DIM
  2
*D7
 10
24.966096052377381
 20
12.04206041123196
 30
0.0
 11
23.88093980237737
 21
11.142060411231959
 31
0.0
 70
     0
 13
25.324443374214709
 23
12.16706041123196
 33
0.0
 14
25.324443374214709
 24
12.04206041123196
 34
0.0
 50
90.0
1001
ACAD
1000
DSTYLE
1002
{
1070
    40
1040
2.5
1002
}
  0
TEXT
  5
823
  8
TEXT
 10
28.440741144158888
 20
1.304256862133075
 30
0.0
 40
0.312
  1
1.750
 41
0.75
  7
TXT
 72
     1
 11
28.85024114415889
 21
1.304256862133075
 31
0.0
  0
TEXT
  5
824
  8
TEXT
 10
28.440741144158888
 20
0.2642568621330756
 30
0.0
 40
0.312
  1
1.750
 41
0.75
  7
TXT
 72
     1
 11
28.85024114415889
 21
0.2642568621330756
 31
0.0
  0
TEXT
  5
825
  8
TEXT
 10
28.440741144158888
 20
0.7842568621330757
 30
0.0
 40
0.312
  1
1.750
 41
0.75
  7
TXT
 72
     1
 11
28.85024114415889
 21
0.7842568621330757
 31
0.0
  0
TEXT
  5
826
  8
TEXT
 10
28.421241144158891
 20
2.3442568621330748
 30
0.0
 40
0.312
  1
1.563
 41
0.75
  7
TXT
 72
     1
 11
28.85024114415889
 21
2.3442568621330748
 31
0.0
  0
TEXT
  5
827
  8
TEXT
 10
28.440741144158888
 20
1.824256862133075
 30
0.0
 40
0.312
  1
1.750
 41
0.75
  7
TXT
 72
     1
 11
28.85024114415889
 21
1.824256862133075
 31
0.0
  0
TEXT
  5
828
  8
TEXT
 10
28.440741144158888
 20
2.8642568621330748
 30
0.0
 40
0.312
  1
1.750
 41
0.75
  7
TXT
 72
     1
 11
28.85024114415889
 21
2.8642568621330748
 31
0.0
  0
TEXT
  5
829
  8
TEXT
 10
28.819431199913119
 20
3.62999420506645
 30
0.0
 40
0.312
  1
F
 41
0.75
  7
TXT
 72
     1
 11
28.897431199913122
 21
3.62999420506645
 31
0.0
  0
TEXT
  5
832
  8
TEXT
 10
3.1479322106104681
 20
5.1787710870930264
 30
0.0
 40
0.312
  1
- PUTTY WHITE (POS-66 ONLY)
 41
0.75
  7
TXT
  0
TEXT
  5
834
  8
TEXT
 10
3.3247932421630901
 20
6.7813246726938408
 30
0.0
 40
0.312
  1
- PUTTY WHITE (POS-66 ONLY)
 41
0.75
  7
TXT
  0
TEXT
  5
94C
  8
DIM
 10
8.4799826014145552
 20
15.32406201262107
 30
0.0
 40
0.3125
  1
15 AMP 125 VOLT
 41
0.75
  7
TXT
 72
     2
 11
11.83935760141455
 21
15.32406201262107
 31
0.0
  0
TEXT
  5
94D
  8
DIM
 10
13.68203081075719
 20
15.825364176400569
 30
0.0
 40
0.3125
  1
15 AMP 125 VOLT
 41
0.75
  7
TXT
  0
LINE
  5
1071
  8
OBJECT
 10
21.268356704880549
 20
21.091451553215709
 30
0.0
 11
21.268356704880549
 21
22.029451553215711
 31
0.0
  0
LINE
  5
1072
  8
OBJECT
 10
20.458158405110279
 20
21.40661569671235
 30
0.0
 11
20.758219113917569
 21
21.144650133838361
 31
0.0
  0
ARC
  5
1073
  8
OBJECT
 10
20.888856704880538
 20
21.278451553215699
 30
0.0
 40
0.187
 50
225.6854713542258
 51
270.0
  0
LINE
  5
1074
  8
OBJECT
 10
20.924356704880541
 20
21.325451553215711
 30
0.0
 11
20.924356704880541
 21
21.279451553215701
 31
0.0
  0
LINE
  5
1075
  8
OBJECT
 10
21.174356704880541
 20
21.279451553215701
 30
0.0
 11
21.174356704880541
 21
21.325451553215711
 31
0.0
  0
LINE
  5
1076
  8
OBJECT
 10
21.174356704880541
 20
21.325451553215711
 30
0.0
 11
20.924356704880541
 21
21.325451553215711
 31
0.0
  0
LINE
  5
1077
  8
OBJECT
 10
21.174356704880541
 20
21.279451553215701
 30
0.0
 11
20.924356704880541
 21
21.279451553215701
 31
0.0
  0
LINE
  5
1078
  8
OBJECT
 10
21.268356704880549
 20
21.091451553215709
 30
0.0
 11
20.888856704880538
 21
21.091451553215709
 31
0.0
  0
CIRCLE
  5
1079
  8
OBJECT
 10
20.608356704880539
 20
21.560451553215721
 30
0.0
 40
0.0935
  0
LINE
  5
107A
  8
OBJECT
 10
20.458158405110279
 20
21.71428740971907
 30
0.0
 11
20.758219113917569
 21
21.976252972593059
 31
0.0
  0
ARC
  5
107B
  8
OBJECT
 10
20.608356704880539
 20
21.560451553215721
 30
0.0
 40
0.2149999999999892
 50
134.31452864577469
 51
225.6854713542258
  0
LINE
  5
107C
  8
OBJECT
 10
21.268356704880549
 20
22.029451553215711
 30
0.0
 11
20.888856704880538
 21
22.029451553215711
 31
0.0
  0
LINE
  5
107D
  8
OBJECT
 10
21.174356704880541
 20
21.84145155321572
 30
0.0
 11
20.924356704880541
 21
21.84145155321572
 31
0.0
  0
LINE
  5
107E
  8
OBJECT
 10
21.174356704880541
 20
21.79545155321572
 30
0.0
 11
20.924356704880541
 21
21.79545155321572
 31
0.0
  0
LINE
  5
107F
  8
OBJECT
 10
21.174356704880541
 20
21.84145155321572
 30
0.0
 11
21.174356704880541
 21
21.79545155321572
 31
0.0
  0
LINE
  5
1080
  8
OBJECT
 10
20.924356704880541
 20
21.79545155321572
 30
0.0
 11
20.924356704880541
 21
21.84145155321572
 31
0.0
  0
ARC
  5
1081
  8
OBJECT
 10
20.888856704880538
 20
21.84245155321571
 30
0.0
 40
0.187
 50
90.0
 51
134.31452864577409
  0
TEXT
  5
1082
  8
DIM
 10
20.542889464292031
 20
22.625915325937921
 30
0.0
 40
0.3125
  1
15 AMP 125 VOLT
 41
0.75
  7
TXT
  0
POLYLINE
  8
0
  5
10F6
  66
     1
 10
0.000000
 20
0.000000
 30
0.000000
  70
     8
  0
VERTEX
  8
0
  5
10F7
 10
18.8715
 20
12.0366
 30
0.000000
  70
    32
  0
VERTEX
  8
0
  5
10F8
 10
18.2003
 20
11.2898
 30
0.000000
  70
    32
  0
VERTEX
  8
0
  5
10F9
 10
17.7503
 20
11.2898
 30
0.000000
  70
    32
  0
SEQEND
  8
0
  5
10FA
  0
TEXT
  5
10B2
  8
OBJECT
 10
16.040901139515061
 20
11.13354496940925
 30
0.0
 40
0.3125
  1
HOUSING
 41
0.75
  7
TXT
  0
ENDSEC
  0
EOF
