  0
SECTION
  2
HEADER
  9
$ACADVER
  1
AC1015
  9
$ACADMAINTVER
 70
     6
  9
$DWGCODEPAGE
  3
ANSI_1252
  9
$INSBASE
 10
0.0
 20
0.0
 30
0.0
  9
$EXTMIN
 10
0.0
 20
-0.0000000000000053
 30
0.0
  9
$EXTMAX
 10
30.35999999999999
 20
46.5
 30
0.0
  9
$LIMMIN
 10
0.0
 20
0.0
  9
$LIMMAX
 10
30.174
 20
46.31399999999999
  9
$ORTHOMODE
 70
     1
  9
$REGENMODE
 70
     1
  9
$FILLMODE
 70
     1
  9
$QTEXTMODE
 70
     0
  9
$MIRRTEXT
 70
     0
  9
$LTSCALE
 40
1.0
  9
$ATTMODE
 70
     1
  9
$TEXTSIZE
 40
0.375
  9
$TRACEWID
 40
0.05
  9
$TEXTSTYLE
  7
TXT
  9
$CLAYER
  8
TEXT
  9
$CELTYPE
  6
ByLayer
  9
$CECOLOR
 62
   256
  9
$CELTSCALE
 40
1.0
  9
$DISPSILH
 70
     0
  9
$DIMSCALE
 40
3.0
  9
$DIMASZ
 40
0.18
  9
$DIMEXO
 40
0.063
  9
$DIMDLI
 40
0.281
  9
$DIMRND
 40
0.0
  9
$DIMDLE
 40
0.0
  9
$DIMEXE
 40
0.093
  9
$DIMTP
 40
0.0
  9
$DIMTM
 40
0.0
  9
$DIMTXT
 40
0.125
  9
$DIMCEN
 40
0.09
  9
$DIMTSZ
 40
0.0
  9
$DIMTOL
 70
     0
  9
$DIMLIM
 70
     0
  9
$DIMTIH
 70
     1
  9
$DIMTOH
 70
     1
  9
$DIMSE1
 70
     0
  9
$DIMSE2
 70
     0
  9
$DIMTAD
 70
     0
  9
$DIMZIN
 70
     0
  9
$DIMBLK
  1

  9
$DIMASO
 70
     1
  9
$DIMSHO
 70
     1
  9
$DIMPOST
  1

  9
$DIMAPOST
  1

  9
$DIMALT
 70
     1
  9
$DIMALTD
 70
     1
  9
$DIMALTF
 40
25.4
  9
$DIMLFAC
 40
0.25
  9
$DIMTOFL
 70
     0
  9
$DIMTVP
 40
0.0
  9
$DIMTIX
 70
     0
  9
$DIMSOXD
 70
     0
  9
$DIMSAH
 70
     0
  9
$DIMBLK1
  1

  9
$DIMBLK2
  1

  9
$DIMSTYLE
  2
23NSTD4
  9
$DIMCLRD
 70
     0
  9
$DIMCLRE
 70
     0
  9
$DIMCLRT
 70
     0
  9
$DIMTFAC
 40
1.0
  9
$DIMGAP
 40
0.09
  9
$DIMJUST
 70
     0
  9
$DIMSD1
 70
     0
  9
$DIMSD2
 70
     0
  9
$DIMTOLJ
 70
     1
  9
$DIMTZIN
 70
     0
  9
$DIMALTZ
 70
     0
  9
$DIMALTTZ
 70
     0
  9
$DIMUPT
 70
     0
  9
$DIMDEC
 70
     2
  9
$DIMTDEC
 70
     2
  9
$DIMALTU
 70
     2
  9
$DIMALTTD
 70
     1
  9
$DIMTXSTY
  7
TXT
  9
$DIMAUNIT
 70
     0
  9
$DIMADEC
 70
     0
  9
$DIMALTRND
 40
0.0
  9
$DIMAZIN
 70
     0
  9
$DIMDSEP
 70
    46
  9
$DIMATFIT
 70
     1
  9
$DIMFRAC
 70
     0
  9
$DIMLDRBLK
  1

  9
$DIMLUNIT
 70
     2
  9
$DIMLWD
 70
    -2
  9
$DIMLWE
 70
    -2
  9
$DIMTMOVE
 70
     0
  9
$LUNITS
 70
     2
  9
$LUPREC
 70
     3
  9
$SKETCHINC
 40
0.1
  9
$FILLETRAD
 40
0.0
  9
$AUNITS
 70
     0
  9
$AUPREC
 70
     0
  9
$MENU
  1
acad
  9
$ELEVATION
 40
0.0
  9
$PELEVATION
 40
0.0
  9
$THICKNESS
 40
0.0
  9
$LIMCHECK
 70
     0
  9
$CHAMFERA
 40
0.0
  9
$CHAMFERB
 40
0.0
  9
$CHAMFERC
 40
0.0
  9
$CHAMFERD
 40
0.0
  9
$SKPOLY
 70
     0
  9
$TDCREATE
 40
2450298.402710648
  9
$TDUCREATE
 40
2450298.569377315
  9
$TDUPDATE
 40
2456500.358133854
  9
$TDUUPDATE
 40
2456500.524800520
  9
$TDINDWG
 40
0.0908358333
  9
$TDUSRTIMER
 40
0.0908358333
  9
$USRTIMER
 70
     1
  9
$ANGBASE
 50
0.0
  9
$ANGDIR
 70
     0
  9
$PDMODE
 70
     0
  9
$PDSIZE
 40
0.0
  9
$PLINEWID
 40
0.0
  9
$SPLFRAME
 70
     0
  9
$SPLINETYPE
 70
     6
  9
$SPLINESEGS
 70
     8
  9
$HANDSEED
  5
B59
  9
$SURFTAB1
 70
     6
  9
$SURFTAB2
 70
     6
  9
$SURFTYPE
 70
     6
  9
$SURFU
 70
     6
  9
$SURFV
 70
     6
  9
$UCSBASE
  2

  9
$UCSNAME
  2

  9
$UCSORG
 10
0.0
 20
0.0
 30
0.0
  9
$UCSXDIR
 10
1.0
 20
0.0
 30
0.0
  9
$UCSYDIR
 10
0.0
 20
1.0
 30
0.0
  9
$UCSORTHOREF
  2

  9
$UCSORTHOVIEW
 70
     0
  9
$UCSORGTOP
 10
0.0
 20
0.0
 30
0.0
  9
$UCSORGBOTTOM
 10
0.0
 20
0.0
 30
0.0
  9
$UCSORGLEFT
 10
0.0
 20
0.0
 30
0.0
  9
$UCSORGRIGHT
 10
0.0
 20
0.0
 30
0.0
  9
$UCSORGFRONT
 10
0.0
 20
0.0
 30
0.0
  9
$UCSORGBACK
 10
0.0
 20
0.0
 30
0.0
  9
$PUCSBASE
  2

  9
$PUCSNAME
  2

  9
$PUCSORG
 10
0.0
 20
0.0
 30
0.0
  9
$PUCSXDIR
 10
1.0
 20
0.0
 30
0.0
  9
$PUCSYDIR
 10
0.0
 20
1.0
 30
0.0
  9
$PUCSORTHOREF
  2

  9
$PUCSORTHOVIEW
 70
     0
  9
$PUCSORGTOP
 10
0.0
 20
0.0
 30
0.0
  9
$PUCSORGBOTTOM
 10
0.0
 20
0.0
 30
0.0
  9
$PUCSORGLEFT
 10
0.0
 20
0.0
 30
0.0
  9
$PUCSORGRIGHT
 10
0.0
 20
0.0
 30
0.0
  9
$PUCSORGFRONT
 10
0.0
 20
0.0
 30
0.0
  9
$PUCSORGBACK
 10
0.0
 20
0.0
 30
0.0
  9
$USERI1
 70
     0
  9
$USERI2
 70
     0
  9
$USERI3
 70
     0
  9
$USERI4
 70
     0
  9
$USERI5
 70
     0
  9
$USERR1
 40
0.0
  9
$USERR2
 40
0.0
  9
$USERR3
 40
0.0
  9
$USERR4
 40
0.0
  9
$USERR5
 40
0.0
  9
$WORLDVIEW
 70
     1
  9
$SHADEDGE
 70
     3
  9
$SHADEDIF
 70
    70
  9
$TILEMODE
 70
     1
  9
$MAXACTVP
 70
    16
  9
$PINSBASE
 10
0.0
 20
0.0
 30
0.0
  9
$PLIMCHECK
 70
     0
  9
$PEXTMIN
 10
1.000000000000000E+20
 20
1.000000000000000E+20
 30
1.000000000000000E+20
  9
$PEXTMAX
 10
-1.000000000000000E+20
 20
-1.000000000000000E+20
 30
-1.000000000000000E+20
  9
$PLIMMIN
 10
0.0
 20
0.0
  9
$PLIMMAX
 10
12.0
 20
9.0
  9
$UNITMODE
 70
     0
  9
$VISRETAIN
 70
     0
  9
$PLINEGEN
 70
     0
  9
$PSLTSCALE
 70
     1
  9
$TREEDEPTH
 70
  3020
  9
$CMLSTYLE
  2
Standard
  9
$CMLJUST
 70
     0
  9
$CMLSCALE
 40
1.0
  9
$PROXYGRAPHICS
 70
     1
  9
$MEASUREMENT
 70
     0
  9
$CELWEIGHT
370
    -1
  9
$ENDCAPS
280
     0
  9
$JOINSTYLE
280
     0
  9
$LWDISPLAY
290
     0
  9
$INSUNITS
 70
     0
  9
$HYPERLINKBASE
  1

  9
$STYLESHEET
  1
monochrome.ctb
  9
$XEDIT
290
     1
  9
$CEPSNTYPE
380
     0
  9
$PSTYLEMODE
290
     1
  9
$FINGERPRINTGUID
  2
{FA85ABA2-449E-446F-A87B-1F75A81D7B29}
  9
$VERSIONGUID
  2
{CC2148C9-7068-49A2-96F5-B6F7307DDB0D}
  9
$EXTNAMES
290
     1
  9
$PSVPSCALE
 40
0.0
  9
$OLESTARTUP
290
     0
  0
ENDSEC
  0
SECTION
  2
CLASSES
  0
CLASS
  1
ACDBDICTIONARYWDFLT
  2
AcDbDictionaryWithDefault
  3
AutoCAD 2000
 90
        0
280
     0
281
     0
  0
CLASS
  1
ACDBPLACEHOLDER
  2
AcDbPlaceHolder
  3
AutoCAD 2000
 90
        0
280
     0
281
     0
  0
CLASS
  1
LAYOUT
  2
AcDbLayout
  3
AutoCAD 2000
 90
        0
280
     0
281
     0
  0
ENDSEC
  0
SECTION
  2
TABLES
  0
TABLE
  2
VPORT
  5
8
330
0
100
AcDbSymbolTable
 70
     2
  0
VPORT
  5
B58
330
8
100
AcDbSymbolTableRecord
100
AcDbViewportTableRecord
  2
*Active
 70
     0
 10
0.0
 20
0.0
 11
1.0
 21
1.0
 12
15.18000007068737
 22
23.25000010826625
 13
0.0
 23
0.0
 14
1.0
 24
1.0
 15
0.0
 25
0.0
 16
0.0
 26
0.0
 36
1.0
 17
0.0
 27
0.0
 37
0.0
 40
46.97098751196461
 41
1.836974789915966
 42
50.0
 43
0.0
 44
0.0
 50
0.0
 51
0.0
 71
     0
 72
   500
 73
     1
 74
     0
 75
     0
 76
     0
 77
     0
 78
     0
281
     0
 65
     1
110
0.0
120
0.0
130
0.0
111
1.0
121
0.0
131
0.0
112
0.0
122
1.0
132
0.0
 79
     0
146
0.0
  0
ENDTAB
  0
TABLE
  2
LTYPE
  5
5
330
0
100
AcDbSymbolTable
 70
     6
  0
LTYPE
  5
13
330
5
100
AcDbSymbolTableRecord
100
AcDbLinetypeTableRecord
  2
ByBlock
 70
     0
  3

 72
    65
 73
     0
 40
0.0
  0
LTYPE
  5
14
330
5
100
AcDbSymbolTableRecord
100
AcDbLinetypeTableRecord
  2
ByLayer
 70
     0
  3

 72
    65
 73
     0
 40
0.0
  0
LTYPE
  5
15
330
5
100
AcDbSymbolTableRecord
100
AcDbLinetypeTableRecord
  2
CONTINUOUS
 70
     0
  3
Solid line
 72
    65
 73
     0
 40
0.0
  0
LTYPE
  5
25
330
5
100
AcDbSymbolTableRecord
100
AcDbLinetypeTableRecord
  2
HIDDEN
 70
     0
  3
_ _ _ _ _ _ _ _ _ _ _ _ _ _ _ _ _ _ _ _ _ _ _
 72
    65
 73
     2
 40
0.375
 49
0.25
 74
     0
 49
-0.125
 74
     0
  0
LTYPE
  5
26
330
5
100
AcDbSymbolTableRecord
100
AcDbLinetypeTableRecord
  2
PHANTOM
 70
     0
  3
_____ _ _ _____ _ _ _____ _ _ _____ _ _ ____
 72
    65
 73
     6
 40
2.5
 49
1.25
 74
     0
 49
-0.25
 74
     0
 49
0.25
 74
     0
 49
-0.25
 74
     0
 49
0.25
 74
     0
 49
-0.25
 74
     0
  0
LTYPE
  5
27
330
5
100
AcDbSymbolTableRecord
100
AcDbLinetypeTableRecord
  2
CENTER
 70
     0
  3
____ _ ____ _ ____ _ ____ _ ____ _ ____ _ ____
 72
    65
 73
     4
 40
2.0
 49
1.25
 74
     0
 49
-0.25
 74
     0
 49
0.25
 74
     0
 49
-0.25
 74
     0
  0
LTYPE
  5
378
330
5
100
AcDbSymbolTableRecord
100
AcDbLinetypeTableRecord
  2
HIDDEN2
 70
     0
  3
_ _ _ _ _ _ _ _ _ _ _ _ _ _ _ _ _ _ _ _ _ _ _ _
 72
    65
 73
     2
 40
0.1875
 49
0.125
 74
     0
 49
-0.0625
 74
     0
  0
LTYPE
  5
379
330
5
100
AcDbSymbolTableRecord
100
AcDbLinetypeTableRecord
  2
PHANTOM2
 70
     0
  3
___ _ _ ___ _ _ ___ _ _ ___ _ _ ___ _ _ ___ _ _
 72
    65
 73
     6
 40
1.25
 49
0.625
 74
     0
 49
-0.125
 74
     0
 49
0.125
 74
     0
 49
-0.125
 74
     0
 49
0.125
 74
     0
 49
-0.125
 74
     0
  0
ENDTAB
  0
TABLE
  2
LAYER
  5
2
330
0
100
AcDbSymbolTable
 70
     9
  0
LAYER
  5
10
330
2
100
AcDbSymbolTableRecord
100
AcDbLayerTableRecord
  2
0
 70
     0
 62
     7
  6
CONTINUOUS
370
    -3
390
F
  0
LAYER
  5
22
330
2
100
AcDbSymbolTableRecord
100
AcDbLayerTableRecord
  2
TEXT
 70
     0
 62
     7
  6
CONTINUOUS
370
    -3
390
F
  0
LAYER
  5
28
330
2
100
AcDbSymbolTableRecord
100
AcDbLayerTableRecord
  2
OBJECT
 70
     0
 62
     7
  6
CONTINUOUS
370
    -3
390
F
  0
LAYER
  5
29
330
2
100
AcDbSymbolTableRecord
100
AcDbLayerTableRecord
  2
DIM
 70
     0
 62
     7
  6
CONTINUOUS
370
    -3
390
F
  0
LAYER
  5
2A
330
2
100
AcDbSymbolTableRecord
100
AcDbLayerTableRecord
  2
HIDDEN
 70
     0
 62
     7
  6
HIDDEN
370
    -3
390
F
  0
LAYER
  5
2B
330
2
100
AcDbSymbolTableRecord
100
AcDbLayerTableRecord
  2
BEND
 70
     0
 62
     7
  6
PHANTOM
370
    -3
390
F
  0
LAYER
  5
2C
330
2
100
AcDbSymbolTableRecord
100
AcDbLayerTableRecord
  2
TITLE
 70
     0
 62
     7
  6
CONTINUOUS
370
    -3
390
F
  0
LAYER
  5
2D
330
2
100
AcDbSymbolTableRecord
100
AcDbLayerTableRecord
  2
CENTER
 70
     0
 62
     7
  6
CENTER
370
    -3
390
F
  0
LAYER
  5
2E
330
2
100
AcDbSymbolTableRecord
100
AcDbLayerTableRecord
  2
DEFPOINTS
 70
     0
 62
     7
  6
CONTINUOUS
290
     0
370
    -3
390
F
  0
ENDTAB
  0
TABLE
  2
STYLE
  5
3
330
0
100
AcDbSymbolTable
 70
     2
  0
STYLE
  5
11
330
3
100
AcDbSymbolTableRecord
100
AcDbTextStyleTableRecord
  2
STANDARD
 70
     0
 40
0.0
 41
1.0
 50
0.0
 71
     0
 42
0.2
  3
txt
  4

  0
STYLE
  5
23
330
3
100
AcDbSymbolTableRecord
100
AcDbTextStyleTableRecord
  2
TXT
 70
     0
 40
0.0
 41
0.75
 50
0.0
 71
     0
 42
0.375
  3
TXT.shx
  4

  0
ENDTAB
  0
TABLE
  2
VIEW
  5
6
330
0
100
AcDbSymbolTable
 70
     0
  0
ENDTAB
  0
TABLE
  2
UCS
  5
7
330
0
100
AcDbSymbolTable
 70
     0
  0
ENDTAB
  0
TABLE
  2
APPID
  5
9
330
0
100
AcDbSymbolTable
 70
     1
  0
APPID
  5
12
330
9
100
AcDbSymbolTableRecord
100
AcDbRegAppTableRecord
  2
ACAD
 70
     0
  0
ENDTAB
  0
TABLE
  2
DIMSTYLE
  5
A
330
0
100
AcDbSymbolTable
 70
     4
100
AcDbDimStyleTable
 71
     4
340
31
340
30
340
2F
340
32
  0
DIMSTYLE
105
2F
102
{ACAD_REACTORS
330
1EA
330
20D
330
237
330
248
330
28F
330
29D
102
}
330
A
100
AcDbSymbolTableRecord
100
AcDbDimStyleTableRecord
  2
23NSTD
 70
     0
 40
3.0
 42
0.063
 43
0.281
 44
0.093
140
0.125
170
     1
171
     1
271
     2
272
     2
274
     1
289
     1
340
23
  0
DIMSTYLE
105
30
102
{ACAD_REACTORS
330
1DC
330
1F8
330
21B
330
229
330
257
330
265
330
273
330
281
102
}
330
A
100
AcDbSymbolTableRecord
100
AcDbDimStyleTableRecord
  2
23NSTDI
 70
     0
 40
3.0
 42
0.063
 43
0.281
 44
0.093
140
0.125
170
     1
171
     1
174
     1
271
     2
272
     2
274
     1
340
23
  0
DIMSTYLE
105
31
102
{ACAD_REACTORS
330
1B2
330
1A4
330
357
102
}
330
A
100
AcDbSymbolTableRecord
100
AcDbDimStyleTableRecord
  2
23NSTD4
 70
     0
 40
3.0
 42
0.063
 43
0.281
 44
0.093
140
0.125
144
0.25
170
     1
171
     1
271
     2
272
     2
274
     1
289
     1
340
23
  0
DIMSTYLE
105
32
102
{ACAD_REACTORS
330
1C0
102
}
330
A
100
AcDbSymbolTableRecord
100
AcDbDimStyleTableRecord
  2
23NSTD4I
 70
     0
 40
3.0
 42
0.063
 43
0.281
 44
0.093
140
0.125
144
0.25
170
     1
171
     1
174
     1
271
     2
272
     2
274
     1
340
23
  0
ENDTAB
  0
TABLE
  2
BLOCK_RECORD
  5
1
330
0
100
AcDbSymbolTable
 70
    19
  0
BLOCK_RECORD
  5
1E
330
1
100
AcDbSymbolTableRecord
100
AcDbBlockTableRecord
  2
*Model_Space
340
21
  0
BLOCK_RECORD
  5
1A
330
1
100
AcDbSymbolTableRecord
100
AcDbBlockTableRecord
  2
*Paper_Space
340
1D
  0
BLOCK_RECORD
  5
34
330
1
100
AcDbSymbolTableRecord
100
AcDbBlockTableRecord
  2
HB
340
0
102
{BLKREFS
331
1A1
331
B52
102
}
  0
BLOCK_RECORD
  5
1A5
330
1
100
AcDbSymbolTableRecord
100
AcDbBlockTableRecord
  2
*D1
340
0
  0
BLOCK_RECORD
  5
1B3
330
1
100
AcDbSymbolTableRecord
100
AcDbBlockTableRecord
  2
*D2
340
0
  0
BLOCK_RECORD
  5
1C1
330
1
100
AcDbSymbolTableRecord
100
AcDbBlockTableRecord
  2
*D3
340
0
  0
BLOCK_RECORD
  5
1DD
330
1
100
AcDbSymbolTableRecord
100
AcDbBlockTableRecord
  2
*D4
340
0
  0
BLOCK_RECORD
  5
1EB
330
1
100
AcDbSymbolTableRecord
100
AcDbBlockTableRecord
  2
*D5
340
0
  0
BLOCK_RECORD
  5
1F9
330
1
100
AcDbSymbolTableRecord
100
AcDbBlockTableRecord
  2
*D6
340
0
  0
BLOCK_RECORD
  5
20E
330
1
100
AcDbSymbolTableRecord
100
AcDbBlockTableRecord
  2
*D7
340
0
  0
BLOCK_RECORD
  5
21C
330
1
100
AcDbSymbolTableRecord
100
AcDbBlockTableRecord
  2
*D8
340
0
  0
BLOCK_RECORD
  5
22A
330
1
100
AcDbSymbolTableRecord
100
AcDbBlockTableRecord
  2
*D9
340
0
  0
BLOCK_RECORD
  5
238
330
1
100
AcDbSymbolTableRecord
100
AcDbBlockTableRecord
  2
*D10
340
0
  0
BLOCK_RECORD
  5
249
330
1
100
AcDbSymbolTableRecord
100
AcDbBlockTableRecord
  2
*D11
340
0
  0
BLOCK_RECORD
  5
258
330
1
100
AcDbSymbolTableRecord
100
AcDbBlockTableRecord
  2
*D12
340
0
  0
BLOCK_RECORD
  5
266
330
1
100
AcDbSymbolTableRecord
100
AcDbBlockTableRecord
  2
*D13
340
0
  0
BLOCK_RECORD
  5
274
330
1
100
AcDbSymbolTableRecord
100
AcDbBlockTableRecord
  2
*D14
340
0
  0
BLOCK_RECORD
  5
282
330
1
100
AcDbSymbolTableRecord
100
AcDbBlockTableRecord
  2
*D15
340
0
  0
BLOCK_RECORD
  5
290
330
1
100
AcDbSymbolTableRecord
100
AcDbBlockTableRecord
  2
*D16
340
0
  0
BLOCK_RECORD
  5
29E
330
1
100
AcDbSymbolTableRecord
100
AcDbBlockTableRecord
  2
*D17
340
0
  0
BLOCK_RECORD
  5
358
330
1
100
AcDbSymbolTableRecord
100
AcDbBlockTableRecord
  2
*D18
340
0
  0
ENDTAB
  0
ENDSEC
  0
SECTION
  2
BLOCKS
  0
BLOCK
  5
1F
330
1E
100
AcDbEntity
  8
0
100
AcDbBlockBegin
  2
*Model_Space
 70
     0
 10
0.0
 20
0.0
 30
0.0
  3
*Model_Space
  1

  0
ENDBLK
  5
20
330
1E
100
AcDbEntity
  8
0
100
AcDbBlockEnd
  0
BLOCK
  5
1B
330
1A
100
AcDbEntity
 67
     1
  8
0
100
AcDbBlockBegin
  2
*Paper_Space
 70
     0
 10
0.0
 20
0.0
 30
0.0
  3
*Paper_Space
  1

  0
ENDBLK
  5
1C
330
1A
100
AcDbEntity
 67
     1
  8
0
100
AcDbBlockEnd
  0
BLOCK
  5
35
330
34
100
AcDbEntity
  8
0
100
AcDbBlockBegin
  2
HB
 70
     0
 10
0.0
 20
0.0
 30
0.0
  3
HB
  1

  0
LINE
  5
B1D
330
34
100
AcDbEntity
  8
TITLE
100
AcDbLine
 10
0.0
 20
15.5
 30
0.0
 11
10.11999999999999
 21
15.49999999999999
 31
0.0
  0
LINE
  5
B1E
330
34
100
AcDbEntity
  8
TITLE
100
AcDbLine
 10
10.11999999999999
 20
-0.0000000000000018
 30
0.0
 11
0.0
 21
0.0
 31
0.0
  0
LINE
  5
B1F
330
34
100
AcDbEntity
  8
TITLE
100
AcDbLine
 10
0.0620000000000012
 20
15.438
 30
0.0
 11
10.058
 21
15.438
 31
0.0
  0
LINE
  5
B20
330
34
100
AcDbEntity
  8
TITLE
100
AcDbLine
 10
10.058
 20
0.0619999999999994
 30
0.0
 11
0.0619999999999976
 21
0.0620000000000012
 31
0.0
  0
LINE
  5
B21
330
34
100
AcDbEntity
  8
TITLE
100
AcDbLine
 10
0.0620000000000012
 20
15.01999999999999
 30
0.0
 11
10.058
 21
15.01999999999999
 31
0.0
  0
LINE
  5
B22
330
34
100
AcDbEntity
  8
TITLE
100
AcDbLine
 10
0.0
 20
0.0
 30
0.0
 11
0.0
 21
15.5
 31
0.0
  0
LINE
  5
B23
330
34
100
AcDbEntity
  8
TITLE
100
AcDbLine
 10
0.0619999999999976
 20
0.0620000000000012
 30
0.0
 11
0.0620000000000012
 21
15.438
 31
0.0
  0
LINE
  5
B24
330
34
100
AcDbEntity
  8
TITLE
100
AcDbLine
 10
0.6396020312089732
 20
15.01999999999999
 30
0.0
 11
0.6396020312089697
 21
15.438
 31
0.0
  0
LINE
  5
B25
330
34
100
AcDbEntity
  8
TITLE
100
AcDbLine
 10
10.11999999999999
 20
15.49999999999999
 30
0.0
 11
10.11999999999999
 21
-0.0000000000000018
 31
0.0
  0
LINE
  5
B26
330
34
100
AcDbEntity
  8
TITLE
100
AcDbLine
 10
10.058
 20
15.438
 30
0.0
 11
10.058
 21
0.0619999999999994
 31
0.0
  0
TEXT
  5
B27
330
34
100
AcDbEntity
  8
TEXT
100
AcDbText
 10
4.570393157811527
 20
15.26841252897341
 30
0.0
 40
0.125
  1
PART
  7
TXT
 72
     1
 11
4.799559824478194
 21
15.26841252897341
 31
0.0
100
AcDbText
  0
LINE
  5
B28
330
34
100
AcDbEntity
  8
TITLE
100
AcDbLine
 10
4.464500000000001
 20
15.438
 30
0.0
 11
4.464500000000001
 21
15.01999999999999
 31
0.0
  0
LINE
  5
B29
330
34
100
AcDbEntity
  8
TITLE
100
AcDbLine
 10
4.526499999999998
 20
15.438
 30
0.0
 11
4.526499999999998
 21
15.01999999999999
 31
0.0
  0
TEXT
  5
B2A
330
34
100
AcDbEntity
  8
TEXT
100
AcDbText
 10
4.674559824478194
 20
15.06007919564008
 30
0.0
 40
0.125
  1
No.
  7
TXT
 72
     1
 11
4.799559824478194
 21
15.06007919564008
 31
0.0
100
AcDbText
  0
LINE
  5
B2B
330
34
100
AcDbEntity
  8
TITLE
100
AcDbLine
 10
8.414128646203558
 20
15.438
 30
0.0
 11
8.414128646203558
 21
15.02
 31
0.0
  0
LINE
  5
B2C
330
34
100
AcDbEntity
  8
TITLE
100
AcDbLine
 10
8.352128646203546
 20
15.438
 30
0.0
 11
8.352128646203546
 21
15.02
 31
0.0
  0
TEXT
  5
B2D
330
34
100
AcDbEntity
  8
TEXT
100
AcDbText
 10
8.456471011235349
 20
15.06007919564008
 30
0.0
 40
0.125
  1
DATE
  7
TXT
 72
     1
 11
8.685637677902015
 21
15.06007919564008
 31
0.0
100
AcDbText
  0
TEXT
  5
B2E
330
34
100
AcDbEntity
  8
TEXT
100
AcDbText
 10
8.477304344568681
 20
15.26841252897341
 30
0.0
 40
0.125
  1
REV.
  7
TXT
 72
     1
 11
8.685637677902015
 21
15.26841252897341
 31
0.0
100
AcDbText
  0
TEXT
  5
B2F
330
34
100
AcDbEntity
  8
TEXT
100
AcDbText
 10
0.6833401984899558
 20
15.06007919564008
 30
0.0
 40
0.125
  1
NAME
  7
TXT
 72
     1
 11
0.9125068651566223
 21
15.06007919564008
 31
0.0
100
AcDbText
  0
TEXT
  5
B30
330
34
100
AcDbEntity
  8
TEXT
100
AcDbText
 10
0.6833401984899558
 20
15.26841252897341
 30
0.0
 40
0.125
  1
PART
  7
TXT
 72
     1
 11
0.9125068651566223
 21
15.26841252897341
 31
0.0
100
AcDbText
  0
LINE
  5
B31
330
34
100
AcDbEntity
  8
TITLE
100
AcDbLine
 10
1.183310283038842
 20
15.01999999999999
 30
0.0
 11
1.183310283038839
 21
15.438
 31
0.0
  0
LINE
  5
B32
330
34
100
AcDbEntity
  8
TITLE
100
AcDbLine
 10
5.070499999999999
 20
15.438
 30
0.0
 11
5.070499999999999
 21
15.01999999999999
 31
0.0
  0
LINE
  5
B33
330
34
100
AcDbEntity
  8
TITLE
100
AcDbLine
 10
8.958128646203554
 20
15.438
 30
0.0
 11
8.958128646203554
 21
15.02
 31
0.0
  0
LINE
  5
B34
330
34
100
AcDbEntity
  8
TITLE
100
AcDbLine
 10
0.1058316404171364
 20
15.09138808647464
 30
0.0
 11
0.1058316404171364
 21
15.35692284057391
 31
0.0
  0
ARC
  5
B35
330
34
100
AcDbEntity
  8
TITLE
100
AcDbCircle
 10
0.1913503079702643
 20
15.29385833647534
 30
0.0
 40
0.063064504098577
100
AcDbArc
 50
270.0
 51
90.0
  0
LINE
  5
B36
330
34
100
AcDbEntity
  8
TITLE
100
AcDbLine
 10
0.2907368675590263
 20
15.10798400860585
 30
0.0
 11
0.2907368675590263
 21
15.35692284057391
 31
0.0
  0
LINE
  5
B37
330
34
100
AcDbEntity
  8
TITLE
100
AcDbLine
 10
0.3623876430765094
 20
15.13471192359016
 30
0.0
 11
0.3623876430765094
 21
15.35692284057391
 31
0.0
  0
LINE
  5
B38
330
34
100
AcDbEntity
  8
TITLE
100
AcDbLine
 10
0.3392744896837776
 20
15.13471192359016
 30
0.0
 11
0.3392744896837776
 21
15.35692284057391
 31
0.0
  0
LINE
  5
B39
330
34
100
AcDbEntity
  8
TITLE
100
AcDbLine
 10
0.4652358447541367
 20
15.09138808647464
 30
0.0
 11
0.4652358447541367
 21
15.35692284057391
 31
0.0
  0
ARC
  5
B3A
330
34
100
AcDbEntity
  8
TITLE
100
AcDbCircle
 10
0.4982653668098039
 20
15.26398567663917
 30
0.0
 40
0.0929371639347451
100
AcDbArc
 50
0.0
 51
90.0
  0
LINE
  5
B3B
330
34
100
AcDbEntity
  8
TITLE
100
AcDbLine
 10
0.4109252652012572
 20
15.10798400860585
 30
0.0
 11
0.4109252652012572
 21
15.35692284057391
 31
0.0
  0
LINE
  5
B3C
330
34
100
AcDbEntity
  8
TITLE
100
AcDbLine
 10
0.3073327896902356
 20
15.09138808647464
 30
0.0
 11
0.3943293430700585
 21
15.09138808647464
 31
0.0
  0
LINE
  5
B3D
330
34
100
AcDbEntity
  8
TITLE
100
AcDbLine
 10
0.1058316404171364
 20
15.09138808647464
 30
0.0
 11
0.1913503079702643
 21
15.09138808647464
 31
0.0
  0
LINE
  5
B3E
330
34
100
AcDbEntity
  8
TITLE
100
AcDbLine
 10
0.1913503079702643
 20
15.2175170946718
 30
0.0
 11
0.1185438747831391
 21
15.2175170946718
 31
0.0
  0
LINE
  5
B3F
330
34
100
AcDbEntity
  8
TITLE
100
AcDbLine
 10
0.1913503079702643
 20
15.23079383237676
 30
0.0
 11
0.1185438747831391
 21
15.23079383237676
 31
0.0
  0
LINE
  5
B40
330
34
100
AcDbEntity
  8
TITLE
100
AcDbLine
 10
0.1185438747831391
 20
15.23079383237676
 30
0.0
 11
0.1185438747831391
 21
15.22415546352428
 31
0.0
  0
LINE
  5
B41
330
34
100
AcDbEntity
  8
TITLE
100
AcDbLine
 10
0.1185438747831391
 20
15.2175170946718
 30
0.0
 11
0.1185438747831391
 21
15.22415546352428
 31
0.0
  0
ARC
  5
B42
330
34
100
AcDbEntity
  8
TITLE
100
AcDbCircle
 10
0.1913503079702643
 20
15.15445259057322
 30
0.0
 40
0.063064504098577
100
AcDbArc
 50
270.0
 51
90.0
  0
ARC
  5
B43
330
34
100
AcDbEntity
  8
TITLE
100
AcDbCircle
 10
0.3073327896902356
 20
15.10798400860585
 30
0.0
 40
0.0165959221312045
100
AcDbArc
 50
180.0
 51
270.0
  0
ARC
  5
B44
330
34
100
AcDbEntity
  8
TITLE
100
AcDbCircle
 10
0.3491109053715498
 20
15.13471192359016
 30
0.0
 40
0.0132767377049636
100
AcDbArc
 50
277.4442840977136
 51
0.0
  0
ARC
  5
B45
330
34
100
AcDbEntity
  8
TITLE
100
AcDbCircle
 10
0.3525512273887479
 20
15.13471192359016
 30
0.0
 40
0.0132767377049636
100
AcDbArc
 50
180.0
 51
262.5557159022863
  0
ARC
  5
B46
330
34
100
AcDbEntity
  8
TITLE
100
AcDbCircle
 10
0.4982653668098039
 20
15.18432525040939
 30
0.0
 40
0.0929371639347451
100
AcDbArc
 50
270.0
 51
0.0
  0
ARC
  5
B47
330
34
100
AcDbEntity
  8
TITLE
100
AcDbCircle
 10
0.3943293430700585
 20
15.10798400860585
 30
0.0
 40
0.0165959221312045
100
AcDbArc
 50
270.0
 51
0.0
  0
LINE
  5
B48
330
34
100
AcDbEntity
  8
TITLE
100
AcDbLine
 10
0.4652358447541367
 20
15.09138808647464
 30
0.0
 11
0.4982653668098039
 21
15.09138808647464
 31
0.0
  0
LINE
  5
B49
330
34
100
AcDbEntity
  8
TITLE
100
AcDbLine
 10
0.5912025307445532
 20
15.18432525040939
 30
0.0
 11
0.5912025307445532
 21
15.26398567663917
 31
0.0
  0
LINE
  5
B4A
330
34
100
AcDbEntity
  8
TITLE
100
AcDbLine
 10
0.5423641529412322
 20
15.2175170946718
 30
0.0
 11
0.5423641529412322
 21
15.23079383237676
 31
0.0
  0
LINE
  5
B4B
330
34
100
AcDbEntity
  8
TITLE
100
AcDbLine
 10
0.5010665634329392
 20
15.2175170946718
 30
0.0
 11
0.5010665634329392
 21
15.23079383237676
 31
0.0
  0
LINE
  5
B4C
330
34
100
AcDbEntity
  8
TITLE
100
AcDbLine
 10
0.5423641529412322
 20
15.2175170946718
 30
0.0
 11
0.5010665634329392
 21
15.2175170946718
 31
0.0
  0
LINE
  5
B4D
330
34
100
AcDbEntity
  8
TITLE
100
AcDbLine
 10
0.5423641529412322
 20
15.23079383237676
 30
0.0
 11
0.5010665634329392
 21
15.23079383237676
 31
0.0
  0
LINE
  5
B4E
330
34
100
AcDbEntity
  8
TITLE
100
AcDbLine
 10
0.3623876430765094
 20
15.35692284057391
 30
0.0
 11
0.4109252652012572
 21
15.35692284057391
 31
0.0
  0
LINE
  5
B4F
330
34
100
AcDbEntity
  8
TITLE
100
AcDbLine
 10
0.1058316404171364
 20
15.35692284057391
 30
0.0
 11
0.1913503079702643
 21
15.35692284057391
 31
0.0
  0
LINE
  5
B50
330
34
100
AcDbEntity
  8
TITLE
100
AcDbLine
 10
0.2907368675590263
 20
15.35692284057391
 30
0.0
 11
0.3392744896837776
 21
15.35692284057391
 31
0.0
  0
LINE
  5
B51
330
34
100
AcDbEntity
  8
TITLE
100
AcDbLine
 10
0.4652358447541367
 20
15.35692284057391
 30
0.0
 11
0.4982653668098039
 21
15.35692284057391
 31
0.0
  0
ENDBLK
  5
47
330
34
100
AcDbEntity
  8
0
100
AcDbBlockEnd
  0
BLOCK
  5
1B0
330
1A5
100
AcDbEntity
  8
0
100
AcDbBlockBegin
  2
*D1
 70
     1
 10
0.0
 20
0.0
 30
0.0
  3
*D1
  1

  0
LINE
  5
6DE
330
1A5
100
AcDbEntity
  8
DIM
 62
     0
370
    -2
100
AcDbLine
 10
17.59287639441811
 20
14.701215
 30
0.0
 11
17.59287639441811
 21
16.556248
 31
0.0
  0
LINE
  5
6DF
330
1A5
100
AcDbEntity
  8
DIM
 62
     0
370
    -2
100
AcDbLine
 10
19.74887639441812
 20
13.76521499999999
 30
0.0
 11
19.74887639441812
 21
16.556248
 31
0.0
  0
LINE
  5
6E0
330
1A5
100
AcDbEntity
  8
DIM
 62
     0
370
    -2
100
AcDbLine
 10
17.05287639441812
 20
16.277248
 30
0.0
 11
16.51287639441812
 21
16.277248
 31
0.0
  0
LINE
  5
6E1
330
1A5
100
AcDbEntity
  8
DIM
 62
     0
370
    -2
100
AcDbLine
 10
20.28887639441812
 20
16.277248
 30
0.0
 11
20.82887639441812
 21
16.277248
 31
0.0
  0
SOLID
  5
6E2
330
1A5
100
AcDbEntity
  8
DIM
 62
     0
100
AcDbTrace
 10
17.05287639441812
 20
16.367248
 30
0.0
 11
17.05287639441812
 21
16.187248
 31
0.0
 12
17.59287639441811
 22
16.277248
 32
0.0
 13
17.59287639441811
 23
16.277248
 33
0.0
  0
SOLID
  5
6E3
330
1A5
100
AcDbEntity
  8
DIM
 62
     0
100
AcDbTrace
 10
20.28887639441812
 20
16.367248
 30
0.0
 11
20.28887639441812
 21
16.187248
 31
0.0
 12
19.74887639441812
 22
16.277248
 32
0.0
 13
19.74887639441812
 23
16.277248
 33
0.0
  0
MTEXT
  5
6E4
330
1A5
100
AcDbEntity
  8
DIM
 62
     0
100
AcDbMText
 10
22.24731389441811
 20
16.277248
 30
0.0
 40
0.375
 41
0.0
 71
     5
 72
     1
  1
\A1;0.54 [13.7]
  7
TXT
 73
     1
 44
1.0
  0
POINT
  5
6E5
330
1A5
100
AcDbEntity
  8
DEFPOINTS
 62
     0
100
AcDbPoint
 10
17.59287639441811
 20
14.51221499999999
 30
0.0
  0
POINT
  5
6E6
330
1A5
100
AcDbEntity
  8
DEFPOINTS
 62
     0
100
AcDbPoint
 10
19.74887639441812
 20
13.576215
 30
0.0
  0
POINT
  5
6E7
330
1A5
100
AcDbEntity
  8
DEFPOINTS
 62
     0
100
AcDbPoint
 10
19.74887639441812
 20
16.277248
 30
0.0
  0
ENDBLK
  5
1B1
330
1A5
100
AcDbEntity
  8
0
100
AcDbBlockEnd
  0
BLOCK
  5
1BE
330
1B3
100
AcDbEntity
  8
0
100
AcDbBlockBegin
  2
*D2
 70
     1
 10
0.0
 20
0.0
 30
0.0
  3
*D2
  1

  0
LINE
  5
6D4
330
1B3
100
AcDbEntity
  8
DIM
 62
     0
370
    -2
100
AcDbLine
 10
18.12487639441812
 20
13.76521499999999
 30
0.0
 11
18.12487639441812
 21
15.713248
 31
0.0
  0
LINE
  5
6D5
330
1B3
100
AcDbEntity
  8
DIM
 62
     0
370
    -2
100
AcDbLine
 10
19.74887639441812
 20
13.76521499999999
 30
0.0
 11
19.74887639441812
 21
15.713248
 31
0.0
  0
LINE
  5
6D6
330
1B3
100
AcDbEntity
  8
DIM
 62
     0
370
    -2
100
AcDbLine
 10
17.58487639441812
 20
15.434248
 30
0.0
 11
17.04487639441811
 21
15.434248
 31
0.0
  0
LINE
  5
6D7
330
1B3
100
AcDbEntity
  8
DIM
 62
     0
370
    -2
100
AcDbLine
 10
20.28887639441812
 20
15.434248
 30
0.0
 11
20.82887639441812
 21
15.434248
 31
0.0
  0
SOLID
  5
6D8
330
1B3
100
AcDbEntity
  8
DIM
 62
     0
100
AcDbTrace
 10
17.58487639441812
 20
15.524248
 30
0.0
 11
17.58487639441812
 21
15.344248
 31
0.0
 12
18.12487639441812
 22
15.434248
 32
0.0
 13
18.12487639441812
 23
15.434248
 33
0.0
  0
SOLID
  5
6D9
330
1B3
100
AcDbEntity
  8
DIM
 62
     0
100
AcDbTrace
 10
20.28887639441812
 20
15.524248
 30
0.0
 11
20.28887639441812
 21
15.344248
 31
0.0
 12
19.74887639441812
 22
15.434248
 32
0.0
 13
19.74887639441812
 23
15.434248
 33
0.0
  0
MTEXT
  5
6DA
330
1B3
100
AcDbEntity
  8
DIM
 62
     0
100
AcDbMText
 10
22.17700139441812
 20
15.434248
 30
0.0
 40
0.375
 41
0.0
 71
     5
 72
     1
  1
\A1;0.41 [10.3]
  7
TXT
 73
     1
 44
1.0
  0
POINT
  5
6DB
330
1B3
100
AcDbEntity
  8
DEFPOINTS
 62
     0
100
AcDbPoint
 10
18.12487639441812
 20
13.576215
 30
0.0
  0
POINT
  5
6DC
330
1B3
100
AcDbEntity
  8
DEFPOINTS
 62
     0
100
AcDbPoint
 10
19.74887639441812
 20
13.576215
 30
0.0
  0
POINT
  5
6DD
330
1B3
100
AcDbEntity
  8
DEFPOINTS
 62
     0
100
AcDbPoint
 10
19.74887639441812
 20
15.434248
 30
0.0
  0
ENDBLK
  5
1BF
330
1B3
100
AcDbEntity
  8
0
100
AcDbBlockEnd
  0
BLOCK
  5
1CC
330
1C1
100
AcDbEntity
  8
0
100
AcDbBlockBegin
  2
*D3
 70
     1
 10
0.0
 20
0.0
 30
0.0
  3
*D3
  1

  0
LINE
  5
706
330
1C1
100
AcDbEntity
  8
DIM
 62
     0
370
    -2
100
AcDbLine
 10
18.49187639441811
 20
14.13221499999999
 30
0.0
 11
15.94285670096865
 21
14.13221499999999
 31
0.0
  0
LINE
  5
707
330
1C1
100
AcDbEntity
  8
DIM
 62
     0
370
    -2
100
AcDbLine
 10
18.49187639441811
 20
13.02021499999999
 30
0.0
 11
15.94285670096865
 21
13.02021499999999
 31
0.0
  0
LINE
  5
708
330
1C1
100
AcDbEntity
  8
DIM
 62
     0
370
    -2
100
AcDbLine
 10
16.22185670096865
 20
14.67221499999999
 30
0.0
 11
16.22185670096865
 21
15.212215
 31
0.0
  0
LINE
  5
709
330
1C1
100
AcDbEntity
  8
DIM
 62
     0
370
    -2
100
AcDbLine
 10
16.22185670096865
 20
12.48021499999999
 30
0.0
 11
16.22185670096865
 21
11.94021499999999
 31
0.0
  0
SOLID
  5
70A
330
1C1
100
AcDbEntity
  8
DIM
 62
     0
100
AcDbTrace
 10
16.13185670096865
 20
14.67221499999999
 30
0.0
 11
16.31185670096865
 21
14.67221499999999
 31
0.0
 12
16.22185670096865
 22
14.13221499999999
 32
0.0
 13
16.22185670096865
 23
14.13221499999999
 33
0.0
  0
SOLID
  5
70B
330
1C1
100
AcDbEntity
  8
DIM
 62
     0
100
AcDbTrace
 10
16.13185670096865
 20
12.48021499999999
 30
0.0
 11
16.31185670096865
 21
12.48021499999999
 31
0.0
 12
16.22185670096865
 22
13.02021499999999
 32
0.0
 13
16.22185670096865
 23
13.02021499999999
 33
0.0
  0
MTEXT
  5
70C
330
1C1
100
AcDbEntity
  8
DIM
 62
     0
100
AcDbMText
 10
16.22185670096865
 20
13.576215
 30
0.0
 40
0.375
 41
0.0
 71
     5
 72
     1
  1
\A1;0.28 [7.1]
  7
TXT
 73
     1
 44
1.0
  0
POINT
  5
70D
330
1C1
100
AcDbEntity
  8
DEFPOINTS
 62
     0
100
AcDbPoint
 10
18.68087639441811
 20
14.13221499999999
 30
0.0
  0
POINT
  5
70E
330
1C1
100
AcDbEntity
  8
DEFPOINTS
 62
     0
100
AcDbPoint
 10
18.68087639441811
 20
13.02021499999999
 30
0.0
  0
POINT
  5
70F
330
1C1
100
AcDbEntity
  8
DEFPOINTS
 62
     0
100
AcDbPoint
 10
16.22185670096865
 20
13.02021499999999
 30
0.0
  0
ENDBLK
  5
1CD
330
1C1
100
AcDbEntity
  8
0
100
AcDbBlockEnd
  0
BLOCK
  5
1E8
330
1DD
100
AcDbEntity
  8
0
100
AcDbBlockBegin
  2
*D4
 70
     1
 10
0.0
 20
0.0
 30
0.0
  3
*D4
  1

  0
LINE
  5
6AA
330
1DD
100
AcDbEntity
  8
DIM
 62
     0
370
    -2
100
AcDbLine
 10
22.618105
 20
34.09511112124978
 30
0.0
 11
24.51328352584782
 21
34.09511112124978
 31
0.0
  0
LINE
  5
6AB
330
1DD
100
AcDbEntity
  8
DIM
 62
     0
370
    -2
100
AcDbLine
 10
22.909105
 20
32.61111112124978
 30
0.0
 11
24.51328352584782
 21
32.61111112124978
 31
0.0
  0
LINE
  5
6AC
330
1DD
100
AcDbEntity
  8
DIM
 62
     0
370
    -2
100
AcDbLine
 10
24.23428352584782
 20
34.63511112124978
 30
0.0
 11
24.23428352584782
 21
35.17511112124978
 31
0.0
  0
LINE
  5
6AD
330
1DD
100
AcDbEntity
  8
DIM
 62
     0
370
    -2
100
AcDbLine
 10
24.23428352584782
 20
32.07111112124978
 30
0.0
 11
24.23428352584782
 21
31.53111112124978
 31
0.0
  0
SOLID
  5
6AE
330
1DD
100
AcDbEntity
  8
DIM
 62
     0
100
AcDbTrace
 10
24.14428352584782
 20
34.63511112124978
 30
0.0
 11
24.32428352584782
 21
34.63511112124978
 31
0.0
 12
24.23428352584782
 22
34.09511112124978
 32
0.0
 13
24.23428352584782
 23
34.09511112124978
 33
0.0
  0
SOLID
  5
6AF
330
1DD
100
AcDbEntity
  8
DIM
 62
     0
100
AcDbTrace
 10
24.14428352584782
 20
32.07111112124978
 30
0.0
 11
24.32428352584782
 21
32.07111112124978
 31
0.0
 12
24.23428352584782
 22
32.61111112124978
 32
0.0
 13
24.23428352584782
 23
32.61111112124978
 33
0.0
  0
MTEXT
  5
6B0
330
1DD
100
AcDbEntity
  8
DIM
 62
     0
100
AcDbMText
 10
24.23428352584782
 20
33.35311112124979
 30
0.0
 40
0.375
 41
0.0
 71
     5
 72
     1
  1
\A1;1.48 [37.7]
  7
TXT
 73
     1
 44
1.0
  0
POINT
  5
6B1
330
1DD
100
AcDbEntity
  8
DEFPOINTS
 62
     0
100
AcDbPoint
 10
22.429105
 20
34.09511112124978
 30
0.0
  0
POINT
  5
6B2
330
1DD
100
AcDbEntity
  8
DEFPOINTS
 62
     0
100
AcDbPoint
 10
22.72010499999999
 20
32.61111112124978
 30
0.0
  0
POINT
  5
6B3
330
1DD
100
AcDbEntity
  8
DEFPOINTS
 62
     0
100
AcDbPoint
 10
24.23428352584782
 20
32.61111112124978
 30
0.0
  0
ENDBLK
  5
1E9
330
1DD
100
AcDbEntity
  8
0
100
AcDbBlockEnd
  0
BLOCK
  5
1F6
330
1EB
100
AcDbEntity
  8
0
100
AcDbBlockBegin
  2
*D5
 70
     1
 10
0.0
 20
0.0
 30
0.0
  3
*D5
  1

  0
LINE
  5
696
330
1EB
100
AcDbEntity
  8
DIM
 62
     0
370
    -2
100
AcDbLine
 10
22.909105
 20
32.61111112124978
 30
0.0
 11
27.81552330992622
 21
32.61111112124978
 31
0.0
  0
LINE
  5
697
330
1EB
100
AcDbEntity
  8
DIM
 62
     0
370
    -2
100
AcDbLine
 10
22.909105
 20
37.84511112124978
 30
0.0
 11
27.81552330992622
 21
37.84511112124978
 31
0.0
  0
LINE
  5
698
330
1EB
100
AcDbEntity
  8
DIM
 62
     0
370
    -2
100
AcDbLine
 10
27.53652330992622
 20
33.15111112124978
 30
0.0
 11
27.53652330992622
 21
34.77061112124978
 31
0.0
  0
LINE
  5
699
330
1EB
100
AcDbEntity
  8
DIM
 62
     0
370
    -2
100
AcDbLine
 10
27.53652330992622
 20
37.30511112124978
 30
0.0
 11
27.53652330992622
 21
35.68561112124979
 31
0.0
  0
SOLID
  5
69A
330
1EB
100
AcDbEntity
  8
DIM
 62
     0
100
AcDbTrace
 10
27.44652330992622
 20
33.15111112124978
 30
0.0
 11
27.62652330992622
 21
33.15111112124978
 31
0.0
 12
27.53652330992622
 22
32.61111112124978
 32
0.0
 13
27.53652330992622
 23
32.61111112124978
 33
0.0
  0
SOLID
  5
69B
330
1EB
100
AcDbEntity
  8
DIM
 62
     0
100
AcDbTrace
 10
27.44652330992622
 20
37.30511112124978
 30
0.0
 11
27.62652330992622
 21
37.30511112124978
 31
0.0
 12
27.53652330992622
 22
37.84511112124978
 32
0.0
 13
27.53652330992622
 23
37.84511112124978
 33
0.0
  0
MTEXT
  5
69C
330
1EB
100
AcDbEntity
  8
DIM
 62
     0
100
AcDbMText
 10
27.53652330992622
 20
35.22811112124979
 30
0.0
 40
0.375
 41
0.0
 71
     5
 72
     1
  1
\A1;A
  7
TXT
 73
     1
 44
1.0
  0
POINT
  5
69D
330
1EB
100
AcDbEntity
  8
DEFPOINTS
 62
     0
100
AcDbPoint
 10
22.72010499999999
 20
32.61111112124978
 30
0.0
  0
POINT
  5
69E
330
1EB
100
AcDbEntity
  8
DEFPOINTS
 62
     0
100
AcDbPoint
 10
22.72010499999999
 20
37.84511112124978
 30
0.0
  0
POINT
  5
69F
330
1EB
100
AcDbEntity
  8
DEFPOINTS
 62
     0
100
AcDbPoint
 10
27.53652330992622
 20
37.84511112124978
 30
0.0
  0
ENDBLK
  5
1F7
330
1EB
100
AcDbEntity
  8
0
100
AcDbBlockEnd
  0
BLOCK
  5
204
330
1F9
100
AcDbEntity
  8
0
100
AcDbBlockBegin
  2
*D6
 70
     1
 10
0.0
 20
0.0
 30
0.0
  3
*D6
  1

  0
LINE
  5
6A0
330
1F9
100
AcDbEntity
  8
DIM
 62
     0
370
    -2
100
AcDbLine
 10
22.618105
 20
36.36111112124978
 30
0.0
 11
26.11950794087757
 21
36.36111112124978
 31
0.0
  0
LINE
  5
6A1
330
1F9
100
AcDbEntity
  8
DIM
 62
     0
370
    -2
100
AcDbLine
 10
22.618105
 20
34.09511112124978
 30
0.0
 11
26.11950794087757
 21
34.09511112124978
 31
0.0
  0
LINE
  5
6A2
330
1F9
100
AcDbEntity
  8
DIM
 62
     0
370
    -2
100
AcDbLine
 10
25.84050794087757
 20
36.90111112124978
 30
0.0
 11
25.84050794087757
 21
37.44111112124978
 31
0.0
  0
LINE
  5
6A3
330
1F9
100
AcDbEntity
  8
DIM
 62
     0
370
    -2
100
AcDbLine
 10
25.84050794087757
 20
33.55511112124978
 30
0.0
 11
25.84050794087757
 21
33.01511112124979
 31
0.0
  0
SOLID
  5
6A4
330
1F9
100
AcDbEntity
  8
DIM
 62
     0
100
AcDbTrace
 10
25.75050794087757
 20
36.90111112124978
 30
0.0
 11
25.93050794087757
 21
36.90111112124978
 31
0.0
 12
25.84050794087757
 22
36.36111112124978
 32
0.0
 13
25.84050794087757
 23
36.36111112124978
 33
0.0
  0
SOLID
  5
6A5
330
1F9
100
AcDbEntity
  8
DIM
 62
     0
100
AcDbTrace
 10
25.75050794087757
 20
33.55511112124978
 30
0.0
 11
25.93050794087757
 21
33.55511112124978
 31
0.0
 12
25.84050794087757
 22
34.09511112124978
 32
0.0
 13
25.84050794087757
 23
34.09511112124978
 33
0.0
  0
MTEXT
  5
6A6
330
1F9
100
AcDbEntity
  8
DIM
 62
     0
100
AcDbMText
 10
25.84050794087757
 20
35.22811112124979
 30
0.0
 40
0.375
 41
0.0
 71
     5
 72
     1
  1
\A1;B
  7
TXT
 73
     1
 44
1.0
  0
POINT
  5
6A7
330
1F9
100
AcDbEntity
  8
DEFPOINTS
 62
     0
100
AcDbPoint
 10
22.429105
 20
36.36111112124978
 30
0.0
  0
POINT
  5
6A8
330
1F9
100
AcDbEntity
  8
DEFPOINTS
 62
     0
100
AcDbPoint
 10
22.429105
 20
34.09511112124978
 30
0.0
  0
POINT
  5
6A9
330
1F9
100
AcDbEntity
  8
DEFPOINTS
 62
     0
100
AcDbPoint
 10
25.84050794087757
 20
34.09511112124978
 30
0.0
  0
ENDBLK
  5
205
330
1F9
100
AcDbEntity
  8
0
100
AcDbBlockEnd
  0
BLOCK
  5
219
330
20E
100
AcDbEntity
  8
0
100
AcDbBlockBegin
  2
*D7
 70
     1
 10
0.0
 20
0.0
 30
0.0
  3
*D7
  1

  0
LINE
  5
554
330
20E
100
AcDbEntity
  8
DIM
 62
     0
370
    -2
100
AcDbLine
 10
22.72010499999999
 20
42.80441812124978
 30
0.0
 11
22.72010499999999
 21
43.69541812124978
 31
0.0
  0
LINE
  5
555
330
20E
100
AcDbEntity
  8
DIM
 62
     0
370
    -2
100
AcDbLine
 10
3.720105
 20
42.80441812124978
 30
0.0
 11
3.720105
 21
43.69541812124978
 31
0.0
  0
LINE
  5
556
330
20E
100
AcDbEntity
  8
DIM
 62
     0
370
    -2
100
AcDbLine
 10
22.180105
 20
43.41641812124978
 30
0.0
 11
14.896355
 21
43.41641812124978
 31
0.0
  0
LINE
  5
557
330
20E
100
AcDbEntity
  8
DIM
 62
     0
370
    -2
100
AcDbLine
 10
4.260105
 20
43.41641812124978
 30
0.0
 11
11.543855
 21
43.41641812124978
 31
0.0
  0
SOLID
  5
558
330
20E
100
AcDbEntity
  8
DIM
 62
     0
100
AcDbTrace
 10
22.180105
 20
43.50641812124979
 30
0.0
 11
22.180105
 21
43.32641812124978
 31
0.0
 12
22.72010499999999
 22
43.41641812124978
 32
0.0
 13
22.72010499999999
 23
43.41641812124978
 33
0.0
  0
SOLID
  5
559
330
20E
100
AcDbEntity
  8
DIM
 62
     0
100
AcDbTrace
 10
4.260105
 20
43.50641812124979
 30
0.0
 11
4.260105
 21
43.32641812124978
 31
0.0
 12
3.720105
 22
43.41641812124978
 32
0.0
 13
3.720105
 23
43.41641812124978
 33
0.0
  0
MTEXT
  5
55A
330
20E
100
AcDbEntity
  8
DIM
 62
     0
100
AcDbMText
 10
13.220105
 20
43.41641812124978
 30
0.0
 40
0.375
 41
0.0
 71
     5
 72
     1
  1
\A1;19.00 [482.6]
  7
TXT
 73
     1
 44
1.0
  0
POINT
  5
55B
330
20E
100
AcDbEntity
  8
DEFPOINTS
 62
     0
100
AcDbPoint
 10
22.72010499999999
 20
42.61541812124978
 30
0.0
  0
POINT
  5
55C
330
20E
100
AcDbEntity
  8
DEFPOINTS
 62
     0
100
AcDbPoint
 10
3.720105
 20
42.61541812124978
 30
0.0
  0
POINT
  5
55D
330
20E
100
AcDbEntity
  8
DEFPOINTS
 62
     0
100
AcDbPoint
 10
3.720105
 20
43.41641812124978
 30
0.0
  0
ENDBLK
  5
21A
330
20E
100
AcDbEntity
  8
0
100
AcDbBlockEnd
  0
BLOCK
  5
227
330
21C
100
AcDbEntity
  8
0
100
AcDbBlockBegin
  2
*D8
 70
     1
 10
0.0
 20
0.0
 30
0.0
  3
*D8
  1

  0
LINE
  5
6BE
330
21C
100
AcDbEntity
  8
DIM
 62
     0
370
    -2
100
AcDbLine
 10
22.618105
 20
42.38141812124978
 30
0.0
 11
26.11950794087757
 21
42.38141812124978
 31
0.0
  0
LINE
  5
6BF
330
21C
100
AcDbEntity
  8
DIM
 62
     0
370
    -2
100
AcDbLine
 10
22.618105
 20
41.11541812124978
 30
0.0
 11
26.11950794087757
 21
41.11541812124978
 31
0.0
  0
LINE
  5
6C0
330
21C
100
AcDbEntity
  8
DIM
 62
     0
370
    -2
100
AcDbLine
 10
25.84050794087758
 20
42.92141812124978
 30
0.0
 11
25.84050794087758
 21
43.46141812124979
 31
0.0
  0
LINE
  5
6C1
330
21C
100
AcDbEntity
  8
DIM
 62
     0
370
    -2
100
AcDbLine
 10
25.84050794087758
 20
40.57541812124978
 30
0.0
 11
25.84050794087758
 21
40.03541812124978
 31
0.0
  0
SOLID
  5
6C2
330
21C
100
AcDbEntity
  8
DIM
 62
     0
100
AcDbTrace
 10
25.75050794087758
 20
42.92141812124978
 30
0.0
 11
25.93050794087758
 21
42.92141812124978
 31
0.0
 12
25.84050794087758
 22
42.38141812124978
 32
0.0
 13
25.84050794087758
 23
42.38141812124978
 33
0.0
  0
SOLID
  5
6C3
330
21C
100
AcDbEntity
  8
DIM
 62
     0
100
AcDbTrace
 10
25.75050794087758
 20
40.57541812124978
 30
0.0
 11
25.93050794087758
 21
40.57541812124978
 31
0.0
 12
25.84050794087758
 22
41.11541812124978
 32
0.0
 13
25.84050794087758
 23
41.11541812124978
 33
0.0
  0
MTEXT
  5
6C4
330
21C
100
AcDbEntity
  8
DIM
 62
     0
100
AcDbMText
 10
25.84050794087757
 20
41.74841812124979
 30
0.0
 40
0.375
 41
0.0
 71
     5
 72
     1
  1
\A1;B
  7
TXT
 73
     1
 44
1.0
  0
POINT
  5
6C5
330
21C
100
AcDbEntity
  8
DEFPOINTS
 62
     0
100
AcDbPoint
 10
22.429105
 20
42.38141812124978
 30
0.0
  0
POINT
  5
6C6
330
21C
100
AcDbEntity
  8
DEFPOINTS
 62
     0
100
AcDbPoint
 10
22.429105
 20
41.11541812124978
 30
0.0
  0
POINT
  5
6C7
330
21C
100
AcDbEntity
  8
DEFPOINTS
 62
     0
100
AcDbPoint
 10
25.84050794087758
 20
41.11541812124978
 30
0.0
  0
ENDBLK
  5
228
330
21C
100
AcDbEntity
  8
0
100
AcDbBlockEnd
  0
BLOCK
  5
235
330
22A
100
AcDbEntity
  8
0
100
AcDbBlockBegin
  2
*D9
 70
     1
 10
0.0
 20
0.0
 30
0.0
  3
*D9
  1

  0
LINE
  5
6B4
330
22A
100
AcDbEntity
  8
DIM
 62
     0
370
    -2
100
AcDbLine
 10
22.909105
 20
42.61541812124978
 30
0.0
 11
27.81552330992623
 21
42.61541812124978
 31
0.0
  0
LINE
  5
6B5
330
22A
100
AcDbEntity
  8
DIM
 62
     0
370
    -2
100
AcDbLine
 10
22.909105
 20
40.88141812124979
 30
0.0
 11
27.81552330992623
 21
40.88141812124979
 31
0.0
  0
LINE
  5
6B6
330
22A
100
AcDbEntity
  8
DIM
 62
     0
370
    -2
100
AcDbLine
 10
27.53652330992623
 20
43.15541812124978
 30
0.0
 11
27.53652330992623
 21
43.69541812124977
 31
0.0
  0
LINE
  5
6B7
330
22A
100
AcDbEntity
  8
DIM
 62
     0
370
    -2
100
AcDbLine
 10
27.53652330992623
 20
40.34141812124978
 30
0.0
 11
27.53652330992622
 21
39.80141812124978
 31
0.0
  0
SOLID
  5
6B8
330
22A
100
AcDbEntity
  8
DIM
 62
     0
100
AcDbTrace
 10
27.44652330992623
 20
43.15541812124978
 30
0.0
 11
27.62652330992623
 21
43.15541812124978
 31
0.0
 12
27.53652330992623
 22
42.61541812124978
 32
0.0
 13
27.53652330992623
 23
42.61541812124978
 33
0.0
  0
SOLID
  5
6B9
330
22A
100
AcDbEntity
  8
DIM
 62
     0
100
AcDbTrace
 10
27.44652330992623
 20
40.34141812124978
 30
0.0
 11
27.62652330992623
 21
40.34141812124978
 31
0.0
 12
27.53652330992623
 22
40.88141812124979
 32
0.0
 13
27.53652330992623
 23
40.88141812124979
 33
0.0
  0
MTEXT
  5
6BA
330
22A
100
AcDbEntity
  8
DIM
 62
     0
100
AcDbMText
 10
27.53652330992622
 20
41.74841812124979
 30
0.0
 40
0.375
 41
0.0
 71
     5
 72
     1
  1
\A1;A
  7
TXT
 73
     1
 44
1.0
  0
POINT
  5
6BB
330
22A
100
AcDbEntity
  8
DEFPOINTS
 62
     0
100
AcDbPoint
 10
22.72010499999999
 20
42.61541812124978
 30
0.0
  0
POINT
  5
6BC
330
22A
100
AcDbEntity
  8
DEFPOINTS
 62
     0
100
AcDbPoint
 10
22.72010499999999
 20
40.88141812124979
 30
0.0
  0
POINT
  5
6BD
330
22A
100
AcDbEntity
  8
DEFPOINTS
 62
     0
100
AcDbPoint
 10
27.53652330992623
 20
40.88141812124979
 30
0.0
  0
ENDBLK
  5
236
330
22A
100
AcDbEntity
  8
0
100
AcDbBlockEnd
  0
BLOCK
  5
243
330
238
100
AcDbEntity
  8
0
100
AcDbBlockBegin
  2
*D10
 70
     1
 10
0.0
 20
0.0
 30
0.0
  3
*D10
  1

  0
LINE
  5
6C8
330
238
100
AcDbEntity
  8
DIM
 62
     0
370
    -2
100
AcDbLine
 10
22.618105
 20
41.11541812124978
 30
0.0
 11
24.51328352584783
 21
41.11541812124978
 31
0.0
  0
LINE
  5
6C9
330
238
100
AcDbEntity
  8
DIM
 62
     0
370
    -2
100
AcDbLine
 10
22.909105
 20
40.88141812124979
 30
0.0
 11
24.51328352584783
 21
40.88141812124979
 31
0.0
  0
LINE
  5
6CA
330
238
100
AcDbEntity
  8
DIM
 62
     0
370
    -2
100
AcDbLine
 10
24.23428352584783
 20
41.65541812124978
 30
0.0
 11
24.23428352584783
 21
42.19541812124978
 31
0.0
  0
LINE
  5
6CB
330
238
100
AcDbEntity
  8
DIM
 62
     0
370
    -2
100
AcDbLine
 10
24.23428352584783
 20
40.34141812124978
 30
0.0
 11
24.23428352584783
 21
39.80141812124978
 31
0.0
  0
LINE
  5
6CC
330
238
100
AcDbEntity
  8
DIM
 62
     0
370
    -2
100
AcDbLine
 10
24.23428352584783
 20
39.80141812124978
 30
0.0
 11
23.69428352584783
 21
39.80141812124978
 31
0.0
  0
SOLID
  5
6CD
330
238
100
AcDbEntity
  8
DIM
 62
     0
100
AcDbTrace
 10
24.14428352584783
 20
41.65541812124978
 30
0.0
 11
24.32428352584783
 21
41.65541812124978
 31
0.0
 12
24.23428352584783
 22
41.11541812124978
 32
0.0
 13
24.23428352584783
 23
41.11541812124978
 33
0.0
  0
SOLID
  5
6CE
330
238
100
AcDbEntity
  8
DIM
 62
     0
100
AcDbTrace
 10
24.14428352584783
 20
40.34141812124978
 30
0.0
 11
24.32428352584783
 21
40.34141812124978
 31
0.0
 12
24.23428352584783
 22
40.88141812124979
 32
0.0
 13
24.23428352584783
 23
40.88141812124979
 33
0.0
  0
MTEXT
  5
6CF
330
238
100
AcDbEntity
  8
DIM
 62
     0
100
AcDbMText
 10
22.36959602584782
 20
39.80141812124979
 30
0.0
 40
0.375
 41
0.0
 71
     5
 72
     1
  1
\A1;0.23 [5.9]
  7
TXT
 73
     1
 44
1.0
  0
POINT
  5
6D0
330
238
100
AcDbEntity
  8
DEFPOINTS
 62
     0
100
AcDbPoint
 10
22.429105
 20
41.11541812124978
 30
0.0
  0
POINT
  5
6D1
330
238
100
AcDbEntity
  8
DEFPOINTS
 62
     0
100
AcDbPoint
 10
22.72010499999999
 20
40.88141812124979
 30
0.0
  0
POINT
  5
6D2
330
238
100
AcDbEntity
  8
DEFPOINTS
 62
     0
100
AcDbPoint
 10
24.23428352584783
 20
40.88141812124979
 30
0.0
  0
ENDBLK
  5
244
330
238
100
AcDbEntity
  8
0
100
AcDbBlockEnd
  0
BLOCK
  5
254
330
249
100
AcDbEntity
  8
0
100
AcDbBlockBegin
  2
*D11
 70
     1
 10
0.0
 20
0.0
 30
0.0
  3
*D11
  1

  0
LINE
  5
68C
330
249
100
AcDbEntity
  8
DIM
 62
     0
370
    -2
100
AcDbLine
 10
22.909105
 20
19.18172912124978
 30
0.0
 11
27.81552330992622
 21
19.18172912124978
 31
0.0
  0
LINE
  5
68D
330
249
100
AcDbEntity
  8
DIM
 62
     0
370
    -2
100
AcDbLine
 10
22.909105
 20
29.66572912124978
 30
0.0
 11
27.81552330992622
 21
29.66572912124977
 31
0.0
  0
LINE
  5
68E
330
249
100
AcDbEntity
  8
DIM
 62
     0
370
    -2
100
AcDbLine
 10
27.53652330992622
 20
19.72172912124977
 30
0.0
 11
27.53652330992622
 21
23.96622912124978
 31
0.0
  0
LINE
  5
68F
330
249
100
AcDbEntity
  8
DIM
 62
     0
370
    -2
100
AcDbLine
 10
27.53652330992622
 20
29.12572912124978
 30
0.0
 11
27.53652330992622
 21
24.88122912124977
 31
0.0
  0
SOLID
  5
690
330
249
100
AcDbEntity
  8
DIM
 62
     0
100
AcDbTrace
 10
27.44652330992622
 20
19.72172912124977
 30
0.0
 11
27.62652330992622
 21
19.72172912124977
 31
0.0
 12
27.53652330992622
 22
19.18172912124978
 32
0.0
 13
27.53652330992622
 23
19.18172912124978
 33
0.0
  0
SOLID
  5
691
330
249
100
AcDbEntity
  8
DIM
 62
     0
100
AcDbTrace
 10
27.44652330992622
 20
29.12572912124978
 30
0.0
 11
27.62652330992622
 21
29.12572912124978
 31
0.0
 12
27.53652330992622
 22
29.66572912124977
 32
0.0
 13
27.53652330992622
 23
29.66572912124977
 33
0.0
  0
MTEXT
  5
692
330
249
100
AcDbEntity
  8
DIM
 62
     0
100
AcDbMText
 10
27.53652330992621
 20
24.42372912124978
 30
0.0
 40
0.375
 41
0.0
 71
     5
 72
     1
  1
\A1;A
  7
TXT
 73
     1
 44
1.0
  0
POINT
  5
693
330
249
100
AcDbEntity
  8
DEFPOINTS
 62
     0
100
AcDbPoint
 10
22.72010499999999
 20
19.18172912124978
 30
0.0
  0
POINT
  5
694
330
249
100
AcDbEntity
  8
DEFPOINTS
 62
     0
100
AcDbPoint
 10
22.72010499999999
 20
29.66572912124978
 30
0.0
  0
POINT
  5
695
330
249
100
AcDbEntity
  8
DEFPOINTS
 62
     0
100
AcDbPoint
 10
27.53652330992622
 20
29.66572912124977
 30
0.0
  0
ENDBLK
  5
255
330
249
100
AcDbEntity
  8
0
100
AcDbBlockEnd
  0
BLOCK
  5
263
330
258
100
AcDbEntity
  8
0
100
AcDbBlockBegin
  2
*D12
 70
     1
 10
0.0
 20
0.0
 30
0.0
  3
*D12
  1

  0
LINE
  5
678
330
258
100
AcDbEntity
  8
DIM
 62
     0
370
    -2
100
AcDbLine
 10
22.618105
 20
22.91572912124978
 30
0.0
 11
26.11950794087757
 21
22.91572912124978
 31
0.0
  0
LINE
  5
679
330
258
100
AcDbEntity
  8
DIM
 62
     0
370
    -2
100
AcDbLine
 10
22.618105
 20
20.66572912124978
 30
0.0
 11
26.11950794087757
 21
20.66572912124978
 31
0.0
  0
LINE
  5
67A
330
258
100
AcDbEntity
  8
DIM
 62
     0
370
    -2
100
AcDbLine
 10
25.84050794087757
 20
22.37572912124977
 30
0.0
 11
25.84050794087757
 21
22.24822912124977
 31
0.0
  0
LINE
  5
67B
330
258
100
AcDbEntity
  8
DIM
 62
     0
370
    -2
100
AcDbLine
 10
25.84050794087757
 20
21.20572912124977
 30
0.0
 11
25.84050794087757
 21
21.33322912124977
 31
0.0
  0
SOLID
  5
67C
330
258
100
AcDbEntity
  8
DIM
 62
     0
100
AcDbTrace
 10
25.75050794087757
 20
22.37572912124977
 30
0.0
 11
25.93050794087757
 21
22.37572912124977
 31
0.0
 12
25.84050794087757
 22
22.91572912124978
 32
0.0
 13
25.84050794087757
 23
22.91572912124978
 33
0.0
  0
SOLID
  5
67D
330
258
100
AcDbEntity
  8
DIM
 62
     0
100
AcDbTrace
 10
25.75050794087757
 20
21.20572912124977
 30
0.0
 11
25.93050794087757
 21
21.20572912124977
 31
0.0
 12
25.84050794087757
 22
20.66572912124978
 32
0.0
 13
25.84050794087757
 23
20.66572912124978
 33
0.0
  0
MTEXT
  5
67E
330
258
100
AcDbEntity
  8
DIM
 62
     0
100
AcDbMText
 10
25.84050794087757
 20
21.79072912124978
 30
0.0
 40
0.375
 41
0.0
 71
     5
 72
     1
  1
\A1;B
  7
TXT
 73
     1
 44
1.0
  0
POINT
  5
67F
330
258
100
AcDbEntity
  8
DEFPOINTS
 62
     0
100
AcDbPoint
 10
22.429105
 20
22.91572912124978
 30
0.0
  0
POINT
  5
680
330
258
100
AcDbEntity
  8
DEFPOINTS
 62
     0
100
AcDbPoint
 10
22.429105
 20
20.66572912124978
 30
0.0
  0
POINT
  5
681
330
258
100
AcDbEntity
  8
DEFPOINTS
 62
     0
100
AcDbPoint
 10
25.84050794087757
 20
20.66572912124978
 30
0.0
  0
ENDBLK
  5
264
330
258
100
AcDbEntity
  8
0
100
AcDbBlockEnd
  0
BLOCK
  5
271
330
266
100
AcDbEntity
  8
0
100
AcDbBlockBegin
  2
*D13
 70
     1
 10
0.0
 20
0.0
 30
0.0
  3
*D13
  1

  0
LINE
  5
646
330
266
100
AcDbEntity
  8
DIM
 62
     0
370
    -2
100
AcDbLine
 10
22.618105
 20
20.66572912124978
 30
0.0
 11
24.51328352584782
 21
20.66572912124978
 31
0.0
  0
LINE
  5
647
330
266
100
AcDbEntity
  8
DIM
 62
     0
370
    -2
100
AcDbLine
 10
22.909105
 20
19.18172912124978
 30
0.0
 11
24.51328352584782
 21
19.18172912124978
 31
0.0
  0
LINE
  5
648
330
266
100
AcDbEntity
  8
DIM
 62
     0
370
    -2
100
AcDbLine
 10
24.23428352584782
 20
21.20572912124977
 30
0.0
 11
24.23428352584782
 21
21.74572912124978
 31
0.0
  0
LINE
  5
649
330
266
100
AcDbEntity
  8
DIM
 62
     0
370
    -2
100
AcDbLine
 10
24.23428352584782
 20
18.64172912124978
 30
0.0
 11
24.23428352584782
 21
18.10172912124978
 31
0.0
  0
SOLID
  5
64A
330
266
100
AcDbEntity
  8
DIM
 62
     0
100
AcDbTrace
 10
24.14428352584782
 20
21.20572912124977
 30
0.0
 11
24.32428352584782
 21
21.20572912124977
 31
0.0
 12
24.23428352584782
 22
20.66572912124978
 32
0.0
 13
24.23428352584782
 23
20.66572912124978
 33
0.0
  0
SOLID
  5
64B
330
266
100
AcDbEntity
  8
DIM
 62
     0
100
AcDbTrace
 10
24.14428352584782
 20
18.64172912124978
 30
0.0
 11
24.32428352584782
 21
18.64172912124978
 31
0.0
 12
24.23428352584782
 22
19.18172912124978
 32
0.0
 13
24.23428352584782
 23
19.18172912124978
 33
0.0
  0
MTEXT
  5
64C
330
266
100
AcDbEntity
  8
DIM
 62
     0
100
AcDbMText
 10
24.23428352584782
 20
19.92372912124978
 30
0.0
 40
0.375
 41
0.0
 71
     5
 72
     1
  1
\A1;1.48 [37.7]
  7
TXT
 73
     1
 44
1.0
  0
POINT
  5
64D
330
266
100
AcDbEntity
  8
DEFPOINTS
 62
     0
100
AcDbPoint
 10
22.429105
 20
20.66572912124978
 30
0.0
  0
POINT
  5
64E
330
266
100
AcDbEntity
  8
DEFPOINTS
 62
     0
100
AcDbPoint
 10
22.72010499999999
 20
19.18172912124978
 30
0.0
  0
POINT
  5
64F
330
266
100
AcDbEntity
  8
DEFPOINTS
 62
     0
100
AcDbPoint
 10
24.23428352584782
 20
19.18172912124978
 30
0.0
  0
ENDBLK
  5
272
330
266
100
AcDbEntity
  8
0
100
AcDbBlockEnd
  0
BLOCK
  5
27F
330
274
100
AcDbEntity
  8
0
100
AcDbBlockBegin
  2
*D14
 70
     1
 10
0.0
 20
0.0
 30
0.0
  3
*D14
  1

  0
LINE
  5
682
330
274
100
AcDbEntity
  8
DIM
 62
     0
370
    -2
100
AcDbLine
 10
22.618105
 20
25.93172912124978
 30
0.0
 11
26.11950794087757
 21
25.93172912124978
 31
0.0
  0
LINE
  5
683
330
274
100
AcDbEntity
  8
DIM
 62
     0
370
    -2
100
AcDbLine
 10
22.618105
 20
28.18172912124978
 30
0.0
 11
26.11950794087757
 21
28.18172912124978
 31
0.0
  0
LINE
  5
684
330
274
100
AcDbEntity
  8
DIM
 62
     0
370
    -2
100
AcDbLine
 10
25.84050794087757
 20
26.47172912124978
 30
0.0
 11
25.84050794087757
 21
26.59922912124978
 31
0.0
  0
LINE
  5
685
330
274
100
AcDbEntity
  8
DIM
 62
     0
370
    -2
100
AcDbLine
 10
25.84050794087757
 20
27.64172912124978
 30
0.0
 11
25.84050794087757
 21
27.51422912124978
 31
0.0
  0
SOLID
  5
686
330
274
100
AcDbEntity
  8
DIM
 62
     0
100
AcDbTrace
 10
25.75050794087757
 20
26.47172912124978
 30
0.0
 11
25.93050794087757
 21
26.47172912124978
 31
0.0
 12
25.84050794087757
 22
25.93172912124978
 32
0.0
 13
25.84050794087757
 23
25.93172912124978
 33
0.0
  0
SOLID
  5
687
330
274
100
AcDbEntity
  8
DIM
 62
     0
100
AcDbTrace
 10
25.75050794087757
 20
27.64172912124978
 30
0.0
 11
25.93050794087757
 21
27.64172912124978
 31
0.0
 12
25.84050794087757
 22
28.18172912124978
 32
0.0
 13
25.84050794087757
 23
28.18172912124978
 33
0.0
  0
MTEXT
  5
688
330
274
100
AcDbEntity
  8
DIM
 62
     0
100
AcDbMText
 10
25.84050794087756
 20
27.05672912124978
 30
0.0
 40
0.375
 41
0.0
 71
     5
 72
     1
  1
\A1;B
  7
TXT
 73
     1
 44
1.0
  0
POINT
  5
689
330
274
100
AcDbEntity
  8
DEFPOINTS
 62
     0
100
AcDbPoint
 10
22.429105
 20
25.93172912124978
 30
0.0
  0
POINT
  5
68A
330
274
100
AcDbEntity
  8
DEFPOINTS
 62
     0
100
AcDbPoint
 10
22.429105
 20
28.18172912124978
 30
0.0
  0
POINT
  5
68B
330
274
100
AcDbEntity
  8
DEFPOINTS
 62
     0
100
AcDbPoint
 10
25.84050794087757
 20
28.18172912124978
 30
0.0
  0
ENDBLK
  5
280
330
274
100
AcDbEntity
  8
0
100
AcDbBlockEnd
  0
BLOCK
  5
28D
330
282
100
AcDbEntity
  8
0
100
AcDbBlockBegin
  2
*D15
 70
     1
 10
0.0
 20
0.0
 30
0.0
  3
*D15
  1

  0
LINE
  5
664
330
282
100
AcDbEntity
  8
DIM
 62
     0
370
    -2
100
AcDbLine
 10
22.618105
 20
25.93172912124978
 30
0.0
 11
26.11950794087757
 21
25.93172912124978
 31
0.0
  0
LINE
  5
665
330
282
100
AcDbEntity
  8
DIM
 62
     0
370
    -2
100
AcDbLine
 10
22.618105
 20
22.91572912124978
 30
0.0
 11
26.11950794087757
 21
22.91572912124978
 31
0.0
  0
LINE
  5
666
330
282
100
AcDbEntity
  8
DIM
 62
     0
370
    -2
100
AcDbLine
 10
25.84050794087758
 20
25.39172912124978
 30
0.0
 11
25.84050794087758
 21
24.88122912124977
 31
0.0
  0
LINE
  5
667
330
282
100
AcDbEntity
  8
DIM
 62
     0
370
    -2
100
AcDbLine
 10
25.84050794087757
 20
23.45572912124977
 30
0.0
 11
25.84050794087757
 21
23.96622912124978
 31
0.0
  0
SOLID
  5
668
330
282
100
AcDbEntity
  8
DIM
 62
     0
100
AcDbTrace
 10
25.75050794087758
 20
25.39172912124978
 30
0.0
 11
25.93050794087758
 21
25.39172912124978
 31
0.0
 12
25.84050794087758
 22
25.93172912124978
 32
0.0
 13
25.84050794087758
 23
25.93172912124978
 33
0.0
  0
SOLID
  5
669
330
282
100
AcDbEntity
  8
DIM
 62
     0
100
AcDbTrace
 10
25.75050794087757
 20
23.45572912124977
 30
0.0
 11
25.93050794087757
 21
23.45572912124977
 31
0.0
 12
25.84050794087757
 22
22.91572912124978
 32
0.0
 13
25.84050794087757
 23
22.91572912124978
 33
0.0
  0
MTEXT
  5
66A
330
282
100
AcDbEntity
  8
DIM
 62
     0
100
AcDbMText
 10
25.84050794087757
 20
24.42372912124978
 30
0.0
 40
0.375
 41
0.0
 71
     5
 72
     1
  1
\A1;C
  7
TXT
 73
     1
 44
1.0
  0
POINT
  5
66B
330
282
100
AcDbEntity
  8
DEFPOINTS
 62
     0
100
AcDbPoint
 10
22.429105
 20
25.93172912124978
 30
0.0
  0
POINT
  5
66C
330
282
100
AcDbEntity
  8
DEFPOINTS
 62
     0
100
AcDbPoint
 10
22.429105
 20
22.91572912124978
 30
0.0
  0
POINT
  5
66D
330
282
100
AcDbEntity
  8
DEFPOINTS
 62
     0
100
AcDbPoint
 10
25.84050794087757
 20
22.91572912124978
 30
0.0
  0
ENDBLK
  5
28E
330
282
100
AcDbEntity
  8
0
100
AcDbBlockEnd
  0
BLOCK
  5
29B
330
290
100
AcDbEntity
  8
0
100
AcDbBlockBegin
  2
*D16
 70
     1
 10
0.0
 20
0.0
 30
0.0
  3
*D16
  1

  0
LINE
  5
573
330
290
100
AcDbEntity
  8
DIM
 62
     0
370
    -2
100
AcDbLine
 10
22.72010499999999
 20
38.03411112124978
 30
0.0
 11
22.72010499999999
 21
38.92511112124978
 31
0.0
  0
LINE
  5
574
330
290
100
AcDbEntity
  8
DIM
 62
     0
370
    -2
100
AcDbLine
 10
3.720105
 20
38.03411112124978
 30
0.0
 11
3.720105
 21
38.92511112124978
 31
0.0
  0
LINE
  5
575
330
290
100
AcDbEntity
  8
DIM
 62
     0
370
    -2
100
AcDbLine
 10
22.180105
 20
38.64611112124978
 30
0.0
 11
14.896355
 21
38.64611112124978
 31
0.0
  0
LINE
  5
576
330
290
100
AcDbEntity
  8
DIM
 62
     0
370
    -2
100
AcDbLine
 10
4.260105
 20
38.64611112124978
 30
0.0
 11
11.543855
 21
38.64611112124978
 31
0.0
  0
SOLID
  5
577
330
290
100
AcDbEntity
  8
DIM
 62
     0
100
AcDbTrace
 10
22.180105
 20
38.73611112124978
 30
0.0
 11
22.180105
 21
38.55611112124977
 31
0.0
 12
22.72010499999999
 22
38.64611112124978
 32
0.0
 13
22.72010499999999
 23
38.64611112124978
 33
0.0
  0
SOLID
  5
578
330
290
100
AcDbEntity
  8
DIM
 62
     0
100
AcDbTrace
 10
4.260105
 20
38.73611112124978
 30
0.0
 11
4.260105
 21
38.55611112124977
 31
0.0
 12
3.720105
 22
38.64611112124978
 32
0.0
 13
3.720105
 23
38.64611112124978
 33
0.0
  0
MTEXT
  5
579
330
290
100
AcDbEntity
  8
DIM
 62
     0
100
AcDbMText
 10
13.220105
 20
38.64611112124978
 30
0.0
 40
0.375
 41
0.0
 71
     5
 72
     1
  1
\A1;19.00 [482.6]
  7
TXT
 73
     1
 44
1.0
  0
POINT
  5
57A
330
290
100
AcDbEntity
  8
DEFPOINTS
 62
     0
100
AcDbPoint
 10
22.72010499999999
 20
37.84511112124978
 30
0.0
  0
POINT
  5
57B
330
290
100
AcDbEntity
  8
DEFPOINTS
 62
     0
100
AcDbPoint
 10
3.720105
 20
37.84511112124978
 30
0.0
  0
POINT
  5
57C
330
290
100
AcDbEntity
  8
DEFPOINTS
 62
     0
100
AcDbPoint
 10
3.720105
 20
38.64611112124978
 30
0.0
  0
ENDBLK
  5
29C
330
290
100
AcDbEntity
  8
0
100
AcDbBlockEnd
  0
BLOCK
  5
2A9
330
29E
100
AcDbEntity
  8
0
100
AcDbBlockBegin
  2
*D17
 70
     1
 10
0.0
 20
0.0
 30
0.0
  3
*D17
  1

  0
LINE
  5
57D
330
29E
100
AcDbEntity
  8
DIM
 62
     0
370
    -2
100
AcDbLine
 10
22.72010499999999
 20
29.85472912124978
 30
0.0
 11
22.72010499999999
 21
30.74572912124978
 31
0.0
  0
LINE
  5
57E
330
29E
100
AcDbEntity
  8
DIM
 62
     0
370
    -2
100
AcDbLine
 10
3.720105
 20
29.85472912124978
 30
0.0
 11
3.720105
 21
30.74572912124978
 31
0.0
  0
LINE
  5
57F
330
29E
100
AcDbEntity
  8
DIM
 62
     0
370
    -2
100
AcDbLine
 10
22.180105
 20
30.46672912124978
 30
0.0
 11
14.896355
 21
30.46672912124978
 31
0.0
  0
LINE
  5
580
330
29E
100
AcDbEntity
  8
DIM
 62
     0
370
    -2
100
AcDbLine
 10
4.260105
 20
30.46672912124978
 30
0.0
 11
11.543855
 21
30.46672912124978
 31
0.0
  0
SOLID
  5
581
330
29E
100
AcDbEntity
  8
DIM
 62
     0
100
AcDbTrace
 10
22.180105
 20
30.55672912124978
 30
0.0
 11
22.180105
 21
30.37672912124978
 31
0.0
 12
22.72010499999999
 22
30.46672912124978
 32
0.0
 13
22.72010499999999
 23
30.46672912124978
 33
0.0
  0
SOLID
  5
582
330
29E
100
AcDbEntity
  8
DIM
 62
     0
100
AcDbTrace
 10
4.260105
 20
30.55672912124978
 30
0.0
 11
4.260105
 21
30.37672912124978
 31
0.0
 12
3.720105
 22
30.46672912124978
 32
0.0
 13
3.720105
 23
30.46672912124978
 33
0.0
  0
MTEXT
  5
583
330
29E
100
AcDbEntity
  8
DIM
 62
     0
100
AcDbMText
 10
13.220105
 20
30.46672912124978
 30
0.0
 40
0.375
 41
0.0
 71
     5
 72
     1
  1
\A1;19.00 [482.6]
  7
TXT
 73
     1
 44
1.0
  0
POINT
  5
584
330
29E
100
AcDbEntity
  8
DEFPOINTS
 62
     0
100
AcDbPoint
 10
22.72010499999999
 20
29.66572912124978
 30
0.0
  0
POINT
  5
585
330
29E
100
AcDbEntity
  8
DEFPOINTS
 62
     0
100
AcDbPoint
 10
3.720105
 20
29.66572912124978
 30
0.0
  0
POINT
  5
586
330
29E
100
AcDbEntity
  8
DEFPOINTS
 62
     0
100
AcDbPoint
 10
3.720105
 20
30.46672912124978
 30
0.0
  0
ENDBLK
  5
2AA
330
29E
100
AcDbEntity
  8
0
100
AcDbBlockEnd
  0
BLOCK
  5
363
330
358
100
AcDbEntity
  8
0
100
AcDbBlockBegin
  2
*D18
 70
     1
 10
0.0
 20
0.0
 30
0.0
  3
*D18
  1

  0
LINE
  5
6FC
330
358
100
AcDbEntity
  8
DIM
 62
     0
370
    -2
100
AcDbLine
 10
19.74887639441812
 20
13.76521499999999
 30
0.0
 11
19.74887639441812
 21
17.399248
 31
0.0
  0
LINE
  5
6FD
330
358
100
AcDbEntity
  8
DIM
 62
     0
370
    -2
100
AcDbLine
 10
17.59287639441811
 20
14.701215
 30
0.0
 11
17.59287639441811
 21
17.399248
 31
0.0
  0
LINE
  5
6FE
330
358
100
AcDbEntity
  8
DIM
 62
     0
370
    -2
100
AcDbLine
 10
17.05287639441812
 20
17.120248
 30
0.0
 11
16.51287639441812
 21
17.120248
 31
0.0
  0
LINE
  5
6FF
330
358
100
AcDbEntity
  8
DIM
 62
     0
370
    -2
100
AcDbLine
 10
20.28887639441812
 20
17.120248
 30
0.0
 11
20.82887639441812
 21
17.120248
 31
0.0
  0
SOLID
  5
700
330
358
100
AcDbEntity
  8
DIM
 62
     0
100
AcDbTrace
 10
17.05287639441812
 20
17.210248
 30
0.0
 11
17.05287639441812
 21
17.030248
 31
0.0
 12
17.59287639441811
 22
17.120248
 32
0.0
 13
17.59287639441811
 23
17.120248
 33
0.0
  0
SOLID
  5
701
330
358
100
AcDbEntity
  8
DIM
 62
     0
100
AcDbTrace
 10
20.28887639441812
 20
17.210248
 30
0.0
 11
20.28887639441812
 21
17.030248
 31
0.0
 12
19.74887639441812
 22
17.120248
 32
0.0
 13
19.74887639441812
 23
17.120248
 33
0.0
  0
MTEXT
  5
702
330
358
100
AcDbEntity
  8
DIM
 62
     0
100
AcDbMText
 10
22.52856389441812
 20
17.120248
 30
0.0
 40
0.375
 41
0.0
 71
     5
 72
     1
  1
\A1;* 0.53 [13.5]
  7
TXT
 73
     1
 44
1.0
  0
POINT
  5
703
330
358
100
AcDbEntity
  8
DEFPOINTS
 62
     0
100
AcDbPoint
 10
19.74887639441812
 20
13.576215
 30
0.0
  0
POINT
  5
704
330
358
100
AcDbEntity
  8
DEFPOINTS
 62
     0
100
AcDbPoint
 10
17.59287639441811
 20
14.51221499999999
 30
0.0
  0
POINT
  5
705
330
358
100
AcDbEntity
  8
DEFPOINTS
 62
     0
100
AcDbPoint
 10
17.59287639441811
 20
17.120248
 30
0.0
  0
ENDBLK
  5
364
330
358
100
AcDbEntity
  8
0
100
AcDbBlockEnd
  0
ENDSEC
  0
SECTION
  2
ENTITIES
  0
LINE
  5
133
330
1E
100
AcDbEntity
  8
TITLE
100
AcDbLine
 10
30.174
 20
0.8100000000000001
 30
0.0
 11
0.186
 21
0.8100000000000001
 31
0.0
  0
LINE
  5
134
330
1E
100
AcDbEntity
  8
TITLE
100
AcDbLine
 10
30.174
 20
1.434
 30
0.0
 11
0.186
 21
1.434
 31
0.0
  0
LINE
  5
135
330
1E
100
AcDbEntity
  8
TITLE
100
AcDbLine
 10
30.174
 20
2.058
 30
0.0
 11
0.186
 21
2.058
 31
0.0
  0
LINE
  5
136
330
1E
100
AcDbEntity
  8
TITLE
100
AcDbLine
 10
30.174
 20
2.681999999999999
 30
0.0
 11
0.186
 21
2.681999999999999
 31
0.0
  0
LINE
  5
137
330
1E
100
AcDbEntity
  8
TITLE
100
AcDbLine
 10
30.174
 20
3.306
 30
0.0
 11
0.186
 21
3.306
 31
0.0
  0
LINE
  5
138
330
1E
100
AcDbEntity
  8
TITLE
100
AcDbLine
 10
30.174
 20
3.93
 30
0.0
 11
0.186
 21
3.93
 31
0.0
  0
LINE
  5
139
330
1E
100
AcDbEntity
  8
TITLE
100
AcDbLine
 10
30.174
 20
4.553999999999999
 30
0.0
 11
0.186
 21
4.553999999999999
 31
0.0
  0
LINE
  5
13A
330
1E
100
AcDbEntity
  8
TITLE
100
AcDbLine
 10
30.174
 20
5.177999999999999
 30
0.0
 11
0.186
 21
5.177999999999999
 31
0.0
  0
LINE
  5
13B
330
1E
100
AcDbEntity
  8
TITLE
100
AcDbLine
 10
30.174
 20
5.802
 30
0.0
 11
0.186
 21
5.802
 31
0.0
  0
LINE
  5
13C
330
1E
100
AcDbEntity
  8
TITLE
100
AcDbLine
 10
30.174
 20
6.426
 30
0.0
 11
0.186
 21
6.426
 31
0.0
  0
LINE
  5
13D
330
1E
100
AcDbEntity
  8
TITLE
100
AcDbLine
 10
30.174
 20
7.049999999999999
 30
0.0
 11
0.186
 21
7.049999999999999
 31
0.0
  0
LINE
  5
13E
330
1E
100
AcDbEntity
  8
TITLE
100
AcDbLine
 10
30.174
 20
7.673999999999999
 30
0.0
 11
0.186
 21
7.673999999999999
 31
0.0
  0
LINE
  5
13F
330
1E
100
AcDbEntity
  8
TITLE
100
AcDbLine
 10
30.174
 20
8.298
 30
0.0
 11
0.186
 21
8.298
 31
0.0
  0
TEXT
  5
147
330
1E
100
AcDbEntity
  8
TEXT
100
AcDbText
 10
1.716466447269835
 20
7.7985
 30
0.0
 40
0.375
  1
PART NO.
 41
0.75
  7
TXT
 72
     4
 11
2.700841447269835
 21
7.986
 31
0.0
100
AcDbText
  0
TEXT
  5
148
330
1E
100
AcDbEntity
  8
TEXT
100
AcDbText
 10
12.17547498319214
 20
7.7985
 30
0.0
 40
0.375
  1
TYPE
 41
0.75
  7
TXT
 72
     4
 11
12.69109998319214
 21
7.986
 31
0.0
100
AcDbText
  0
TEXT
  5
149
330
1E
100
AcDbEntity
  8
TEXT
100
AcDbText
 10
17.5491037442336
 20
7.7985
 30
0.0
 40
0.375
  1
A
 41
0.75
  7
TXT
 72
     4
 11
17.6428537442336
 21
7.986
 31
0.0
100
AcDbText
  0
TEXT
  5
14A
330
1E
100
AcDbEntity
  8
TEXT
100
AcDbText
 10
22.47050493375185
 20
7.7985
 30
0.0
 40
0.375
  1
B
 41
0.75
  7
TXT
 72
     4
 11
22.56425493375185
 21
7.986
 31
0.0
100
AcDbText
  0
TEXT
  5
14B
330
1E
100
AcDbEntity
  8
TEXT
100
AcDbText
 10
27.51331580669095
 20
7.7985
 30
0.0
 40
0.375
  1
C
 41
0.75
  7
TXT
 72
     4
 11
27.60706580669095
 21
7.986
 31
0.0
100
AcDbText
  0
TEXT
  5
163
330
1E
100
AcDbEntity
  8
TEXT
100
AcDbText
 10
1.716466447269835
 20
7.1735
 30
0.0
 40
0.375
  1
SFA-1831
 41
0.75
  7
TXT
 72
     4
 11
2.700841447269835
 21
7.361
 31
0.0
100
AcDbText
  0
TEXT
  5
164
330
1E
100
AcDbEntity
  8
TEXT
100
AcDbText
 10
1.669591447269835
 20
6.5485
 30
0.0
 40
0.375
  1
SFA-1832
 41
0.75
  7
TXT
 72
     4
 11
2.700841447269835
 21
6.736
 31
0.0
100
AcDbText
  0
TEXT
  5
165
330
1E
100
AcDbEntity
  8
TEXT
100
AcDbText
 10
1.669591447269835
 20
5.9235
 30
0.0
 40
0.375
  1
SFA-1833
 41
0.75
  7
TXT
 72
     4
 11
2.700841447269835
 21
6.111
 31
0.0
100
AcDbText
  0
TEXT
  5
166
330
1E
100
AcDbEntity
  8
TEXT
100
AcDbText
 10
1.669591447269835
 20
5.2985
 30
0.0
 40
0.375
  1
SFA-1834
 41
0.75
  7
TXT
 72
     4
 11
2.700841447269835
 21
5.486
 31
0.0
100
AcDbText
  0
TEXT
  5
167
330
1E
100
AcDbEntity
  8
TEXT
100
AcDbText
 10
1.669591447269835
 20
4.6735
 30
0.0
 40
0.375
  1
SFA-1835
 41
0.75
  7
TXT
 72
     4
 11
2.700841447269835
 21
4.861
 31
0.0
100
AcDbText
  0
TEXT
  5
168
330
1E
100
AcDbEntity
  8
TEXT
100
AcDbText
 10
1.669591447269835
 20
4.0485
 30
0.0
 40
0.375
  1
SFA-1836
 41
0.75
  7
TXT
 72
     4
 11
2.700841447269835
 21
4.236
 31
0.0
100
AcDbText
  0
TEXT
  5
169
330
1E
100
AcDbEntity
  8
TEXT
100
AcDbText
 10
1.669591447269835
 20
3.4235
 30
0.0
 40
0.375
  1
SFA-1837
 41
0.75
  7
TXT
 72
     4
 11
2.700841447269835
 21
3.611
 31
0.0
100
AcDbText
  0
TEXT
  5
16A
330
1E
100
AcDbEntity
  8
TEXT
100
AcDbText
 10
1.669591447269835
 20
2.7985
 30
0.0
 40
0.375
  1
SFA-1838
 41
0.75
  7
TXT
 72
     4
 11
2.700841447269835
 21
2.986
 31
0.0
100
AcDbText
  0
TEXT
  5
16B
330
1E
100
AcDbEntity
  8
TEXT
100
AcDbText
 10
1.669591447269835
 20
2.173499999999999
 30
0.0
 40
0.375
  1
SFA-1839
 41
0.75
  7
TXT
 72
     4
 11
2.700841447269835
 21
2.360999999999999
 31
0.0
100
AcDbText
  0
TEXT
  5
16C
330
1E
100
AcDbEntity
  8
TEXT
100
AcDbText
 10
1.693028947269835
 20
1.548499999999999
 30
0.0
 40
0.375
  1
SFA-1840
 41
0.75
  7
TXT
 72
     4
 11
2.700841447269835
 21
1.735999999999999
 31
0.0
100
AcDbText
  0
TEXT
  5
16D
330
1E
100
AcDbEntity
  8
TEXT
100
AcDbText
 10
1.716466447269835
 20
0.9234999999999997
 30
0.0
 40
0.375
  1
SFA-1841
 41
0.75
  7
TXT
 72
     4
 11
2.700841447269835
 21
1.110999999999999
 31
0.0
100
AcDbText
  0
TEXT
  5
16E
330
1E
100
AcDbEntity
  8
TEXT
100
AcDbText
 10
1.669591447269835
 20
0.2985
 30
0.0
 40
0.375
  1
SFA-1842
 41
0.75
  7
TXT
 72
     4
 11
2.700841447269835
 21
0.486
 31
0.0
100
AcDbText
  0
TEXT
  5
16F
330
1E
100
AcDbEntity
  8
TEXT
100
AcDbText
 10
12.59734998319213
 20
7.1735
 30
0.0
 40
0.375
  1
A
 41
0.75
  7
TXT
 72
     4
 11
12.69109998319214
 21
7.361
 31
0.0
100
AcDbText
  0
TEXT
  5
170
330
1E
100
AcDbEntity
  8
TEXT
100
AcDbText
 10
12.59734998319213
 20
6.5485
 30
0.0
 40
0.375
  1
A
 41
0.75
  7
TXT
 72
     4
 11
12.69109998319214
 21
6.736
 31
0.0
100
AcDbText
  0
TEXT
  5
171
330
1E
100
AcDbEntity
  8
TEXT
100
AcDbText
 10
12.59734998319213
 20
5.9235
 30
0.0
 40
0.375
  1
B
 41
0.75
  7
TXT
 72
     4
 11
12.69109998319214
 21
6.111
 31
0.0
100
AcDbText
  0
TEXT
  5
172
330
1E
100
AcDbEntity
  8
TEXT
100
AcDbText
 10
12.59734998319213
 20
5.2985
 30
0.0
 40
0.375
  1
B
 41
0.75
  7
TXT
 72
     4
 11
12.69109998319214
 21
5.486
 31
0.0
100
AcDbText
  0
TEXT
  5
173
330
1E
100
AcDbEntity
  8
TEXT
100
AcDbText
 10
12.59734998319213
 20
4.6735
 30
0.0
 40
0.375
  1
B
 41
0.75
  7
TXT
 72
     4
 11
12.69109998319214
 21
4.861
 31
0.0
100
AcDbText
  0
TEXT
  5
174
330
1E
100
AcDbEntity
  8
TEXT
100
AcDbText
 10
12.59734998319213
 20
4.0485
 30
0.0
 40
0.375
  1
C
 41
0.75
  7
TXT
 72
     4
 11
12.69109998319214
 21
4.236
 31
0.0
100
AcDbText
  0
TEXT
  5
175
330
1E
100
AcDbEntity
  8
TEXT
100
AcDbText
 10
12.59734998319213
 20
3.4235
 30
0.0
 40
0.375
  1
C
 41
0.75
  7
TXT
 72
     4
 11
12.69109998319214
 21
3.611
 31
0.0
100
AcDbText
  0
TEXT
  5
176
330
1E
100
AcDbEntity
  8
TEXT
100
AcDbText
 10
12.59734998319213
 20
2.7985
 30
0.0
 40
0.375
  1
C
 41
0.75
  7
TXT
 72
     4
 11
12.69109998319214
 21
2.986
 31
0.0
100
AcDbText
  0
TEXT
  5
177
330
1E
100
AcDbEntity
  8
TEXT
100
AcDbText
 10
12.59734998319213
 20
2.173499999999999
 30
0.0
 40
0.375
  1
C
 41
0.75
  7
TXT
 72
     4
 11
12.69109998319214
 21
2.360999999999999
 31
0.0
100
AcDbText
  0
TEXT
  5
178
330
1E
100
AcDbEntity
  8
TEXT
100
AcDbText
 10
12.59734998319213
 20
1.548499999999999
 30
0.0
 40
0.375
  1
C
 41
0.75
  7
TXT
 72
     4
 11
12.69109998319214
 21
1.735999999999999
 31
0.0
100
AcDbText
  0
TEXT
  5
179
330
1E
100
AcDbEntity
  8
TEXT
100
AcDbText
 10
12.59734998319213
 20
0.9234999999999997
 30
0.0
 40
0.375
  1
C
 41
0.75
  7
TXT
 72
     4
 11
12.69109998319214
 21
1.110999999999999
 31
0.0
100
AcDbText
  0
TEXT
  5
17A
330
1E
100
AcDbEntity
  8
TEXT
100
AcDbText
 10
12.59734998319213
 20
0.2985
 30
0.0
 40
0.375
  1
C
 41
0.75
  7
TXT
 72
     4
 11
12.69109998319214
 21
0.486
 31
0.0
100
AcDbText
  0
TEXT
  5
193
330
1E
100
AcDbEntity
  8
TEXT
100
AcDbText
 10
27.51331580669095
 20
7.1735
 30
0.0
 40
0.375
  1
-
 41
0.75
  7
TXT
 72
     4
 11
27.60706580669095
 21
7.361
 31
0.0
100
AcDbText
  0
TEXT
  5
194
330
1E
100
AcDbEntity
  8
TEXT
100
AcDbText
 10
27.51331580669095
 20
6.5485
 30
0.0
 40
0.375
  1
-
 41
0.75
  7
TXT
 72
     4
 11
27.60706580669095
 21
6.736
 31
0.0
100
AcDbText
  0
TEXT
  5
195
330
1E
100
AcDbEntity
  8
TEXT
100
AcDbText
 10
27.51331580669095
 20
5.9235
 30
0.0
 40
0.375
  1
-
 41
0.75
  7
TXT
 72
     4
 11
27.60706580669095
 21
6.111
 31
0.0
100
AcDbText
  0
TEXT
  5
196
330
1E
100
AcDbEntity
  8
TEXT
100
AcDbText
 10
27.51331580669095
 20
5.2985
 30
0.0
 40
0.375
  1
-
 41
0.75
  7
TXT
 72
     4
 11
27.60706580669095
 21
5.486
 31
0.0
100
AcDbText
  0
TEXT
  5
197
330
1E
100
AcDbEntity
  8
TEXT
100
AcDbText
 10
27.51331580669095
 20
4.6735
 30
0.0
 40
0.375
  1
-
 41
0.75
  7
TXT
 72
     4
 11
27.60706580669095
 21
4.861
 31
0.0
100
AcDbText
  0
TEXT
  5
19F
330
1E
100
AcDbEntity
  8
TEXT
100
AcDbText
 10
15.00069039441812
 20
10.20079299999999
 30
0.0
 40
0.375
  1
* - THIS DIMENSION APPLIES TO ONLY
 41
0.75
  7
TXT
 11
15.00069039441812
 21
10.38829299999999
 31
0.0
100
AcDbText
 73
     2
  0
TEXT
  5
1A0
330
1E
100
AcDbEntity
  8
TEXT
100
AcDbText
 10
5.64080015169451
 20
45.453
 30
0.0
 40
0.468
  1
RELAY RACK PANELS
 41
0.75
  7
TXT
 72
     4
 11
8.56580015169451
 21
45.68699999999999
 31
0.0
100
AcDbText
  0
INSERT
  5
1A1
330
1E
100
AcDbEntity
  8
TITLE
100
AcDbBlockReference
  2
HB
 10
0.0
 20
0.0
 30
0.0
 41
3.0
 42
3.0
 43
3.0
  0
LINE
  5
1A2
330
1E
100
AcDbEntity
  8
OBJECT
100
AcDbLine
 10
17.59287639441811
 20
14.51221499999999
 30
0.0
 11
21.76361939441811
 21
14.51221499999999
 31
0.0
  0
LINE
  5
1A3
330
1E
100
AcDbEntity
  8
OBJECT
100
AcDbLine
 10
17.59287639441811
 20
11.93217299999999
 30
0.0
 11
17.59287639441811
 21
14.51221499999999
 31
0.0
  0
DIMENSION
  5
1A4
330
1E
100
AcDbEntity
  8
DIM
100
AcDbDimension
  2
*D1
 10
19.74887639441812
 20
16.277248
 30
0.0
 11
22.24731389441811
 21
16.277248
 31
0.0
 70
    32
  1
<>
 71
     5
 42
0.5389999999999997
  3
23NSTD4
100
AcDbAlignedDimension
 13
17.59287639441811
 23
14.51221499999999
 33
0.0
 14
19.74887639441812
 24
13.576215
 34
0.0
100
AcDbRotatedDimension
  0
DIMENSION
  5
1B2
330
1E
100
AcDbEntity
  8
DIM
100
AcDbDimension
  2
*D2
 10
19.74887639441812
 20
15.434248
 30
0.0
 11
22.17700139441812
 21
15.434248
 31
0.0
 70
    32
  1
<>
 71
     5
 42
0.4059999999999997
  3
23NSTD4
100
AcDbAlignedDimension
 13
18.12487639441812
 23
13.576215
 33
0.0
 14
19.74887639441812
 24
13.576215
 34
0.0
100
AcDbRotatedDimension
  0
DIMENSION
  5
1C0
330
1E
100
AcDbEntity
  8
DIM
100
AcDbDimension
  2
*D3
 10
16.22185670096865
 20
13.02021499999999
 30
0.0
 11
16.22185670096865
 21
13.576215
 31
0.0
 70
    32
  1
<>
 71
     5
 42
0.278
  3
23NSTD4I
100
AcDbAlignedDimension
 13
18.68087639441811
 23
14.13221499999999
 33
0.0
 14
18.68087639441811
 24
13.02021499999999
 34
0.0
 50
90.0
100
AcDbRotatedDimension
  0
TEXT
  5
1CE
330
1E
100
AcDbEntity
  8
TEXT
100
AcDbText
 10
17.42121139441811
 20
11.126981
 30
0.0
 40
0.375
  1
NOTCH DETAIL
 41
0.75
  7
TXT
100
AcDbText
  0
TEXT
  5
1CF
330
1E
100
AcDbEntity
  8
TEXT
100
AcDbText
 10
12.23104249999999
 20
39.80141812124978
 30
0.0
 40
0.375
  1
%%uTYPE "A"
 41
0.75
  7
TXT
 72
     1
 11
13.22010499999999
 21
39.80141812124978
 31
0.0
100
AcDbText
  0
TEXT
  5
1D5
330
1E
100
AcDbEntity
  8
TEXT
100
AcDbText
 10
4.019459150580672
 20
12.97162615209987
 30
0.0
 40
0.375
  1
MATERIAL: 0.13 [3.2] THK. ALUMINUM
 41
0.75
  7
TXT
100
AcDbText
  0
TEXT
  5
1D6
330
1E
100
AcDbEntity
  8
TEXT
100
AcDbText
 10
6.488948150580672
 20
12.34662615209987
 30
0.0
 40
0.375
  1
ONE SIDE TAPED
 41
0.75
  7
TXT
100
AcDbText
  0
TEXT
  5
1D7
330
1E
100
AcDbEntity
  8
TEXT
100
AcDbText
 10
4.019459150580672
 20
11.72062615209987
 30
0.0
 40
0.375
  1
FINISH: NATURAL
 41
0.75
  7
TXT
100
AcDbText
  0
LINE
  5
1D9
330
1E
100
AcDbEntity
  8
OBJECT
100
AcDbLine
 10
22.72010499999999
 20
32.61111112124978
 30
0.0
 11
3.720105
 21
32.61111112124978
 31
0.0
  0
LINE
  5
1DA
330
1E
100
AcDbEntity
  8
OBJECT
100
AcDbLine
 10
3.720105
 20
37.84511112124978
 30
0.0
 11
22.72010499999999
 21
37.84511112124978
 31
0.0
  0
LINE
  5
1DB
330
1E
100
AcDbEntity
  8
OBJECT
100
AcDbLine
 10
3.720105
 20
32.61111112124978
 30
0.0
 11
3.720105
 21
37.84511112124978
 31
0.0
  0
DIMENSION
  5
1DC
330
1E
100
AcDbEntity
  8
DIM
100
AcDbDimension
  2
*D4
 10
24.23428352584782
 20
32.61111112124978
 30
0.0
 11
24.23428352584782
 21
33.35311112124979
 31
0.0
 70
    32
 71
     5
 42
1.484000000000001
  3
23NSTDI
100
AcDbAlignedDimension
 13
22.429105
 23
34.09511112124978
 33
0.0
 14
22.72010499999999
 24
32.61111112124978
 34
0.0
 50
90.0
100
AcDbRotatedDimension
  0
DIMENSION
  5
1EA
330
1E
100
AcDbEntity
  8
DIM
100
AcDbDimension
  2
*D5
 10
27.53652330992622
 20
37.84511112124978
 30
0.0
 11
27.53652330992622
 21
35.22811112124979
 31
0.0
 70
    32
  1
A
 71
     5
 42
5.234000000000001
  3
23NSTD
100
AcDbAlignedDimension
 13
22.72010499999999
 23
32.61111112124978
 33
0.0
 14
22.72010499999999
 24
37.84511112124978
 34
0.0
 50
90.0
100
AcDbRotatedDimension
  0
DIMENSION
  5
1F8
330
1E
100
AcDbEntity
  8
DIM
100
AcDbDimension
  2
*D6
 10
25.84050794087757
 20
34.09511112124978
 30
0.0
 11
25.84050794087757
 21
35.22811112124979
 31
0.0
 70
    32
  1
B
 71
     5
 42
2.265999999999998
  3
23NSTDI
100
AcDbAlignedDimension
 13
22.429105
 23
36.36111112124978
 33
0.0
 14
22.429105
 24
34.09511112124978
 34
0.0
 50
90.0
100
AcDbRotatedDimension
  0
LINE
  5
206
330
1E
100
AcDbEntity
  8
OBJECT
100
AcDbLine
 10
22.72010499999999
 20
37.84511112124978
 30
0.0
 11
22.72010499999999
 21
32.61111112124978
 31
0.0
  0
LINE
  5
207
330
1E
100
AcDbEntity
  8
CENTER
100
AcDbLine
 10
4.011105
 20
42.38141812124978
 30
0.0
 11
4.101105
 21
42.38141812124978
 31
0.0
  0
LINE
  5
208
330
1E
100
AcDbEntity
  8
CENTER
100
AcDbLine
 10
4.056105000000002
 20
42.33641812124978
 30
0.0
 11
4.056105000000002
 21
42.42641812124978
 31
0.0
  0
LINE
  5
209
330
1E
100
AcDbEntity
  8
OBJECT
100
AcDbLine
 10
3.720105
 20
40.88141812124979
 30
0.0
 11
22.72010499999999
 21
40.88141812124979
 31
0.0
  0
LINE
  5
20A
330
1E
100
AcDbEntity
  8
OBJECT
100
AcDbLine
 10
3.720105
 20
42.61541812124978
 30
0.0
 11
22.72010499999999
 21
42.61541812124978
 31
0.0
  0
LINE
  5
20B
330
1E
100
AcDbEntity
  8
OBJECT
100
AcDbLine
 10
3.720105
 20
40.88141812124979
 30
0.0
 11
3.720105
 21
42.61541812124978
 31
0.0
  0
LINE
  5
20C
330
1E
100
AcDbEntity
  8
OBJECT
100
AcDbLine
 10
22.72010499999999
 20
40.88141812124979
 30
0.0
 11
22.72010499999999
 21
42.61541812124978
 31
0.0
  0
DIMENSION
  5
20D
330
1E
100
AcDbEntity
  8
DIM
100
AcDbDimension
  2
*D7
 10
3.720105
 20
43.41641812124978
 30
0.0
 11
13.220105
 21
43.41641812124978
 31
0.0
 70
    32
 71
     5
 42
19.0
  3
23NSTD
100
AcDbAlignedDimension
 13
22.72010499999999
 23
42.61541812124978
 33
0.0
 14
3.720105
 24
42.61541812124978
 34
0.0
 50
180.0
100
AcDbRotatedDimension
  0
DIMENSION
  5
21B
330
1E
100
AcDbEntity
  8
DIM
100
AcDbDimension
  2
*D8
 10
25.84050794087758
 20
41.11541812124978
 30
0.0
 11
25.84050794087757
 21
41.74841812124979
 31
0.0
 70
    32
  1
B
 71
     5
 42
1.266000000000005
  3
23NSTDI
100
AcDbAlignedDimension
 13
22.429105
 23
42.38141812124978
 33
0.0
 14
22.429105
 24
41.11541812124978
 34
0.0
 50
90.0
100
AcDbRotatedDimension
  0
DIMENSION
  5
229
330
1E
100
AcDbEntity
  8
DIM
100
AcDbDimension
  2
*D9
 10
27.53652330992623
 20
40.88141812124979
 30
0.0
 11
27.53652330992622
 21
41.74841812124979
 31
0.0
 70
    32
  1
A
 71
     5
 42
1.733999999999994
  3
23NSTDI
100
AcDbAlignedDimension
 13
22.72010499999999
 23
42.61541812124978
 33
0.0
 14
22.72010499999999
 24
40.88141812124979
 34
0.0
 50
90.0
100
AcDbRotatedDimension
  0
DIMENSION
  5
237
330
1E
100
AcDbEntity
  8
DIM
100
AcDbDimension
  2
*D10
 10
24.23428352584783
 20
40.88141812124979
 30
0.0
 11
22.36959602584782
 21
39.80141812124979
 31
0.0
 70
    32
 71
     5
 42
0.2339999999999947
  3
23NSTD
100
AcDbAlignedDimension
 13
22.429105
 23
41.11541812124978
 33
0.0
 14
22.72010499999999
 24
40.88141812124979
 34
0.0
 50
90.0
100
AcDbRotatedDimension
  0
LINE
  5
245
330
1E
100
AcDbEntity
  8
OBJECT
100
AcDbLine
 10
3.720105
 20
29.66572912124978
 30
0.0
 11
22.72010499999999
 21
29.66572912124978
 31
0.0
  0
LINE
  5
246
330
1E
100
AcDbEntity
  8
OBJECT
100
AcDbLine
 10
22.72010499999999
 20
19.18172912124978
 30
0.0
 11
3.720105
 21
19.18172912124978
 31
0.0
  0
LINE
  5
247
330
1E
100
AcDbEntity
  8
OBJECT
100
AcDbLine
 10
3.720105
 20
19.18172912124978
 30
0.0
 11
3.720105
 21
29.66572912124978
 31
0.0
  0
DIMENSION
  5
248
330
1E
100
AcDbEntity
  8
DIM
100
AcDbDimension
  2
*D11
 10
27.53652330992622
 20
29.66572912124977
 30
0.0
 11
27.53652330992621
 21
24.42372912124978
 31
0.0
 70
    32
  1
A
 71
     5
 42
10.48399999999999
  3
23NSTD
100
AcDbAlignedDimension
 13
22.72010499999999
 23
19.18172912124978
 33
0.0
 14
22.72010499999999
 24
29.66572912124978
 34
0.0
 50
90.0
100
AcDbRotatedDimension
  0
LINE
  5
256
330
1E
100
AcDbEntity
  8
OBJECT
100
AcDbLine
 10
22.72010499999999
 20
29.66572912124978
 30
0.0
 11
22.72010499999999
 21
19.18172912124978
 31
0.0
  0
DIMENSION
  5
257
330
1E
100
AcDbEntity
  8
DIM
100
AcDbDimension
  2
*D12
 10
25.84050794087757
 20
20.66572912124978
 30
0.0
 11
25.84050794087757
 21
21.79072912124978
 31
0.0
 70
   160
  1
B
 71
     5
 42
2.25
  3
23NSTDI
100
AcDbAlignedDimension
 13
22.429105
 23
22.91572912124978
 33
0.0
 14
22.429105
 24
20.66572912124978
 34
0.0
 50
90.0
100
AcDbRotatedDimension
  0
DIMENSION
  5
265
330
1E
100
AcDbEntity
  8
DIM
100
AcDbDimension
  2
*D13
 10
24.23428352584782
 20
19.18172912124978
 30
0.0
 11
24.23428352584782
 21
19.92372912124978
 31
0.0
 70
    32
 71
     5
 42
1.483999999999998
  3
23NSTDI
100
AcDbAlignedDimension
 13
22.429105
 23
20.66572912124978
 33
0.0
 14
22.72010499999999
 24
19.18172912124978
 34
0.0
 50
90.0
100
AcDbRotatedDimension
  0
DIMENSION
  5
273
330
1E
100
AcDbEntity
  8
DIM
100
AcDbDimension
  2
*D14
 10
25.84050794087757
 20
28.18172912124978
 30
0.0
 11
25.84050794087756
 21
27.05672912124978
 31
0.0
 70
   160
  1
B
 71
     5
 42
2.25
  3
23NSTDI
100
AcDbAlignedDimension
 13
22.429105
 23
25.93172912124978
 33
0.0
 14
22.429105
 24
28.18172912124978
 34
0.0
 50
90.0
100
AcDbRotatedDimension
  0
DIMENSION
  5
281
330
1E
100
AcDbEntity
  8
DIM
100
AcDbDimension
  2
*D15
 10
25.84050794087757
 20
22.91572912124978
 30
0.0
 11
25.84050794087757
 21
24.42372912124978
 31
0.0
 70
    32
  1
C
 71
     5
 42
3.016000000000001
  3
23NSTDI
100
AcDbAlignedDimension
 13
22.429105
 23
25.93172912124978
 33
0.0
 14
22.429105
 24
22.91572912124978
 34
0.0
 50
90.0
100
AcDbRotatedDimension
  0
DIMENSION
  5
28F
330
1E
100
AcDbEntity
  8
DIM
100
AcDbDimension
  2
*D16
 10
3.720105
 20
38.64611112124978
 30
0.0
 11
13.220105
 21
38.64611112124978
 31
0.0
 70
    32
 71
     5
 42
19.0
  3
23NSTD
100
AcDbAlignedDimension
 13
22.72010499999999
 23
37.84511112124978
 33
0.0
 14
3.720105
 24
37.84511112124978
 34
0.0
 50
180.0
100
AcDbRotatedDimension
  0
DIMENSION
  5
29D
330
1E
100
AcDbEntity
  8
DIM
100
AcDbDimension
  2
*D17
 10
3.720105
 20
30.46672912124978
 30
0.0
 11
13.220105
 21
30.46672912124978
 31
0.0
 70
    32
 71
     5
 42
19.0
  3
23NSTD
100
AcDbAlignedDimension
 13
22.72010499999999
 23
29.66572912124978
 33
0.0
 14
3.720105
 24
29.66572912124978
 34
0.0
 50
180.0
100
AcDbRotatedDimension
  0
TEXT
  5
2AB
330
1E
100
AcDbEntity
  8
TEXT
100
AcDbText
 10
12.23104249999999
 20
31.53111112124978
 30
0.0
 40
0.375
  1
%%uTYPE "B"
 41
0.75
  7
TXT
 72
     1
 11
13.22010499999999
 21
31.53111112124978
 31
0.0
100
AcDbText
  0
TEXT
  5
2AC
330
1E
100
AcDbEntity
  8
TEXT
100
AcDbText
 10
12.23104249999999
 20
18.10172912124978
 30
0.0
 40
0.375
  1
%%uTYPE "C"
 41
0.75
  7
TXT
 72
     1
 11
13.22010499999999
 21
18.10172912124978
 31
0.0
100
AcDbText
  0
TEXT
  5
2AD
330
1E
100
AcDbEntity
  8
TEXT
100
AcDbText
 10
16.53264834506251
 20
45.46322375503782
 30
0.0
 40
0.468
  1
SFA-1831 THRU SFA-1842
 41
0.75
  7
TXT
 72
     4
 11
20.15964834506251
 21
45.69722375503782
 31
0.0
100
AcDbText
  0
LWPOLYLINE
  5
2AE
330
1E
100
AcDbEntity
  8
OBJECT
100
AcDbPolyline
 90
        4
 70
     1
 43
0.0
 10
4.120105
 20
42.52041812124978
 10
3.992105
 20
42.52041812124978
 42
1.0
 10
3.992105
 20
42.24241812124978
 10
4.120105
 20
42.24241812124978
 42
1.0
  0
LWPOLYLINE
  5
2B4
330
1E
100
AcDbEntity
  8
OBJECT
100
AcDbPolyline
 90
        4
 70
     1
 43
0.0
 10
4.120105
 20
40.97641812124979
 10
3.992105
 20
40.97641812124979
 42
-1.0
 10
3.992105
 20
41.25441812124978
 10
4.120105
 20
41.25441812124978
 42
-1.0
  0
LINE
  5
2BA
330
1E
100
AcDbEntity
  8
CENTER
100
AcDbLine
 10
4.056105000000002
 20
41.16041812124978
 30
0.0
 11
4.056105000000002
 21
41.07041812124978
 31
0.0
  0
LINE
  5
2BB
330
1E
100
AcDbEntity
  8
CENTER
100
AcDbLine
 10
4.011105
 20
41.11541812124978
 30
0.0
 11
4.101105
 21
41.11541812124978
 31
0.0
  0
LWPOLYLINE
  5
2BC
330
1E
100
AcDbEntity
  8
OBJECT
100
AcDbPolyline
 90
        4
 70
     1
 43
0.0
 10
22.32010499999999
 20
40.97641812124979
 10
22.44810499999999
 20
40.97641812124979
 42
1.0
 10
22.44810499999999
 20
41.25441812124978
 10
22.32010499999999
 20
41.25441812124978
 42
1.0
  0
LINE
  5
2C2
330
1E
100
AcDbEntity
  8
CENTER
100
AcDbLine
 10
22.429105
 20
41.11541812124978
 30
0.0
 11
22.33910499999999
 21
41.11541812124978
 31
0.0
  0
LINE
  5
2C3
330
1E
100
AcDbEntity
  8
CENTER
100
AcDbLine
 10
22.384105
 20
41.16041812124978
 30
0.0
 11
22.384105
 21
41.07041812124978
 31
0.0
  0
LWPOLYLINE
  5
2C4
330
1E
100
AcDbEntity
  8
OBJECT
100
AcDbPolyline
 90
        4
 70
     1
 43
0.0
 10
22.32010499999999
 20
42.52041812124978
 10
22.44810499999999
 20
42.52041812124978
 42
-1.0
 10
22.44810499999999
 20
42.24241812124978
 10
22.32010499999999
 20
42.24241812124978
 42
-1.0
  0
LINE
  5
2CA
330
1E
100
AcDbEntity
  8
CENTER
100
AcDbLine
 10
22.384105
 20
42.33641812124978
 30
0.0
 11
22.384105
 21
42.42641812124978
 31
0.0
  0
LINE
  5
2CB
330
1E
100
AcDbEntity
  8
CENTER
100
AcDbLine
 10
22.429105
 20
42.38141812124978
 30
0.0
 11
22.33910499999999
 21
42.38141812124978
 31
0.0
  0
LWPOLYLINE
  5
2CC
330
1E
100
AcDbEntity
  8
OBJECT
100
AcDbPolyline
 90
        4
 70
     1
 43
0.0
 10
4.120105
 20
36.22211112124978
 10
3.992105
 20
36.22211112124978
 42
-1.0
 10
3.992105
 20
36.50011112124978
 10
4.120105
 20
36.50011112124978
 42
-1.0
  0
LINE
  5
2D2
330
1E
100
AcDbEntity
  8
CENTER
100
AcDbLine
 10
4.011105
 20
36.36111112124978
 30
0.0
 11
4.101105
 21
36.36111112124978
 31
0.0
  0
LINE
  5
2D3
330
1E
100
AcDbEntity
  8
CENTER
100
AcDbLine
 10
4.056105000000002
 20
36.40611112124978
 30
0.0
 11
4.056105000000002
 21
36.31611112124978
 31
0.0
  0
LWPOLYLINE
  5
2D4
330
1E
100
AcDbEntity
  8
OBJECT
100
AcDbPolyline
 90
        4
 70
     1
 43
0.0
 10
4.120105
 20
33.95611112124978
 10
3.992105
 20
33.95611112124978
 42
-1.0
 10
3.992105
 20
34.23411112124978
 10
4.120105
 20
34.23411112124978
 42
-1.0
  0
LINE
  5
2DA
330
1E
100
AcDbEntity
  8
CENTER
100
AcDbLine
 10
4.011105
 20
34.09511112124978
 30
0.0
 11
4.101105
 21
34.09511112124978
 31
0.0
  0
LINE
  5
2DB
330
1E
100
AcDbEntity
  8
CENTER
100
AcDbLine
 10
4.056105000000002
 20
34.14011112124978
 30
0.0
 11
4.056105000000002
 21
34.05011112124978
 31
0.0
  0
LWPOLYLINE
  5
2DC
330
1E
100
AcDbEntity
  8
OBJECT
100
AcDbPolyline
 90
        4
 70
     1
 43
0.0
 10
22.32010499999999
 20
33.95611112124978
 10
22.44810499999999
 20
33.95611112124978
 42
1.0
 10
22.44810499999999
 20
34.23411112124978
 10
22.32010499999999
 20
34.23411112124978
 42
1.0
  0
LINE
  5
2E2
330
1E
100
AcDbEntity
  8
CENTER
100
AcDbLine
 10
22.384105
 20
34.14011112124978
 30
0.0
 11
22.384105
 21
34.05011112124978
 31
0.0
  0
LINE
  5
2E3
330
1E
100
AcDbEntity
  8
CENTER
100
AcDbLine
 10
22.429105
 20
34.09511112124978
 30
0.0
 11
22.33910499999999
 21
34.09511112124978
 31
0.0
  0
LWPOLYLINE
  5
2E4
330
1E
100
AcDbEntity
  8
OBJECT
100
AcDbPolyline
 90
        4
 70
     1
 43
0.0
 10
22.32010499999999
 20
36.22211112124978
 10
22.44810499999999
 20
36.22211112124978
 42
1.0
 10
22.44810499999999
 20
36.50011112124978
 10
22.32010499999999
 20
36.50011112124978
 42
1.0
  0
LINE
  5
2EA
330
1E
100
AcDbEntity
  8
CENTER
100
AcDbLine
 10
22.384105
 20
36.40611112124978
 30
0.0
 11
22.384105
 21
36.31611112124978
 31
0.0
  0
LINE
  5
2EB
330
1E
100
AcDbEntity
  8
CENTER
100
AcDbLine
 10
22.429105
 20
36.36111112124978
 30
0.0
 11
22.33910499999999
 21
36.36111112124978
 31
0.0
  0
LWPOLYLINE
  5
2EC
330
1E
100
AcDbEntity
  8
OBJECT
100
AcDbPolyline
 90
        4
 70
     1
 43
0.0
 10
4.120105
 20
28.04272912124978
 10
3.992105
 20
28.04272912124978
 42
-1.0
 10
3.992105
 20
28.32072912124978
 10
4.120105
 20
28.32072912124978
 42
-1.0
  0
LINE
  5
2F2
330
1E
100
AcDbEntity
  8
CENTER
100
AcDbLine
 10
4.056105000000002
 20
28.22672912124978
 30
0.0
 11
4.056105000000002
 21
28.13672912124978
 31
0.0
  0
LINE
  5
2F3
330
1E
100
AcDbEntity
  8
CENTER
100
AcDbLine
 10
4.011105
 20
28.18172912124978
 30
0.0
 11
4.101105
 21
28.18172912124978
 31
0.0
  0
LWPOLYLINE
  5
2F4
330
1E
100
AcDbEntity
  8
OBJECT
100
AcDbPolyline
 90
        4
 70
     1
 43
0.0
 10
4.120105
 20
25.79272912124978
 10
3.992105
 20
25.79272912124978
 42
-1.0
 10
3.992105
 20
26.07072912124978
 10
4.120105
 20
26.07072912124978
 42
-1.0
  0
LINE
  5
2FA
330
1E
100
AcDbEntity
  8
CENTER
100
AcDbLine
 10
4.011105
 20
25.93172912124978
 30
0.0
 11
4.101105
 21
25.93172912124978
 31
0.0
  0
LINE
  5
2FB
330
1E
100
AcDbEntity
  8
CENTER
100
AcDbLine
 10
4.056105000000002
 20
25.97672912124978
 30
0.0
 11
4.056105000000002
 21
25.88672912124978
 31
0.0
  0
LWPOLYLINE
  5
2FC
330
1E
100
AcDbEntity
  8
OBJECT
100
AcDbPolyline
 90
        4
 70
     1
 43
0.0
 10
4.120105
 20
22.77672912124978
 10
3.992105
 20
22.77672912124978
 42
-1.0
 10
3.992105
 20
23.05472912124978
 10
4.120105
 20
23.05472912124978
 42
-1.0
  0
LWPOLYLINE
  5
302
330
1E
100
AcDbEntity
  8
OBJECT
100
AcDbPolyline
 90
        4
 70
     1
 43
0.0
 10
4.120105
 20
20.52672912124978
 10
3.992105
 20
20.52672912124978
 42
-1.0
 10
3.992105
 20
20.80472912124978
 10
4.120105
 20
20.80472912124978
 42
-1.0
  0
LINE
  5
308
330
1E
100
AcDbEntity
  8
CENTER
100
AcDbLine
 10
4.056105000000002
 20
20.71072912124978
 30
0.0
 11
4.056105000000002
 21
20.62072912124978
 31
0.0
  0
LINE
  5
309
330
1E
100
AcDbEntity
  8
CENTER
100
AcDbLine
 10
4.011105
 20
20.66572912124978
 30
0.0
 11
4.101105
 21
20.66572912124978
 31
0.0
  0
LINE
  5
30A
330
1E
100
AcDbEntity
  8
CENTER
100
AcDbLine
 10
4.011105
 20
22.91572912124978
 30
0.0
 11
4.101105
 21
22.91572912124978
 31
0.0
  0
LINE
  5
30B
330
1E
100
AcDbEntity
  8
CENTER
100
AcDbLine
 10
4.056105000000002
 20
22.96072912124978
 30
0.0
 11
4.056105000000002
 21
22.87072912124978
 31
0.0
  0
LWPOLYLINE
  5
30C
330
1E
100
AcDbEntity
  8
OBJECT
100
AcDbPolyline
 90
        4
 70
     1
 43
0.0
 10
22.32010499999999
 20
20.52672912124978
 10
22.44810499999999
 20
20.52672912124978
 42
1.0
 10
22.44810499999999
 20
20.80472912124978
 10
22.32010499999999
 20
20.80472912124978
 42
1.0
  0
LINE
  5
312
330
1E
100
AcDbEntity
  8
CENTER
100
AcDbLine
 10
22.429105
 20
20.66572912124978
 30
0.0
 11
22.33910499999999
 21
20.66572912124978
 31
0.0
  0
LINE
  5
313
330
1E
100
AcDbEntity
  8
CENTER
100
AcDbLine
 10
22.384105
 20
20.71072912124978
 30
0.0
 11
22.384105
 21
20.62072912124978
 31
0.0
  0
LWPOLYLINE
  5
314
330
1E
100
AcDbEntity
  8
OBJECT
100
AcDbPolyline
 90
        4
 70
     1
 43
0.0
 10
22.32010499999999
 20
22.77672912124978
 10
22.44810499999999
 20
22.77672912124978
 42
1.0
 10
22.44810499999999
 20
23.05472912124978
 10
22.32010499999999
 20
23.05472912124978
 42
1.0
  0
LINE
  5
31A
330
1E
100
AcDbEntity
  8
CENTER
100
AcDbLine
 10
22.384105
 20
22.96072912124978
 30
0.0
 11
22.384105
 21
22.87072912124978
 31
0.0
  0
LINE
  5
31B
330
1E
100
AcDbEntity
  8
CENTER
100
AcDbLine
 10
22.429105
 20
22.91572912124978
 30
0.0
 11
22.33910499999999
 21
22.91572912124978
 31
0.0
  0
LWPOLYLINE
  5
31C
330
1E
100
AcDbEntity
  8
OBJECT
100
AcDbPolyline
 90
        4
 70
     1
 43
0.0
 10
22.32010499999999
 20
28.04272912124978
 10
22.44810499999999
 20
28.04272912124978
 42
1.0
 10
22.44810499999999
 20
28.32072912124978
 10
22.32010499999999
 20
28.32072912124978
 42
1.0
  0
LWPOLYLINE
  5
322
330
1E
100
AcDbEntity
  8
OBJECT
100
AcDbPolyline
 90
        4
 70
     1
 43
0.0
 10
22.32010499999999
 20
25.79272912124978
 10
22.44810499999999
 20
25.79272912124978
 42
1.0
 10
22.44810499999999
 20
26.07072912124978
 10
22.32010499999999
 20
26.07072912124978
 42
1.0
  0
LINE
  5
328
330
1E
100
AcDbEntity
  8
CENTER
100
AcDbLine
 10
22.384105
 20
25.97672912124978
 30
0.0
 11
22.384105
 21
25.88672912124978
 31
0.0
  0
LINE
  5
329
330
1E
100
AcDbEntity
  8
CENTER
100
AcDbLine
 10
22.429105
 20
25.93172912124978
 30
0.0
 11
22.33910499999999
 21
25.93172912124978
 31
0.0
  0
LINE
  5
32A
330
1E
100
AcDbEntity
  8
CENTER
100
AcDbLine
 10
22.429105
 20
28.18172912124978
 30
0.0
 11
22.33910499999999
 21
28.18172912124978
 31
0.0
  0
LINE
  5
32B
330
1E
100
AcDbEntity
  8
CENTER
100
AcDbLine
 10
22.384105
 20
28.22672912124978
 30
0.0
 11
22.384105
 21
28.13672912124978
 31
0.0
  0
LWPOLYLINE
  5
32C
330
1E
100
AcDbEntity
  8
OBJECT
100
AcDbPolyline
 90
        4
 70
     1
 43
0.0
 10
19.19287639441811
 20
14.13221499999999
 10
18.68087639441811
 20
14.13221499999999
 42
1.0
 10
18.68087639441811
 20
13.02021499999999
 10
19.19287639441811
 20
13.02021499999999
 42
1.0
  0
LINE
  5
332
330
1E
100
AcDbEntity
  8
CENTER
100
AcDbLine
 10
18.93687639441811
 20
13.396215
 30
0.0
 11
18.93687639441811
 21
13.756215
 31
0.0
  0
LINE
  5
333
330
1E
100
AcDbEntity
  8
CENTER
100
AcDbLine
 10
18.75687639441811
 20
13.576215
 30
0.0
 11
19.11687639441811
 21
13.576215
 31
0.0
  0
LWPOLYLINE
  5
334
330
1E
100
AcDbEntity
  8
OBJECT
100
AcDbPolyline
 90
       31
 70
     0
 43
0.0
 10
21.76361939441811
 20
14.51221499999999
 10
21.52931239441812
 20
14.249689
 10
21.34692239441811
 20
14.021223
 10
21.20816339441812
 20
13.82435
 10
21.10475239441812
 20
13.65660199999999
 10
21.02840339441812
 20
13.515509
 10
20.97083139441811
 20
13.398604
 10
20.92375339441812
 20
13.303419
 10
20.87888339441812
 20
13.227485
 10
20.82949939441812
 20
13.16819299999999
 10
20.77512339441812
 20
13.122372
 10
20.71684139441811
 20
13.086712
 10
20.65573839441812
 20
13.057902
 10
20.59289939441812
 20
13.032629
 10
20.52940839441812
 20
13.007583
 10
20.46635239441811
 20
12.979453
 10
20.40481539441811
 20
12.944927
 10
20.34552539441812
 20
12.901646
 10
20.28778339441811
 20
12.85105399999999
 10
20.23053339441811
 20
12.795548
 10
20.17271939441811
 20
12.737525
 10
20.11328539441811
 20
12.679381
 10
20.05117439441812
 20
12.623513
 10
19.98533039441812
 20
12.572316
 10
19.91469839441811
 20
12.528188
 10
19.83864439441811
 20
12.492761
 10
19.75823339441812
 20
12.46461
 10
19.67494939441812
 20
12.441546
 10
19.59028039441811
 20
12.421382
 10
19.50571339441811
 20
12.401929
 10
17.59287639441811
 20
11.93217299999999
  0
DIMENSION
  5
357
330
1E
100
AcDbEntity
  8
DIM
100
AcDbDimension
  2
*D18
 10
17.59287639441811
 20
17.120248
 30
0.0
 11
22.52856389441812
 21
17.120248
 31
0.0
 70
   160
  1
* 0.53 [13.5]
 71
     5
 42
0.5389999999999997
  3
23NSTD4
100
AcDbAlignedDimension
 13
19.74887639441812
 23
13.576215
 33
0.0
 14
17.59287639441811
 24
14.51221499999999
 34
0.0
100
AcDbRotatedDimension
  0
TEXT
  5
365
330
1E
100
AcDbEntity
  8
DIM
100
AcDbText
 10
23.7700943943311
 20
16.089748
 30
0.0
 40
0.375
  1
(ALL OTHERS)
 41
0.75
  7
TXT
 11
23.7700943943311
 21
16.277248
 31
0.0
100
AcDbText
 73
     2
  0
TEXT
  5
367
330
1E
100
AcDbEntity
  8
TEXT
100
AcDbText
 10
16.41860239441812
 20
9.533621654107241
 30
0.0
 40
0.375
  1
SFA-1831 & SFA-1832
 41
0.75
  7
TXT
 11
16.41860239441812
 21
9.721121654107241
 31
0.0
100
AcDbText
 73
     2
  0
TEXT
  5
391
330
1E
100
AcDbEntity
  8
TEXT
100
AcDbText
 10
27.70666771622779
 20
45.46322375503782
 30
0.0
 40
0.468
  1
7-8-13
 41
0.75
  7
TXT
 72
     4
 11
28.64266771622779
 21
45.69722375503782
 31
0.0
100
AcDbText
  0
LINE
  5
455
330
1E
100
AcDbEntity
  8
TEXT
100
AcDbLine
 10
0.186
 20
8.298
 30
0.0
 11
0.186
 21
0.1860000000000035
 31
0.0
  0
LINE
  5
456
330
1E
100
AcDbEntity
  8
TEXT
100
AcDbLine
 10
5.183999999999999
 20
8.298
 30
0.0
 11
5.183999999999998
 21
0.1860000000000035
 31
0.0
  0
LINE
  5
457
330
1E
100
AcDbEntity
  8
TEXT
100
AcDbLine
 10
10.18199999999999
 20
8.298
 30
0.0
 11
10.18199999999999
 21
0.1860000000000035
 31
0.0
  0
LINE
  5
458
330
1E
100
AcDbEntity
  8
TEXT
100
AcDbLine
 10
15.17999999999999
 20
8.298
 30
0.0
 11
15.17999999999999
 21
0.1860000000000035
 31
0.0
  0
LINE
  5
459
330
1E
100
AcDbEntity
  8
TEXT
100
AcDbLine
 10
20.17799999999999
 20
8.298
 30
0.0
 11
20.17799999999999
 21
0.1860000000000035
 31
0.0
  0
LINE
  5
45A
330
1E
100
AcDbEntity
  8
TEXT
100
AcDbLine
 10
25.17599999999999
 20
8.298
 30
0.0
 11
25.17599999999999
 21
0.1860000000000035
 31
0.0
  0
TEXT
  5
45D
330
1E
100
AcDbEntity
  8
TEXT
100
AcDbText
 10
6.573841447269836
 20
7.7985
 30
0.0
 40
0.375
  1
E.I.A. UNIT
 41
0.75
  7
TXT
 72
     4
 11
7.698841447269836
 21
7.986
 31
0.0
100
AcDbText
  0
TEXT
  5
45E
330
1E
100
AcDbEntity
  8
TEXT
100
AcDbText
 10
7.417591447269836
 20
0.9234999999999997
 30
0.0
 40
0.375
  1
11U
 41
0.75
  7
TXT
 72
     4
 11
7.698841447269836
 21
1.110999999999999
 31
0.0
100
AcDbText
  0
TEXT
  5
45F
330
1E
100
AcDbEntity
  8
TEXT
100
AcDbText
 10
7.370716447269836
 20
0.2984999999999998
 30
0.0
 40
0.375
  1
12U
 41
0.75
  7
TXT
 72
     4
 11
7.698841447269836
 21
0.4859999999999998
 31
0.0
100
AcDbText
  0
TEXT
  5
460
330
1E
100
AcDbEntity
  8
TEXT
100
AcDbText
 10
7.511341447269836
 20
7.1735
 30
0.0
 40
0.375
  1
1U
 41
0.75
  7
TXT
 72
     4
 11
7.698841447269836
 21
7.361
 31
0.0
100
AcDbText
  0
TEXT
  5
461
330
1E
100
AcDbEntity
  8
TEXT
100
AcDbText
 10
7.464466447269836
 20
6.5485
 30
0.0
 40
0.375
  1
2U
 41
0.75
  7
TXT
 72
     4
 11
7.698841447269836
 21
6.736
 31
0.0
100
AcDbText
  0
TEXT
  5
462
330
1E
100
AcDbEntity
  8
TEXT
100
AcDbText
 10
7.464466447269836
 20
5.9235
 30
0.0
 40
0.375
  1
3U
 41
0.75
  7
TXT
 72
     4
 11
7.698841447269836
 21
6.111
 31
0.0
100
AcDbText
  0
TEXT
  5
463
330
1E
100
AcDbEntity
  8
TEXT
100
AcDbText
 10
7.464466447269836
 20
5.2985
 30
0.0
 40
0.375
  1
4U
 41
0.75
  7
TXT
 72
     4
 11
7.698841447269836
 21
5.486
 31
0.0
100
AcDbText
  0
TEXT
  5
464
330
1E
100
AcDbEntity
  8
TEXT
100
AcDbText
 10
7.464466447269836
 20
4.6735
 30
0.0
 40
0.375
  1
5U
 41
0.75
  7
TXT
 72
     4
 11
7.698841447269836
 21
4.861
 31
0.0
100
AcDbText
  0
TEXT
  5
465
330
1E
100
AcDbEntity
  8
TEXT
100
AcDbText
 10
7.464466447269836
 20
4.0485
 30
0.0
 40
0.375
  1
6U
 41
0.75
  7
TXT
 72
     4
 11
7.698841447269836
 21
4.236
 31
0.0
100
AcDbText
  0
TEXT
  5
466
330
1E
100
AcDbEntity
  8
TEXT
100
AcDbText
 10
7.464466447269836
 20
3.4235
 30
0.0
 40
0.375
  1
7U
 41
0.75
  7
TXT
 72
     4
 11
7.698841447269836
 21
3.611
 31
0.0
100
AcDbText
  0
TEXT
  5
467
330
1E
100
AcDbEntity
  8
TEXT
100
AcDbText
 10
7.464466447269836
 20
2.7985
 30
0.0
 40
0.375
  1
8U
 41
0.75
  7
TXT
 72
     4
 11
7.698841447269836
 21
2.986
 31
0.0
100
AcDbText
  0
TEXT
  5
468
330
1E
100
AcDbEntity
  8
TEXT
100
AcDbText
 10
7.464466447269836
 20
2.173499999999999
 30
0.0
 40
0.375
  1
9U
 41
0.75
  7
TXT
 72
     4
 11
7.698841447269836
 21
2.360999999999999
 31
0.0
100
AcDbText
  0
TEXT
  5
469
330
1E
100
AcDbEntity
  8
TEXT
100
AcDbText
 10
7.394153947269836
 20
1.548499999999999
 30
0.0
 40
0.375
  1
10U
 41
0.75
  7
TXT
 72
     4
 11
7.698841447269836
 21
1.735999999999999
 31
0.0
100
AcDbText
  0
TEXT
  5
AFA
330
1E
100
AcDbEntity
  8
TEXT
100
AcDbText
 10
16.34509354075754
 20
2.7985
 30
0.0
 40
0.375
  1
13.97 [354.8]
 41
0.75
  7
TXT
 72
     4
 11
17.79821854075754
 21
2.986
 31
0.0
100
AcDbText
  0
TEXT
  5
AFB
330
1E
100
AcDbEntity
  8
TEXT
100
AcDbText
 10
16.34509354075754
 20
2.1735
 30
0.0
 40
0.375
  1
15.72 [399.2]
 41
0.75
  7
TXT
 72
     4
 11
17.79821854075754
 21
2.361
 31
0.0
100
AcDbText
  0
TEXT
  5
AFC
330
1E
100
AcDbEntity
  8
TEXT
100
AcDbText
 10
16.34509354075754
 20
1.5485
 30
0.0
 40
0.375
  1
17.47 [443.7]
 41
0.75
  7
TXT
 72
     4
 11
17.79821854075754
 21
1.736
 31
0.0
100
AcDbText
  0
TEXT
  5
AFD
330
1E
100
AcDbEntity
  8
TEXT
100
AcDbText
 10
16.39196854075754
 20
0.9235000000000006
 30
0.0
 40
0.375
  1
19.22 [488.1]
 41
0.75
  7
TXT
 72
     4
 11
17.79821854075754
 21
1.111
 31
0.0
100
AcDbText
  0
TEXT
  5
AFE
330
1E
100
AcDbEntity
  8
TEXT
100
AcDbText
 10
16.32165604075754
 20
0.2985000000000006
 30
0.0
 40
0.375
  1
20.97 [532.6]
 41
0.75
  7
TXT
 72
     4
 11
17.79821854075754
 21
0.4860000000000007
 31
0.0
100
AcDbText
  0
TEXT
  5
AFF
330
1E
100
AcDbEntity
  8
TEXT
100
AcDbText
 10
16.62634354075754
 20
7.1735
 30
0.0
 40
0.375
  1
1.72 [43.6]
 41
0.75
  7
TXT
 72
     4
 11
17.79821854075754
 21
7.361
 31
0.0
100
AcDbText
  0
TEXT
  5
B00
330
1E
100
AcDbEntity
  8
TEXT
100
AcDbText
 10
16.62634354075754
 20
6.5485
 30
0.0
 40
0.375
  1
3.47 [88.1]
 41
0.75
  7
TXT
 72
     4
 11
17.79821854075754
 21
6.736
 31
0.0
100
AcDbText
  0
TEXT
  5
B01
330
1E
100
AcDbEntity
  8
TEXT
100
AcDbText
 10
16.48571854075754
 20
5.9235
 30
0.0
 40
0.375
  1
5.22 [132.5]
 41
0.75
  7
TXT
 72
     4
 11
17.79821854075754
 21
6.111
 31
0.0
100
AcDbText
  0
TEXT
  5
B02
330
1E
100
AcDbEntity
  8
TEXT
100
AcDbText
 10
16.50915604075754
 20
5.2985
 30
0.0
 40
0.375
  1
6.97 [177.0]
 41
0.75
  7
TXT
 72
     4
 11
17.79821854075754
 21
5.486
 31
0.0
100
AcDbText
  0
TEXT
  5
B03
330
1E
100
AcDbEntity
  8
TEXT
100
AcDbText
 10
16.48571854075754
 20
4.6735
 30
0.0
 40
0.375
  1
8.72 [221.4]
 41
0.75
  7
TXT
 72
     4
 11
17.79821854075754
 21
4.861
 31
0.0
100
AcDbText
  0
TEXT
  5
B04
330
1E
100
AcDbEntity
  8
TEXT
100
AcDbText
 10
16.36853104075754
 20
4.0485
 30
0.0
 40
0.375
  1
10.47 [265.9]
 41
0.75
  7
TXT
 72
     4
 11
17.79821854075754
 21
4.236
 31
0.0
100
AcDbText
  0
TEXT
  5
B05
330
1E
100
AcDbEntity
  8
TEXT
100
AcDbText
 10
16.41540604075754
 20
3.4235
 30
0.0
 40
0.375
  1
12.22 [310.3]
 41
0.75
  7
TXT
 72
     4
 11
17.79821854075754
 21
3.611
 31
0.0
100
AcDbText
  0
TEXT
  5
B06
330
1E
100
AcDbEntity
  8
TEXT
100
AcDbText
 10
21.49633837504801
 20
2.796499999999998
 30
0.0
 40
0.375
  1
4.00 [101.6]
 41
0.75
  7
TXT
 72
     4
 11
22.69165087504801
 21
2.983999999999998
 31
0.0
100
AcDbText
  0
TEXT
  5
B07
330
1E
100
AcDbEntity
  8
TEXT
100
AcDbText
 10
21.49633837504801
 20
1.5485
 30
0.0
 40
0.375
  1
4.00 [101.6]
 41
0.75
  7
TXT
 72
     4
 11
22.69165087504801
 21
1.736
 31
0.0
100
AcDbText
  0
TEXT
  5
B08
330
1E
100
AcDbEntity
  8
TEXT
100
AcDbText
 10
21.37915087504801
 20
0.2985000000000006
 30
0.0
 40
0.375
  1
5.25 [133.4]
 41
0.75
  7
TXT
 72
     4
 11
22.69165087504801
 21
0.4860000000000007
 31
0.0
100
AcDbText
  0
TEXT
  5
B09
330
1E
100
AcDbEntity
  8
TEXT
100
AcDbText
 10
21.37915087504801
 20
0.9224999999999994
 30
0.0
 40
0.375
  1
5.25 [133.4]
 41
0.75
  7
TXT
 72
     4
 11
22.69165087504801
 21
1.109999999999999
 31
0.0
100
AcDbText
  0
TEXT
  5
B0A
330
1E
100
AcDbEntity
  8
TEXT
100
AcDbText
 10
21.49633837504801
 20
2.172499999999999
 30
0.0
 40
0.375
  1
4.00 [101.6]
 41
0.75
  7
TXT
 72
     4
 11
22.69165087504801
 21
2.359999999999999
 31
0.0
100
AcDbText
  0
TEXT
  5
B0B
330
1E
100
AcDbEntity
  8
TEXT
100
AcDbText
 10
21.49633837504801
 20
5.2985
 30
0.0
 40
0.375
  1
4.00 [101.6]
 41
0.75
  7
TXT
 72
     4
 11
22.69165087504801
 21
5.486
 31
0.0
100
AcDbText
  0
TEXT
  5
B0C
330
1E
100
AcDbEntity
  8
TEXT
100
AcDbText
 10
21.49633837504801
 20
3.4235
 30
0.0
 40
0.375
  1
3.50 [88.9]
 41
0.75
  7
TXT
 72
     4
 11
22.69165087504801
 21
3.611
 31
0.0
100
AcDbText
  0
TEXT
  5
B0D
330
1E
100
AcDbEntity
  8
TEXT
100
AcDbText
 10
21.5370945154693
 20
6.544499999999999
 30
0.0
 40
0.375
  1
3.00 [76.2]
 41
0.75
  7
TXT
 72
     4
 11
22.7089695154693
 21
6.731999999999999
 31
0.0
100
AcDbText
  0
TEXT
  5
B0E
330
1E
100
AcDbEntity
  8
TEXT
100
AcDbText
 10
21.4902195154693
 20
5.919499999999999
 30
0.0
 40
0.375
  1
2.25 [57.2]
 41
0.75
  7
TXT
 72
     4
 11
22.7089695154693
 21
6.106999999999999
 31
0.0
100
AcDbText
  0
TEXT
  5
B0F
330
1E
100
AcDbEntity
  8
TEXT
100
AcDbText
 10
21.4433445154693
 20
4.6675
 30
0.0
 40
0.375
  1
5.75 [146.1]
 41
0.75
  7
TXT
 72
     4
 11
22.7089695154693
 21
4.855
 31
0.0
100
AcDbText
  0
TEXT
  5
B10
330
1E
100
AcDbEntity
  8
TEXT
100
AcDbText
 10
21.4902195154693
 20
4.047499999999999
 30
0.0
 40
0.375
  1
2.25 [57.2]
 41
0.75
  7
TXT
 72
     4
 11
22.7089695154693
 21
4.234999999999999
 31
0.0
100
AcDbText
  0
TEXT
  5
B11
330
1E
100
AcDbEntity
  8
TEXT
100
AcDbText
 10
22.19946337504801
 20
7.1735
 30
0.0
 40
0.375
  1
1.250
 41
0.75
  7
TXT
 72
     4
 11
22.69165087504801
 21
7.361
 31
0.0
100
AcDbText
  0
TEXT
  5
B12
330
1E
100
AcDbEntity
  8
TEXT
100
AcDbText
 10
26.53509451546931
 20
2.7985
 30
0.0
 40
0.375
  1
3.00 [76.2]
 41
0.75
  7
TXT
 72
     4
 11
27.70696951546931
 21
2.986
 31
0.0
100
AcDbText
  0
TEXT
  5
B13
330
1E
100
AcDbEntity
  8
TEXT
100
AcDbText
 10
26.41790701546931
 20
2.1735
 30
0.0
 40
0.375
  1
4.75 [120.7]
 41
0.75
  7
TXT
 72
     4
 11
27.70696951546931
 21
2.361
 31
0.0
100
AcDbText
  0
TEXT
  5
B14
330
1E
100
AcDbEntity
  8
TEXT
100
AcDbText
 10
26.46478201546931
 20
1.5485
 30
0.0
 40
0.375
  1
6.50 [165.1]
 41
0.75
  7
TXT
 72
     4
 11
27.70696951546931
 21
1.736
 31
0.0
100
AcDbText
  0
TEXT
  5
B15
330
1E
100
AcDbEntity
  8
TEXT
100
AcDbText
 10
26.44134451546931
 20
0.9235000000000006
 30
0.0
 40
0.375
  1
5.75 [146.1]
 41
0.75
  7
TXT
 72
     4
 11
27.70696951546931
 21
1.111
 31
0.0
100
AcDbText
  0
TEXT
  5
B16
330
1E
100
AcDbEntity
  8
TEXT
100
AcDbText
 10
26.44134451546931
 20
0.2985000000000006
 30
0.0
 40
0.375
  1
7.50 [190.5]
 41
0.75
  7
TXT
 72
     4
 11
27.70696951546931
 21
0.4860000000000007
 31
0.0
100
AcDbText
  0
TEXT
  5
B17
330
1E
100
AcDbEntity
  8
TEXT
100
AcDbText
 10
26.53509451546931
 20
4.0485
 30
0.0
 40
0.375
  1
3.00 [76.2]
 41
0.75
  7
TXT
 72
     4
 11
27.70696951546931
 21
4.236
 31
0.0
100
AcDbText
  0
TEXT
  5
B18
330
1E
100
AcDbEntity
  8
TEXT
100
AcDbText
 10
26.48821951546931
 20
3.4235
 30
0.0
 40
0.375
  1
2.25 [57.2]
 41
0.75
  7
TXT
 72
     4
 11
27.70696951546931
 21
3.611
 31
0.0
100
AcDbText
  0
INSERT
  5
B52
330
1E
100
AcDbEntity
  8
TEXT
100
AcDbBlockReference
  2
HB
 10
0.0
 20
0.0
 30
0.0
 41
3.0
 42
3.0
 43
3.0
  0
ENDSEC
  0
SECTION
  2
OBJECTS
  0
DICTIONARY
  5
C
330
0
100
AcDbDictionary
281
     1
  3
ACAD_GROUP
350
D
  3
ACAD_LAYOUT
350
19
  3
ACAD_MLINESTYLE
350
16
  3
ACAD_PLOTSETTINGS
350
18
  3
ACAD_PLOTSTYLENAME
350
E
  0
DICTIONARY
  5
D
102
{ACAD_REACTORS
330
C
102
}
330
C
100
AcDbDictionary
281
     1
  0
DICTIONARY
  5
19
102
{ACAD_REACTORS
330
C
102
}
330
C
100
AcDbDictionary
281
     1
  3
Layout1
350
1D
  3
Model
350
21
  0
DICTIONARY
  5
16
102
{ACAD_REACTORS
330
C
102
}
330
C
100
AcDbDictionary
281
     1
  3
Standard
350
17
  0
DICTIONARY
  5
18
102
{ACAD_REACTORS
330
C
102
}
330
C
100
AcDbDictionary
281
     1
  0
ACDBDICTIONARYWDFLT
  5
E
102
{ACAD_REACTORS
330
C
102
}
330
C
100
AcDbDictionary
281
     1
  3
Normal
350
F
100
AcDbDictionaryWithDefault
340
F
  0
LAYOUT
  5
1D
102
{ACAD_REACTORS
330
19
102
}
330
19
100
AcDbPlotSettings
  1

  2
None
  4

  6

 40
0.0
 41
0.0
 42
0.0
 43
0.0
 44
0.0
 45
0.0
 46
0.0
 47
0.0
 48
0.0
 49
0.0
140
0.0
141
0.0
142
1.0
143
1.0
 70
   688
 72
     0
 73
     0
 74
     5
  7
monochrome.ctb
 75
    16
147
1.0
148
0.0
149
0.0
100
AcDbLayout
  1
Layout1
 70
     1
 71
     1
 10
0.0
 20
0.0
 11
12.0
 21
9.0
 12
0.0
 22
0.0
 32
0.0
 14
1.000000000000000E+20
 24
1.000000000000000E+20
 34
1.000000000000000E+20
 15
-1.000000000000000E+20
 25
-1.000000000000000E+20
 35
-1.000000000000000E+20
146
0.0
 13
0.0
 23
0.0
 33
0.0
 16
1.0
 26
0.0
 36
0.0
 17
0.0
 27
1.0
 37
0.0
 76
     0
330
1A
  0
LAYOUT
  5
21
102
{ACAD_REACTORS
330
19
102
}
330
19
100
AcDbPlotSettings
  1

  2
RICOH Aficio MP 7001 PCL 5e
  4
Letter
  6

 40
3.174999952316284
 41
3.174999952316284
 42
3.175003051757812
 43
3.17498779296875
 44
215.9000091552734
 45
279.3999938964843
 46
15.74799999999999
 47
0.0
 48
0.0
 49
0.0
140
0.0
141
0.0
142
1.0
143
4.325977292524804
 70
 11956
 72
     0
 73
     0
 74
     1
  7
monochrome.ctb
 75
     0
147
0.2311616387187187
148
0.0352908338593181
149
0.054052166483794
100
AcDbLayout
  1
Model
 70
     1
 71
     0
 10
0.0
 20
0.0
 11
12.0
 21
9.0
 12
0.0
 22
0.0
 32
0.0
 14
0.0
 24
0.0
 34
0.0
 15
0.0
 25
0.0
 35
0.0
146
0.0
 13
0.0
 23
0.0
 33
0.0
 16
1.0
 26
0.0
 36
0.0
 17
0.0
 27
1.0
 37
0.0
 76
     0
330
1E
  0
MLINESTYLE
  5
17
102
{ACAD_REACTORS
330
16
102
}
330
16
100
AcDbMlineStyle
  2
STANDARD
 70
     0
  3

 62
   256
 51
90.0
 52
90.0
 71
     2
 49
0.5
 62
   256
  6
BYLAYER
 49
-0.5
 62
   256
  6
BYLAYER
  0
ACDBPLACEHOLDER
  5
F
102
{ACAD_REACTORS
330
E
102
}
330
E
  0
ENDSEC
  0
EOF
