  0
SECTION
  2
HEADER
  9
$ACADVER
  1
AC1009
  9
$INSBASE
 10
0.0
 20
0.0
 30
0.0
  9
$EXTMIN
 10
0.0
 20
0.0
 30
0.0
  9
$EXTMAX
 10
60.72
 20
93.0
 30
0.0
  9
$LIMMIN
 10
0.0
 20
0.0
  9
$LIMMAX
 10
144.117935
 20
124.0
  9
$ORTHOMODE
 70
     1
  9
$REGENMODE
 70
     1
  9
$FILLMODE
 70
     1
  9
$QTEXTMODE
 70
     0
  9
$MIRRTEXT
 70
     0
  9
$DRAGMODE
 70
     2
  9
$LTSCALE
 40
2.0
  9
$OSMODE
 70
     1
  9
$ATTMODE
 70
     1
  9
$TEXTSIZE
 40
0.75
  9
$TRACEWID
 40
0.05
  9
$TEXTSTYLE
  7
TXT
  9
$CLAYER
  8
OBJECT
  9
$CELTYPE
  6
BYLAYER
  9
$CECOLOR
 62
   256
  9
$DIMSCALE
 40
6.0
  9
$DIMASZ
 40
0.18
  9
$DIMEXO
 40
0.063
  9
$DIMDLI
 40
0.281
  9
$DIMRND
 40
0.0
  9
$DIMDLE
 40
0.0
  9
$DIMEXE
 40
0.093
  9
$DIMTP
 40
0.0
  9
$DIMTM
 40
0.0
  9
$DIMTXT
 40
0.125
  9
$DIMCEN
 40
0.09
  9
$DIMTSZ
 40
0.0
  9
$DIMTOL
 70
     0
  9
$DIMLIM
 70
     0
  9
$DIMTIH
 70
     1
  9
$DIMTOH
 70
     1
  9
$DIMSE1
 70
     0
  9
$DIMSE2
 70
     0
  9
$DIMTAD
 70
     0
  9
$DIMZIN
 70
     0
  9
$DIMBLK
  1

  9
$DIMASO
 70
     1
  9
$DIMSHO
 70
     1
  9
$DIMPOST
  1

  9
$DIMAPOST
  1

  9
$DIMALT
 70
     0
  9
$DIMALTD
 70
     2
  9
$DIMALTF
 40
25.4
  9
$DIMLFAC
 40
1.0
  9
$DIMTOFL
 70
     0
  9
$DIMTVP
 40
0.0
  9
$DIMTIX
 70
     0
  9
$DIMSOXD
 70
     0
  9
$DIMSAH
 70
     0
  9
$DIMBLK1
  1

  9
$DIMBLK2
  1

  9
$DIMSTYLE
  2
23NSTD
  9
$DIMCLRD
 70
     0
  9
$DIMCLRE
 70
     0
  9
$DIMCLRT
 70
     0
  9
$DIMTFAC
 40
1.0
  9
$DIMGAP
 40
0.09
  9
$LUNITS
 70
     2
  9
$LUPREC
 70
     3
  9
$SKETCHINC
 40
0.1
  9
$FILLETRAD
 40
0.0
  9
$AUNITS
 70
     0
  9
$AUPREC
 70
     0
  9
$MENU
  1
acad
  9
$ELEVATION
 40
0.0
  9
$PELEVATION
 40
0.0
  9
$THICKNESS
 40
0.0
  9
$LIMCHECK
 70
     0
  9
$BLIPMODE
 70
     1
  9
$CHAMFERA
 40
0.0
  9
$CHAMFERB
 40
0.0
  9
$SKPOLY
 70
     0
  9
$TDCREATE
 40
2450315.612726273
  9
$TDUPDATE
 40
2451354.317570370
  9
$TDINDWG
 40
0.1293062500
  9
$TDUSRTIMER
 40
0.1293062500
  9
$USRTIMER
 70
     1
  9
$ANGBASE
 50
0.0
  9
$ANGDIR
 70
     0
  9
$PDMODE
 70
     0
  9
$PDSIZE
 40
0.0
  9
$PLINEWID
 40
0.0
  9
$COORDS
 70
     0
  9
$SPLFRAME
 70
     0
  9
$SPLINETYPE
 70
     6
  9
$SPLINESEGS
 70
     8
  9
$ATTDIA
 70
     0
  9
$ATTREQ
 70
     1
  9
$HANDLING
 70
     0
  9
$HANDSEED
  5
0
  9
$SURFTAB1
 70
     6
  9
$SURFTAB2
 70
     6
  9
$SURFTYPE
 70
     6
  9
$SURFU
 70
     6
  9
$SURFV
 70
     6
  9
$UCSNAME
  2

  9
$UCSORG
 10
0.0
 20
0.0
 30
0.0
  9
$UCSXDIR
 10
1.0
 20
0.0
 30
0.0
  9
$UCSYDIR
 10
0.0
 20
1.0
 30
0.0
  9
$PUCSNAME
  2

  9
$PUCSORG
 10
0.0
 20
0.0
 30
0.0
  9
$PUCSXDIR
 10
1.0
 20
0.0
 30
0.0
  9
$PUCSYDIR
 10
0.0
 20
1.0
 30
0.0
  9
$USERI1
 70
     0
  9
$USERI2
 70
     0
  9
$USERI3
 70
     0
  9
$USERI4
 70
     0
  9
$USERI5
 70
     0
  9
$USERR1
 40
0.0
  9
$USERR2
 40
0.0
  9
$USERR3
 40
0.0
  9
$USERR4
 40
0.0
  9
$USERR5
 40
0.0
  9
$WORLDVIEW
 70
     1
  9
$SHADEDGE
 70
     3
  9
$SHADEDIF
 70
    70
  9
$TILEMODE
 70
     1
  9
$MAXACTVP
 70
    16
  9
$PINSBASE
 10
0.0
 20
0.0
 30
0.0
  9
$PLIMCHECK
 70
     0
  9
$PEXTMIN
 10
1.000000E+20
 20
1.000000E+20
 30
1.000000E+20
  9
$PEXTMAX
 10
-1.000000E+20
 20
-1.000000E+20
 30
-1.000000E+20
  9
$PLIMMIN
 10
0.0
 20
0.0
  9
$PLIMMAX
 10
12.0
 20
9.0
  9
$UNITMODE
 70
     0
  9
$VISRETAIN
 70
     0
  9
$PLINEGEN
 70
     0
  9
$PSLTSCALE
 70
     1
  9
$TREEDEPTH
 70
  3020
  9
$DWGCODEPAGE
  3
ascii
  0
ENDSEC
  0
SECTION
  2
TABLES
  0
TABLE
  2
VPORT
 70
     2
  0
VPORT
  2
*ACTIVE
 70
     0
 10
0.0
 20
0.0
 11
1.0
 21
1.0
 12
63.348787
 22
46.5
 13
0.0
 23
0.0
 14
1.0
 24
1.0
 15
0.0
 25
0.0
 16
0.0
 26
0.0
 36
1.0
 17
0.0
 27
0.0
 37
0.0
 40
93.0
 41
1.36234
 42
50.0
 43
0.0
 44
0.0
 50
0.0
 51
0.0
 71
     0
 72
   500
 73
     1
 74
     0
 75
     0
 76
     0
 77
     0
 78
     0
  0
ENDTAB
  0
TABLE
  2
LTYPE
 70
     5
  0
LTYPE
  2
CONTINUOUS
 70
    64
  3
Solid line
 72
    65
 73
     0
 40
0.0
  0
LTYPE
  2
HIDDEN
 70
    64
  3
_ _ _ _ _ _ _ _ _ _ _ _ _ _ _ _ _ _ _ _ _ _ _
 72
    65
 73
     2
 40
0.375
 49
0.25
 49
-0.125
  0
LTYPE
  2
PHANTOM
 70
    64
  3
_____ _ _ _____ _ _ _____ _ _ _____ _ _ ____
 72
    65
 73
     6
 40
2.5
 49
1.25
 49
-0.25
 49
0.25
 49
-0.25
 49
0.25
 49
-0.25
  0
LTYPE
  2
CENTER
 70
    64
  3
____ _ ____ _ ____ _ ____ _ ____ _ ____ _ ____
 72
    65
 73
     4
 40
2.0
 49
1.25
 49
-0.25
 49
0.25
 49
-0.25
  0
LTYPE
  2
PHANTOM2
 70
    64
  3
___ _ _ ___ _ _ ___ _ _ ___ _ _ ___ _ _ ___ _ _
 72
    65
 73
     6
 40
1.25
 49
0.625
 49
-0.125
 49
0.125
 49
-0.125
 49
0.125
 49
-0.125
  0
ENDTAB
  0
TABLE
  2
LAYER
 70
     9
  0
LAYER
  2
0
 70
    64
 62
     7
  6
CONTINUOUS
  0
LAYER
  2
OBJECT
 70
    64
 62
     7
  6
CONTINUOUS
  0
LAYER
  2
DIM
 70
    64
 62
     7
  6
CONTINUOUS
  0
LAYER
  2
HIDDEN
 70
    64
 62
     7
  6
HIDDEN
  0
LAYER
  2
BEND
 70
    64
 62
     7
  6
PHANTOM
  0
LAYER
  2
TEXT
 70
    64
 62
     7
  6
CONTINUOUS
  0
LAYER
  2
TITLE
 70
    64
 62
     7
  6
CONTINUOUS
  0
LAYER
  2
CENTER
 70
    64
 62
     7
  6
CENTER
  0
LAYER
  2
DEFPOINTS
 70
    64
 62
     7
  6
CONTINUOUS
  0
ENDTAB
  0
TABLE
  2
STYLE
 70
     2
  0
STYLE
  2
STANDARD
 70
    64
 40
0.0
 41
1.0
 50
0.0
 71
     0
 42
0.2
  3
txt
  4

  0
STYLE
  2
TXT
 70
    64
 40
0.0
 41
0.75
 50
0.0
 71
     0
 42
0.75
  3
TXT.shx
  4

  0
ENDTAB
  0
TABLE
  2
VIEW
 70
     0
  0
ENDTAB
  0
TABLE
  2
UCS
 70
     0
  0
ENDTAB
  0
TABLE
  2
APPID
 70
     1
  0
APPID
  2
ACAD
 70
    64
  0
ENDTAB
  0
TABLE
  2
DIMSTYLE
 70
     2
  0
DIMSTYLE
  2
23NSTD
 70
    64
  3

  4

  5

  6

  7

 40
6.0
 41
0.18
 42
0.063
 43
0.281
 44
0.093
 45
0.0
 46
0.0
 47
0.0
 48
0.0
140
0.125
141
0.09
142
0.0
143
25.4
144
1.0
145
0.0
146
1.0
147
0.09
 71
     0
 72
     0
 73
     1
 74
     1
 75
     0
 76
     0
 77
     0
 78
     0
170
     0
171
     2
172
     0
173
     0
174
     0
175
     0
176
     0
177
     0
178
     0
  0
DIMSTYLE
  2
23NSTDI
 70
    64
  3

  4

  5

  6

  7

 40
6.0
 41
0.18
 42
0.063
 43
0.281
 44
0.093
 45
0.0
 46
0.0
 47
0.0
 48
0.0
140
0.125
141
0.09
142
0.0
143
25.4
144
1.0
145
0.0
146
1.0
147
0.09
 71
     0
 72
     0
 73
     1
 74
     1
 75
     0
 76
     0
 77
     0
 78
     0
170
     0
171
     2
172
     0
173
     0
174
     1
175
     0
176
     0
177
     0
178
     0
  0
ENDTAB
  0
ENDSEC
  0
SECTION
  2
BLOCKS
  0
BLOCK
  8
0
  2
*D0
 70
    65
 10
0.0
 20
0.0
 30
0.0
  3
*D
  0
LINE
  8
0
  6
BYBLOCK
 62
     0
 10
38.573676
 20
5.851708
 30
0.0
 11
36.877917
 21
5.851708
 31
0.0
  0
LINE
  8
0
  6
BYBLOCK
 62
     0
 10
38.666676
 20
4.383708
 30
0.0
 11
36.877917
 21
4.383708
 31
0.0
  0
LINE
  8
0
  6
BYBLOCK
 62
     0
 10
37.435917
 20
6.931708
 30
0.0
 11
37.435917
 21
8.011708
 31
0.0
  0
LINE
  8
0
  6
BYBLOCK
 62
     0
 10
37.435917
 20
3.303708
 30
0.0
 11
37.435917
 21
2.223708
 31
0.0
  0
SOLID
  8
0
  6
BYBLOCK
 62
     0
 10
37.255917
 20
6.931708
 30
0.0
 11
37.615917
 21
6.931708
 31
0.0
 12
37.435917
 22
5.851708
 32
0.0
 13
37.435917
 23
5.851708
 33
0.0
  0
SOLID
  8
0
  6
BYBLOCK
 62
     0
 10
37.255917
 20
3.303708
 30
0.0
 11
37.615917
 21
3.303708
 31
0.0
 12
37.435917
 22
4.383708
 32
0.0
 13
37.435917
 23
4.383708
 33
0.0
  0
TEXT
  8
0
  6
BYBLOCK
 62
     0
 10
36.404667
 20
4.742708
 30
0.0
 40
0.75
  1
1.468
 41
0.75
  7
TXT
 72
     1
 11
37.435917
 21
5.117708
 31
0.0
 73
     2
  0
POINT
  8
DEFPOINTS
  6
BYBLOCK
 62
     0
 10
38.951676
 20
5.851708
 30
0.0
  0
POINT
  8
DEFPOINTS
  6
BYBLOCK
 62
     0
 10
39.044676
 20
4.383708
 30
0.0
  0
POINT
  8
DEFPOINTS
  6
BYBLOCK
 62
     0
 10
37.435917
 20
4.383708
 30
0.0
  0
ENDBLK
  8
0
  0
BLOCK
  8
0
  2
*D1
 70
    65
 10
0.0
 20
0.0
 30
0.0
  3
*D
  0
LINE
  8
0
  6
BYBLOCK
 62
     0
 10
7.609196
 20
76.075373
 30
0.0
 11
7.609196
 21
73.253597
 31
0.0
  0
LINE
  8
0
  6
BYBLOCK
 62
     0
 10
26.609196
 20
76.075373
 30
0.0
 11
26.609196
 21
73.253597
 31
0.0
  0
LINE
  8
0
  6
BYBLOCK
 62
     0
 10
8.689196
 20
73.811597
 30
0.0
 11
15.397321
 21
73.811597
 31
0.0
  0
LINE
  8
0
  6
BYBLOCK
 62
     0
 10
25.529196
 20
73.811597
 30
0.0
 11
18.821071
 21
73.811597
 31
0.0
  0
SOLID
  8
0
  6
BYBLOCK
 62
     0
 10
8.689196
 20
73.991597
 30
0.0
 11
8.689196
 21
73.631597
 31
0.0
 12
7.609196
 22
73.811597
 32
0.0
 13
7.609196
 23
73.811597
 33
0.0
  0
SOLID
  8
0
  6
BYBLOCK
 62
     0
 10
25.529196
 20
73.991597
 30
0.0
 11
25.529196
 21
73.631597
 31
0.0
 12
26.609196
 22
73.811597
 32
0.0
 13
26.609196
 23
73.811597
 33
0.0
  0
TEXT
  8
0
  6
BYBLOCK
 62
     0
 10
15.937321
 20
73.436597
 30
0.0
 40
0.75
  1
19.000
 41
0.75
  7
TXT
 72
     1
 11
17.109196
 21
73.811597
 31
0.0
 73
     2
  0
POINT
  8
DEFPOINTS
  6
BYBLOCK
 62
     0
 10
7.609196
 20
76.453373
 30
0.0
  0
POINT
  8
DEFPOINTS
  6
BYBLOCK
 62
     0
 10
26.609196
 20
76.453373
 30
0.0
  0
POINT
  8
DEFPOINTS
  6
BYBLOCK
 62
     0
 10
26.609196
 20
73.811597
 30
0.0
  0
ENDBLK
  8
0
  0
BLOCK
  8
0
  2
*D2
 70
    65
 10
0.0
 20
0.0
 30
0.0
  3
*D
  0
LINE
  8
0
  6
BYBLOCK
 62
     0
 10
7.953196
 20
77.450373
 30
0.0
 11
7.953196
 21
74.939597
 31
0.0
  0
LINE
  8
0
  6
BYBLOCK
 62
     0
 10
26.265196
 20
77.450373
 30
0.0
 11
26.265196
 21
74.939597
 31
0.0
  0
LINE
  8
0
  6
BYBLOCK
 62
     0
 10
9.033196
 20
75.497597
 30
0.0
 11
15.350446
 21
75.497597
 31
0.0
  0
LINE
  8
0
  6
BYBLOCK
 62
     0
 10
25.185196
 20
75.497597
 30
0.0
 11
18.867946
 21
75.497597
 31
0.0
  0
SOLID
  8
0
  6
BYBLOCK
 62
     0
 10
9.033196
 20
75.677597
 30
0.0
 11
9.033196
 21
75.317597
 31
0.0
 12
7.953196
 22
75.497597
 32
0.0
 13
7.953196
 23
75.497597
 33
0.0
  0
SOLID
  8
0
  6
BYBLOCK
 62
     0
 10
25.185196
 20
75.677597
 30
0.0
 11
25.185196
 21
75.317597
 31
0.0
 12
26.265196
 22
75.497597
 32
0.0
 13
26.265196
 23
75.497597
 33
0.0
  0
TEXT
  8
0
  6
BYBLOCK
 62
     0
 10
15.890446
 20
75.122597
 30
0.0
 40
0.75
  1
18.312
 41
0.75
  7
TXT
 72
     1
 11
17.109196
 21
75.497597
 31
0.0
 73
     2
  0
POINT
  8
DEFPOINTS
  6
BYBLOCK
 62
     0
 10
7.953196
 20
77.828373
 30
0.0
  0
POINT
  8
DEFPOINTS
  6
BYBLOCK
 62
     0
 10
26.265196
 20
77.828373
 30
0.0
  0
POINT
  8
DEFPOINTS
  6
BYBLOCK
 62
     0
 10
26.265196
 20
75.497597
 30
0.0
  0
ENDBLK
  8
0
  0
BLOCK
  8
0
  2
*D3
 70
    65
 10
0.0
 20
0.0
 30
0.0
  3
*D
  0
LINE
  8
0
  6
BYBLOCK
 62
     0
 10
8.175871
 20
20.086923
 30
0.0
 11
8.175871
 21
27.075805
 31
0.0
  0
LINE
  8
0
  6
BYBLOCK
 62
     0
 10
6.691871
 20
20.433923
 30
0.0
 11
6.691871
 21
27.075805
 31
0.0
  0
LINE
  8
0
  6
BYBLOCK
 62
     0
 10
9.255871
 20
26.517805
 30
0.0
 11
10.335871
 21
26.517805
 31
0.0
  0
LINE
  8
0
  6
BYBLOCK
 62
     0
 10
5.611871
 20
26.517805
 30
0.0
 11
4.531871
 21
26.517805
 31
0.0
  0
SOLID
  8
0
  6
BYBLOCK
 62
     0
 10
9.255871
 20
26.697805
 30
0.0
 11
9.255871
 21
26.337805
 31
0.0
 12
8.175871
 22
26.517805
 32
0.0
 13
8.175871
 23
26.517805
 33
0.0
  0
SOLID
  8
0
  6
BYBLOCK
 62
     0
 10
5.611871
 20
26.697805
 30
0.0
 11
5.611871
 21
26.337805
 31
0.0
 12
6.691871
 22
26.517805
 32
0.0
 13
6.691871
 23
26.517805
 33
0.0
  0
TEXT
  8
0
  6
BYBLOCK
 62
     0
 10
1.929371
 20
26.142805
 30
0.0
 40
0.75
  1
1.484
 41
0.75
  7
TXT
 72
     1
 11
2.960621
 21
26.517805
 31
0.0
 73
     2
  0
POINT
  8
DEFPOINTS
  6
BYBLOCK
 62
     0
 10
8.175871
 20
19.708923
 30
0.0
  0
POINT
  8
DEFPOINTS
  6
BYBLOCK
 62
     0
 10
6.691871
 20
20.055923
 30
0.0
  0
POINT
  8
DEFPOINTS
  6
BYBLOCK
 62
     0
 10
6.691871
 20
26.517805
 30
0.0
  0
ENDBLK
  8
0
  0
BLOCK
  8
0
  2
*D4
 70
    65
 10
0.0
 20
0.0
 30
0.0
  3
*D
  0
LINE
  8
0
  6
BYBLOCK
 62
     0
 10
10.956871
 20
20.086923
 30
0.0
 11
10.956871
 21
25.389805
 31
0.0
  0
LINE
  8
0
  6
BYBLOCK
 62
     0
 10
8.175871
 20
20.086923
 30
0.0
 11
8.175871
 21
25.389805
 31
0.0
  0
LINE
  8
0
  6
BYBLOCK
 62
     0
 10
12.036871
 20
24.831805
 30
0.0
 11
13.116871
 21
24.831805
 31
0.0
  0
LINE
  8
0
  6
BYBLOCK
 62
     0
 10
7.095871
 20
24.831805
 30
0.0
 11
6.015871
 21
24.831805
 31
0.0
  0
SOLID
  8
0
  6
BYBLOCK
 62
     0
 10
12.036871
 20
25.011805
 30
0.0
 11
12.036871
 21
24.651805
 31
0.0
 12
10.956871
 22
24.831805
 32
0.0
 13
10.956871
 23
24.831805
 33
0.0
  0
SOLID
  8
0
  6
BYBLOCK
 62
     0
 10
7.095871
 20
25.011805
 30
0.0
 11
7.095871
 21
24.651805
 31
0.0
 12
8.175871
 22
24.831805
 32
0.0
 13
8.175871
 23
24.831805
 33
0.0
  0
TEXT
  8
0
  6
BYBLOCK
 62
     0
 10
8.535121
 20
24.456805
 30
0.0
 40
0.75
  1
2.781
 41
0.75
  7
TXT
 72
     1
 11
9.566371
 21
24.831805
 31
0.0
 73
     2
  0
POINT
  8
DEFPOINTS
  6
BYBLOCK
 62
     0
 10
10.956871
 20
19.708923
 30
0.0
  0
POINT
  8
DEFPOINTS
  6
BYBLOCK
 62
     0
 10
8.175871
 20
19.708923
 30
0.0
  0
POINT
  8
DEFPOINTS
  6
BYBLOCK
 62
     0
 10
8.175871
 20
24.831805
 30
0.0
  0
ENDBLK
  8
0
  0
BLOCK
  8
0
  2
*D5
 70
    65
 10
0.0
 20
0.0
 30
0.0
  3
*D
  0
LINE
  8
0
  6
BYBLOCK
 62
     0
 10
13.737871
 20
20.086923
 30
0.0
 11
13.737871
 21
23.703805
 31
0.0
  0
LINE
  8
0
  6
BYBLOCK
 62
     0
 10
10.956871
 20
20.086923
 30
0.0
 11
10.956871
 21
23.703805
 31
0.0
  0
LINE
  8
0
  6
BYBLOCK
 62
     0
 10
14.817871
 20
23.145805
 30
0.0
 11
15.897871
 21
23.145805
 31
0.0
  0
LINE
  8
0
  6
BYBLOCK
 62
     0
 10
9.876871
 20
23.145805
 30
0.0
 11
8.796871
 21
23.145805
 31
0.0
  0
SOLID
  8
0
  6
BYBLOCK
 62
     0
 10
14.817871
 20
23.325805
 30
0.0
 11
14.817871
 21
22.965805
 31
0.0
 12
13.737871
 22
23.145805
 32
0.0
 13
13.737871
 23
23.145805
 33
0.0
  0
SOLID
  8
0
  6
BYBLOCK
 62
     0
 10
9.876871
 20
23.325805
 30
0.0
 11
9.876871
 21
22.965805
 31
0.0
 12
10.956871
 22
23.145805
 32
0.0
 13
10.956871
 23
23.145805
 33
0.0
  0
TEXT
  8
0
  6
BYBLOCK
 62
     0
 10
11.316121
 20
22.770805
 30
0.0
 40
0.75
  1
2.781
 41
0.75
  7
TXT
 72
     1
 11
12.347371
 21
23.145805
 31
0.0
 73
     2
  0
POINT
  8
DEFPOINTS
  6
BYBLOCK
 62
     0
 10
13.737871
 20
19.708923
 30
0.0
  0
POINT
  8
DEFPOINTS
  6
BYBLOCK
 62
     0
 10
10.956871
 20
19.708923
 30
0.0
  0
POINT
  8
DEFPOINTS
  6
BYBLOCK
 62
     0
 10
10.956871
 20
23.145805
 30
0.0
  0
ENDBLK
  8
0
  0
BLOCK
  8
0
  2
*D6
 70
    65
 10
0.0
 20
0.0
 30
0.0
  3
*D
  0
LINE
  8
0
  6
BYBLOCK
 62
     0
 10
16.518871
 20
20.086923
 30
0.0
 11
16.518871
 21
22.017805
 31
0.0
  0
LINE
  8
0
  6
BYBLOCK
 62
     0
 10
13.737871
 20
20.086923
 30
0.0
 11
13.737871
 21
22.017805
 31
0.0
  0
LINE
  8
0
  6
BYBLOCK
 62
     0
 10
17.598871
 20
21.459805
 30
0.0
 11
18.678871
 21
21.459805
 31
0.0
  0
LINE
  8
0
  6
BYBLOCK
 62
     0
 10
12.657871
 20
21.459805
 30
0.0
 11
11.577871
 21
21.459805
 31
0.0
  0
SOLID
  8
0
  6
BYBLOCK
 62
     0
 10
17.598871
 20
21.639805
 30
0.0
 11
17.598871
 21
21.279805
 31
0.0
 12
16.518871
 22
21.459805
 32
0.0
 13
16.518871
 23
21.459805
 33
0.0
  0
SOLID
  8
0
  6
BYBLOCK
 62
     0
 10
12.657871
 20
21.639805
 30
0.0
 11
12.657871
 21
21.279805
 31
0.0
 12
13.737871
 22
21.459805
 32
0.0
 13
13.737871
 23
21.459805
 33
0.0
  0
TEXT
  8
0
  6
BYBLOCK
 62
     0
 10
14.097121
 20
21.084805
 30
0.0
 40
0.75
  1
2.781
 41
0.75
  7
TXT
 72
     1
 11
15.128371
 21
21.459805
 31
0.0
 73
     2
  0
POINT
  8
DEFPOINTS
  6
BYBLOCK
 62
     0
 10
16.518871
 20
19.708923
 30
0.0
  0
POINT
  8
DEFPOINTS
  6
BYBLOCK
 62
     0
 10
13.737871
 20
19.708923
 30
0.0
  0
POINT
  8
DEFPOINTS
  6
BYBLOCK
 62
     0
 10
13.737871
 20
21.459805
 30
0.0
  0
ENDBLK
  8
0
  0
BLOCK
  8
0
  2
*D7
 70
    65
 10
0.0
 20
0.0
 30
0.0
  3
*D
  0
LINE
  8
0
  6
BYBLOCK
 62
     0
 10
8.175871
 20
5.882708
 30
0.0
 11
8.175871
 21
11.583334
 31
0.0
  0
LINE
  8
0
  6
BYBLOCK
 62
     0
 10
6.691871
 20
6.229708
 30
0.0
 11
6.691871
 21
11.583334
 31
0.0
  0
LINE
  8
0
  6
BYBLOCK
 62
     0
 10
9.255871
 20
11.025334
 30
0.0
 11
10.335871
 21
11.025334
 31
0.0
  0
LINE
  8
0
  6
BYBLOCK
 62
     0
 10
5.611871
 20
11.025334
 30
0.0
 11
4.531871
 21
11.025334
 31
0.0
  0
SOLID
  8
0
  6
BYBLOCK
 62
     0
 10
9.255871
 20
11.205334
 30
0.0
 11
9.255871
 21
10.845334
 31
0.0
 12
8.175871
 22
11.025334
 32
0.0
 13
8.175871
 23
11.025334
 33
0.0
  0
SOLID
  8
0
  6
BYBLOCK
 62
     0
 10
5.611871
 20
11.205334
 30
0.0
 11
5.611871
 21
10.845334
 31
0.0
 12
6.691871
 22
11.025334
 32
0.0
 13
6.691871
 23
11.025334
 33
0.0
  0
TEXT
  8
0
  6
BYBLOCK
 62
     0
 10
1.929371
 20
10.650334
 30
0.0
 40
0.75
  1
1.484
 41
0.75
  7
TXT
 72
     1
 11
2.960621
 21
11.025334
 31
0.0
 73
     2
  0
POINT
  8
DEFPOINTS
  6
BYBLOCK
 62
     0
 10
8.175871
 20
5.504708
 30
0.0
  0
POINT
  8
DEFPOINTS
  6
BYBLOCK
 62
     0
 10
6.691871
 20
5.851708
 30
0.0
  0
POINT
  8
DEFPOINTS
  6
BYBLOCK
 62
     0
 10
6.691871
 20
11.025334
 30
0.0
  0
ENDBLK
  8
0
  0
BLOCK
  8
0
  2
*D8
 70
    65
 10
0.0
 20
0.0
 30
0.0
  3
*D
  0
LINE
  8
0
  6
BYBLOCK
 62
     0
 10
10.956871
 20
5.882708
 30
0.0
 11
10.956871
 21
8.211334
 31
0.0
  0
LINE
  8
0
  6
BYBLOCK
 62
     0
 10
13.737871
 20
5.882708
 30
0.0
 11
13.737871
 21
8.211334
 31
0.0
  0
LINE
  8
0
  6
BYBLOCK
 62
     0
 10
9.876871
 20
7.653334
 30
0.0
 11
8.796871
 21
7.653334
 31
0.0
  0
LINE
  8
0
  6
BYBLOCK
 62
     0
 10
14.817871
 20
7.653334
 30
0.0
 11
15.897871
 21
7.653334
 31
0.0
  0
SOLID
  8
0
  6
BYBLOCK
 62
     0
 10
9.876871
 20
7.833334
 30
0.0
 11
9.876871
 21
7.473334
 31
0.0
 12
10.956871
 22
7.653334
 32
0.0
 13
10.956871
 23
7.653334
 33
0.0
  0
SOLID
  8
0
  6
BYBLOCK
 62
     0
 10
14.817871
 20
7.833334
 30
0.0
 11
14.817871
 21
7.473334
 31
0.0
 12
13.737871
 22
7.653334
 32
0.0
 13
13.737871
 23
7.653334
 33
0.0
  0
TEXT
  8
0
  6
BYBLOCK
 62
     0
 10
11.316121
 20
7.278334
 30
0.0
 40
0.75
  1
2.781
 41
0.75
  7
TXT
 72
     1
 11
12.347371
 21
7.653334
 31
0.0
 73
     2
  0
POINT
  8
DEFPOINTS
  6
BYBLOCK
 62
     0
 10
10.956871
 20
5.504708
 30
0.0
  0
POINT
  8
DEFPOINTS
  6
BYBLOCK
 62
     0
 10
13.737871
 20
5.504708
 30
0.0
  0
POINT
  8
DEFPOINTS
  6
BYBLOCK
 62
     0
 10
13.737871
 20
7.653334
 30
0.0
  0
ENDBLK
  8
0
  0
BLOCK
  8
0
  2
*D9
 70
    65
 10
0.0
 20
0.0
 30
0.0
  3
*D
  0
LINE
  8
0
  6
BYBLOCK
 62
     0
 10
8.175871
 20
5.882708
 30
0.0
 11
8.175871
 21
9.897334
 31
0.0
  0
LINE
  8
0
  6
BYBLOCK
 62
     0
 10
10.956871
 20
5.882708
 30
0.0
 11
10.956871
 21
9.897334
 31
0.0
  0
LINE
  8
0
  6
BYBLOCK
 62
     0
 10
7.095871
 20
9.339334
 30
0.0
 11
6.015871
 21
9.339334
 31
0.0
  0
LINE
  8
0
  6
BYBLOCK
 62
     0
 10
12.036871
 20
9.339334
 30
0.0
 11
13.116871
 21
9.339334
 31
0.0
  0
SOLID
  8
0
  6
BYBLOCK
 62
     0
 10
7.095871
 20
9.519334
 30
0.0
 11
7.095871
 21
9.159334
 31
0.0
 12
8.175871
 22
9.339334
 32
0.0
 13
8.175871
 23
9.339334
 33
0.0
  0
SOLID
  8
0
  6
BYBLOCK
 62
     0
 10
12.036871
 20
9.519334
 30
0.0
 11
12.036871
 21
9.159334
 31
0.0
 12
10.956871
 22
9.339334
 32
0.0
 13
10.956871
 23
9.339334
 33
0.0
  0
TEXT
  8
0
  6
BYBLOCK
 62
     0
 10
8.535121
 20
8.964334
 30
0.0
 40
0.75
  1
2.781
 41
0.75
  7
TXT
 72
     1
 11
9.566371
 21
9.339334
 31
0.0
 73
     2
  0
POINT
  8
DEFPOINTS
  6
BYBLOCK
 62
     0
 10
8.175871
 20
5.504708
 30
0.0
  0
POINT
  8
DEFPOINTS
  6
BYBLOCK
 62
     0
 10
10.956871
 20
5.504708
 30
0.0
  0
POINT
  8
DEFPOINTS
  6
BYBLOCK
 62
     0
 10
10.956871
 20
9.339334
 30
0.0
  0
ENDBLK
  8
0
  0
BLOCK
  8
0
  2
*D10
 70
    65
 10
0.0
 20
0.0
 30
0.0
  3
*D
  0
LINE
  8
0
  6
BYBLOCK
 62
     0
 10
6.691871
 20
6.229708
 30
0.0
 11
6.691871
 21
13.269334
 31
0.0
  0
LINE
  8
0
  6
BYBLOCK
 62
     0
 10
16.254871
 20
5.882708
 30
0.0
 11
16.254871
 21
13.269334
 31
0.0
  0
LINE
  8
0
  6
BYBLOCK
 62
     0
 10
7.771871
 20
12.711334
 30
0.0
 11
9.808371
 21
12.711334
 31
0.0
  0
LINE
  8
0
  6
BYBLOCK
 62
     0
 10
15.174871
 20
12.711334
 30
0.0
 11
13.138371
 21
12.711334
 31
0.0
  0
SOLID
  8
0
  6
BYBLOCK
 62
     0
 10
7.771871
 20
12.891334
 30
0.0
 11
7.771871
 21
12.531334
 31
0.0
 12
6.691871
 22
12.711334
 32
0.0
 13
6.691871
 23
12.711334
 33
0.0
  0
SOLID
  8
0
  6
BYBLOCK
 62
     0
 10
15.174871
 20
12.891334
 30
0.0
 11
15.174871
 21
12.531334
 31
0.0
 12
16.254871
 22
12.711334
 32
0.0
 13
16.254871
 23
12.711334
 33
0.0
  0
TEXT
  8
0
  6
BYBLOCK
 62
     0
 10
10.348371
 20
12.336334
 30
0.0
 40
0.75
  1
9.563
 41
0.75
  7
TXT
 72
     1
 11
11.473371
 21
12.711334
 31
0.0
 73
     2
  0
POINT
  8
DEFPOINTS
  6
BYBLOCK
 62
     0
 10
6.691871
 20
5.851708
 30
0.0
  0
POINT
  8
DEFPOINTS
  6
BYBLOCK
 62
     0
 10
16.254871
 20
5.504708
 30
0.0
  0
POINT
  8
DEFPOINTS
  6
BYBLOCK
 62
     0
 10
16.254871
 20
12.711334
 30
0.0
  0
ENDBLK
  8
0
  0
BLOCK
  8
0
  2
*D11
 70
    65
 10
0.0
 20
0.0
 30
0.0
  3
*D
  0
LINE
  8
0
  6
BYBLOCK
 62
     0
 10
55.136085
 20
18.286573
 30
0.0
 11
56.463063
 21
18.286573
 31
0.0
  0
LINE
  8
0
  6
BYBLOCK
 62
     0
 10
55.136085
 20
17.521573
 30
0.0
 11
56.463063
 21
17.521573
 31
0.0
  0
LINE
  8
0
  6
BYBLOCK
 62
     0
 10
55.905063
 20
19.366573
 30
0.0
 11
55.905063
 21
20.446573
 31
0.0
  0
LINE
  8
0
  6
BYBLOCK
 62
     0
 10
55.905063
 20
16.441573
 30
0.0
 11
55.905063
 21
15.361573
 31
0.0
  0
LINE
  8
0
  6
BYBLOCK
 62
     0
 10
55.905063
 20
15.361573
 30
0.0
 11
54.825063
 21
15.361573
 31
0.0
  0
SOLID
  8
0
  6
BYBLOCK
 62
     0
 10
55.725063
 20
19.366573
 30
0.0
 11
56.085063
 21
19.366573
 31
0.0
 12
55.905063
 22
18.286573
 32
0.0
 13
55.905063
 23
18.286573
 33
0.0
  0
SOLID
  8
0
  6
BYBLOCK
 62
     0
 10
55.725063
 20
16.441573
 30
0.0
 11
56.085063
 21
16.441573
 31
0.0
 12
55.905063
 22
17.521573
 32
0.0
 13
55.905063
 23
17.521573
 33
0.0
  0
TEXT
  8
0
  6
BYBLOCK
 62
     0
 10
52.128813
 20
14.986573
 30
0.0
 40
0.75
  1
0.765
 41
0.75
  7
TXT
 72
     1
 11
53.206938
 21
15.361573
 31
0.0
 73
     2
  0
POINT
  8
DEFPOINTS
  6
BYBLOCK
 62
     0
 10
54.758085
 20
18.286573
 30
0.0
  0
POINT
  8
DEFPOINTS
  6
BYBLOCK
 62
     0
 10
54.758085
 20
17.521573
 30
0.0
  0
POINT
  8
DEFPOINTS
  6
BYBLOCK
 62
     0
 10
55.905063
 20
17.521573
 30
0.0
  0
ENDBLK
  8
0
  0
BLOCK
  8
0
  2
*D12
 70
    65
 10
0.0
 20
0.0
 30
0.0
  3
*D
  0
LINE
  8
0
  6
BYBLOCK
 62
     0
 10
55.136085
 20
5.851708
 30
0.0
 11
56.463063
 21
5.851708
 31
0.0
  0
LINE
  8
0
  6
BYBLOCK
 62
     0
 10
55.136085
 20
5.086708
 30
0.0
 11
56.463063
 21
5.086708
 31
0.0
  0
LINE
  8
0
  6
BYBLOCK
 62
     0
 10
55.905063
 20
6.931708
 30
0.0
 11
55.905063
 21
8.011708
 31
0.0
  0
LINE
  8
0
  6
BYBLOCK
 62
     0
 10
55.905063
 20
4.006708
 30
0.0
 11
55.905063
 21
2.926708
 31
0.0
  0
LINE
  8
0
  6
BYBLOCK
 62
     0
 10
55.905063
 20
2.926708
 30
0.0
 11
54.825063
 21
2.926708
 31
0.0
  0
SOLID
  8
0
  6
BYBLOCK
 62
     0
 10
55.725063
 20
6.931708
 30
0.0
 11
56.085063
 21
6.931708
 31
0.0
 12
55.905063
 22
5.851708
 32
0.0
 13
55.905063
 23
5.851708
 33
0.0
  0
SOLID
  8
0
  6
BYBLOCK
 62
     0
 10
55.725063
 20
4.006708
 30
0.0
 11
56.085063
 21
4.006708
 31
0.0
 12
55.905063
 22
5.086708
 32
0.0
 13
55.905063
 23
5.086708
 33
0.0
  0
TEXT
  8
0
  6
BYBLOCK
 62
     0
 10
52.128813
 20
2.551708
 30
0.0
 40
0.75
  1
0.765
 41
0.75
  7
TXT
 72
     1
 11
53.206938
 21
2.926708
 31
0.0
 73
     2
  0
POINT
  8
DEFPOINTS
  6
BYBLOCK
 62
     0
 10
54.758085
 20
5.851708
 30
0.0
  0
POINT
  8
DEFPOINTS
  6
BYBLOCK
 62
     0
 10
54.758085
 20
5.086708
 30
0.0
  0
POINT
  8
DEFPOINTS
  6
BYBLOCK
 62
     0
 10
55.905063
 20
5.086708
 30
0.0
  0
ENDBLK
  8
0
  0
BLOCK
  8
0
  2
*D13
 70
    65
 10
0.0
 20
0.0
 30
0.0
  3
*D
  0
LINE
  8
0
  6
BYBLOCK
 62
     0
 10
7.231196
 20
76.453373
 30
0.0
 11
5.454155
 21
76.453373
 31
0.0
  0
LINE
  8
0
  6
BYBLOCK
 62
     0
 10
7.387696
 20
77.953373
 30
0.0
 11
5.454155
 21
77.953373
 31
0.0
  0
LINE
  8
0
  6
BYBLOCK
 62
     0
 10
6.012155
 20
75.373373
 30
0.0
 11
6.012155
 21
74.293373
 31
0.0
  0
LINE
  8
0
  6
BYBLOCK
 62
     0
 10
6.012155
 20
79.033373
 30
0.0
 11
6.012155
 21
80.113373
 31
0.0
  0
SOLID
  8
0
  6
BYBLOCK
 62
     0
 10
5.832155
 20
75.373373
 30
0.0
 11
6.192155
 21
75.373373
 31
0.0
 12
6.012155
 22
76.453373
 32
0.0
 13
6.012155
 23
76.453373
 33
0.0
  0
SOLID
  8
0
  6
BYBLOCK
 62
     0
 10
5.832155
 20
79.033373
 30
0.0
 11
6.192155
 21
79.033373
 31
0.0
 12
6.012155
 22
77.953373
 32
0.0
 13
6.012155
 23
77.953373
 33
0.0
  0
TEXT
  8
0
  6
BYBLOCK
 62
     0
 10
4.980905
 20
76.828373
 30
0.0
 40
0.75
  1
1.484
 41
0.75
  7
TXT
 72
     1
 11
6.012155
 21
77.203373
 31
0.0
 73
     2
  0
POINT
  8
DEFPOINTS
  6
BYBLOCK
 62
     0
 10
7.609196
 20
76.453373
 30
0.0
  0
POINT
  8
DEFPOINTS
  6
BYBLOCK
 62
     0
 10
7.765696
 20
77.953373
 30
0.0
  0
POINT
  8
DEFPOINTS
  6
BYBLOCK
 62
     0
 10
6.012155
 20
77.953373
 30
0.0
  0
ENDBLK
  8
0
  0
BLOCK
  8
0
  2
*D14
 70
    65
 10
0.0
 20
0.0
 30
0.0
  3
*D
  0
LINE
  8
0
  6
BYBLOCK
 62
     0
 10
7.387696
 20
81.953373
 30
0.0
 11
3.768155
 21
81.953373
 31
0.0
  0
LINE
  8
0
  6
BYBLOCK
 62
     0
 10
7.387696
 20
77.953373
 30
0.0
 11
3.768155
 21
77.953373
 31
0.0
  0
LINE
  8
0
  6
BYBLOCK
 62
     0
 10
4.326155
 20
83.033373
 30
0.0
 11
4.326155
 21
84.113373
 31
0.0
  0
LINE
  8
0
  6
BYBLOCK
 62
     0
 10
4.326155
 20
76.873373
 30
0.0
 11
4.326155
 21
75.793373
 31
0.0
  0
SOLID
  8
0
  6
BYBLOCK
 62
     0
 10
4.146155
 20
83.033373
 30
0.0
 11
4.506155
 21
83.033373
 31
0.0
 12
4.326155
 22
81.953373
 32
0.0
 13
4.326155
 23
81.953373
 33
0.0
  0
SOLID
  8
0
  6
BYBLOCK
 62
     0
 10
4.146155
 20
76.873373
 30
0.0
 11
4.506155
 21
76.873373
 31
0.0
 12
4.326155
 22
77.953373
 32
0.0
 13
4.326155
 23
77.953373
 33
0.0
  0
TEXT
  8
0
  6
BYBLOCK
 62
     0
 10
3.34178
 20
79.578373
 30
0.0
 40
0.75
  1
4.000
 41
0.75
  7
TXT
 72
     1
 11
4.326155
 21
79.953373
 31
0.0
 73
     2
  0
POINT
  8
DEFPOINTS
  6
BYBLOCK
 62
     0
 10
7.765696
 20
81.953373
 30
0.0
  0
POINT
  8
DEFPOINTS
  6
BYBLOCK
 62
     0
 10
7.765696
 20
77.953373
 30
0.0
  0
POINT
  8
DEFPOINTS
  6
BYBLOCK
 62
     0
 10
4.326155
 20
77.953373
 30
0.0
  0
ENDBLK
  8
0
  0
BLOCK
  8
0
  2
*D15
 70
    65
 10
0.0
 20
0.0
 30
0.0
  3
*D
  0
LINE
  8
0
  6
BYBLOCK
 62
     0
 10
54.758085
 20
6.229708
 30
0.0
 11
54.758085
 21
8.569708
 31
0.0
  0
LINE
  8
0
  6
BYBLOCK
 62
     0
 10
36.852085
 20
6.229708
 30
0.0
 11
36.852085
 21
8.569708
 31
0.0
  0
LINE
  8
0
  6
BYBLOCK
 62
     0
 10
53.678085
 20
8.011708
 30
0.0
 11
47.61071
 21
8.011708
 31
0.0
  0
LINE
  8
0
  6
BYBLOCK
 62
     0
 10
37.932085
 20
8.011708
 30
0.0
 11
43.99946
 21
8.011708
 31
0.0
  0
SOLID
  8
0
  6
BYBLOCK
 62
     0
 10
53.678085
 20
8.191708
 30
0.0
 11
53.678085
 21
7.831708
 31
0.0
 12
54.758085
 22
8.011708
 32
0.0
 13
54.758085
 23
8.011708
 33
0.0
  0
SOLID
  8
0
  6
BYBLOCK
 62
     0
 10
37.932085
 20
8.191708
 30
0.0
 11
37.932085
 21
7.831708
 31
0.0
 12
36.852085
 22
8.011708
 32
0.0
 13
36.852085
 23
8.011708
 33
0.0
  0
TEXT
  8
0
  6
BYBLOCK
 62
     0
 10
44.53946
 20
7.636708
 30
0.0
 40
0.75
  1
17.906
 41
0.75
  7
TXT
 72
     1
 11
45.805085
 21
8.011708
 31
0.0
 73
     2
  0
POINT
  8
DEFPOINTS
  6
BYBLOCK
 62
     0
 10
54.758085
 20
5.851708
 30
0.0
  0
POINT
  8
DEFPOINTS
  6
BYBLOCK
 62
     0
 10
36.852085
 20
5.851708
 30
0.0
  0
POINT
  8
DEFPOINTS
  6
BYBLOCK
 62
     0
 10
36.852085
 20
8.011708
 30
0.0
  0
ENDBLK
  8
0
  0
BLOCK
  8
0
  2
*D16
 70
    65
 10
0.0
 20
0.0
 30
0.0
  3
*D
  0
LINE
  8
0
  6
BYBLOCK
 62
     0
 10
54.758085
 20
18.664573
 30
0.0
 11
54.758085
 21
21.004573
 31
0.0
  0
LINE
  8
0
  6
BYBLOCK
 62
     0
 10
36.852085
 20
18.664573
 30
0.0
 11
36.852085
 21
21.004573
 31
0.0
  0
LINE
  8
0
  6
BYBLOCK
 62
     0
 10
53.678085
 20
20.446573
 30
0.0
 11
47.61071
 21
20.446573
 31
0.0
  0
LINE
  8
0
  6
BYBLOCK
 62
     0
 10
37.932085
 20
20.446573
 30
0.0
 11
43.99946
 21
20.446573
 31
0.0
  0
SOLID
  8
0
  6
BYBLOCK
 62
     0
 10
53.678085
 20
20.626573
 30
0.0
 11
53.678085
 21
20.266573
 31
0.0
 12
54.758085
 22
20.446573
 32
0.0
 13
54.758085
 23
20.446573
 33
0.0
  0
SOLID
  8
0
  6
BYBLOCK
 62
     0
 10
37.932085
 20
20.626573
 30
0.0
 11
37.932085
 21
20.266573
 31
0.0
 12
36.852085
 22
20.446573
 32
0.0
 13
36.852085
 23
20.446573
 33
0.0
  0
TEXT
  8
0
  6
BYBLOCK
 62
     0
 10
44.53946
 20
20.071573
 30
0.0
 40
0.75
  1
17.906
 41
0.75
  7
TXT
 72
     1
 11
45.805085
 21
20.446573
 31
0.0
 73
     2
  0
POINT
  8
DEFPOINTS
  6
BYBLOCK
 62
     0
 10
54.758085
 20
18.286573
 30
0.0
  0
POINT
  8
DEFPOINTS
  6
BYBLOCK
 62
     0
 10
36.852085
 20
18.286573
 30
0.0
  0
POINT
  8
DEFPOINTS
  6
BYBLOCK
 62
     0
 10
36.852085
 20
20.446573
 30
0.0
  0
ENDBLK
  8
0
  0
BLOCK
  8
0
  2
*D17
 70
    65
 10
0.0
 20
0.0
 30
0.0
  3
*D
  0
LINE
  8
0
  6
BYBLOCK
 62
     0
 10
6.691871
 20
6.229708
 30
0.0
 11
6.691871
 21
8.769334
 31
0.0
  0
LINE
  8
0
  6
BYBLOCK
 62
     0
 10
6.614371
 20
5.526708
 30
0.0
 11
6.614371
 21
8.769334
 31
0.0
  0
LINE
  8
0
  6
BYBLOCK
 62
     0
 10
7.771871
 20
8.211334
 30
0.0
 11
8.851871
 21
8.211334
 31
0.0
  0
LINE
  8
0
  6
BYBLOCK
 62
     0
 10
5.534371
 20
8.211334
 30
0.0
 11
4.454371
 21
8.211334
 31
0.0
  0
SOLID
  8
0
  6
BYBLOCK
 62
     0
 10
7.771871
 20
8.391334
 30
0.0
 11
7.771871
 21
8.031334
 31
0.0
 12
6.691871
 22
8.211334
 32
0.0
 13
6.691871
 23
8.211334
 33
0.0
  0
SOLID
  8
0
  6
BYBLOCK
 62
     0
 10
5.534371
 20
8.391334
 30
0.0
 11
5.534371
 21
8.031334
 31
0.0
 12
6.614371
 22
8.211334
 32
0.0
 13
6.614371
 23
8.211334
 33
0.0
  0
TEXT
  8
0
  6
BYBLOCK
 62
     0
 10
1.851871
 20
7.836334
 30
0.0
 40
0.75
  1
0.077
 41
0.75
  7
TXT
 72
     1
 11
2.883121
 21
8.211334
 31
0.0
 73
     2
  0
POINT
  8
DEFPOINTS
  6
BYBLOCK
 62
     0
 10
6.691871
 20
5.851708
 30
0.0
  0
POINT
  8
DEFPOINTS
  6
BYBLOCK
 62
     0
 10
6.614371
 20
5.148708
 30
0.0
  0
POINT
  8
DEFPOINTS
  6
BYBLOCK
 62
     0
 10
6.614371
 20
8.211334
 30
0.0
  0
ENDBLK
  8
0
  0
BLOCK
  8
0
  2
*D18
 70
    65
 10
0.0
 20
0.0
 30
0.0
  3
*D
  0
LINE
  8
0
  6
BYBLOCK
 62
     0
 10
6.313871
 20
5.851708
 30
0.0
 11
4.494196
 21
5.851708
 31
0.0
  0
LINE
  8
0
  6
BYBLOCK
 62
     0
 10
7.707871
 20
5.414708
 30
0.0
 11
4.494196
 21
5.414708
 31
0.0
  0
LINE
  8
0
  6
BYBLOCK
 62
     0
 10
5.052196
 20
6.931708
 30
0.0
 11
5.052196
 21
8.011708
 31
0.0
  0
LINE
  8
0
  6
BYBLOCK
 62
     0
 10
5.052196
 20
4.334708
 30
0.0
 11
5.052196
 21
3.254708
 31
0.0
  0
LINE
  8
0
  6
BYBLOCK
 62
     0
 10
5.052196
 20
3.254708
 30
0.0
 11
3.972196
 21
3.254708
 31
0.0
  0
SOLID
  8
0
  6
BYBLOCK
 62
     0
 10
4.872196
 20
6.931708
 30
0.0
 11
5.232196
 21
6.931708
 31
0.0
 12
5.052196
 22
5.851708
 32
0.0
 13
5.052196
 23
5.851708
 33
0.0
  0
SOLID
  8
0
  6
BYBLOCK
 62
     0
 10
4.872196
 20
4.334708
 30
0.0
 11
5.232196
 21
4.334708
 31
0.0
 12
5.052196
 22
5.414708
 32
0.0
 13
5.052196
 23
5.414708
 33
0.0
  0
TEXT
  8
0
  6
BYBLOCK
 62
     0
 10
1.275946
 20
2.879708
 30
0.0
 40
0.75
  1
0.437
 41
0.75
  7
TXT
 72
     1
 11
2.354071
 21
3.254708
 31
0.0
 73
     2
  0
POINT
  8
DEFPOINTS
  6
BYBLOCK
 62
     0
 10
6.691871
 20
5.851708
 30
0.0
  0
POINT
  8
DEFPOINTS
  6
BYBLOCK
 62
     0
 10
8.085871
 20
5.414708
 30
0.0
  0
POINT
  8
DEFPOINTS
  6
BYBLOCK
 62
     0
 10
5.052196
 20
5.414708
 30
0.0
  0
ENDBLK
  8
0
  0
BLOCK
  8
0
  2
*D19
 70
    65
 10
0.0
 20
0.0
 30
0.0
  3
*D
  0
LINE
  8
0
  6
BYBLOCK
 62
     0
 10
22.240871
 20
18.317573
 30
0.0
 11
22.240871
 21
22.890199
 31
0.0
  0
LINE
  8
0
  6
BYBLOCK
 62
     0
 10
25.021871
 20
18.317573
 30
0.0
 11
25.021871
 21
22.890199
 31
0.0
  0
LINE
  8
0
  6
BYBLOCK
 62
     0
 10
21.160871
 20
22.332199
 30
0.0
 11
20.080871
 21
22.332199
 31
0.0
  0
LINE
  8
0
  6
BYBLOCK
 62
     0
 10
26.101871
 20
22.332199
 30
0.0
 11
27.181871
 21
22.332199
 31
0.0
  0
SOLID
  8
0
  6
BYBLOCK
 62
     0
 10
21.160871
 20
22.512199
 30
0.0
 11
21.160871
 21
22.152199
 31
0.0
 12
22.240871
 22
22.332199
 32
0.0
 13
22.240871
 23
22.332199
 33
0.0
  0
SOLID
  8
0
  6
BYBLOCK
 62
     0
 10
26.101871
 20
22.512199
 30
0.0
 11
26.101871
 21
22.152199
 31
0.0
 12
25.021871
 22
22.332199
 32
0.0
 13
25.021871
 23
22.332199
 33
0.0
  0
TEXT
  8
0
  6
BYBLOCK
 62
     0
 10
22.600121
 20
21.957199
 30
0.0
 40
0.75
  1
2.781
 41
0.75
  7
TXT
 72
     1
 11
23.631371
 21
22.332199
 31
0.0
 73
     2
  0
POINT
  8
DEFPOINTS
  6
BYBLOCK
 62
     0
 10
22.240871
 20
17.939573
 30
0.0
  0
POINT
  8
DEFPOINTS
  6
BYBLOCK
 62
     0
 10
25.021871
 20
17.939573
 30
0.0
  0
POINT
  8
DEFPOINTS
  6
BYBLOCK
 62
     0
 10
25.021871
 20
22.332199
 30
0.0
  0
ENDBLK
  8
0
  0
BLOCK
  8
0
  2
*D20
 70
    65
 10
0.0
 20
0.0
 30
0.0
  3
*D
  0
LINE
  8
0
  6
BYBLOCK
 62
     0
 10
25.021871
 20
18.317573
 30
0.0
 11
25.021871
 21
24.576199
 31
0.0
  0
LINE
  8
0
  6
BYBLOCK
 62
     0
 10
27.802871
 20
18.317573
 30
0.0
 11
27.802871
 21
24.576199
 31
0.0
  0
LINE
  8
0
  6
BYBLOCK
 62
     0
 10
23.941871
 20
24.018199
 30
0.0
 11
22.861871
 21
24.018199
 31
0.0
  0
LINE
  8
0
  6
BYBLOCK
 62
     0
 10
28.882871
 20
24.018199
 30
0.0
 11
29.962871
 21
24.018199
 31
0.0
  0
SOLID
  8
0
  6
BYBLOCK
 62
     0
 10
23.941871
 20
24.198199
 30
0.0
 11
23.941871
 21
23.838199
 31
0.0
 12
25.021871
 22
24.018199
 32
0.0
 13
25.021871
 23
24.018199
 33
0.0
  0
SOLID
  8
0
  6
BYBLOCK
 62
     0
 10
28.882871
 20
24.198199
 30
0.0
 11
28.882871
 21
23.838199
 31
0.0
 12
27.802871
 22
24.018199
 32
0.0
 13
27.802871
 23
24.018199
 33
0.0
  0
TEXT
  8
0
  6
BYBLOCK
 62
     0
 10
25.381121
 20
23.643199
 30
0.0
 40
0.75
  1
2.781
 41
0.75
  7
TXT
 72
     1
 11
26.412371
 21
24.018199
 31
0.0
 73
     2
  0
POINT
  8
DEFPOINTS
  6
BYBLOCK
 62
     0
 10
25.021871
 20
17.939573
 30
0.0
  0
POINT
  8
DEFPOINTS
  6
BYBLOCK
 62
     0
 10
27.802871
 20
17.939573
 30
0.0
  0
POINT
  8
DEFPOINTS
  6
BYBLOCK
 62
     0
 10
27.802871
 20
24.018199
 30
0.0
  0
ENDBLK
  8
0
  0
BLOCK
  8
0
  2
*D21
 70
    65
 10
0.0
 20
0.0
 30
0.0
  3
*D
  0
LINE
  8
0
  6
BYBLOCK
 62
     0
 10
27.802871
 20
18.317573
 30
0.0
 11
27.802871
 21
26.262199
 31
0.0
  0
LINE
  8
0
  6
BYBLOCK
 62
     0
 10
29.286871
 20
18.664573
 30
0.0
 11
29.286871
 21
26.262199
 31
0.0
  0
LINE
  8
0
  6
BYBLOCK
 62
     0
 10
26.722871
 20
25.704199
 30
0.0
 11
25.642871
 21
25.704199
 31
0.0
  0
LINE
  8
0
  6
BYBLOCK
 62
     0
 10
30.366871
 20
25.704199
 30
0.0
 11
31.446871
 21
25.704199
 31
0.0
  0
SOLID
  8
0
  6
BYBLOCK
 62
     0
 10
26.722871
 20
25.884199
 30
0.0
 11
26.722871
 21
25.524199
 31
0.0
 12
27.802871
 22
25.704199
 32
0.0
 13
27.802871
 23
25.704199
 33
0.0
  0
SOLID
  8
0
  6
BYBLOCK
 62
     0
 10
30.366871
 20
25.884199
 30
0.0
 11
30.366871
 21
25.524199
 31
0.0
 12
29.286871
 22
25.704199
 32
0.0
 13
29.286871
 23
25.704199
 33
0.0
  0
TEXT
  8
0
  6
BYBLOCK
 62
     0
 10
31.986871
 20
25.329199
 30
0.0
 40
0.75
  1
1.484
 41
0.75
  7
TXT
 72
     1
 11
33.018121
 21
25.704199
 31
0.0
 73
     2
  0
POINT
  8
DEFPOINTS
  6
BYBLOCK
 62
     0
 10
27.802871
 20
17.939573
 30
0.0
  0
POINT
  8
DEFPOINTS
  6
BYBLOCK
 62
     0
 10
29.286871
 20
18.286573
 30
0.0
  0
POINT
  8
DEFPOINTS
  6
BYBLOCK
 62
     0
 10
29.286871
 20
25.704199
 30
0.0
  0
ENDBLK
  8
0
  0
BLOCK
  8
0
  2
*D22
 70
    65
 10
0.0
 20
0.0
 30
0.0
  3
*D
  0
LINE
  8
0
  6
BYBLOCK
 62
     0
 10
19.459871
 20
18.317573
 30
0.0
 11
19.459871
 21
21.204199
 31
0.0
  0
LINE
  8
0
  6
BYBLOCK
 62
     0
 10
22.240871
 20
18.317573
 30
0.0
 11
22.240871
 21
21.204199
 31
0.0
  0
LINE
  8
0
  6
BYBLOCK
 62
     0
 10
18.379871
 20
20.646199
 30
0.0
 11
17.299871
 21
20.646199
 31
0.0
  0
LINE
  8
0
  6
BYBLOCK
 62
     0
 10
23.320871
 20
20.646199
 30
0.0
 11
24.400871
 21
20.646199
 31
0.0
  0
SOLID
  8
0
  6
BYBLOCK
 62
     0
 10
18.379871
 20
20.826199
 30
0.0
 11
18.379871
 21
20.466199
 31
0.0
 12
19.459871
 22
20.646199
 32
0.0
 13
19.459871
 23
20.646199
 33
0.0
  0
SOLID
  8
0
  6
BYBLOCK
 62
     0
 10
23.320871
 20
20.826199
 30
0.0
 11
23.320871
 21
20.466199
 31
0.0
 12
22.240871
 22
20.646199
 32
0.0
 13
22.240871
 23
20.646199
 33
0.0
  0
TEXT
  8
0
  6
BYBLOCK
 62
     0
 10
19.819121
 20
20.271199
 30
0.0
 40
0.75
  1
2.781
 41
0.75
  7
TXT
 72
     1
 11
20.850371
 21
20.646199
 31
0.0
 73
     2
  0
POINT
  8
DEFPOINTS
  6
BYBLOCK
 62
     0
 10
19.459871
 20
17.939573
 30
0.0
  0
POINT
  8
DEFPOINTS
  6
BYBLOCK
 62
     0
 10
22.240871
 20
17.939573
 30
0.0
  0
POINT
  8
DEFPOINTS
  6
BYBLOCK
 62
     0
 10
22.240871
 20
20.646199
 30
0.0
  0
ENDBLK
  8
0
  0
BLOCK
  8
0
  2
*D23
 70
    65
 10
0.0
 20
0.0
 30
0.0
  3
*D
  0
LINE
  8
0
  6
BYBLOCK
 62
     0
 10
6.614371
 20
4.005708
 30
0.0
 11
6.614371
 21
2.696708
 31
0.0
  0
LINE
  8
0
  6
BYBLOCK
 62
     0
 10
25.895371
 20
4.005708
 30
0.0
 11
25.895371
 21
2.696708
 31
0.0
  0
LINE
  8
0
  6
BYBLOCK
 62
     0
 10
7.694371
 20
3.254708
 30
0.0
 11
14.496121
 21
3.254708
 31
0.0
  0
LINE
  8
0
  6
BYBLOCK
 62
     0
 10
24.815371
 20
3.254708
 30
0.0
 11
18.013621
 21
3.254708
 31
0.0
  0
SOLID
  8
0
  6
BYBLOCK
 62
     0
 10
7.694371
 20
3.434708
 30
0.0
 11
7.694371
 21
3.074708
 31
0.0
 12
6.614371
 22
3.254708
 32
0.0
 13
6.614371
 23
3.254708
 33
0.0
  0
SOLID
  8
0
  6
BYBLOCK
 62
     0
 10
24.815371
 20
3.434708
 30
0.0
 11
24.815371
 21
3.074708
 31
0.0
 12
25.895371
 22
3.254708
 32
0.0
 13
25.895371
 23
3.254708
 33
0.0
  0
TEXT
  8
0
  6
BYBLOCK
 62
     0
 10
15.036121
 20
2.879708
 30
0.0
 40
0.75
  1
19.281
 41
0.75
  7
TXT
 72
     1
 11
16.254871
 21
3.254708
 31
0.0
 73
     2
  0
POINT
  8
DEFPOINTS
  6
BYBLOCK
 62
     0
 10
6.614371
 20
4.383708
 30
0.0
  0
POINT
  8
DEFPOINTS
  6
BYBLOCK
 62
     0
 10
25.895371
 20
4.383708
 30
0.0
  0
POINT
  8
DEFPOINTS
  6
BYBLOCK
 62
     0
 10
25.895371
 20
3.254708
 30
0.0
  0
ENDBLK
  8
0
  0
BLOCK
  8
0
  2
*D24
 70
    65
 10
0.0
 20
0.0
 30
0.0
  3
*D
  0
LINE
  8
0
  6
BYBLOCK
 62
     0
 10
6.614371
 20
16.440573
 30
0.0
 11
6.614371
 21
15.131573
 31
0.0
  0
LINE
  8
0
  6
BYBLOCK
 62
     0
 10
29.364371
 20
16.440573
 30
0.0
 11
29.364371
 21
15.131573
 31
0.0
  0
LINE
  8
0
  6
BYBLOCK
 62
     0
 10
7.694371
 20
15.689573
 30
0.0
 11
16.089996
 21
15.689573
 31
0.0
  0
LINE
  8
0
  6
BYBLOCK
 62
     0
 10
28.284371
 20
15.689573
 30
0.0
 11
19.888746
 21
15.689573
 31
0.0
  0
SOLID
  8
0
  6
BYBLOCK
 62
     0
 10
7.694371
 20
15.869573
 30
0.0
 11
7.694371
 21
15.509573
 31
0.0
 12
6.614371
 22
15.689573
 32
0.0
 13
6.614371
 23
15.689573
 33
0.0
  0
SOLID
  8
0
  6
BYBLOCK
 62
     0
 10
28.284371
 20
15.869573
 30
0.0
 11
28.284371
 21
15.509573
 31
0.0
 12
29.364371
 22
15.689573
 32
0.0
 13
29.364371
 23
15.689573
 33
0.0
  0
TEXT
  8
0
  6
BYBLOCK
 62
     0
 10
16.629996
 20
15.314573
 30
0.0
 40
0.75
  1
22.750
 41
0.75
  7
TXT
 72
     1
 11
17.989371
 21
15.689573
 31
0.0
 73
     2
  0
POINT
  8
DEFPOINTS
  6
BYBLOCK
 62
     0
 10
6.614371
 20
16.818573
 30
0.0
  0
POINT
  8
DEFPOINTS
  6
BYBLOCK
 62
     0
 10
29.364371
 20
16.818573
 30
0.0
  0
POINT
  8
DEFPOINTS
  6
BYBLOCK
 62
     0
 10
29.364371
 20
15.689573
 30
0.0
  0
ENDBLK
  8
0
  0
BLOCK
  8
0
  2
*D25
 70
    65
 10
0.0
 20
0.0
 30
0.0
  3
*D
  0
LINE
  8
0
  6
BYBLOCK
 62
     0
 10
24.333871
 20
5.882708
 30
0.0
 11
24.333871
 21
11.00246
 31
0.0
  0
LINE
  8
0
  6
BYBLOCK
 62
     0
 10
25.817871
 20
6.229708
 30
0.0
 11
25.817871
 21
11.00246
 31
0.0
  0
LINE
  8
0
  6
BYBLOCK
 62
     0
 10
23.253871
 20
10.44446
 30
0.0
 11
22.173871
 21
10.44446
 31
0.0
  0
LINE
  8
0
  6
BYBLOCK
 62
     0
 10
26.897871
 20
10.44446
 30
0.0
 11
27.977871
 21
10.44446
 31
0.0
  0
SOLID
  8
0
  6
BYBLOCK
 62
     0
 10
23.253871
 20
10.62446
 30
0.0
 11
23.253871
 21
10.26446
 31
0.0
 12
24.333871
 22
10.44446
 32
0.0
 13
24.333871
 23
10.44446
 33
0.0
  0
SOLID
  8
0
  6
BYBLOCK
 62
     0
 10
26.897871
 20
10.62446
 30
0.0
 11
26.897871
 21
10.26446
 31
0.0
 12
25.817871
 22
10.44446
 32
0.0
 13
25.817871
 23
10.44446
 33
0.0
  0
TEXT
  8
0
  6
BYBLOCK
 62
     0
 10
28.517871
 20
10.06946
 30
0.0
 40
0.75
  1
1.484
 41
0.75
  7
TXT
 72
     1
 11
29.549121
 21
10.44446
 31
0.0
 73
     2
  0
POINT
  8
DEFPOINTS
  6
BYBLOCK
 62
     0
 10
24.333871
 20
5.504708
 30
0.0
  0
POINT
  8
DEFPOINTS
  6
BYBLOCK
 62
     0
 10
25.817871
 20
5.851708
 30
0.0
  0
POINT
  8
DEFPOINTS
  6
BYBLOCK
 62
     0
 10
25.817871
 20
10.44446
 30
0.0
  0
ENDBLK
  8
0
  0
BLOCK
  8
0
  2
*D26
 70
    65
 10
0.0
 20
0.0
 30
0.0
  3
*D
  0
LINE
  8
0
  6
BYBLOCK
 62
     0
 10
21.552871
 20
5.882708
 30
0.0
 11
21.552871
 21
7.63046
 31
0.0
  0
LINE
  8
0
  6
BYBLOCK
 62
     0
 10
18.771871
 20
5.882708
 30
0.0
 11
18.771871
 21
7.63046
 31
0.0
  0
LINE
  8
0
  6
BYBLOCK
 62
     0
 10
22.632871
 20
7.07246
 30
0.0
 11
23.712871
 21
7.07246
 31
0.0
  0
LINE
  8
0
  6
BYBLOCK
 62
     0
 10
17.691871
 20
7.07246
 30
0.0
 11
16.611871
 21
7.07246
 31
0.0
  0
SOLID
  8
0
  6
BYBLOCK
 62
     0
 10
22.632871
 20
7.25246
 30
0.0
 11
22.632871
 21
6.89246
 31
0.0
 12
21.552871
 22
7.07246
 32
0.0
 13
21.552871
 23
7.07246
 33
0.0
  0
SOLID
  8
0
  6
BYBLOCK
 62
     0
 10
17.691871
 20
7.25246
 30
0.0
 11
17.691871
 21
6.89246
 31
0.0
 12
18.771871
 22
7.07246
 32
0.0
 13
18.771871
 23
7.07246
 33
0.0
  0
TEXT
  8
0
  6
BYBLOCK
 62
     0
 10
19.131121
 20
6.69746
 30
0.0
 40
0.75
  1
2.781
 41
0.75
  7
TXT
 72
     1
 11
20.162371
 21
7.07246
 31
0.0
 73
     2
  0
POINT
  8
DEFPOINTS
  6
BYBLOCK
 62
     0
 10
21.552871
 20
5.504708
 30
0.0
  0
POINT
  8
DEFPOINTS
  6
BYBLOCK
 62
     0
 10
18.771871
 20
5.504708
 30
0.0
  0
POINT
  8
DEFPOINTS
  6
BYBLOCK
 62
     0
 10
18.771871
 20
7.07246
 30
0.0
  0
ENDBLK
  8
0
  0
BLOCK
  8
0
  2
*D27
 70
    65
 10
0.0
 20
0.0
 30
0.0
  3
*D
  0
LINE
  8
0
  6
BYBLOCK
 62
     0
 10
24.333871
 20
5.882708
 30
0.0
 11
24.333871
 21
9.31646
 31
0.0
  0
LINE
  8
0
  6
BYBLOCK
 62
     0
 10
21.552871
 20
5.882708
 30
0.0
 11
21.552871
 21
9.31646
 31
0.0
  0
LINE
  8
0
  6
BYBLOCK
 62
     0
 10
25.413871
 20
8.75846
 30
0.0
 11
26.493871
 21
8.75846
 31
0.0
  0
LINE
  8
0
  6
BYBLOCK
 62
     0
 10
20.472871
 20
8.75846
 30
0.0
 11
19.392871
 21
8.75846
 31
0.0
  0
SOLID
  8
0
  6
BYBLOCK
 62
     0
 10
25.413871
 20
8.93846
 30
0.0
 11
25.413871
 21
8.57846
 31
0.0
 12
24.333871
 22
8.75846
 32
0.0
 13
24.333871
 23
8.75846
 33
0.0
  0
SOLID
  8
0
  6
BYBLOCK
 62
     0
 10
20.472871
 20
8.93846
 30
0.0
 11
20.472871
 21
8.57846
 31
0.0
 12
21.552871
 22
8.75846
 32
0.0
 13
21.552871
 23
8.75846
 33
0.0
  0
TEXT
  8
0
  6
BYBLOCK
 62
     0
 10
21.912121
 20
8.38346
 30
0.0
 40
0.75
  1
2.781
 41
0.75
  7
TXT
 72
     1
 11
22.943371
 21
8.75846
 31
0.0
 73
     2
  0
POINT
  8
DEFPOINTS
  6
BYBLOCK
 62
     0
 10
24.333871
 20
5.504708
 30
0.0
  0
POINT
  8
DEFPOINTS
  6
BYBLOCK
 62
     0
 10
21.552871
 20
5.504708
 30
0.0
  0
POINT
  8
DEFPOINTS
  6
BYBLOCK
 62
     0
 10
21.552871
 20
8.75846
 30
0.0
  0
ENDBLK
  8
0
  0
BLOCK
  8
0
  2
*D28
 70
    65
 10
0.0
 20
0.0
 30
0.0
  3
*D
  0
LINE
  8
0
  6
BYBLOCK
 62
     0
 10
37.799299
 20
82.450373
 30
0.0
 11
37.799299
 21
74.939597
 31
0.0
  0
LINE
  8
0
  6
BYBLOCK
 62
     0
 10
53.299299
 20
76.075373
 30
0.0
 11
53.299299
 21
74.939597
 31
0.0
  0
LINE
  8
0
  6
BYBLOCK
 62
     0
 10
38.879299
 20
75.497597
 30
0.0
 11
43.790549
 21
75.497597
 31
0.0
  0
LINE
  8
0
  6
BYBLOCK
 62
     0
 10
52.219299
 20
75.497597
 30
0.0
 11
47.308049
 21
75.497597
 31
0.0
  0
SOLID
  8
0
  6
BYBLOCK
 62
     0
 10
38.879299
 20
75.677597
 30
0.0
 11
38.879299
 21
75.317597
 31
0.0
 12
37.799299
 22
75.497597
 32
0.0
 13
37.799299
 23
75.497597
 33
0.0
  0
SOLID
  8
0
  6
BYBLOCK
 62
     0
 10
52.219299
 20
75.677597
 30
0.0
 11
52.219299
 21
75.317597
 31
0.0
 12
53.299299
 22
75.497597
 32
0.0
 13
53.299299
 23
75.497597
 33
0.0
  0
TEXT
  8
0
  6
BYBLOCK
 62
     0
 10
44.330549
 20
75.122597
 30
0.0
 40
0.75
  1
15.500
 41
0.75
  7
TXT
 72
     1
 11
45.549299
 21
75.497597
 31
0.0
 73
     2
  0
POINT
  8
DEFPOINTS
  6
BYBLOCK
 62
     0
 10
37.799299
 20
82.828373
 30
0.0
  0
POINT
  8
DEFPOINTS
  6
BYBLOCK
 62
     0
 10
53.299299
 20
76.453373
 30
0.0
  0
POINT
  8
DEFPOINTS
  6
BYBLOCK
 62
     0
 10
53.299299
 20
75.497597
 30
0.0
  0
ENDBLK
  8
0
  0
BLOCK
  8
0
  2
*D29
 70
    65
 10
0.0
 20
0.0
 30
0.0
  3
*D
  0
LINE
  8
0
  6
BYBLOCK
 62
     0
 10
28.109196
 20
83.893373
 30
0.0
 11
28.109196
 21
85.683469
 31
0.0
  0
LINE
  8
0
  6
BYBLOCK
 62
     0
 10
6.109196
 20
83.893373
 30
0.0
 11
6.109196
 21
85.683469
 31
0.0
  0
LINE
  8
0
  6
BYBLOCK
 62
     0
 10
27.029196
 20
85.125469
 30
0.0
 11
18.914821
 21
85.125469
 31
0.0
  0
LINE
  8
0
  6
BYBLOCK
 62
     0
 10
7.189196
 20
85.125469
 30
0.0
 11
15.303571
 21
85.125469
 31
0.0
  0
SOLID
  8
0
  6
BYBLOCK
 62
     0
 10
27.029196
 20
85.305469
 30
0.0
 11
27.029196
 21
84.945469
 31
0.0
 12
28.109196
 22
85.125469
 32
0.0
 13
28.109196
 23
85.125469
 33
0.0
  0
SOLID
  8
0
  6
BYBLOCK
 62
     0
 10
7.189196
 20
85.305469
 30
0.0
 11
7.189196
 21
84.945469
 31
0.0
 12
6.109196
 22
85.125469
 32
0.0
 13
6.109196
 23
85.125469
 33
0.0
  0
TEXT
  8
0
  6
BYBLOCK
 62
     0
 10
15.843571
 20
84.750469
 30
0.0
 40
0.75
  1
22.000
 41
0.75
  7
TXT
 72
     1
 11
17.109196
 21
85.125469
 31
0.0
 73
     2
  0
POINT
  8
DEFPOINTS
  6
BYBLOCK
 62
     0
 10
28.109196
 20
83.515373
 30
0.0
  0
POINT
  8
DEFPOINTS
  6
BYBLOCK
 62
     0
 10
6.109196
 20
83.515373
 30
0.0
  0
POINT
  8
DEFPOINTS
  6
BYBLOCK
 62
     0
 10
6.109196
 20
85.125469
 30
0.0
  0
ENDBLK
  8
0
  0
BLOCK
  8
0
  2
*D30
 70
    65
 10
0.0
 20
0.0
 30
0.0
  3
*D
  0
LINE
  8
0
  6
BYBLOCK
 62
     0
 10
53.299299
 20
83.893373
 30
0.0
 11
53.299299
 21
85.683469
 31
0.0
  0
LINE
  8
0
  6
BYBLOCK
 62
     0
 10
54.174299
 20
83.206373
 30
0.0
 11
54.174299
 21
85.683469
 31
0.0
  0
LINE
  8
0
  6
BYBLOCK
 62
     0
 10
52.219299
 20
85.125469
 30
0.0
 11
51.139299
 21
85.125469
 31
0.0
  0
LINE
  8
0
  6
BYBLOCK
 62
     0
 10
55.254299
 20
85.125469
 30
0.0
 11
56.334299
 21
85.125469
 31
0.0
  0
SOLID
  8
0
  6
BYBLOCK
 62
     0
 10
52.219299
 20
85.305469
 30
0.0
 11
52.219299
 21
84.945469
 31
0.0
 12
53.299299
 22
85.125469
 32
0.0
 13
53.299299
 23
85.125469
 33
0.0
  0
SOLID
  8
0
  6
BYBLOCK
 62
     0
 10
55.254299
 20
85.305469
 30
0.0
 11
55.254299
 21
84.945469
 31
0.0
 12
54.174299
 22
85.125469
 32
0.0
 13
54.174299
 23
85.125469
 33
0.0
  0
TEXT
  8
0
  6
BYBLOCK
 62
     0
 10
56.874299
 20
84.750469
 30
0.0
 40
0.75
  1
0.875
 41
0.75
  7
TXT
 72
     1
 11
57.952424
 21
85.125469
 31
0.0
 73
     2
  0
POINT
  8
DEFPOINTS
  6
BYBLOCK
 62
     0
 10
53.299299
 20
83.515373
 30
0.0
  0
POINT
  8
DEFPOINTS
  6
BYBLOCK
 62
     0
 10
54.174299
 20
82.828373
 30
0.0
  0
POINT
  8
DEFPOINTS
  6
BYBLOCK
 62
     0
 10
54.174299
 20
85.125469
 30
0.0
  0
ENDBLK
  8
0
  0
BLOCK
  8
0
  2
*D31
 70
    65
 10
0.0
 20
0.0
 30
0.0
  3
*D
  0
LINE
  8
0
  6
BYBLOCK
 62
     0
 10
27.734196
 20
70.841764
 30
0.0
 11
27.734196
 21
72.461439
 31
0.0
  0
LINE
  8
0
  6
BYBLOCK
 62
     0
 10
28.109196
 20
71.216764
 30
0.0
 11
28.109196
 21
72.461439
 31
0.0
  0
LINE
  8
0
  6
BYBLOCK
 62
     0
 10
26.654196
 20
71.903439
 30
0.0
 11
25.574196
 21
71.903439
 31
0.0
  0
LINE
  8
0
  6
BYBLOCK
 62
     0
 10
29.189196
 20
71.903439
 30
0.0
 11
30.269196
 21
71.903439
 31
0.0
  0
SOLID
  8
0
  6
BYBLOCK
 62
     0
 10
26.654196
 20
72.083439
 30
0.0
 11
26.654196
 21
71.723439
 31
0.0
 12
27.734196
 22
71.903439
 32
0.0
 13
27.734196
 23
71.903439
 33
0.0
  0
SOLID
  8
0
  6
BYBLOCK
 62
     0
 10
29.189196
 20
72.083439
 30
0.0
 11
29.189196
 21
71.723439
 31
0.0
 12
28.109196
 22
71.903439
 32
0.0
 13
28.109196
 23
71.903439
 33
0.0
  0
TEXT
  8
0
  6
BYBLOCK
 62
     0
 10
30.809196
 20
71.528439
 30
0.0
 40
0.75
  1
0.375
 41
0.75
  7
TXT
 72
     1
 11
31.887321
 21
71.903439
 31
0.0
 73
     2
  0
POINT
  8
DEFPOINTS
  6
BYBLOCK
 62
     0
 10
27.734196
 20
70.463764
 30
0.0
  0
POINT
  8
DEFPOINTS
  6
BYBLOCK
 62
     0
 10
28.109196
 20
70.838764
 30
0.0
  0
POINT
  8
DEFPOINTS
  6
BYBLOCK
 62
     0
 10
28.109196
 20
71.903439
 30
0.0
  0
ENDBLK
  8
0
  0
BLOCK
  8
0
  2
*D32
 70
    65
 10
0.0
 20
0.0
 30
0.0
  3
*D
  0
LINE
  8
0
  6
BYBLOCK
 62
     0
 10
27.356196
 20
70.463764
 30
0.0
 11
26.481148
 21
70.463764
 31
0.0
  0
LINE
  8
0
  6
BYBLOCK
 62
     0
 10
27.731196
 20
70.838764
 30
0.0
 11
26.481148
 21
70.838764
 31
0.0
  0
LINE
  8
0
  6
BYBLOCK
 62
     0
 10
27.039148
 20
69.383764
 30
0.0
 11
27.039148
 21
68.303764
 31
0.0
  0
LINE
  8
0
  6
BYBLOCK
 62
     0
 10
27.039148
 20
71.918764
 30
0.0
 11
27.039148
 21
72.998764
 31
0.0
  0
LINE
  8
0
  6
BYBLOCK
 62
     0
 10
27.039148
 20
72.998764
 30
0.0
 11
28.119148
 21
72.998764
 31
0.0
  0
SOLID
  8
0
  6
BYBLOCK
 62
     0
 10
26.859148
 20
69.383764
 30
0.0
 11
27.219148
 21
69.383764
 31
0.0
 12
27.039148
 22
70.463764
 32
0.0
 13
27.039148
 23
70.463764
 33
0.0
  0
SOLID
  8
0
  6
BYBLOCK
 62
     0
 10
26.859148
 20
71.918764
 30
0.0
 11
27.219148
 21
71.918764
 31
0.0
 12
27.039148
 22
70.838764
 32
0.0
 13
27.039148
 23
70.838764
 33
0.0
  0
TEXT
  8
0
  6
BYBLOCK
 62
     0
 10
28.659148
 20
72.623764
 30
0.0
 40
0.75
  1
0.375
 41
0.75
  7
TXT
 72
     1
 11
29.737273
 21
72.998764
 31
0.0
 73
     2
  0
POINT
  8
DEFPOINTS
  6
BYBLOCK
 62
     0
 10
27.734196
 20
70.463764
 30
0.0
  0
POINT
  8
DEFPOINTS
  6
BYBLOCK
 62
     0
 10
28.109196
 20
70.838764
 30
0.0
  0
POINT
  8
DEFPOINTS
  6
BYBLOCK
 62
     0
 10
27.039148
 20
70.838764
 30
0.0
  0
ENDBLK
  8
0
  0
BLOCK
  8
0
  2
*D33
 70
    65
 10
0.0
 20
0.0
 30
0.0
  3
*D
  0
LINE
  8
0
  6
BYBLOCK
 62
     0
 10
6.484196
 20
70.841764
 30
0.0
 11
6.484196
 21
72.461439
 31
0.0
  0
LINE
  8
0
  6
BYBLOCK
 62
     0
 10
6.109196
 20
71.216764
 30
0.0
 11
6.109196
 21
72.461439
 31
0.0
  0
LINE
  8
0
  6
BYBLOCK
 62
     0
 10
7.564196
 20
71.903439
 30
0.0
 11
8.644196
 21
71.903439
 31
0.0
  0
LINE
  8
0
  6
BYBLOCK
 62
     0
 10
5.029196
 20
71.903439
 30
0.0
 11
3.949196
 21
71.903439
 31
0.0
  0
SOLID
  8
0
  6
BYBLOCK
 62
     0
 10
7.564196
 20
72.083439
 30
0.0
 11
7.564196
 21
71.723439
 31
0.0
 12
6.484196
 22
71.903439
 32
0.0
 13
6.484196
 23
71.903439
 33
0.0
  0
SOLID
  8
0
  6
BYBLOCK
 62
     0
 10
5.029196
 20
72.083439
 30
0.0
 11
5.029196
 21
71.723439
 31
0.0
 12
6.109196
 22
71.903439
 32
0.0
 13
6.109196
 23
71.903439
 33
0.0
  0
TEXT
  8
0
  6
BYBLOCK
 62
     0
 10
1.252946
 20
71.528439
 30
0.0
 40
0.75
  1
0.375
 41
0.75
  7
TXT
 72
     1
 11
2.331071
 21
71.903439
 31
0.0
 73
     2
  0
POINT
  8
DEFPOINTS
  6
BYBLOCK
 62
     0
 10
6.484196
 20
70.463764
 30
0.0
  0
POINT
  8
DEFPOINTS
  6
BYBLOCK
 62
     0
 10
6.109196
 20
70.838764
 30
0.0
  0
POINT
  8
DEFPOINTS
  6
BYBLOCK
 62
     0
 10
6.109196
 20
71.903439
 30
0.0
  0
ENDBLK
  8
0
  0
BLOCK
  8
0
  2
*D34
 70
    65
 10
0.0
 20
0.0
 30
0.0
  3
*D
  0
LINE
  8
0
  6
BYBLOCK
 62
     0
 10
26.987196
 20
78.064579
 30
0.0
 11
32.126085
 21
78.064579
 31
0.0
  0
LINE
  8
0
  6
BYBLOCK
 62
     0
 10
28.487196
 20
85.126579
 30
0.0
 11
32.126085
 21
85.126579
 31
0.0
  0
LINE
  8
0
  6
BYBLOCK
 62
     0
 10
31.568085
 20
79.144579
 30
0.0
 11
31.568085
 21
80.680579
 31
0.0
  0
LINE
  8
0
  6
BYBLOCK
 62
     0
 10
31.568085
 20
84.046579
 30
0.0
 11
31.568085
 21
82.510579
 31
0.0
  0
SOLID
  8
0
  6
BYBLOCK
 62
     0
 10
31.388085
 20
79.144579
 30
0.0
 11
31.748085
 21
79.144579
 31
0.0
 12
31.568085
 22
78.064579
 32
0.0
 13
31.568085
 23
78.064579
 33
0.0
  0
SOLID
  8
0
  6
BYBLOCK
 62
     0
 10
31.388085
 20
84.046579
 30
0.0
 11
31.748085
 21
84.046579
 31
0.0
 12
31.568085
 22
85.126579
 32
0.0
 13
31.568085
 23
85.126579
 33
0.0
  0
TEXT
  8
0
  6
BYBLOCK
 62
     0
 10
30.443085
 20
81.220579
 30
0.0
 40
0.75
  1
6.969
 41
0.75
  7
TXT
 72
     1
 11
31.568085
 21
81.595579
 31
0.0
 73
     2
  0
POINT
  8
DEFPOINTS
  6
BYBLOCK
 62
     0
 10
26.609196
 20
78.064579
 30
0.0
  0
POINT
  8
DEFPOINTS
  6
BYBLOCK
 62
     0
 10
28.109196
 20
85.126579
 30
0.0
  0
POINT
  8
DEFPOINTS
  6
BYBLOCK
 62
     0
 10
31.568085
 20
85.126579
 30
0.0
  0
ENDBLK
  8
0
  0
BLOCK
  8
0
  2
*D35
 70
    65
 10
0.0
 20
0.0
 30
0.0
  3
*D
  0
LINE
  8
0
  6
BYBLOCK
 62
     0
 10
28.487196
 20
84.501579
 30
0.0
 11
30.440085
 21
84.501579
 31
0.0
  0
LINE
  8
0
  6
BYBLOCK
 62
     0
 10
28.487196
 20
85.126579
 30
0.0
 11
30.440085
 21
85.126579
 31
0.0
  0
LINE
  8
0
  6
BYBLOCK
 62
     0
 10
29.882085
 20
83.421579
 30
0.0
 11
29.882085
 21
82.341579
 31
0.0
  0
LINE
  8
0
  6
BYBLOCK
 62
     0
 10
29.882085
 20
86.206579
 30
0.0
 11
29.882085
 21
87.286579
 31
0.0
  0
LINE
  8
0
  6
BYBLOCK
 62
     0
 10
29.882085
 20
87.286579
 30
0.0
 11
30.962085
 21
87.286579
 31
0.0
  0
SOLID
  8
0
  6
BYBLOCK
 62
     0
 10
29.702085
 20
83.421579
 30
0.0
 11
30.062085
 21
83.421579
 31
0.0
 12
29.882085
 22
84.501579
 32
0.0
 13
29.882085
 23
84.501579
 33
0.0
  0
SOLID
  8
0
  6
BYBLOCK
 62
     0
 10
29.702085
 20
86.206579
 30
0.0
 11
30.062085
 21
86.206579
 31
0.0
 12
29.882085
 22
85.126579
 32
0.0
 13
29.882085
 23
85.126579
 33
0.0
  0
TEXT
  8
0
  6
BYBLOCK
 62
     0
 10
31.502085
 20
86.911579
 30
0.0
 40
0.75
  1
0.625
 41
0.75
  7
TXT
 72
     1
 11
32.58021
 21
87.286579
 31
0.0
 73
     2
  0
POINT
  8
DEFPOINTS
  6
BYBLOCK
 62
     0
 10
28.109196
 20
84.501579
 30
0.0
  0
POINT
  8
DEFPOINTS
  6
BYBLOCK
 62
     0
 10
28.109196
 20
85.126579
 30
0.0
  0
POINT
  8
DEFPOINTS
  6
BYBLOCK
 62
     0
 10
29.882085
 20
85.126579
 30
0.0
  0
ENDBLK
  8
0
  0
BLOCK
  8
0
  2
*D36
 70
    65
 10
0.0
 20
0.0
 30
0.0
  3
*D
  0
LINE
  8
0
  6
BYBLOCK
 62
     0
 10
37.299299
 20
86.908621
 30
0.0
 11
37.299299
 21
88.698717
 31
0.0
  0
LINE
  8
0
  6
BYBLOCK
 62
     0
 10
53.299299
 20
86.908621
 30
0.0
 11
53.299299
 21
88.698717
 31
0.0
  0
LINE
  8
0
  6
BYBLOCK
 62
     0
 10
38.379299
 20
88.140717
 30
0.0
 11
43.446799
 21
88.140717
 31
0.0
  0
LINE
  8
0
  6
BYBLOCK
 62
     0
 10
52.219299
 20
88.140717
 30
0.0
 11
47.151799
 21
88.140717
 31
0.0
  0
SOLID
  8
0
  6
BYBLOCK
 62
     0
 10
38.379299
 20
88.320717
 30
0.0
 11
38.379299
 21
87.960717
 31
0.0
 12
37.299299
 22
88.140717
 32
0.0
 13
37.299299
 23
88.140717
 33
0.0
  0
SOLID
  8
0
  6
BYBLOCK
 62
     0
 10
52.219299
 20
88.320717
 30
0.0
 11
52.219299
 21
87.960717
 31
0.0
 12
53.299299
 22
88.140717
 32
0.0
 13
53.299299
 23
88.140717
 33
0.0
  0
TEXT
  8
0
  6
BYBLOCK
 62
     0
 10
43.986799
 20
87.765717
 30
0.0
 40
0.75
  1
DEPTH
 41
0.75
  7
TXT
 72
     1
 11
45.299299
 21
88.140717
 31
0.0
 73
     2
  0
POINT
  8
DEFPOINTS
  6
BYBLOCK
 62
     0
 10
37.299299
 20
86.530621
 30
0.0
  0
POINT
  8
DEFPOINTS
  6
BYBLOCK
 62
     0
 10
53.299299
 20
86.530621
 30
0.0
  0
POINT
  8
DEFPOINTS
  6
BYBLOCK
 62
     0
 10
53.299299
 20
88.140717
 30
0.0
  0
ENDBLK
  8
0
  0
ENDSEC
  0
SECTION
  2
ENTITIES
  0
LINE
  8
OBJECT
 62
     7
 10
29.364371
 20
3.362876
 30
0.0
 11
29.364371
 21
4.127876
 31
0.0
  0
LINE
  8
OBJECT
 62
     7
 10
29.364371
 20
4.127876
 30
0.0
 11
29.286871
 21
4.127876
 31
0.0
  0
LINE
  8
OBJECT
 62
     7
 10
29.302371
 20
3.362876
 30
0.0
 11
29.302371
 21
4.065876
 31
0.0
  0
LINE
  8
OBJECT
 62
     7
 10
29.302371
 20
4.065876
 30
0.0
 11
6.676371
 21
4.065876
 31
0.0
  0
LINE
  8
OBJECT
 62
     7
 10
6.676371
 20
3.362876
 30
0.0
 11
6.676371
 21
4.065876
 31
0.0
  0
LINE
  8
OBJECT
 62
     7
 10
6.614371
 20
3.362876
 30
0.0
 11
6.614371
 21
4.127876
 31
0.0
  0
LINE
  8
CENTER
 62
     7
 10
8.175871
 20
4.303876
 30
0.0
 11
8.175871
 21
4.483876
 31
0.0
  0
LINE
  8
CENTER
 62
     7
 10
8.265871
 20
4.393876
 30
0.0
 11
8.085871
 21
4.393876
 31
0.0
  0
LINE
  8
OBJECT
 62
     7
 10
29.286871
 20
4.065876
 30
0.0
 11
29.286871
 21
4.830876
 31
0.0
  0
LINE
  8
OBJECT
 62
     7
 10
6.691871
 20
4.830876
 30
0.0
 11
6.691871
 21
4.065876
 31
0.0
  0
LINE
  8
OBJECT
 62
     7
 10
29.286871
 20
4.830876
 30
0.0
 11
6.691871
 21
4.830876
 31
0.0
  0
LINE
  8
OBJECT
 62
     7
 10
6.691871
 20
4.127876
 30
0.0
 11
6.614371
 21
4.127876
 31
0.0
  0
LINE
  8
HIDDEN
 62
     7
 10
29.286871
 20
4.127876
 30
0.0
 11
6.691871
 21
4.127876
 31
0.0
  0
LINE
  8
OBJECT
 62
     7
 10
18.706144
 20
12.218905
 30
0.0
 11
35.547846
 21
16.731625
 31
0.0
  0
LINE
  8
OBJECT
 62
     7
 10
33.766498
 20
17.208936
 30
0.0
 11
21.899859
 21
20.388592
 31
0.0
  0
LINE
  8
OBJECT
 62
     7
 10
5.01427
 20
15.854406
 30
0.0
 11
18.566144
 21
12.223192
 31
0.0
  0
LINE
  8
OBJECT
 62
     7
 10
5.01427
 20
15.077949
 30
0.0
 11
18.566144
 21
11.446735
 31
0.0
  0
LINE
  8
OBJECT
 62
     7
 10
18.706144
 20
13.140301
 30
0.0
 11
35.547846
 21
17.653021
 31
0.0
  0
LINE
  8
OBJECT
 62
     7
 10
21.839972
 20
21.326035
 30
0.0
 11
4.99827
 21
16.813314
 31
0.0
  0
LINE
  8
OBJECT
 62
     7
 10
35.547846
 20
16.731625
 30
0.0
 11
35.547846
 21
17.653021
 31
0.0
  0
LINE
  8
OBJECT
 62
     7
 10
4.99827
 20
15.827731
 30
0.0
 11
4.99827
 21
16.813314
 31
0.0
  0
LINE
  8
OBJECT
 62
     7
 10
18.644144
 20
12.235518
 30
0.0
 11
18.644144
 21
13.156914
 31
0.0
  0
LINE
  8
OBJECT
 62
     7
 10
18.706144
 20
13.140301
 30
0.0
 11
18.644144
 21
13.156914
 31
0.0
  0
LINE
  8
OBJECT
 62
     7
 10
5.058158
 20
15.866165
 30
0.0
 11
5.058158
 21
16.797268
 31
0.0
  0
LINE
  8
OBJECT
 62
     7
 10
21.899859
 20
21.309988
 30
0.0
 11
5.058158
 21
16.797268
 31
0.0
  0
LINE
  8
OBJECT
 62
     7
 10
21.899859
 20
20.388592
 30
0.0
 11
21.899859
 21
21.309988
 31
0.0
  0
LINE
  8
OBJECT
 62
     7
 10
21.839972
 20
21.326035
 30
0.0
 11
21.899859
 21
21.309988
 31
0.0
  0
LINE
  8
OBJECT
 62
     7
 10
5.058158
 20
16.797268
 30
0.0
 11
4.99827
 21
16.813314
 31
0.0
  0
LINE
  8
OBJECT
 62
     7
 10
18.644144
 20
13.156914
 30
0.0
 11
35.485846
 21
17.669634
 31
0.0
  0
LINE
  8
OBJECT
 62
     7
 10
35.547846
 20
17.653021
 30
0.0
 11
35.485846
 21
17.669634
 31
0.0
  0
LINE
  8
OBJECT
 62
     7
 10
18.566144
 20
12.223192
 30
0.0
 11
18.566144
 21
11.446735
 31
0.0
  0
LINE
  8
OBJECT
 62
     7
 10
5.01427
 20
15.077949
 30
0.0
 11
5.01427
 21
15.854406
 31
0.0
  0
LINE
  8
OBJECT
 62
     7
 10
4.99827
 20
15.827731
 30
0.0
 11
5.01427
 21
15.823444
 31
0.0
  0
LINE
  8
OBJECT
 62
     7
 10
18.566144
 20
11.446735
 30
0.0
 11
18.628144
 21
11.463348
 31
0.0
  0
LINE
  8
OBJECT
 62
     7
 10
18.628144
 20
12.239805
 30
0.0
 11
18.628144
 21
11.463348
 31
0.0
  0
LINE
  8
OBJECT
 62
     7
 10
18.566144
 20
12.223192
 30
0.0
 11
18.628144
 21
12.239805
 31
0.0
  0
LINE
  8
OBJECT
 62
     7
 10
18.628144
 20
12.239805
 30
0.0
 11
18.706144
 21
12.218905
 31
0.0
  0
LINE
  8
OBJECT
 62
     7
 10
18.706144
 20
12.218905
 30
0.0
 11
18.706144
 21
13.140301
 31
0.0
  0
LINE
  8
OBJECT
 62
     7
 10
21.917972
 20
20.383739
 30
0.0
 11
5.01427
 21
15.854406
 31
0.0
  0
LINE
  8
OBJECT
 62
     7
 10
35.547846
 20
16.731625
 30
0.0
 11
35.547846
 21
15.981625
 31
0.0
  0
LINE
  8
OBJECT
 62
     7
 10
35.547846
 20
15.981625
 30
0.0
 11
35.485846
 21
15.965013
 31
0.0
  0
LINE
  8
OBJECT
 62
     7
 10
35.485846
 20
16.715013
 30
0.0
 11
35.485846
 21
15.965013
 31
0.0
  0
LINE
  8
OBJECT
 62
     7
 10
35.485846
 20
15.965013
 30
0.0
 11
34.086327
 21
16.340013
 31
0.0
  0
TEXT
  8
TEXT
 62
     7
 10
44.564713
 20
18.540788
 30
0.0
 40
0.75
  1
%%uMATERIAL:%%u 16 GA. STEEL
 41
0.75
  0
TEXT
  8
TEXT
 62
     7
 10
44.564713
 20
16.040788
 30
0.0
 40
0.75
  1
%%uFINISH:
 41
0.75
  0
TEXT
  8
TEXT
 62
     7
 10
45.480277
 20
14.790788
 30
0.0
 40
0.75
  1
SMOOTH BLACK
 41
0.75
  0
POLYLINE
  8
OBJECT
 62
     7
 66
     1
 10
0.0
 20
0.0
 30
0.0
  0
VERTEX
  8
OBJECT
 62
     7
 10
20.44025
 20
13.042953
 30
0.0
 42
0.072341
 70
     2
 50
30.0
  0
VERTEX
  8
OBJECT
 62
     7
 10
20.479784
 20
13.074147
 30
0.0
 42
0.058752
 50
30.0
  0
VERTEX
  8
OBJECT
 62
     7
 10
20.516796
 20
13.123759
 30
0.0
 42
0.058752
  0
VERTEX
  8
OBJECT
 62
     7
 10
20.541255
 20
13.180619
 30
0.0
 42
0.072341
  0
VERTEX
  8
OBJECT
 62
     7
 10
20.548503
 20
13.230453
 30
0.0
 42
0.106617
 70
     2
 50
90.0
  0
VERTEX
  8
OBJECT
 62
     7
 10
20.538572
 20
13.276496
 30
0.0
 42
0.156851
 50
90.0
  0
VERTEX
  8
OBJECT
 62
     7
 10
20.516796
 20
13.300536
 30
0.0
 42
0.156851
  0
VERTEX
  8
OBJECT
 62
     7
 10
20.48509
 20
13.307374
 30
0.0
 42
0.106617
  0
VERTEX
  8
OBJECT
 62
     7
 10
20.44025
 20
13.292953
 30
0.0
 42
0.072341
 70
     2
 50
210.0
  0
SEQEND
  8
OBJECT
 62
     7
  0
POLYLINE
  8
OBJECT
 62
     7
 66
     1
 10
0.0
 20
0.0
 30
0.0
  0
VERTEX
  8
OBJECT
 62
     7
 10
19.789043
 20
13.058168
 30
0.0
 42
0.058752
  0
VERTEX
  8
OBJECT
 62
     7
 10
19.764585
 20
13.001308
 30
0.0
 42
0.072341
  0
VERTEX
  8
OBJECT
 62
     7
 10
19.757337
 20
12.951473
 30
0.0
 42
0.106617
 70
     2
 50
270.0
  0
VERTEX
  8
OBJECT
 62
     7
 10
19.767267
 20
12.90543
 30
0.0
 42
0.156851
 50
270.0
  0
VERTEX
  8
OBJECT
 62
     7
 10
19.789043
 20
12.881391
 30
0.0
 42
0.156851
  0
VERTEX
  8
OBJECT
 62
     7
 10
19.82075
 20
12.874552
 30
0.0
 42
0.106617
  0
VERTEX
  8
OBJECT
 62
     7
 10
19.86559
 20
12.888973
 30
0.0
 42
0.072341
 70
     2
 50
30.0
  0
SEQEND
  8
OBJECT
 62
     7
  0
POLYLINE
  8
OBJECT
 62
     7
 66
     1
 10
0.0
 20
0.0
 30
0.0
  0
VERTEX
  8
OBJECT
 62
     7
 10
19.86559
 20
13.138973
 30
0.0
 42
0.072341
 70
     2
 50
210.0
  0
VERTEX
  8
OBJECT
 62
     7
 10
19.826056
 20
13.107779
 30
0.0
 42
0.058752
 50
210.0
  0
VERTEX
  8
OBJECT
 62
     7
 10
19.789043
 20
13.058168
 30
0.0
 42
0.058752
  0
SEQEND
  8
OBJECT
 62
     7
  0
LINE
  8
OBJECT
 62
     7
 10
19.86559
 20
13.138973
 30
0.0
 11
20.44025
 21
13.292953
 31
0.0
  0
LINE
  8
OBJECT
 62
     7
 10
20.44025
 20
13.042953
 30
0.0
 11
19.86559
 21
12.888973
 31
0.0
  0
LINE
  8
OBJECT
 62
     7
 10
20.380362
 20
13.059
 30
0.0
 11
19.805702
 21
12.90502
 31
0.0
  0
POLYLINE
  8
OBJECT
 62
     7
 66
     1
 10
0.0
 20
0.0
 30
0.0
  0
VERTEX
  8
OBJECT
 62
     7
 10
20.380362
 20
13.059
 30
0.0
 42
0.072341
 70
     2
 50
30.0
  0
VERTEX
  8
OBJECT
 62
     7
 10
20.419896
 20
13.090194
 30
0.0
 42
0.058752
 50
30.0
  0
VERTEX
  8
OBJECT
 62
     7
 10
20.456909
 20
13.139806
 30
0.0
 42
0.058752
  0
VERTEX
  8
OBJECT
 62
     7
 10
20.481367
 20
13.196665
 30
0.0
 42
0.072341
  0
VERTEX
  8
OBJECT
 62
     7
 10
20.488616
 20
13.2465
 30
0.0
 42
0.106617
 70
     2
 50
90.0
  0
VERTEX
  8
OBJECT
 62
     7
 10
20.478685
 20
13.292543
 30
0.0
 42
0.070004
 50
90.0
  0
VERTEX
  8
OBJECT
 62
     7
 10
20.470786
 20
13.305012
 30
0.0
 42
0.156851
  0
SEQEND
  8
OBJECT
 62
     7
  0
POLYLINE
  8
OBJECT
 62
     7
 66
     1
 10
0.0
 20
0.0
 30
0.0
  0
VERTEX
  8
OBJECT
 62
     7
 10
19.775166
 20
12.892961
 30
0.0
 42
0.073881
  0
VERTEX
  8
OBJECT
 62
     7
 10
19.805702
 20
12.90502
 30
0.0
 42
0.072341
 70
     2
 50
30.0
  0
SEQEND
  8
OBJECT
 62
     7
  0
POLYLINE
  8
OBJECT
 62
     7
 66
     1
 10
0.0
 20
0.0
 30
0.0
  0
VERTEX
  8
OBJECT
 62
     7
 10
22.130093
 20
13.523962
 30
0.0
 42
0.073881
  0
VERTEX
  8
OBJECT
 62
     7
 10
22.16063
 20
13.536021
 30
0.0
 42
0.072341
 70
     2
 50
30.0
  0
SEQEND
  8
OBJECT
 62
     7
  0
POLYLINE
  8
OBJECT
 62
     7
 66
     1
 10
0.0
 20
0.0
 30
0.0
  0
VERTEX
  8
OBJECT
 62
     7
 10
22.73529
 20
13.690001
 30
0.0
 42
0.072341
 70
     2
 50
30.0
  0
VERTEX
  8
OBJECT
 62
     7
 10
22.774824
 20
13.721195
 30
0.0
 42
0.058752
 50
30.0
  0
VERTEX
  8
OBJECT
 62
     7
 10
22.811836
 20
13.770807
 30
0.0
 42
0.058752
  0
VERTEX
  8
OBJECT
 62
     7
 10
22.836295
 20
13.827666
 30
0.0
 42
0.072341
  0
VERTEX
  8
OBJECT
 62
     7
 10
22.843543
 20
13.877501
 30
0.0
 42
0.106617
 70
     2
 50
90.0
  0
VERTEX
  8
OBJECT
 62
     7
 10
22.833612
 20
13.923544
 30
0.0
 42
0.070004
 50
90.0
  0
VERTEX
  8
OBJECT
 62
     7
 10
22.825714
 20
13.936013
 30
0.0
 42
0.156851
  0
SEQEND
  8
OBJECT
 62
     7
  0
LINE
  8
OBJECT
 62
     7
 10
22.73529
 20
13.690001
 30
0.0
 11
22.16063
 21
13.536021
 31
0.0
  0
LINE
  8
OBJECT
 62
     7
 10
22.795177
 20
13.673954
 30
0.0
 11
22.220517
 21
13.519974
 31
0.0
  0
LINE
  8
OBJECT
 62
     7
 10
22.220517
 20
13.769974
 30
0.0
 11
22.795177
 21
13.923954
 31
0.0
  0
POLYLINE
  8
OBJECT
 62
     7
 66
     1
 10
0.0
 20
0.0
 30
0.0
  0
VERTEX
  8
OBJECT
 62
     7
 10
22.220517
 20
13.769974
 30
0.0
 42
0.072341
 70
     2
 50
210.0
  0
VERTEX
  8
OBJECT
 62
     7
 10
22.180983
 20
13.73878
 30
0.0
 42
0.058752
 50
210.0
  0
VERTEX
  8
OBJECT
 62
     7
 10
22.14397
 20
13.689168
 30
0.0
 42
0.058752
  0
SEQEND
  8
OBJECT
 62
     7
  0
POLYLINE
  8
OBJECT
 62
     7
 66
     1
 10
0.0
 20
0.0
 30
0.0
  0
VERTEX
  8
OBJECT
 62
     7
 10
22.14397
 20
13.689168
 30
0.0
 42
0.058752
  0
VERTEX
  8
OBJECT
 62
     7
 10
22.119512
 20
13.632309
 30
0.0
 42
0.072341
  0
VERTEX
  8
OBJECT
 62
     7
 10
22.112264
 20
13.582474
 30
0.0
 42
0.106617
 70
     2
 50
270.0
  0
VERTEX
  8
OBJECT
 62
     7
 10
22.122195
 20
13.536431
 30
0.0
 42
0.156851
 50
270.0
  0
VERTEX
  8
OBJECT
 62
     7
 10
22.14397
 20
13.512392
 30
0.0
 42
0.156851
  0
VERTEX
  8
OBJECT
 62
     7
 10
22.175677
 20
13.505553
 30
0.0
 42
0.106617
  0
VERTEX
  8
OBJECT
 62
     7
 10
22.220517
 20
13.519974
 30
0.0
 42
0.072341
 70
     2
 50
30.0
  0
SEQEND
  8
OBJECT
 62
     7
  0
POLYLINE
  8
OBJECT
 62
     7
 66
     1
 10
0.0
 20
0.0
 30
0.0
  0
VERTEX
  8
OBJECT
 62
     7
 10
22.795177
 20
13.673954
 30
0.0
 42
0.072341
 70
     2
 50
30.0
  0
VERTEX
  8
OBJECT
 62
     7
 10
22.834711
 20
13.705148
 30
0.0
 42
0.058752
 50
30.0
  0
VERTEX
  8
OBJECT
 62
     7
 10
22.871724
 20
13.75476
 30
0.0
 42
0.058752
  0
VERTEX
  8
OBJECT
 62
     7
 10
22.896182
 20
13.811619
 30
0.0
 42
0.072341
  0
VERTEX
  8
OBJECT
 62
     7
 10
22.90343
 20
13.861454
 30
0.0
 42
0.106617
 70
     2
 50
90.0
  0
VERTEX
  8
OBJECT
 62
     7
 10
22.893499
 20
13.907497
 30
0.0
 42
0.156851
 50
90.0
  0
VERTEX
  8
OBJECT
 62
     7
 10
22.871724
 20
13.931536
 30
0.0
 42
0.156851
  0
VERTEX
  8
OBJECT
 62
     7
 10
22.840017
 20
13.938375
 30
0.0
 42
0.106617
  0
VERTEX
  8
OBJECT
 62
     7
 10
22.795177
 20
13.923954
 30
0.0
 42
0.072341
 70
     2
 50
210.0
  0
SEQEND
  8
OBJECT
 62
     7
  0
POLYLINE
  8
OBJECT
 62
     7
 66
     1
 10
0.0
 20
0.0
 30
0.0
  0
VERTEX
  8
OBJECT
 62
     7
 10
25.150104
 20
14.304955
 30
0.0
 42
0.072341
 70
     2
 50
30.0
  0
VERTEX
  8
OBJECT
 62
     7
 10
25.189638
 20
14.336149
 30
0.0
 42
0.058752
 50
30.0
  0
VERTEX
  8
OBJECT
 62
     7
 10
25.226651
 20
14.385761
 30
0.0
 42
0.058752
  0
VERTEX
  8
OBJECT
 62
     7
 10
25.251109
 20
14.44262
 30
0.0
 42
0.072341
  0
VERTEX
  8
OBJECT
 62
     7
 10
25.258357
 20
14.492455
 30
0.0
 42
0.106617
 70
     2
 50
90.0
  0
VERTEX
  8
OBJECT
 62
     7
 10
25.248426
 20
14.538498
 30
0.0
 42
0.156851
 50
90.0
  0
VERTEX
  8
OBJECT
 62
     7
 10
25.226651
 20
14.562537
 30
0.0
 42
0.156851
  0
VERTEX
  8
OBJECT
 62
     7
 10
25.194944
 20
14.569376
 30
0.0
 42
0.106617
  0
VERTEX
  8
OBJECT
 62
     7
 10
25.150104
 20
14.554955
 30
0.0
 42
0.072341
 70
     2
 50
210.0
  0
SEQEND
  8
OBJECT
 62
     7
  0
POLYLINE
  8
OBJECT
 62
     7
 66
     1
 10
0.0
 20
0.0
 30
0.0
  0
VERTEX
  8
OBJECT
 62
     7
 10
24.498898
 20
14.320169
 30
0.0
 42
0.058752
  0
VERTEX
  8
OBJECT
 62
     7
 10
24.474439
 20
14.26331
 30
0.0
 42
0.072341
  0
VERTEX
  8
OBJECT
 62
     7
 10
24.467191
 20
14.213475
 30
0.0
 42
0.106617
 70
     2
 50
270.0
  0
VERTEX
  8
OBJECT
 62
     7
 10
24.477122
 20
14.167432
 30
0.0
 42
0.156851
 50
270.0
  0
VERTEX
  8
OBJECT
 62
     7
 10
24.498898
 20
14.143393
 30
0.0
 42
0.156851
  0
VERTEX
  8
OBJECT
 62
     7
 10
24.530604
 20
14.136554
 30
0.0
 42
0.106617
  0
VERTEX
  8
OBJECT
 62
     7
 10
24.575444
 20
14.150975
 30
0.0
 42
0.072341
 70
     2
 50
30.0
  0
SEQEND
  8
OBJECT
 62
     7
  0
POLYLINE
  8
OBJECT
 62
     7
 66
     1
 10
0.0
 20
0.0
 30
0.0
  0
VERTEX
  8
OBJECT
 62
     7
 10
24.575444
 20
14.400975
 30
0.0
 42
0.072341
 70
     2
 50
210.0
  0
VERTEX
  8
OBJECT
 62
     7
 10
24.53591
 20
14.369781
 30
0.0
 42
0.058752
 50
210.0
  0
VERTEX
  8
OBJECT
 62
     7
 10
24.498898
 20
14.320169
 30
0.0
 42
0.058752
  0
SEQEND
  8
OBJECT
 62
     7
  0
LINE
  8
OBJECT
 62
     7
 10
24.575444
 20
14.400975
 30
0.0
 11
25.150104
 21
14.554955
 31
0.0
  0
LINE
  8
OBJECT
 62
     7
 10
25.150104
 20
14.304955
 30
0.0
 11
24.575444
 21
14.150975
 31
0.0
  0
LINE
  8
OBJECT
 62
     7
 10
25.090217
 20
14.321002
 30
0.0
 11
24.515557
 21
14.167022
 31
0.0
  0
POLYLINE
  8
OBJECT
 62
     7
 66
     1
 10
0.0
 20
0.0
 30
0.0
  0
VERTEX
  8
OBJECT
 62
     7
 10
25.090217
 20
14.321002
 30
0.0
 42
0.072341
 70
     2
 50
30.0
  0
VERTEX
  8
OBJECT
 62
     7
 10
25.129751
 20
14.352196
 30
0.0
 42
0.058752
 50
30.0
  0
VERTEX
  8
OBJECT
 62
     7
 10
25.166763
 20
14.401807
 30
0.0
 42
0.058752
  0
VERTEX
  8
OBJECT
 62
     7
 10
25.191222
 20
14.458667
 30
0.0
 42
0.072341
  0
VERTEX
  8
OBJECT
 62
     7
 10
25.19847
 20
14.508502
 30
0.0
 42
0.106617
 70
     2
 50
90.0
  0
VERTEX
  8
OBJECT
 62
     7
 10
25.188539
 20
14.554545
 30
0.0
 42
0.070004
 50
90.0
  0
VERTEX
  8
OBJECT
 62
     7
 10
25.180641
 20
14.567014
 30
0.0
 42
0.156851
  0
SEQEND
  8
OBJECT
 62
     7
  0
POLYLINE
  8
OBJECT
 62
     7
 66
     1
 10
0.0
 20
0.0
 30
0.0
  0
VERTEX
  8
OBJECT
 62
     7
 10
24.48502
 20
14.154963
 30
0.0
 42
0.073881
  0
VERTEX
  8
OBJECT
 62
     7
 10
24.515557
 20
14.167022
 30
0.0
 42
0.072341
 70
     2
 50
30.0
  0
SEQEND
  8
OBJECT
 62
     7
  0
POLYLINE
  8
OBJECT
 62
     7
 66
     1
 10
0.0
 20
0.0
 30
0.0
  0
VERTEX
  8
OBJECT
 62
     7
 10
26.839947
 20
14.785964
 30
0.0
 42
0.073881
  0
VERTEX
  8
OBJECT
 62
     7
 10
26.870484
 20
14.798023
 30
0.0
 42
0.072341
 70
     2
 50
30.0
  0
SEQEND
  8
OBJECT
 62
     7
  0
POLYLINE
  8
OBJECT
 62
     7
 66
     1
 10
0.0
 20
0.0
 30
0.0
  0
VERTEX
  8
OBJECT
 62
     7
 10
27.445144
 20
14.952002
 30
0.0
 42
0.072341
 70
     2
 50
30.0
  0
VERTEX
  8
OBJECT
 62
     7
 10
27.484678
 20
14.983197
 30
0.0
 42
0.058752
 50
30.0
  0
VERTEX
  8
OBJECT
 62
     7
 10
27.52169
 20
15.032808
 30
0.0
 42
0.058752
  0
VERTEX
  8
OBJECT
 62
     7
 10
27.546149
 20
15.089668
 30
0.0
 42
0.072341
  0
VERTEX
  8
OBJECT
 62
     7
 10
27.553397
 20
15.139502
 30
0.0
 42
0.106617
 70
     2
 50
90.0
  0
VERTEX
  8
OBJECT
 62
     7
 10
27.543466
 20
15.185545
 30
0.0
 42
0.070004
 50
90.0
  0
VERTEX
  8
OBJECT
 62
     7
 10
27.535568
 20
15.198015
 30
0.0
 42
0.156851
  0
SEQEND
  8
OBJECT
 62
     7
  0
LINE
  8
OBJECT
 62
     7
 10
27.445144
 20
14.952002
 30
0.0
 11
26.870484
 21
14.798023
 31
0.0
  0
LINE
  8
OBJECT
 62
     7
 10
27.505031
 20
14.935956
 30
0.0
 11
26.930371
 21
14.781976
 31
0.0
  0
LINE
  8
OBJECT
 62
     7
 10
26.930371
 20
15.031976
 30
0.0
 11
27.505031
 21
15.185956
 31
0.0
  0
POLYLINE
  8
OBJECT
 62
     7
 66
     1
 10
0.0
 20
0.0
 30
0.0
  0
VERTEX
  8
OBJECT
 62
     7
 10
26.930371
 20
15.031976
 30
0.0
 42
0.072341
 70
     2
 50
210.0
  0
VERTEX
  8
OBJECT
 62
     7
 10
26.890837
 20
15.000782
 30
0.0
 42
0.058752
 50
210.0
  0
VERTEX
  8
OBJECT
 62
     7
 10
26.853825
 20
14.95117
 30
0.0
 42
0.058752
  0
SEQEND
  8
OBJECT
 62
     7
  0
POLYLINE
  8
OBJECT
 62
     7
 66
     1
 10
0.0
 20
0.0
 30
0.0
  0
VERTEX
  8
OBJECT
 62
     7
 10
26.853825
 20
14.95117
 30
0.0
 42
0.058752
  0
VERTEX
  8
OBJECT
 62
     7
 10
26.829366
 20
14.89431
 30
0.0
 42
0.072341
  0
VERTEX
  8
OBJECT
 62
     7
 10
26.822118
 20
14.844476
 30
0.0
 42
0.106617
 70
     2
 50
270.0
  0
VERTEX
  8
OBJECT
 62
     7
 10
26.832049
 20
14.798433
 30
0.0
 42
0.156851
 50
270.0
  0
VERTEX
  8
OBJECT
 62
     7
 10
26.853825
 20
14.774393
 30
0.0
 42
0.156851
  0
VERTEX
  8
OBJECT
 62
     7
 10
26.885531
 20
14.767555
 30
0.0
 42
0.106617
  0
VERTEX
  8
OBJECT
 62
     7
 10
26.930371
 20
14.781976
 30
0.0
 42
0.072341
 70
     2
 50
30.0
  0
SEQEND
  8
OBJECT
 62
     7
  0
POLYLINE
  8
OBJECT
 62
     7
 66
     1
 10
0.0
 20
0.0
 30
0.0
  0
VERTEX
  8
OBJECT
 62
     7
 10
27.505031
 20
14.935956
 30
0.0
 42
0.072341
 70
     2
 50
30.0
  0
VERTEX
  8
OBJECT
 62
     7
 10
27.544565
 20
14.96715
 30
0.0
 42
0.058752
 50
30.0
  0
VERTEX
  8
OBJECT
 62
     7
 10
27.581578
 20
15.016761
 30
0.0
 42
0.058752
  0
VERTEX
  8
OBJECT
 62
     7
 10
27.606036
 20
15.073621
 30
0.0
 42
0.072341
  0
VERTEX
  8
OBJECT
 62
     7
 10
27.613284
 20
15.123456
 30
0.0
 42
0.106617
 70
     2
 50
90.0
  0
VERTEX
  8
OBJECT
 62
     7
 10
27.603354
 20
15.169499
 30
0.0
 42
0.156851
 50
90.0
  0
VERTEX
  8
OBJECT
 62
     7
 10
27.581578
 20
15.193538
 30
0.0
 42
0.156851
  0
VERTEX
  8
OBJECT
 62
     7
 10
27.549871
 20
15.200377
 30
0.0
 42
0.106617
  0
VERTEX
  8
OBJECT
 62
     7
 10
27.505031
 20
15.185956
 30
0.0
 42
0.072341
 70
     2
 50
210.0
  0
SEQEND
  8
OBJECT
 62
     7
  0
POLYLINE
  8
OBJECT
 62
     7
 66
     1
 10
0.0
 20
0.0
 30
0.0
  0
VERTEX
  8
OBJECT
 62
     7
 10
29.859958
 20
15.566956
 30
0.0
 42
0.072341
 70
     2
 50
30.0
  0
VERTEX
  8
OBJECT
 62
     7
 10
29.899492
 20
15.598151
 30
0.0
 42
0.058752
 50
30.0
  0
VERTEX
  8
OBJECT
 62
     7
 10
29.936505
 20
15.647762
 30
0.0
 42
0.058752
  0
VERTEX
  8
OBJECT
 62
     7
 10
29.960964
 20
15.704622
 30
0.0
 42
0.072341
  0
VERTEX
  8
OBJECT
 62
     7
 10
29.968212
 20
15.754456
 30
0.0
 42
0.106617
 70
     2
 50
90.0
  0
VERTEX
  8
OBJECT
 62
     7
 10
29.958281
 20
15.8005
 30
0.0
 42
0.156851
 50
90.0
  0
VERTEX
  8
OBJECT
 62
     7
 10
29.936505
 20
15.824539
 30
0.0
 42
0.156851
  0
VERTEX
  8
OBJECT
 62
     7
 10
29.904798
 20
15.831378
 30
0.0
 42
0.106617
  0
VERTEX
  8
OBJECT
 62
     7
 10
29.859958
 20
15.816956
 30
0.0
 42
0.072341
 70
     2
 50
210.0
  0
SEQEND
  8
OBJECT
 62
     7
  0
POLYLINE
  8
OBJECT
 62
     7
 66
     1
 10
0.0
 20
0.0
 30
0.0
  0
VERTEX
  8
OBJECT
 62
     7
 10
29.208752
 20
15.582171
 30
0.0
 42
0.058752
  0
VERTEX
  8
OBJECT
 62
     7
 10
29.184293
 20
15.525311
 30
0.0
 42
0.072341
  0
VERTEX
  8
OBJECT
 62
     7
 10
29.177045
 20
15.475477
 30
0.0
 42
0.106617
 70
     2
 50
270.0
  0
VERTEX
  8
OBJECT
 62
     7
 10
29.186976
 20
15.429434
 30
0.0
 42
0.156851
 50
270.0
  0
VERTEX
  8
OBJECT
 62
     7
 10
29.208752
 20
15.405394
 30
0.0
 42
0.156851
  0
VERTEX
  8
OBJECT
 62
     7
 10
29.240458
 20
15.398556
 30
0.0
 42
0.106617
  0
VERTEX
  8
OBJECT
 62
     7
 10
29.285298
 20
15.412977
 30
0.0
 42
0.072341
 70
     2
 50
30.0
  0
SEQEND
  8
OBJECT
 62
     7
  0
POLYLINE
  8
OBJECT
 62
     7
 66
     1
 10
0.0
 20
0.0
 30
0.0
  0
VERTEX
  8
OBJECT
 62
     7
 10
29.285298
 20
15.662977
 30
0.0
 42
0.072341
 70
     2
 50
210.0
  0
VERTEX
  8
OBJECT
 62
     7
 10
29.245764
 20
15.631782
 30
0.0
 42
0.058752
 50
210.0
  0
VERTEX
  8
OBJECT
 62
     7
 10
29.208752
 20
15.582171
 30
0.0
 42
0.058752
  0
SEQEND
  8
OBJECT
 62
     7
  0
LINE
  8
OBJECT
 62
     7
 10
29.285298
 20
15.662977
 30
0.0
 11
29.859958
 21
15.816956
 31
0.0
  0
LINE
  8
OBJECT
 62
     7
 10
29.859958
 20
15.566956
 30
0.0
 11
29.285298
 21
15.412977
 31
0.0
  0
LINE
  8
OBJECT
 62
     7
 10
29.800071
 20
15.583003
 30
0.0
 11
29.225411
 21
15.429023
 31
0.0
  0
POLYLINE
  8
OBJECT
 62
     7
 66
     1
 10
0.0
 20
0.0
 30
0.0
  0
VERTEX
  8
OBJECT
 62
     7
 10
29.800071
 20
15.583003
 30
0.0
 42
0.072341
 70
     2
 50
30.0
  0
VERTEX
  8
OBJECT
 62
     7
 10
29.839605
 20
15.614198
 30
0.0
 42
0.058752
 50
30.0
  0
VERTEX
  8
OBJECT
 62
     7
 10
29.876618
 20
15.663809
 30
0.0
 42
0.058752
  0
VERTEX
  8
OBJECT
 62
     7
 10
29.901076
 20
15.720669
 30
0.0
 42
0.072341
  0
VERTEX
  8
OBJECT
 62
     7
 10
29.908324
 20
15.770503
 30
0.0
 42
0.106617
 70
     2
 50
90.0
  0
VERTEX
  8
OBJECT
 62
     7
 10
29.898393
 20
15.816546
 30
0.0
 42
0.070004
 50
90.0
  0
VERTEX
  8
OBJECT
 62
     7
 10
29.890495
 20
15.829015
 30
0.0
 42
0.156851
  0
SEQEND
  8
OBJECT
 62
     7
  0
POLYLINE
  8
OBJECT
 62
     7
 66
     1
 10
0.0
 20
0.0
 30
0.0
  0
VERTEX
  8
OBJECT
 62
     7
 10
29.194874
 20
15.416965
 30
0.0
 42
0.073881
  0
VERTEX
  8
OBJECT
 62
     7
 10
29.225411
 20
15.429023
 30
0.0
 42
0.072341
 70
     2
 50
30.0
  0
SEQEND
  8
OBJECT
 62
     7
  0
POLYLINE
  8
OBJECT
 62
     7
 66
     1
 10
0.0
 20
0.0
 30
0.0
  0
VERTEX
  8
OBJECT
 62
     7
 10
31.549802
 20
16.047965
 30
0.0
 42
0.073881
  0
VERTEX
  8
OBJECT
 62
     7
 10
31.580338
 20
16.060024
 30
0.0
 42
0.072341
 70
     2
 50
30.0
  0
SEQEND
  8
OBJECT
 62
     7
  0
POLYLINE
  8
OBJECT
 62
     7
 66
     1
 10
0.0
 20
0.0
 30
0.0
  0
VERTEX
  8
OBJECT
 62
     7
 10
32.154998
 20
16.214004
 30
0.0
 42
0.072341
 70
     2
 50
30.0
  0
VERTEX
  8
OBJECT
 62
     7
 10
32.194532
 20
16.245198
 30
0.0
 42
0.058752
 50
30.0
  0
VERTEX
  8
OBJECT
 62
     7
 10
32.231545
 20
16.29481
 30
0.0
 42
0.058752
  0
VERTEX
  8
OBJECT
 62
     7
 10
32.256003
 20
16.351669
 30
0.0
 42
0.072341
  0
VERTEX
  8
OBJECT
 62
     7
 10
32.263251
 20
16.401504
 30
0.0
 42
0.106617
 70
     2
 50
90.0
  0
VERTEX
  8
OBJECT
 62
     7
 10
32.253321
 20
16.447547
 30
0.0
 42
0.070004
 50
90.0
  0
VERTEX
  8
OBJECT
 62
     7
 10
32.245422
 20
16.460016
 30
0.0
 42
0.156851
  0
SEQEND
  8
OBJECT
 62
     7
  0
LINE
  8
OBJECT
 62
     7
 10
32.154998
 20
16.214004
 30
0.0
 11
31.580338
 21
16.060024
 31
0.0
  0
LINE
  8
OBJECT
 62
     7
 10
32.214886
 20
16.197957
 30
0.0
 11
31.640226
 21
16.043978
 31
0.0
  0
LINE
  8
OBJECT
 62
     7
 10
31.640226
 20
16.293978
 30
0.0
 11
32.214886
 21
16.447957
 31
0.0
  0
POLYLINE
  8
OBJECT
 62
     7
 66
     1
 10
0.0
 20
0.0
 30
0.0
  0
VERTEX
  8
OBJECT
 62
     7
 10
31.640226
 20
16.293978
 30
0.0
 42
0.072341
 70
     2
 50
210.0
  0
VERTEX
  8
OBJECT
 62
     7
 10
31.600692
 20
16.262783
 30
0.0
 42
0.058752
 50
210.0
  0
VERTEX
  8
OBJECT
 62
     7
 10
31.563679
 20
16.213172
 30
0.0
 42
0.058752
  0
SEQEND
  8
OBJECT
 62
     7
  0
POLYLINE
  8
OBJECT
 62
     7
 66
     1
 10
0.0
 20
0.0
 30
0.0
  0
VERTEX
  8
OBJECT
 62
     7
 10
31.563679
 20
16.213172
 30
0.0
 42
0.058752
  0
VERTEX
  8
OBJECT
 62
     7
 10
31.53922
 20
16.156312
 30
0.0
 42
0.072341
  0
VERTEX
  8
OBJECT
 62
     7
 10
31.531972
 20
16.106478
 30
0.0
 42
0.106617
 70
     2
 50
270.0
  0
VERTEX
  8
OBJECT
 62
     7
 10
31.541903
 20
16.060434
 30
0.0
 42
0.156851
 50
270.0
  0
VERTEX
  8
OBJECT
 62
     7
 10
31.563679
 20
16.036395
 30
0.0
 42
0.156851
  0
VERTEX
  8
OBJECT
 62
     7
 10
31.595386
 20
16.029556
 30
0.0
 42
0.106617
  0
VERTEX
  8
OBJECT
 62
     7
 10
31.640226
 20
16.043978
 30
0.0
 42
0.072341
 70
     2
 50
30.0
  0
SEQEND
  8
OBJECT
 62
     7
  0
POLYLINE
  8
OBJECT
 62
     7
 66
     1
 10
0.0
 20
0.0
 30
0.0
  0
VERTEX
  8
OBJECT
 62
     7
 10
32.214886
 20
16.197957
 30
0.0
 42
0.072341
 70
     2
 50
30.0
  0
VERTEX
  8
OBJECT
 62
     7
 10
32.25442
 20
16.229152
 30
0.0
 42
0.058752
 50
30.0
  0
VERTEX
  8
OBJECT
 62
     7
 10
32.291432
 20
16.278763
 30
0.0
 42
0.058752
  0
VERTEX
  8
OBJECT
 62
     7
 10
32.315891
 20
16.335623
 30
0.0
 42
0.072341
  0
VERTEX
  8
OBJECT
 62
     7
 10
32.323139
 20
16.385457
 30
0.0
 42
0.106617
 70
     2
 50
90.0
  0
VERTEX
  8
OBJECT
 62
     7
 10
32.313208
 20
16.4315
 30
0.0
 42
0.156851
 50
90.0
  0
VERTEX
  8
OBJECT
 62
     7
 10
32.291432
 20
16.45554
 30
0.0
 42
0.156851
  0
VERTEX
  8
OBJECT
 62
     7
 10
32.259726
 20
16.462378
 30
0.0
 42
0.106617
  0
VERTEX
  8
OBJECT
 62
     7
 10
32.214886
 20
16.447957
 30
0.0
 42
0.072341
 70
     2
 50
210.0
  0
SEQEND
  8
OBJECT
 62
     7
  0
POLYLINE
  8
OBJECT
 62
     7
 66
     1
 10
0.0
 20
0.0
 30
0.0
  0
VERTEX
  8
OBJECT
 62
     7
 10
34.569813
 20
16.828958
 30
0.0
 42
0.072341
 70
     2
 50
30.0
  0
VERTEX
  8
OBJECT
 62
     7
 10
34.609347
 20
16.860152
 30
0.0
 42
0.058752
 50
30.0
  0
VERTEX
  8
OBJECT
 62
     7
 10
34.646359
 20
16.909764
 30
0.0
 42
0.058752
  0
VERTEX
  8
OBJECT
 62
     7
 10
34.670818
 20
16.966624
 30
0.0
 42
0.072341
  0
VERTEX
  8
OBJECT
 62
     7
 10
34.678066
 20
17.016458
 30
0.0
 42
0.106617
 70
     2
 50
90.0
  0
VERTEX
  8
OBJECT
 62
     7
 10
34.668135
 20
17.062501
 30
0.0
 42
0.156851
 50
90.0
  0
VERTEX
  8
OBJECT
 62
     7
 10
34.646359
 20
17.086541
 30
0.0
 42
0.156851
  0
VERTEX
  8
OBJECT
 62
     7
 10
34.614653
 20
17.093379
 30
0.0
 42
0.106617
  0
VERTEX
  8
OBJECT
 62
     7
 10
34.569813
 20
17.078958
 30
0.0
 42
0.072341
 70
     2
 50
210.0
  0
SEQEND
  8
OBJECT
 62
     7
  0
POLYLINE
  8
OBJECT
 62
     7
 66
     1
 10
0.0
 20
0.0
 30
0.0
  0
VERTEX
  8
OBJECT
 62
     7
 10
33.918606
 20
16.844173
 30
0.0
 42
0.058752
  0
VERTEX
  8
OBJECT
 62
     7
 10
33.894148
 20
16.787313
 30
0.0
 42
0.072341
  0
VERTEX
  8
OBJECT
 62
     7
 10
33.8869
 20
16.737478
 30
0.0
 42
0.106617
 70
     2
 50
270.0
  0
VERTEX
  8
OBJECT
 62
     7
 10
33.89683
 20
16.691435
 30
0.0
 42
0.156851
 50
270.0
  0
VERTEX
  8
OBJECT
 62
     7
 10
33.918606
 20
16.667396
 30
0.0
 42
0.156851
  0
VERTEX
  8
OBJECT
 62
     7
 10
33.950313
 20
16.660557
 30
0.0
 42
0.106617
  0
VERTEX
  8
OBJECT
 62
     7
 10
33.995153
 20
16.674978
 30
0.0
 42
0.072341
 70
     2
 50
30.0
  0
SEQEND
  8
OBJECT
 62
     7
  0
POLYLINE
  8
OBJECT
 62
     7
 66
     1
 10
0.0
 20
0.0
 30
0.0
  0
VERTEX
  8
OBJECT
 62
     7
 10
33.995153
 20
16.924978
 30
0.0
 42
0.072341
 70
     2
 50
210.0
  0
VERTEX
  8
OBJECT
 62
     7
 10
33.955619
 20
16.893784
 30
0.0
 42
0.058752
 50
210.0
  0
VERTEX
  8
OBJECT
 62
     7
 10
33.918606
 20
16.844173
 30
0.0
 42
0.058752
  0
SEQEND
  8
OBJECT
 62
     7
  0
LINE
  8
OBJECT
 62
     7
 10
33.995153
 20
16.924978
 30
0.0
 11
34.569813
 21
17.078958
 31
0.0
  0
LINE
  8
OBJECT
 62
     7
 10
34.569813
 20
16.828958
 30
0.0
 11
33.995153
 21
16.674978
 31
0.0
  0
LINE
  8
OBJECT
 62
     7
 10
34.509925
 20
16.845005
 30
0.0
 11
33.935265
 21
16.691025
 31
0.0
  0
POLYLINE
  8
OBJECT
 62
     7
 66
     1
 10
0.0
 20
0.0
 30
0.0
  0
VERTEX
  8
OBJECT
 62
     7
 10
34.509925
 20
16.845005
 30
0.0
 42
0.072341
 70
     2
 50
30.0
  0
VERTEX
  8
OBJECT
 62
     7
 10
34.549459
 20
16.876199
 30
0.0
 42
0.058752
 50
30.0
  0
VERTEX
  8
OBJECT
 62
     7
 10
34.586472
 20
16.925811
 30
0.0
 42
0.058752
  0
VERTEX
  8
OBJECT
 62
     7
 10
34.61093
 20
16.98267
 30
0.0
 42
0.072341
  0
VERTEX
  8
OBJECT
 62
     7
 10
34.618179
 20
17.032505
 30
0.0
 42
0.106617
 70
     2
 50
90.0
  0
VERTEX
  8
OBJECT
 62
     7
 10
34.608248
 20
17.078548
 30
0.0
 42
0.070004
 50
90.0
  0
VERTEX
  8
OBJECT
 62
     7
 10
34.600349
 20
17.091017
 30
0.0
 42
0.156851
  0
SEQEND
  8
OBJECT
 62
     7
  0
POLYLINE
  8
OBJECT
 62
     7
 66
     1
 10
0.0
 20
0.0
 30
0.0
  0
VERTEX
  8
OBJECT
 62
     7
 10
33.904729
 20
16.678966
 30
0.0
 42
0.073881
  0
VERTEX
  8
OBJECT
 62
     7
 10
33.935265
 20
16.691025
 30
0.0
 42
0.072341
 70
     2
 50
30.0
  0
SEQEND
  8
OBJECT
 62
     7
  0
POLYLINE
  8
OBJECT
 62
     7
 66
     1
 10
0.0
 20
0.0
 30
0.0
  0
VERTEX
  8
OBJECT
 62
     7
 10
20.256743
 20
20.335933
 30
0.0
 42
0.073881
  0
VERTEX
  8
OBJECT
 62
     7
 10
20.287279
 20
20.347992
 30
0.0
 42
0.072341
 70
     2
 50
30.0
  0
SEQEND
  8
OBJECT
 62
     7
  0
POLYLINE
  8
OBJECT
 62
     7
 66
     1
 10
0.0
 20
0.0
 30
0.0
  0
VERTEX
  8
OBJECT
 62
     7
 10
20.861939
 20
20.501972
 30
0.0
 42
0.072341
 70
     2
 50
30.0
  0
VERTEX
  8
OBJECT
 62
     7
 10
20.901473
 20
20.533166
 30
0.0
 42
0.058752
 50
30.0
  0
VERTEX
  8
OBJECT
 62
     7
 10
20.938486
 20
20.582778
 30
0.0
 42
0.058752
  0
VERTEX
  8
OBJECT
 62
     7
 10
20.962944
 20
20.639637
 30
0.0
 42
0.072341
  0
VERTEX
  8
OBJECT
 62
     7
 10
20.970192
 20
20.689472
 30
0.0
 42
0.106617
 70
     2
 50
90.0
  0
VERTEX
  8
OBJECT
 62
     7
 10
20.960262
 20
20.735515
 30
0.0
 42
0.070004
 50
90.0
  0
VERTEX
  8
OBJECT
 62
     7
 10
20.952363
 20
20.747984
 30
0.0
 42
0.156851
  0
SEQEND
  8
OBJECT
 62
     7
  0
LINE
  8
OBJECT
 62
     7
 10
20.861939
 20
20.501972
 30
0.0
 11
20.287279
 21
20.347992
 31
0.0
  0
LINE
  8
OBJECT
 62
     7
 10
20.921827
 20
20.485925
 30
0.0
 11
20.347167
 21
20.331945
 31
0.0
  0
LINE
  8
OBJECT
 62
     7
 10
20.347167
 20
20.581945
 30
0.0
 11
20.921827
 21
20.735925
 31
0.0
  0
POLYLINE
  8
OBJECT
 62
     7
 66
     1
 10
0.0
 20
0.0
 30
0.0
  0
VERTEX
  8
OBJECT
 62
     7
 10
20.347167
 20
20.581945
 30
0.0
 42
0.072341
 70
     2
 50
210.0
  0
VERTEX
  8
OBJECT
 62
     7
 10
20.307633
 20
20.550751
 30
0.0
 42
0.058752
 50
210.0
  0
VERTEX
  8
OBJECT
 62
     7
 10
20.27062
 20
20.501139
 30
0.0
 42
0.058752
  0
SEQEND
  8
OBJECT
 62
     7
  0
POLYLINE
  8
OBJECT
 62
     7
 66
     1
 10
0.0
 20
0.0
 30
0.0
  0
VERTEX
  8
OBJECT
 62
     7
 10
20.27062
 20
20.501139
 30
0.0
 42
0.058752
  0
VERTEX
  8
OBJECT
 62
     7
 10
20.246162
 20
20.44428
 30
0.0
 42
0.072341
  0
VERTEX
  8
OBJECT
 62
     7
 10
20.238913
 20
20.394445
 30
0.0
 42
0.106617
 70
     2
 50
270.0
  0
VERTEX
  8
OBJECT
 62
     7
 10
20.248844
 20
20.348402
 30
0.0
 42
0.156851
 50
270.0
  0
VERTEX
  8
OBJECT
 62
     7
 10
20.27062
 20
20.324363
 30
0.0
 42
0.156851
  0
VERTEX
  8
OBJECT
 62
     7
 10
20.302327
 20
20.317524
 30
0.0
 42
0.106617
  0
VERTEX
  8
OBJECT
 62
     7
 10
20.347167
 20
20.331945
 30
0.0
 42
0.072341
 70
     2
 50
30.0
  0
SEQEND
  8
OBJECT
 62
     7
  0
POLYLINE
  8
OBJECT
 62
     7
 66
     1
 10
0.0
 20
0.0
 30
0.0
  0
VERTEX
  8
OBJECT
 62
     7
 10
20.921827
 20
20.485925
 30
0.0
 42
0.072341
 70
     2
 50
30.0
  0
VERTEX
  8
OBJECT
 62
     7
 10
20.961361
 20
20.517119
 30
0.0
 42
0.058752
 50
30.0
  0
VERTEX
  8
OBJECT
 62
     7
 10
20.998373
 20
20.566731
 30
0.0
 42
0.058752
  0
VERTEX
  8
OBJECT
 62
     7
 10
21.022832
 20
20.62359
 30
0.0
 42
0.072341
  0
VERTEX
  8
OBJECT
 62
     7
 10
21.03008
 20
20.673425
 30
0.0
 42
0.106617
 70
     2
 50
90.0
  0
VERTEX
  8
OBJECT
 62
     7
 10
21.020149
 20
20.719468
 30
0.0
 42
0.156851
 50
90.0
  0
VERTEX
  8
OBJECT
 62
     7
 10
20.998373
 20
20.743507
 30
0.0
 42
0.156851
  0
VERTEX
  8
OBJECT
 62
     7
 10
20.966667
 20
20.750346
 30
0.0
 42
0.106617
  0
VERTEX
  8
OBJECT
 62
     7
 10
20.921827
 20
20.735925
 30
0.0
 42
0.072341
 70
     2
 50
210.0
  0
SEQEND
  8
OBJECT
 62
     7
  0
POLYLINE
  8
OBJECT
 62
     7
 66
     1
 10
0.0
 20
0.0
 30
0.0
  0
VERTEX
  8
OBJECT
 62
     7
 10
18.5669
 20
19.854924
 30
0.0
 42
0.072341
 70
     2
 50
30.0
  0
VERTEX
  8
OBJECT
 62
     7
 10
18.606433
 20
19.886118
 30
0.0
 42
0.058752
 50
30.0
  0
VERTEX
  8
OBJECT
 62
     7
 10
18.643446
 20
19.93573
 30
0.0
 42
0.058752
  0
VERTEX
  8
OBJECT
 62
     7
 10
18.667905
 20
19.99259
 30
0.0
 42
0.072341
  0
VERTEX
  8
OBJECT
 62
     7
 10
18.675153
 20
20.042424
 30
0.0
 42
0.106617
 70
     2
 50
90.0
  0
VERTEX
  8
OBJECT
 62
     7
 10
18.665222
 20
20.088467
 30
0.0
 42
0.156851
 50
90.0
  0
VERTEX
  8
OBJECT
 62
     7
 10
18.643446
 20
20.112507
 30
0.0
 42
0.156851
  0
VERTEX
  8
OBJECT
 62
     7
 10
18.611739
 20
20.119345
 30
0.0
 42
0.106617
  0
VERTEX
  8
OBJECT
 62
     7
 10
18.5669
 20
20.104924
 30
0.0
 42
0.072341
 70
     2
 50
210.0
  0
SEQEND
  8
OBJECT
 62
     7
  0
POLYLINE
  8
OBJECT
 62
     7
 66
     1
 10
0.0
 20
0.0
 30
0.0
  0
VERTEX
  8
OBJECT
 62
     7
 10
17.915693
 20
19.870139
 30
0.0
 42
0.058752
  0
VERTEX
  8
OBJECT
 62
     7
 10
17.891234
 20
19.813279
 30
0.0
 42
0.072341
  0
VERTEX
  8
OBJECT
 62
     7
 10
17.883986
 20
19.763444
 30
0.0
 42
0.106617
 70
     2
 50
270.0
  0
VERTEX
  8
OBJECT
 62
     7
 10
17.893917
 20
19.717401
 30
0.0
 42
0.156851
 50
270.0
  0
VERTEX
  8
OBJECT
 62
     7
 10
17.915693
 20
19.693362
 30
0.0
 42
0.156851
  0
VERTEX
  8
OBJECT
 62
     7
 10
17.9474
 20
19.686523
 30
0.0
 42
0.106617
  0
VERTEX
  8
OBJECT
 62
     7
 10
17.992239
 20
19.700944
 30
0.0
 42
0.072341
 70
     2
 50
30.0
  0
SEQEND
  8
OBJECT
 62
     7
  0
POLYLINE
  8
OBJECT
 62
     7
 66
     1
 10
0.0
 20
0.0
 30
0.0
  0
VERTEX
  8
OBJECT
 62
     7
 10
17.992239
 20
19.950944
 30
0.0
 42
0.072341
 70
     2
 50
210.0
  0
VERTEX
  8
OBJECT
 62
     7
 10
17.952705
 20
19.91975
 30
0.0
 42
0.058752
 50
210.0
  0
VERTEX
  8
OBJECT
 62
     7
 10
17.915693
 20
19.870139
 30
0.0
 42
0.058752
  0
SEQEND
  8
OBJECT
 62
     7
  0
LINE
  8
OBJECT
 62
     7
 10
17.992239
 20
19.950944
 30
0.0
 11
18.5669
 21
20.104924
 31
0.0
  0
LINE
  8
OBJECT
 62
     7
 10
18.5669
 20
19.854924
 30
0.0
 11
17.992239
 21
19.700944
 31
0.0
  0
LINE
  8
OBJECT
 62
     7
 10
18.507012
 20
19.870971
 30
0.0
 11
17.932352
 21
19.716991
 31
0.0
  0
POLYLINE
  8
OBJECT
 62
     7
 66
     1
 10
0.0
 20
0.0
 30
0.0
  0
VERTEX
  8
OBJECT
 62
     7
 10
18.507012
 20
19.870971
 30
0.0
 42
0.072341
 70
     2
 50
30.0
  0
VERTEX
  8
OBJECT
 62
     7
 10
18.546546
 20
19.902165
 30
0.0
 42
0.058752
 50
30.0
  0
VERTEX
  8
OBJECT
 62
     7
 10
18.583559
 20
19.951777
 30
0.0
 42
0.058752
  0
VERTEX
  8
OBJECT
 62
     7
 10
18.608017
 20
20.008636
 30
0.0
 42
0.072341
  0
VERTEX
  8
OBJECT
 62
     7
 10
18.615265
 20
20.058471
 30
0.0
 42
0.106617
 70
     2
 50
90.0
  0
VERTEX
  8
OBJECT
 62
     7
 10
18.605334
 20
20.104514
 30
0.0
 42
0.070004
 50
90.0
  0
VERTEX
  8
OBJECT
 62
     7
 10
18.597436
 20
20.116983
 30
0.0
 42
0.156851
  0
SEQEND
  8
OBJECT
 62
     7
  0
POLYLINE
  8
OBJECT
 62
     7
 66
     1
 10
0.0
 20
0.0
 30
0.0
  0
VERTEX
  8
OBJECT
 62
     7
 10
17.901815
 20
19.704932
 30
0.0
 42
0.073881
  0
VERTEX
  8
OBJECT
 62
     7
 10
17.932352
 20
19.716991
 30
0.0
 42
0.072341
 70
     2
 50
30.0
  0
SEQEND
  8
OBJECT
 62
     7
  0
POLYLINE
  8
OBJECT
 62
     7
 66
     1
 10
0.0
 20
0.0
 30
0.0
  0
VERTEX
  8
OBJECT
 62
     7
 10
15.546888
 20
19.073931
 30
0.0
 42
0.073881
  0
VERTEX
  8
OBJECT
 62
     7
 10
15.577425
 20
19.08599
 30
0.0
 42
0.072341
 70
     2
 50
30.0
  0
SEQEND
  8
OBJECT
 62
     7
  0
POLYLINE
  8
OBJECT
 62
     7
 66
     1
 10
0.0
 20
0.0
 30
0.0
  0
VERTEX
  8
OBJECT
 62
     7
 10
16.152085
 20
19.23997
 30
0.0
 42
0.072341
 70
     2
 50
30.0
  0
VERTEX
  8
OBJECT
 62
     7
 10
16.191619
 20
19.271164
 30
0.0
 42
0.058752
 50
30.0
  0
VERTEX
  8
OBJECT
 62
     7
 10
16.228631
 20
19.320776
 30
0.0
 42
0.058752
  0
VERTEX
  8
OBJECT
 62
     7
 10
16.25309
 20
19.377635
 30
0.0
 42
0.072341
  0
VERTEX
  8
OBJECT
 62
     7
 10
16.260338
 20
19.42747
 30
0.0
 42
0.106617
 70
     2
 50
90.0
  0
VERTEX
  8
OBJECT
 62
     7
 10
16.250407
 20
19.473513
 30
0.0
 42
0.070004
 50
90.0
  0
VERTEX
  8
OBJECT
 62
     7
 10
16.242509
 20
19.485982
 30
0.0
 42
0.156851
  0
SEQEND
  8
OBJECT
 62
     7
  0
LINE
  8
OBJECT
 62
     7
 10
16.152085
 20
19.23997
 30
0.0
 11
15.577425
 21
19.08599
 31
0.0
  0
LINE
  8
OBJECT
 62
     7
 10
16.211972
 20
19.223923
 30
0.0
 11
15.637312
 21
19.069944
 31
0.0
  0
LINE
  8
OBJECT
 62
     7
 10
15.637312
 20
19.319944
 30
0.0
 11
16.211972
 21
19.473923
 31
0.0
  0
POLYLINE
  8
OBJECT
 62
     7
 66
     1
 10
0.0
 20
0.0
 30
0.0
  0
VERTEX
  8
OBJECT
 62
     7
 10
15.637312
 20
19.319944
 30
0.0
 42
0.072341
 70
     2
 50
210.0
  0
VERTEX
  8
OBJECT
 62
     7
 10
15.597778
 20
19.288749
 30
0.0
 42
0.058752
 50
210.0
  0
VERTEX
  8
OBJECT
 62
     7
 10
15.560766
 20
19.239138
 30
0.0
 42
0.058752
  0
SEQEND
  8
OBJECT
 62
     7
  0
POLYLINE
  8
OBJECT
 62
     7
 66
     1
 10
0.0
 20
0.0
 30
0.0
  0
VERTEX
  8
OBJECT
 62
     7
 10
15.560766
 20
19.239138
 30
0.0
 42
0.058752
  0
VERTEX
  8
OBJECT
 62
     7
 10
15.536307
 20
19.182278
 30
0.0
 42
0.072341
  0
VERTEX
  8
OBJECT
 62
     7
 10
15.529059
 20
19.132444
 30
0.0
 42
0.106617
 70
     2
 50
270.0
  0
VERTEX
  8
OBJECT
 62
     7
 10
15.53899
 20
19.0864
 30
0.0
 42
0.156851
 50
270.0
  0
VERTEX
  8
OBJECT
 62
     7
 10
15.560766
 20
19.062361
 30
0.0
 42
0.156851
  0
VERTEX
  8
OBJECT
 62
     7
 10
15.592472
 20
19.055522
 30
0.0
 42
0.106617
  0
VERTEX
  8
OBJECT
 62
     7
 10
15.637312
 20
19.069944
 30
0.0
 42
0.072341
 70
     2
 50
30.0
  0
SEQEND
  8
OBJECT
 62
     7
  0
POLYLINE
  8
OBJECT
 62
     7
 66
     1
 10
0.0
 20
0.0
 30
0.0
  0
VERTEX
  8
OBJECT
 62
     7
 10
16.211972
 20
19.223923
 30
0.0
 42
0.072341
 70
     2
 50
30.0
  0
VERTEX
  8
OBJECT
 62
     7
 10
16.251506
 20
19.255118
 30
0.0
 42
0.058752
 50
30.0
  0
VERTEX
  8
OBJECT
 62
     7
 10
16.288519
 20
19.304729
 30
0.0
 42
0.058752
  0
VERTEX
  8
OBJECT
 62
     7
 10
16.312977
 20
19.361589
 30
0.0
 42
0.072341
  0
VERTEX
  8
OBJECT
 62
     7
 10
16.320226
 20
19.411423
 30
0.0
 42
0.106617
 70
     2
 50
90.0
  0
VERTEX
  8
OBJECT
 62
     7
 10
16.310295
 20
19.457466
 30
0.0
 42
0.156851
 50
90.0
  0
VERTEX
  8
OBJECT
 62
     7
 10
16.288519
 20
19.481506
 30
0.0
 42
0.156851
  0
VERTEX
  8
OBJECT
 62
     7
 10
16.256812
 20
19.488344
 30
0.0
 42
0.106617
  0
VERTEX
  8
OBJECT
 62
     7
 10
16.211972
 20
19.473923
 30
0.0
 42
0.072341
 70
     2
 50
210.0
  0
SEQEND
  8
OBJECT
 62
     7
  0
POLYLINE
  8
OBJECT
 62
     7
 66
     1
 10
0.0
 20
0.0
 30
0.0
  0
VERTEX
  8
OBJECT
 62
     7
 10
13.857045
 20
18.592922
 30
0.0
 42
0.072341
 70
     2
 50
30.0
  0
VERTEX
  8
OBJECT
 62
     7
 10
13.896579
 20
18.624117
 30
0.0
 42
0.058752
 50
30.0
  0
VERTEX
  8
OBJECT
 62
     7
 10
13.933592
 20
18.673728
 30
0.0
 42
0.058752
  0
VERTEX
  8
OBJECT
 62
     7
 10
13.95805
 20
18.730588
 30
0.0
 42
0.072341
  0
VERTEX
  8
OBJECT
 62
     7
 10
13.965298
 20
18.780422
 30
0.0
 42
0.106617
 70
     2
 50
90.0
  0
VERTEX
  8
OBJECT
 62
     7
 10
13.955368
 20
18.826466
 30
0.0
 42
0.156851
 50
90.0
  0
VERTEX
  8
OBJECT
 62
     7
 10
13.933592
 20
18.850505
 30
0.0
 42
0.156851
  0
VERTEX
  8
OBJECT
 62
     7
 10
13.901885
 20
18.857344
 30
0.0
 42
0.106617
  0
VERTEX
  8
OBJECT
 62
     7
 10
13.857045
 20
18.842922
 30
0.0
 42
0.072341
 70
     2
 50
210.0
  0
SEQEND
  8
OBJECT
 62
     7
  0
POLYLINE
  8
OBJECT
 62
     7
 66
     1
 10
0.0
 20
0.0
 30
0.0
  0
VERTEX
  8
OBJECT
 62
     7
 10
13.205839
 20
18.608137
 30
0.0
 42
0.058752
  0
VERTEX
  8
OBJECT
 62
     7
 10
13.18138
 20
18.551277
 30
0.0
 42
0.072341
  0
VERTEX
  8
OBJECT
 62
     7
 10
13.174132
 20
18.501443
 30
0.0
 42
0.106617
 70
     2
 50
270.0
  0
VERTEX
  8
OBJECT
 62
     7
 10
13.184063
 20
18.4554
 30
0.0
 42
0.156851
 50
270.0
  0
VERTEX
  8
OBJECT
 62
     7
 10
13.205839
 20
18.43136
 30
0.0
 42
0.156851
  0
VERTEX
  8
OBJECT
 62
     7
 10
13.237545
 20
18.424522
 30
0.0
 42
0.106617
  0
VERTEX
  8
OBJECT
 62
     7
 10
13.282385
 20
18.438943
 30
0.0
 42
0.072341
 70
     2
 50
30.0
  0
SEQEND
  8
OBJECT
 62
     7
  0
POLYLINE
  8
OBJECT
 62
     7
 66
     1
 10
0.0
 20
0.0
 30
0.0
  0
VERTEX
  8
OBJECT
 62
     7
 10
13.282385
 20
18.688943
 30
0.0
 42
0.072341
 70
     2
 50
210.0
  0
VERTEX
  8
OBJECT
 62
     7
 10
13.242851
 20
18.657748
 30
0.0
 42
0.058752
 50
210.0
  0
VERTEX
  8
OBJECT
 62
     7
 10
13.205839
 20
18.608137
 30
0.0
 42
0.058752
  0
SEQEND
  8
OBJECT
 62
     7
  0
LINE
  8
OBJECT
 62
     7
 10
13.282385
 20
18.688943
 30
0.0
 11
13.857045
 21
18.842922
 31
0.0
  0
LINE
  8
OBJECT
 62
     7
 10
13.857045
 20
18.592922
 30
0.0
 11
13.282385
 21
18.438943
 31
0.0
  0
LINE
  8
OBJECT
 62
     7
 10
13.797158
 20
18.608969
 30
0.0
 11
13.222498
 21
18.45499
 31
0.0
  0
POLYLINE
  8
OBJECT
 62
     7
 66
     1
 10
0.0
 20
0.0
 30
0.0
  0
VERTEX
  8
OBJECT
 62
     7
 10
13.797158
 20
18.608969
 30
0.0
 42
0.072341
 70
     2
 50
30.0
  0
VERTEX
  8
OBJECT
 62
     7
 10
13.836692
 20
18.640164
 30
0.0
 42
0.058752
 50
30.0
  0
VERTEX
  8
OBJECT
 62
     7
 10
13.873704
 20
18.689775
 30
0.0
 42
0.058752
  0
VERTEX
  8
OBJECT
 62
     7
 10
13.898163
 20
18.746635
 30
0.0
 42
0.072341
  0
VERTEX
  8
OBJECT
 62
     7
 10
13.905411
 20
18.796469
 30
0.0
 42
0.106617
 70
     2
 50
90.0
  0
VERTEX
  8
OBJECT
 62
     7
 10
13.89548
 20
18.842512
 30
0.0
 42
0.070004
 50
90.0
  0
VERTEX
  8
OBJECT
 62
     7
 10
13.887582
 20
18.854981
 30
0.0
 42
0.156851
  0
SEQEND
  8
OBJECT
 62
     7
  0
POLYLINE
  8
OBJECT
 62
     7
 66
     1
 10
0.0
 20
0.0
 30
0.0
  0
VERTEX
  8
OBJECT
 62
     7
 10
13.191961
 20
18.442931
 30
0.0
 42
0.073881
  0
VERTEX
  8
OBJECT
 62
     7
 10
13.222498
 20
18.45499
 30
0.0
 42
0.072341
 70
     2
 50
30.0
  0
SEQEND
  8
OBJECT
 62
     7
  0
POLYLINE
  8
OBJECT
 62
     7
 66
     1
 10
0.0
 20
0.0
 30
0.0
  0
VERTEX
  8
OBJECT
 62
     7
 10
10.837034
 20
17.81193
 30
0.0
 42
0.073881
  0
VERTEX
  8
OBJECT
 62
     7
 10
10.867571
 20
17.823989
 30
0.0
 42
0.072341
 70
     2
 50
30.0
  0
SEQEND
  8
OBJECT
 62
     7
  0
POLYLINE
  8
OBJECT
 62
     7
 66
     1
 10
0.0
 20
0.0
 30
0.0
  0
VERTEX
  8
OBJECT
 62
     7
 10
11.442231
 20
17.977968
 30
0.0
 42
0.072341
 70
     2
 50
30.0
  0
VERTEX
  8
OBJECT
 62
     7
 10
11.481765
 20
18.009163
 30
0.0
 42
0.058752
 50
30.0
  0
VERTEX
  8
OBJECT
 62
     7
 10
11.518777
 20
18.058774
 30
0.0
 42
0.058752
  0
VERTEX
  8
OBJECT
 62
     7
 10
11.543236
 20
18.115634
 30
0.0
 42
0.072341
  0
VERTEX
  8
OBJECT
 62
     7
 10
11.550484
 20
18.165468
 30
0.0
 42
0.106617
 70
     2
 50
90.0
  0
VERTEX
  8
OBJECT
 62
     7
 10
11.540553
 20
18.211512
 30
0.0
 42
0.070004
 50
90.0
  0
VERTEX
  8
OBJECT
 62
     7
 10
11.532655
 20
18.223981
 30
0.0
 42
0.156851
  0
SEQEND
  8
OBJECT
 62
     7
  0
LINE
  8
OBJECT
 62
     7
 10
11.442231
 20
17.977968
 30
0.0
 11
10.867571
 21
17.823989
 31
0.0
  0
LINE
  8
OBJECT
 62
     7
 10
11.502118
 20
17.961922
 30
0.0
 11
10.927458
 21
17.807942
 31
0.0
  0
LINE
  8
OBJECT
 62
     7
 10
10.927458
 20
18.057942
 30
0.0
 11
11.502118
 21
18.211922
 31
0.0
  0
POLYLINE
  8
OBJECT
 62
     7
 66
     1
 10
0.0
 20
0.0
 30
0.0
  0
VERTEX
  8
OBJECT
 62
     7
 10
10.927458
 20
18.057942
 30
0.0
 42
0.072341
 70
     2
 50
210.0
  0
VERTEX
  8
OBJECT
 62
     7
 10
10.887924
 20
18.026748
 30
0.0
 42
0.058752
 50
210.0
  0
VERTEX
  8
OBJECT
 62
     7
 10
10.850911
 20
17.977136
 30
0.0
 42
0.058752
  0
SEQEND
  8
OBJECT
 62
     7
  0
POLYLINE
  8
OBJECT
 62
     7
 66
     1
 10
0.0
 20
0.0
 30
0.0
  0
VERTEX
  8
OBJECT
 62
     7
 10
10.850911
 20
17.977136
 30
0.0
 42
0.058752
  0
VERTEX
  8
OBJECT
 62
     7
 10
10.826453
 20
17.920276
 30
0.0
 42
0.072341
  0
VERTEX
  8
OBJECT
 62
     7
 10
10.819205
 20
17.870442
 30
0.0
 42
0.106617
 70
     2
 50
270.0
  0
VERTEX
  8
OBJECT
 62
     7
 10
10.829136
 20
17.824399
 30
0.0
 42
0.156851
 50
270.0
  0
VERTEX
  8
OBJECT
 62
     7
 10
10.850911
 20
17.800359
 30
0.0
 42
0.156851
  0
VERTEX
  8
OBJECT
 62
     7
 10
10.882618
 20
17.793521
 30
0.0
 42
0.106617
  0
VERTEX
  8
OBJECT
 62
     7
 10
10.927458
 20
17.807942
 30
0.0
 42
0.072341
 70
     2
 50
30.0
  0
SEQEND
  8
OBJECT
 62
     7
  0
POLYLINE
  8
OBJECT
 62
     7
 66
     1
 10
0.0
 20
0.0
 30
0.0
  0
VERTEX
  8
OBJECT
 62
     7
 10
11.502118
 20
17.961922
 30
0.0
 42
0.072341
 70
     2
 50
30.0
  0
VERTEX
  8
OBJECT
 62
     7
 10
11.541652
 20
17.993116
 30
0.0
 42
0.058752
 50
30.0
  0
VERTEX
  8
OBJECT
 62
     7
 10
11.578665
 20
18.042727
 30
0.0
 42
0.058752
  0
VERTEX
  8
OBJECT
 62
     7
 10
11.603123
 20
18.099587
 30
0.0
 42
0.072341
  0
VERTEX
  8
OBJECT
 62
     7
 10
11.610371
 20
18.149422
 30
0.0
 42
0.106617
 70
     2
 50
90.0
  0
VERTEX
  8
OBJECT
 62
     7
 10
11.60044
 20
18.195465
 30
0.0
 42
0.156851
 50
90.0
  0
VERTEX
  8
OBJECT
 62
     7
 10
11.578665
 20
18.219504
 30
0.0
 42
0.156851
  0
VERTEX
  8
OBJECT
 62
     7
 10
11.546958
 20
18.226343
 30
0.0
 42
0.106617
  0
VERTEX
  8
OBJECT
 62
     7
 10
11.502118
 20
18.211922
 30
0.0
 42
0.072341
 70
     2
 50
210.0
  0
SEQEND
  8
OBJECT
 62
     7
  0
POLYLINE
  8
OBJECT
 62
     7
 66
     1
 10
0.0
 20
0.0
 30
0.0
  0
VERTEX
  8
OBJECT
 62
     7
 10
9.147191
 20
17.330921
 30
0.0
 42
0.072341
 70
     2
 50
30.0
  0
VERTEX
  8
OBJECT
 62
     7
 10
9.186725
 20
17.362115
 30
0.0
 42
0.058752
 50
30.0
  0
VERTEX
  8
OBJECT
 62
     7
 10
9.223737
 20
17.411727
 30
0.0
 42
0.058752
  0
VERTEX
  8
OBJECT
 62
     7
 10
9.248196
 20
17.468586
 30
0.0
 42
0.072341
  0
VERTEX
  8
OBJECT
 62
     7
 10
9.255444
 20
17.518421
 30
0.0
 42
0.106617
 70
     2
 50
90.0
  0
VERTEX
  8
OBJECT
 62
     7
 10
9.245513
 20
17.564464
 30
0.0
 42
0.156851
 50
90.0
  0
VERTEX
  8
OBJECT
 62
     7
 10
9.223737
 20
17.588503
 30
0.0
 42
0.156851
  0
VERTEX
  8
OBJECT
 62
     7
 10
9.192031
 20
17.595342
 30
0.0
 42
0.106617
  0
VERTEX
  8
OBJECT
 62
     7
 10
9.147191
 20
17.580921
 30
0.0
 42
0.072341
 70
     2
 50
210.0
  0
SEQEND
  8
OBJECT
 62
     7
  0
POLYLINE
  8
OBJECT
 62
     7
 66
     1
 10
0.0
 20
0.0
 30
0.0
  0
VERTEX
  8
OBJECT
 62
     7
 10
8.495984
 20
17.346135
 30
0.0
 42
0.058752
  0
VERTEX
  8
OBJECT
 62
     7
 10
8.471526
 20
17.289276
 30
0.0
 42
0.072341
  0
VERTEX
  8
OBJECT
 62
     7
 10
8.464278
 20
17.239441
 30
0.0
 42
0.106617
 70
     2
 50
270.0
  0
VERTEX
  8
OBJECT
 62
     7
 10
8.474208
 20
17.193398
 30
0.0
 42
0.156851
 50
270.0
  0
VERTEX
  8
OBJECT
 62
     7
 10
8.495984
 20
17.169359
 30
0.0
 42
0.156851
  0
VERTEX
  8
OBJECT
 62
     7
 10
8.527691
 20
17.16252
 30
0.0
 42
0.106617
  0
VERTEX
  8
OBJECT
 62
     7
 10
8.572531
 20
17.176941
 30
0.0
 42
0.072341
 70
     2
 50
30.0
  0
SEQEND
  8
OBJECT
 62
     7
  0
POLYLINE
  8
OBJECT
 62
     7
 66
     1
 10
0.0
 20
0.0
 30
0.0
  0
VERTEX
  8
OBJECT
 62
     7
 10
8.572531
 20
17.426941
 30
0.0
 42
0.072341
 70
     2
 50
210.0
  0
VERTEX
  8
OBJECT
 62
     7
 10
8.532997
 20
17.395747
 30
0.0
 42
0.058752
 50
210.0
  0
VERTEX
  8
OBJECT
 62
     7
 10
8.495984
 20
17.346135
 30
0.0
 42
0.058752
  0
SEQEND
  8
OBJECT
 62
     7
  0
LINE
  8
OBJECT
 62
     7
 10
8.572531
 20
17.426941
 30
0.0
 11
9.147191
 21
17.580921
 31
0.0
  0
LINE
  8
OBJECT
 62
     7
 10
9.147191
 20
17.330921
 30
0.0
 11
8.572531
 21
17.176941
 31
0.0
  0
LINE
  8
OBJECT
 62
     7
 10
9.087303
 20
17.346968
 30
0.0
 11
8.512643
 21
17.192988
 31
0.0
  0
POLYLINE
  8
OBJECT
 62
     7
 66
     1
 10
0.0
 20
0.0
 30
0.0
  0
VERTEX
  8
OBJECT
 62
     7
 10
9.087303
 20
17.346968
 30
0.0
 42
0.072341
 70
     2
 50
30.0
  0
VERTEX
  8
OBJECT
 62
     7
 10
9.126837
 20
17.378162
 30
0.0
 42
0.058752
 50
30.0
  0
VERTEX
  8
OBJECT
 62
     7
 10
9.16385
 20
17.427773
 30
0.0
 42
0.058752
  0
VERTEX
  8
OBJECT
 62
     7
 10
9.188309
 20
17.484633
 30
0.0
 42
0.072341
  0
VERTEX
  8
OBJECT
 62
     7
 10
9.195557
 20
17.534468
 30
0.0
 42
0.106617
 70
     2
 50
90.0
  0
VERTEX
  8
OBJECT
 62
     7
 10
9.185626
 20
17.580511
 30
0.0
 42
0.070004
 50
90.0
  0
VERTEX
  8
OBJECT
 62
     7
 10
9.177727
 20
17.59298
 30
0.0
 42
0.156851
  0
SEQEND
  8
OBJECT
 62
     7
  0
POLYLINE
  8
OBJECT
 62
     7
 66
     1
 10
0.0
 20
0.0
 30
0.0
  0
VERTEX
  8
OBJECT
 62
     7
 10
8.482107
 20
17.180929
 30
0.0
 42
0.073881
  0
VERTEX
  8
OBJECT
 62
     7
 10
8.512643
 20
17.192988
 30
0.0
 42
0.072341
 70
     2
 50
30.0
  0
SEQEND
  8
OBJECT
 62
     7
  0
POLYLINE
  8
OBJECT
 62
     7
 66
     1
 10
0.0
 20
0.0
 30
0.0
  0
VERTEX
  8
OBJECT
 62
     7
 10
6.12718
 20
16.549928
 30
0.0
 42
0.073881
  0
VERTEX
  8
OBJECT
 62
     7
 10
6.157716
 20
16.561987
 30
0.0
 42
0.072341
 70
     2
 50
30.0
  0
SEQEND
  8
OBJECT
 62
     7
  0
POLYLINE
  8
OBJECT
 62
     7
 66
     1
 10
0.0
 20
0.0
 30
0.0
  0
VERTEX
  8
OBJECT
 62
     7
 10
6.732376
 20
16.715967
 30
0.0
 42
0.072341
 70
     2
 50
30.0
  0
VERTEX
  8
OBJECT
 62
     7
 10
6.77191
 20
16.747161
 30
0.0
 42
0.058752
 50
30.0
  0
VERTEX
  8
OBJECT
 62
     7
 10
6.808923
 20
16.796773
 30
0.0
 42
0.058752
  0
VERTEX
  8
OBJECT
 62
     7
 10
6.833381
 20
16.853632
 30
0.0
 42
0.072341
  0
VERTEX
  8
OBJECT
 62
     7
 10
6.840629
 20
16.903467
 30
0.0
 42
0.106617
 70
     2
 50
90.0
  0
VERTEX
  8
OBJECT
 62
     7
 10
6.830699
 20
16.94951
 30
0.0
 42
0.070004
 50
90.0
  0
VERTEX
  8
OBJECT
 62
     7
 10
6.8228
 20
16.961979
 30
0.0
 42
0.156851
  0
SEQEND
  8
OBJECT
 62
     7
  0
LINE
  8
OBJECT
 62
     7
 10
6.732376
 20
16.715967
 30
0.0
 11
6.157716
 21
16.561987
 31
0.0
  0
LINE
  8
OBJECT
 62
     7
 10
6.792264
 20
16.69992
 30
0.0
 11
6.217604
 21
16.54594
 31
0.0
  0
LINE
  8
OBJECT
 62
     7
 10
6.217604
 20
16.79594
 30
0.0
 11
6.792264
 21
16.94992
 31
0.0
  0
POLYLINE
  8
OBJECT
 62
     7
 66
     1
 10
0.0
 20
0.0
 30
0.0
  0
VERTEX
  8
OBJECT
 62
     7
 10
6.217604
 20
16.79594
 30
0.0
 42
0.072341
 70
     2
 50
210.0
  0
VERTEX
  8
OBJECT
 62
     7
 10
6.17807
 20
16.764746
 30
0.0
 42
0.058752
 50
210.0
  0
VERTEX
  8
OBJECT
 62
     7
 10
6.141057
 20
16.715134
 30
0.0
 42
0.058752
  0
SEQEND
  8
OBJECT
 62
     7
  0
POLYLINE
  8
OBJECT
 62
     7
 66
     1
 10
0.0
 20
0.0
 30
0.0
  0
VERTEX
  8
OBJECT
 62
     7
 10
6.141057
 20
16.715134
 30
0.0
 42
0.058752
  0
VERTEX
  8
OBJECT
 62
     7
 10
6.116599
 20
16.658275
 30
0.0
 42
0.072341
  0
VERTEX
  8
OBJECT
 62
     7
 10
6.10935
 20
16.60844
 30
0.0
 42
0.106617
 70
     2
 50
270.0
  0
VERTEX
  8
OBJECT
 62
     7
 10
6.119281
 20
16.562397
 30
0.0
 42
0.156851
 50
270.0
  0
VERTEX
  8
OBJECT
 62
     7
 10
6.141057
 20
16.538358
 30
0.0
 42
0.156851
  0
VERTEX
  8
OBJECT
 62
     7
 10
6.172764
 20
16.531519
 30
0.0
 42
0.106617
  0
VERTEX
  8
OBJECT
 62
     7
 10
6.217604
 20
16.54594
 30
0.0
 42
0.072341
 70
     2
 50
30.0
  0
SEQEND
  8
OBJECT
 62
     7
  0
POLYLINE
  8
OBJECT
 62
     7
 66
     1
 10
0.0
 20
0.0
 30
0.0
  0
VERTEX
  8
OBJECT
 62
     7
 10
6.792264
 20
16.69992
 30
0.0
 42
0.072341
 70
     2
 50
30.0
  0
VERTEX
  8
OBJECT
 62
     7
 10
6.831798
 20
16.731114
 30
0.0
 42
0.058752
 50
30.0
  0
VERTEX
  8
OBJECT
 62
     7
 10
6.86881
 20
16.780726
 30
0.0
 42
0.058752
  0
VERTEX
  8
OBJECT
 62
     7
 10
6.893269
 20
16.837585
 30
0.0
 42
0.072341
  0
VERTEX
  8
OBJECT
 62
     7
 10
6.900517
 20
16.88742
 30
0.0
 42
0.106617
 70
     2
 50
90.0
  0
VERTEX
  8
OBJECT
 62
     7
 10
6.890586
 20
16.933463
 30
0.0
 42
0.156851
 50
90.0
  0
VERTEX
  8
OBJECT
 62
     7
 10
6.86881
 20
16.957502
 30
0.0
 42
0.156851
  0
VERTEX
  8
OBJECT
 62
     7
 10
6.837104
 20
16.964341
 30
0.0
 42
0.106617
  0
VERTEX
  8
OBJECT
 62
     7
 10
6.792264
 20
16.94992
 30
0.0
 42
0.072341
 70
     2
 50
210.0
  0
SEQEND
  8
OBJECT
 62
     7
  0
LINE
  8
HIDDEN
 62
     7
 10
25.734196
 20
85.905621
 30
0.0
 11
25.734196
 21
86.468621
 31
0.0
  0
LINE
  8
HIDDEN
 62
     7
 10
8.484196
 20
85.905621
 30
0.0
 11
8.484196
 21
86.468621
 31
0.0
  0
POLYLINE
  8
OBJECT
 62
     7
 66
     1
 10
0.0
 20
0.0
 30
0.0
 70
     1
  0
VERTEX
  8
OBJECT
 62
     7
 10
26.110196
 20
69.790061
 30
0.0
 50
90.0
  0
VERTEX
  8
OBJECT
 62
     7
 10
26.297196
 20
69.682097
 30
0.0
 50
90.0
  0
VERTEX
  8
OBJECT
 62
     7
 10
26.484196
 20
69.790061
 30
0.0
 50
90.0
  0
VERTEX
  8
OBJECT
 62
     7
 10
26.484196
 20
70.00599
 30
0.0
 50
90.0
  0
VERTEX
  8
OBJECT
 62
     7
 10
26.297196
 20
70.113955
 30
0.0
 50
90.0
  0
VERTEX
  8
OBJECT
 62
     7
 10
26.110196
 20
70.00599
 30
0.0
 50
90.0
  0
SEQEND
  8
OBJECT
 62
     7
  0
POLYLINE
  8
OBJECT
 62
     7
 66
     1
 10
0.0
 20
0.0
 30
0.0
 70
     1
  0
VERTEX
  8
OBJECT
 62
     7
 10
26.110196
 20
59.790061
 30
0.0
 50
90.0
  0
VERTEX
  8
OBJECT
 62
     7
 10
26.297196
 20
59.682097
 30
0.0
 50
90.0
  0
VERTEX
  8
OBJECT
 62
     7
 10
26.484196
 20
59.790061
 30
0.0
 50
90.0
  0
VERTEX
  8
OBJECT
 62
     7
 10
26.484196
 20
60.00599
 30
0.0
 50
90.0
  0
VERTEX
  8
OBJECT
 62
     7
 10
26.297196
 20
60.113955
 30
0.0
 50
90.0
  0
VERTEX
  8
OBJECT
 62
     7
 10
26.110196
 20
60.00599
 30
0.0
 50
90.0
  0
SEQEND
  8
OBJECT
 62
     7
  0
LINE
  8
CENTER
 62
     7
 10
26.392196
 20
85.968621
 30
0.0
 11
26.202196
 21
85.968621
 31
0.0
  0
LINE
  8
CENTER
 62
     7
 10
26.202196
 20
86.468621
 30
0.0
 11
26.202196
 21
85.968621
 31
0.0
  0
LINE
  8
CENTER
 62
     7
 10
26.392196
 20
86.468621
 30
0.0
 11
26.392196
 21
85.968621
 31
0.0
  0
LINE
  8
CENTER
 62
     7
 10
7.826196
 20
86.468621
 30
0.0
 11
7.826196
 21
85.968621
 31
0.0
  0
LINE
  8
CENTER
 62
     7
 10
8.016196
 20
86.468621
 30
0.0
 11
8.016196
 21
85.968621
 31
0.0
  0
LINE
  8
CENTER
 62
     7
 10
7.826196
 20
85.968621
 30
0.0
 11
8.016196
 21
85.968621
 31
0.0
  0
LINE
  8
HIDDEN
 62
     7
 10
28.047196
 20
86.468621
 30
0.0
 11
28.047196
 21
85.967621
 31
0.0
  0
LINE
  8
HIDDEN
 62
     7
 10
28.047196
 20
85.967621
 30
0.0
 11
6.171196
 21
85.967621
 31
0.0
  0
LINE
  8
HIDDEN
 62
     7
 10
6.171196
 20
85.967621
 30
0.0
 11
6.171196
 21
86.468621
 31
0.0
  0
LINE
  8
HIDDEN
 62
     7
 10
6.171196
 20
86.468621
 30
0.0
 11
28.047196
 21
86.468621
 31
0.0
  0
LINE
  8
OBJECT
 62
     7
 10
6.109196
 20
86.530621
 30
0.0
 11
28.109196
 21
86.530621
 31
0.0
  0
LINE
  8
OBJECT
 62
     7
 10
6.109196
 20
85.905621
 30
0.0
 11
6.109196
 21
86.530621
 31
0.0
  0
LINE
  8
OBJECT
 62
     7
 10
28.109196
 20
85.905621
 30
0.0
 11
6.109196
 21
85.905621
 31
0.0
  0
LINE
  8
OBJECT
 62
     7
 10
28.109196
 20
86.530621
 30
0.0
 11
28.109196
 21
85.905621
 31
0.0
  0
LINE
  8
HIDDEN
 62
     7
 10
25.843196
 20
85.905621
 30
0.0
 11
25.843196
 21
86.359621
 31
0.0
  0
LINE
  8
HIDDEN
 62
     7
 10
8.375196
 20
85.905621
 30
0.0
 11
8.375196
 21
86.359621
 31
0.0
  0
CIRCLE
  8
OBJECT
 62
     7
 10
26.297196
 20
69.898026
 30
0.0
 40
0.095
  0
CIRCLE
  8
OBJECT
 62
     7
 10
26.297196
 20
59.898026
 30
0.0
 40
0.095
  0
LINE
  8
OBJECT
 62
     7
 10
7.609196
 20
79.468621
 30
0.0
 11
8.484196
 21
79.468621
 31
0.0
  0
LINE
  8
OBJECT
 62
     7
 10
8.484196
 20
79.468621
 30
0.0
 11
8.484196
 21
85.905621
 31
0.0
  0
LINE
  8
HIDDEN
 62
     7
 10
7.609196
 20
86.468621
 30
0.0
 11
7.609196
 21
86.359621
 31
0.0
  0
LINE
  8
OBJECT
 62
     7
 10
8.375196
 20
79.468621
 30
0.0
 11
8.375196
 21
85.905621
 31
0.0
  0
LINE
  8
HIDDEN
 62
     7
 10
8.375196
 20
86.359621
 30
0.0
 11
7.609196
 21
86.359621
 31
0.0
  0
LINE
  8
OBJECT
 62
     7
 10
8.375196
 20
85.843621
 30
0.0
 11
7.609196
 21
85.843621
 31
0.0
  0
LINE
  8
OBJECT
 62
     7
 10
7.609196
 20
85.843621
 30
0.0
 11
7.609196
 21
79.468621
 31
0.0
  0
LINE
  8
OBJECT
 62
     7
 10
7.890696
 20
81.093621
 30
0.0
 11
8.015696
 21
81.093621
 31
0.0
  0
LINE
  8
OBJECT
 62
     7
 10
7.890696
 20
80.843621
 30
0.0
 11
8.015696
 21
80.843621
 31
0.0
  0
ARC
  8
OBJECT
 62
     7
 10
7.890696
 20
80.968621
 30
0.0
 40
0.125
 50
89.999981
 51
269.999981
  0
ARC
  8
OBJECT
 62
     7
 10
8.015696
 20
80.968621
 30
0.0
 40
0.125
 50
269.999981
 51
89.999981
  0
ARC
  8
OBJECT
 62
     7
 10
8.015696
 20
84.968621
 30
0.0
 40
0.125
 50
269.999981
 51
89.999981
  0
ARC
  8
OBJECT
 62
     7
 10
7.890696
 20
84.968621
 30
0.0
 40
0.125
 50
89.999981
 51
269.999981
  0
LINE
  8
OBJECT
 62
     7
 10
7.890696
 20
84.843621
 30
0.0
 11
8.015696
 21
84.843621
 31
0.0
  0
LINE
  8
OBJECT
 62
     7
 10
7.890696
 20
85.093621
 30
0.0
 11
8.015696
 21
85.093621
 31
0.0
  0
LINE
  8
OBJECT
 62
     7
 10
6.484196
 20
72.523026
 30
0.0
 11
6.109196
 21
72.898026
 31
0.0
  0
LINE
  8
OBJECT
 62
     7
 10
6.484196
 20
72.523026
 30
0.0
 11
6.484196
 21
56.960026
 31
0.0
  0
LINE
  8
OBJECT
 62
     7
 10
27.734196
 20
72.523026
 30
0.0
 11
28.109196
 21
72.898026
 31
0.0
  0
LINE
  8
OBJECT
 62
     7
 10
27.734196
 20
72.523026
 30
0.0
 11
27.734196
 21
56.960026
 31
0.0
  0
LINE
  8
OBJECT
 62
     7
 10
27.734196
 20
72.523026
 30
0.0
 11
6.484196
 21
72.523026
 31
0.0
  0
LINE
  8
HIDDEN
 62
     7
 10
28.047196
 20
72.836026
 30
0.0
 11
28.047196
 21
56.960026
 31
0.0
  0
LINE
  8
OBJECT
 62
     7
 10
28.109196
 20
72.898026
 30
0.0
 11
28.109196
 21
56.898026
 31
0.0
  0
LINE
  8
OBJECT
 62
     7
 10
28.109196
 20
72.898026
 30
0.0
 11
6.109196
 21
72.898026
 31
0.0
  0
LINE
  8
OBJECT
 62
     7
 10
6.109196
 20
72.898026
 30
0.0
 11
6.109196
 21
56.898026
 31
0.0
  0
LINE
  8
OBJECT
 62
     7
 10
6.109196
 20
56.898026
 30
0.0
 11
28.109196
 21
56.898026
 31
0.0
  0
LINE
  8
HIDDEN
 62
     7
 10
6.171196
 20
56.960026
 30
0.0
 11
28.047196
 21
56.960026
 31
0.0
  0
LINE
  8
HIDDEN
 62
     7
 10
6.171196
 20
72.836026
 30
0.0
 11
6.171196
 21
56.960026
 31
0.0
  0
LINE
  8
HIDDEN
 62
     7
 10
28.047196
 20
72.836026
 30
0.0
 11
6.171196
 21
72.836026
 31
0.0
  0
LINE
  8
CENTER
 62
     7
 10
40.204299
 20
86.468621
 30
0.0
 11
40.204299
 21
85.968621
 31
0.0
  0
LINE
  8
CENTER
 62
     7
 10
40.394299
 20
86.468621
 30
0.0
 11
40.394299
 21
85.968621
 31
0.0
  0
LINE
  8
CENTER
 62
     7
 10
40.204299
 20
85.968621
 30
0.0
 11
40.394299
 21
85.968621
 31
0.0
  0
LINE
  8
CENTER
 62
     7
 10
50.204299
 20
85.968621
 30
0.0
 11
50.394299
 21
85.968621
 31
0.0
  0
LINE
  8
CENTER
 62
     7
 10
50.394299
 20
86.468621
 30
0.0
 11
50.394299
 21
85.968621
 31
0.0
  0
LINE
  8
CENTER
 62
     7
 10
50.204299
 20
86.468621
 30
0.0
 11
50.204299
 21
85.968621
 31
0.0
  0
LINE
  8
HIDDEN
 62
     7
 10
37.361299
 20
85.967621
 30
0.0
 11
37.361299
 21
86.468621
 31
0.0
  0
LINE
  8
HIDDEN
 62
     7
 10
53.237299
 20
85.967621
 30
0.0
 11
37.361299
 21
85.967621
 31
0.0
  0
LINE
  8
HIDDEN
 62
     7
 10
37.361299
 20
86.468621
 30
0.0
 11
53.237299
 21
86.468621
 31
0.0
  0
LINE
  8
HIDDEN
 62
     7
 10
53.237299
 20
86.468621
 30
0.0
 11
53.237299
 21
85.905621
 31
0.0
  0
LINE
  8
OBJECT
 62
     7
 10
26.327696
 20
85.093621
 30
0.0
 11
26.202696
 21
85.093621
 31
0.0
  0
LINE
  8
OBJECT
 62
     7
 10
26.327696
 20
84.843621
 30
0.0
 11
26.202696
 21
84.843621
 31
0.0
  0
ARC
  8
OBJECT
 62
     7
 10
26.327696
 20
84.968621
 30
0.0
 40
0.125
 50
270.000019
 51
90.000019
  0
ARC
  8
OBJECT
 62
     7
 10
26.202696
 20
84.968621
 30
0.0
 40
0.125
 50
90.000019
 51
270.000019
  0
ARC
  8
OBJECT
 62
     7
 10
26.202696
 20
80.968621
 30
0.0
 40
0.125
 50
90.000019
 51
270.000019
  0
ARC
  8
OBJECT
 62
     7
 10
26.327696
 20
80.968621
 30
0.0
 40
0.125
 50
270.000019
 51
90.000019
  0
LINE
  8
OBJECT
 62
     7
 10
26.327696
 20
80.843621
 30
0.0
 11
26.202696
 21
80.843621
 31
0.0
  0
LINE
  8
OBJECT
 62
     7
 10
26.327696
 20
81.093621
 30
0.0
 11
26.202696
 21
81.093621
 31
0.0
  0
LINE
  8
OBJECT
 62
     7
 10
26.609196
 20
85.843621
 30
0.0
 11
26.609196
 21
79.468621
 31
0.0
  0
LINE
  8
OBJECT
 62
     7
 10
25.843196
 20
85.843621
 30
0.0
 11
26.609196
 21
85.843621
 31
0.0
  0
LINE
  8
HIDDEN
 62
     7
 10
52.174299
 20
86.359621
 30
0.0
 11
37.799299
 21
86.359621
 31
0.0
  0
LINE
  8
OBJECT
 62
     7
 10
53.190299
 20
79.468621
 30
0.0
 11
53.190299
 21
85.843621
 31
0.0
  0
LINE
  8
HIDDEN
 62
     7
 10
25.843196
 20
86.359621
 30
0.0
 11
26.609196
 21
86.359621
 31
0.0
  0
LINE
  8
OBJECT
 62
     7
 10
25.843196
 20
79.468621
 30
0.0
 11
25.843196
 21
85.905621
 31
0.0
  0
LINE
  8
HIDDEN
 62
     7
 10
26.609196
 20
86.468621
 30
0.0
 11
26.609196
 21
86.359621
 31
0.0
  0
LINE
  8
OBJECT
 62
     7
 10
25.734196
 20
79.468621
 30
0.0
 11
25.734196
 21
85.905621
 31
0.0
  0
LINE
  8
OBJECT
 62
     7
 10
26.609196
 20
79.468621
 30
0.0
 11
25.734196
 21
79.468621
 31
0.0
  0
LINE
  8
OBJECT
 62
     7
 10
53.299299
 20
86.530621
 30
0.0
 11
53.299299
 21
85.905621
 31
0.0
  0
LINE
  8
OBJECT
 62
     7
 10
37.299299
 20
86.530621
 30
0.0
 11
53.299299
 21
86.530621
 31
0.0
  0
LINE
  8
OBJECT
 62
     7
 10
37.299299
 20
85.905621
 30
0.0
 11
37.299299
 21
86.530621
 31
0.0
  0
LINE
  8
OBJECT
 62
     7
 10
53.299299
 20
85.905621
 30
0.0
 11
37.299299
 21
85.905621
 31
0.0
  0
DIMENSION
  8
DIM
 62
     7
  2
*D2
 10
26.265196
 20
78.512845
 30
0.0
 11
17.109196
 21
78.512845
 31
0.0
 12
0.0
 22
3.015248
 32
0.0
 13
7.953196
 23
80.843621
 33
0.0
 14
26.265196
 24
80.843621
 34
0.0
  3
23NSTD
  0
DIMENSION
  8
DIM
 62
     7
  2
*D1
 10
26.609196
 20
76.826845
 30
0.0
 11
17.109196
 21
76.826845
 31
0.0
 12
0.0
 22
3.015248
 32
0.0
 13
7.609196
 23
79.468621
 33
0.0
 14
26.609196
 24
79.468621
 34
0.0
  3
23NSTD
  0
DIMENSION
  8
DIM
 62
     7
  2
*D29
 10
6.109196
 20
88.140717
 30
0.0
 11
17.109196
 21
88.140717
 31
0.0
 12
0.0
 22
3.015248
 32
0.0
 13
28.109196
 23
86.530621
 33
0.0
 14
6.109196
 24
86.530621
 34
0.0
  3
23NSTD
  0
DIMENSION
  8
DIM
 62
     7
  2
*D36
 10
53.299299
 20
88.140717
 30
0.0
 11
45.299299
 21
88.140717
 31
0.0
  1
DEPTH
 13
37.299299
 23
86.530621
 33
0.0
 14
53.299299
 24
86.530621
 34
0.0
  3
23NSTD
  0
DIMENSION
  8
DIM
 62
     7
  2
*D35
 10
29.882085
 20
86.530621
 30
0.0
 11
32.58021
 21
88.690621
 31
0.0
 12
0.0
 22
1.404042
 32
0.0
 13
28.109196
 23
85.905621
 33
0.0
 14
28.109196
 24
86.530621
 34
0.0
 50
90.0
  3
23NSTD
  0
TEXT
  8
TEXT
 62
     7
 10
31.863789
 20
70.195009
 30
0.0
 40
0.75
  1
%%uMATERIAL:%%u
 41
0.75
  0
TEXT
  8
TEXT
 62
     7
 10
32.479217
 20
68.945009
 30
0.0
 40
0.75
  1
SHELF
 41
0.75
  0
TEXT
  8
TEXT
 62
     7
 10
32.479217
 20
67.695009
 30
0.0
 40
0.75
  1
SUPPORT BRACKETS
 41
0.75
  0
TEXT
  8
TEXT
 62
     7
 10
31.863789
 20
65.197009
 30
0.0
 40
0.75
  1
%%uFINISH:%%u
 41
0.75
  0
TEXT
  8
TEXT
 62
     7
 10
32.479217
 20
63.947009
 30
0.0
 40
0.75
  1
SHELF & SUPPORT BRACKETS
 41
0.75
  0
TEXT
  8
TEXT
 62
     7
 10
48.733773
 20
68.945009
 30
0.0
 40
0.75
  1
16 GA. STEEL
 41
0.75
  0
TEXT
  8
TEXT
 62
     7
 10
48.733773
 20
67.695009
 30
0.0
 40
0.75
  1
12 GA. STEEL
 41
0.75
  0
TEXT
  8
TEXT
 62
     7
 10
48.733773
 20
63.947009
 30
0.0
 40
0.75
  1
GRAY TEXTURE OR
 41
0.75
  0
TEXT
  8
TEXT
 62
     7
 10
48.733773
 20
62.732759
 30
0.0
 40
0.75
  1
ROYAL BLUE TEXTURE
 41
0.75
  0
LINE
  8
TEXT
 62
     7
 10
35.22377
 20
68.940845
 30
0.0
 11
48.183972
 21
68.940845
 31
0.0
  0
LINE
  8
TEXT
 62
     7
 10
46.084275
 20
63.948845
 30
0.0
 11
48.183972
 21
63.948845
 31
0.0
  0
LINE
  8
TEXT
 62
     7
 10
41.595266
 20
67.692845
 30
0.0
 11
48.183972
 21
67.692845
 31
0.0
  0
DIMENSION
  8
DIM
 62
     7
  2
*D14
 10
4.326155
 20
80.968621
 30
0.0
 11
4.326155
 21
82.968621
 31
0.0
 12
0.0
 22
3.015248
 32
0.0
 13
7.765696
 23
84.968621
 33
0.0
 14
7.765696
 24
80.968621
 34
0.0
 50
90.0
  3
23NSTDI
  0
DIMENSION
  8
DIM
 62
     7
  2
*D34
 10
31.568085
 20
86.530621
 30
0.0
 11
31.568085
 21
82.999621
 31
0.0
 12
0.0
 22
1.404042
 32
0.0
  1
6.969
 13
26.609196
 23
79.468621
 33
0.0
 14
28.109196
 24
86.530621
 34
0.0
 50
90.0
  3
23NSTD
  0
DIMENSION
  8
DIM
 62
     7
  2
*D13
 10
6.012155
 20
80.968621
 30
0.0
 11
6.012155
 21
80.218621
 31
0.0
 12
0.0
 22
3.015248
 32
0.0
  1
1.484
 13
7.609196
 23
79.468621
 33
0.0
 14
7.765696
 24
80.968621
 34
0.0
 50
90.0
  3
23NSTDI
  0
DIMENSION
  8
DIM
 62
     7
  2
*D28
 10
53.299299
 20
78.512845
 30
0.0
 11
45.549299
 21
78.512845
 31
0.0
 12
0.0
 22
3.015248
 32
0.0
 13
37.799299
 23
85.843621
 33
0.0
 14
53.299299
 24
79.468621
 34
0.0
  3
23NSTD
  0
LINE
  8
OBJECT
 62
     7
 10
29.364371
 20
3.362876
 30
0.0
 11
29.302371
 21
3.362876
 31
0.0
  0
LINE
  8
OBJECT
 62
     7
 10
6.676371
 20
3.362876
 30
0.0
 11
6.614371
 21
3.362876
 31
0.0
  0
DIMENSION
  8
DIM
 62
     7
  2
*D24
 10
29.364371
 20
2.233876
 30
0.0
 11
17.989371
 21
2.233876
 31
0.0
 12
0.0
 22
-13.455697
 32
0.0
 13
6.614371
 23
3.362876
 33
0.0
 14
29.364371
 24
3.362876
 34
0.0
 50
180.0
  3
23NSTD
  0
POLYLINE
  8
OBJECT
 62
     7
 66
     1
 10
0.0
 20
0.0
 30
0.0
 70
     1
  0
VERTEX
  8
OBJECT
 62
     7
 10
7.894871
 20
4.268876
 30
0.0
 42
-1.0
  0
VERTEX
  8
OBJECT
 62
     7
 10
7.894871
 20
4.518876
 30
0.0
  0
VERTEX
  8
OBJECT
 62
     7
 10
8.456871
 20
4.518876
 30
0.0
 42
-1.0
  0
VERTEX
  8
OBJECT
 62
     7
 10
8.456871
 20
4.268876
 30
0.0
  0
SEQEND
  8
OBJECT
 62
     7
  0
POLYLINE
  8
OBJECT
 62
     7
 66
     1
 10
0.0
 20
0.0
 30
0.0
 70
     1
  0
VERTEX
  8
OBJECT
 62
     7
 10
10.675871
 20
4.268876
 30
0.0
 42
-1.0
  0
VERTEX
  8
OBJECT
 62
     7
 10
10.675871
 20
4.518876
 30
0.0
  0
VERTEX
  8
OBJECT
 62
     7
 10
11.237871
 20
4.518876
 30
0.0
 42
-1.0
  0
VERTEX
  8
OBJECT
 62
     7
 10
11.237871
 20
4.268876
 30
0.0
  0
SEQEND
  8
OBJECT
 62
     7
  0
LINE
  8
CENTER
 62
     7
 10
11.046871
 20
4.393876
 30
0.0
 11
10.866871
 21
4.393876
 31
0.0
  0
LINE
  8
CENTER
 62
     7
 10
10.956871
 20
4.303876
 30
0.0
 11
10.956871
 21
4.483876
 31
0.0
  0
POLYLINE
  8
OBJECT
 62
     7
 66
     1
 10
0.0
 20
0.0
 30
0.0
 70
     1
  0
VERTEX
  8
OBJECT
 62
     7
 10
13.456871
 20
4.268876
 30
0.0
 42
-1.0
  0
VERTEX
  8
OBJECT
 62
     7
 10
13.456871
 20
4.518876
 30
0.0
  0
VERTEX
  8
OBJECT
 62
     7
 10
14.018871
 20
4.518876
 30
0.0
 42
-1.0
  0
VERTEX
  8
OBJECT
 62
     7
 10
14.018871
 20
4.268876
 30
0.0
  0
SEQEND
  8
OBJECT
 62
     7
  0
LINE
  8
CENTER
 62
     7
 10
13.827871
 20
4.393876
 30
0.0
 11
13.647871
 21
4.393876
 31
0.0
  0
LINE
  8
CENTER
 62
     7
 10
13.737871
 20
4.303876
 30
0.0
 11
13.737871
 21
4.483876
 31
0.0
  0
POLYLINE
  8
OBJECT
 62
     7
 66
     1
 10
0.0
 20
0.0
 30
0.0
 70
     1
  0
VERTEX
  8
OBJECT
 62
     7
 10
16.237871
 20
4.268876
 30
0.0
 42
-1.0
  0
VERTEX
  8
OBJECT
 62
     7
 10
16.237871
 20
4.518876
 30
0.0
  0
VERTEX
  8
OBJECT
 62
     7
 10
16.799871
 20
4.518876
 30
0.0
 42
-1.0
  0
VERTEX
  8
OBJECT
 62
     7
 10
16.799871
 20
4.268876
 30
0.0
  0
SEQEND
  8
OBJECT
 62
     7
  0
LINE
  8
CENTER
 62
     7
 10
16.608871
 20
4.393876
 30
0.0
 11
16.428871
 21
4.393876
 31
0.0
  0
LINE
  8
CENTER
 62
     7
 10
16.518871
 20
4.303876
 30
0.0
 11
16.518871
 21
4.483876
 31
0.0
  0
POLYLINE
  8
OBJECT
 62
     7
 66
     1
 10
0.0
 20
0.0
 30
0.0
 70
     1
  0
VERTEX
  8
OBJECT
 62
     7
 10
28.083871
 20
4.268876
 30
0.0
 42
1.0
  0
VERTEX
  8
OBJECT
 62
     7
 10
28.083871
 20
4.518876
 30
0.0
  0
VERTEX
  8
OBJECT
 62
     7
 10
27.521871
 20
4.518876
 30
0.0
 42
1.0
  0
VERTEX
  8
OBJECT
 62
     7
 10
27.521871
 20
4.268876
 30
0.0
  0
SEQEND
  8
OBJECT
 62
     7
  0
LINE
  8
CENTER
 62
     7
 10
27.712871
 20
4.393876
 30
0.0
 11
27.892871
 21
4.393876
 31
0.0
  0
LINE
  8
CENTER
 62
     7
 10
27.802871
 20
4.303876
 30
0.0
 11
27.802871
 21
4.483876
 31
0.0
  0
POLYLINE
  8
OBJECT
 62
     7
 66
     1
 10
0.0
 20
0.0
 30
0.0
 70
     1
  0
VERTEX
  8
OBJECT
 62
     7
 10
25.302871
 20
4.268876
 30
0.0
 42
1.0
  0
VERTEX
  8
OBJECT
 62
     7
 10
25.302871
 20
4.518876
 30
0.0
  0
VERTEX
  8
OBJECT
 62
     7
 10
24.740871
 20
4.518876
 30
0.0
 42
1.0
  0
VERTEX
  8
OBJECT
 62
     7
 10
24.740871
 20
4.268876
 30
0.0
  0
SEQEND
  8
OBJECT
 62
     7
  0
LINE
  8
CENTER
 62
     7
 10
25.021871
 20
4.303876
 30
0.0
 11
25.021871
 21
4.483876
 31
0.0
  0
LINE
  8
CENTER
 62
     7
 10
24.931871
 20
4.393876
 30
0.0
 11
25.111871
 21
4.393876
 31
0.0
  0
POLYLINE
  8
OBJECT
 62
     7
 66
     1
 10
0.0
 20
0.0
 30
0.0
 70
     1
  0
VERTEX
  8
OBJECT
 62
     7
 10
22.521871
 20
4.268876
 30
0.0
 42
1.0
  0
VERTEX
  8
OBJECT
 62
     7
 10
22.521871
 20
4.518876
 30
0.0
  0
VERTEX
  8
OBJECT
 62
     7
 10
21.959871
 20
4.518876
 30
0.0
 42
1.0
  0
VERTEX
  8
OBJECT
 62
     7
 10
21.959871
 20
4.268876
 30
0.0
  0
SEQEND
  8
OBJECT
 62
     7
  0
LINE
  8
CENTER
 62
     7
 10
22.240871
 20
4.303876
 30
0.0
 11
22.240871
 21
4.483876
 31
0.0
  0
LINE
  8
CENTER
 62
     7
 10
22.150871
 20
4.393876
 30
0.0
 11
22.330871
 21
4.393876
 31
0.0
  0
POLYLINE
  8
OBJECT
 62
     7
 66
     1
 10
0.0
 20
0.0
 30
0.0
 70
     1
  0
VERTEX
  8
OBJECT
 62
     7
 10
19.740871
 20
4.268876
 30
0.0
 42
1.0
  0
VERTEX
  8
OBJECT
 62
     7
 10
19.740871
 20
4.518876
 30
0.0
  0
VERTEX
  8
OBJECT
 62
     7
 10
19.178871
 20
4.518876
 30
0.0
 42
1.0
  0
VERTEX
  8
OBJECT
 62
     7
 10
19.178871
 20
4.268876
 30
0.0
  0
SEQEND
  8
OBJECT
 62
     7
  0
LINE
  8
CENTER
 62
     7
 10
19.459871
 20
4.303876
 30
0.0
 11
19.459871
 21
4.483876
 31
0.0
  0
LINE
  8
CENTER
 62
     7
 10
19.369871
 20
4.393876
 30
0.0
 11
19.549871
 21
4.393876
 31
0.0
  0
LINE
  8
HIDDEN
 62
     7
 10
25.817871
 20
29.738804
 30
0.0
 11
6.691871
 21
29.738804
 31
0.0
  0
LINE
  8
OBJECT
 62
     7
 10
25.817871
 20
30.441804
 30
0.0
 11
6.691871
 21
30.441804
 31
0.0
  0
LINE
  8
OBJECT
 62
     7
 10
25.833371
 20
29.676804
 30
0.0
 11
6.676371
 21
29.676804
 31
0.0
  0
DIMENSION
  8
DIM
 62
     7
  2
*D23
 10
25.895371
 20
27.844804
 30
0.0
 11
16.254871
 21
27.844804
 31
0.0
 12
0.0
 22
24.590096
 32
0.0
 13
6.614371
 23
28.973804
 33
0.0
 14
25.895371
 24
28.973804
 34
0.0
 50
180.0
  3
23NSTD
  0
LINE
  8
OBJECT
 62
     7
 10
6.691871
 20
30.441804
 30
0.0
 11
6.691871
 21
29.676804
 31
0.0
  0
POLYLINE
  8
OBJECT
 62
     7
 66
     1
 10
0.0
 20
0.0
 30
0.0
 70
     1
  0
VERTEX
  8
OBJECT
 62
     7
 10
7.894871
 20
29.879804
 30
0.0
 42
-1.0
  0
VERTEX
  8
OBJECT
 62
     7
 10
7.894871
 20
30.129804
 30
0.0
  0
VERTEX
  8
OBJECT
 62
     7
 10
8.456871
 20
30.129804
 30
0.0
 42
-1.0
  0
VERTEX
  8
OBJECT
 62
     7
 10
8.456871
 20
29.879804
 30
0.0
  0
SEQEND
  8
OBJECT
 62
     7
  0
LINE
  8
OBJECT
 62
     7
 10
6.691871
 20
29.738804
 30
0.0
 11
6.614371
 21
29.738804
 31
0.0
  0
LINE
  8
OBJECT
 62
     7
 10
6.676371
 20
28.973804
 30
0.0
 11
6.676371
 21
29.676804
 31
0.0
  0
LINE
  8
OBJECT
 62
     7
 10
6.614371
 20
28.973804
 30
0.0
 11
6.614371
 21
29.738804
 31
0.0
  0
LINE
  8
OBJECT
 62
     7
 10
6.676371
 20
28.973804
 30
0.0
 11
6.614371
 21
28.973804
 31
0.0
  0
LINE
  8
CENTER
 62
     7
 10
8.265871
 20
30.004804
 30
0.0
 11
8.085871
 21
30.004804
 31
0.0
  0
LINE
  8
CENTER
 62
     7
 10
8.175871
 20
29.914804
 30
0.0
 11
8.175871
 21
30.094804
 31
0.0
  0
POLYLINE
  8
OBJECT
 62
     7
 66
     1
 10
0.0
 20
0.0
 30
0.0
 70
     1
  0
VERTEX
  8
OBJECT
 62
     7
 10
10.675871
 20
29.879804
 30
0.0
 42
-1.0
  0
VERTEX
  8
OBJECT
 62
     7
 10
10.675871
 20
30.129804
 30
0.0
  0
VERTEX
  8
OBJECT
 62
     7
 10
11.237871
 20
30.129804
 30
0.0
 42
-1.0
  0
VERTEX
  8
OBJECT
 62
     7
 10
11.237871
 20
29.879804
 30
0.0
  0
SEQEND
  8
OBJECT
 62
     7
  0
LINE
  8
CENTER
 62
     7
 10
10.956871
 20
29.914804
 30
0.0
 11
10.956871
 21
30.094804
 31
0.0
  0
LINE
  8
CENTER
 62
     7
 10
11.046871
 20
30.004804
 30
0.0
 11
10.866871
 21
30.004804
 31
0.0
  0
POLYLINE
  8
OBJECT
 62
     7
 66
     1
 10
0.0
 20
0.0
 30
0.0
 70
     1
  0
VERTEX
  8
OBJECT
 62
     7
 10
13.456871
 20
29.879804
 30
0.0
 42
-1.0
  0
VERTEX
  8
OBJECT
 62
     7
 10
13.456871
 20
30.129804
 30
0.0
  0
VERTEX
  8
OBJECT
 62
     7
 10
14.018871
 20
30.129804
 30
0.0
 42
-1.0
  0
VERTEX
  8
OBJECT
 62
     7
 10
14.018871
 20
29.879804
 30
0.0
  0
SEQEND
  8
OBJECT
 62
     7
  0
LINE
  8
CENTER
 62
     7
 10
13.737871
 20
29.914804
 30
0.0
 11
13.737871
 21
30.094804
 31
0.0
  0
LINE
  8
CENTER
 62
     7
 10
13.827871
 20
30.004804
 30
0.0
 11
13.647871
 21
30.004804
 31
0.0
  0
POLYLINE
  8
OBJECT
 62
     7
 66
     1
 10
0.0
 20
0.0
 30
0.0
 70
     1
  0
VERTEX
  8
OBJECT
 62
     7
 10
15.707871
 20
29.879804
 30
0.0
 42
-1.0
  0
VERTEX
  8
OBJECT
 62
     7
 10
15.707871
 20
30.129804
 30
0.0
  0
VERTEX
  8
OBJECT
 62
     7
 10
16.801871
 20
30.129804
 30
0.0
 42
-1.0
  0
VERTEX
  8
OBJECT
 62
     7
 10
16.801871
 20
29.879804
 30
0.0
  0
SEQEND
  8
OBJECT
 62
     7
  0
LINE
  8
CENTER
 62
     7
 10
16.344871
 20
30.004804
 30
0.0
 11
16.164871
 21
30.004804
 31
0.0
  0
LINE
  8
CENTER
 62
     7
 10
16.254871
 20
29.914804
 30
0.0
 11
16.254871
 21
30.094804
 31
0.0
  0
POLYLINE
  8
OBJECT
 62
     7
 66
     1
 10
0.0
 20
0.0
 30
0.0
 70
     1
  0
VERTEX
  8
OBJECT
 62
     7
 10
19.052871
 20
29.879804
 30
0.0
 42
1.0
  0
VERTEX
  8
OBJECT
 62
     7
 10
19.052871
 20
30.129804
 30
0.0
  0
VERTEX
  8
OBJECT
 62
     7
 10
18.490871
 20
30.129804
 30
0.0
 42
1.0
  0
VERTEX
  8
OBJECT
 62
     7
 10
18.490871
 20
29.879804
 30
0.0
  0
SEQEND
  8
OBJECT
 62
     7
  0
LINE
  8
CENTER
 62
     7
 10
18.681871
 20
30.004804
 30
0.0
 11
18.861871
 21
30.004804
 31
0.0
  0
LINE
  8
CENTER
 62
     7
 10
18.771871
 20
29.914804
 30
0.0
 11
18.771871
 21
30.094804
 31
0.0
  0
POLYLINE
  8
OBJECT
 62
     7
 66
     1
 10
0.0
 20
0.0
 30
0.0
 70
     1
  0
VERTEX
  8
OBJECT
 62
     7
 10
24.614871
 20
29.879804
 30
0.0
 42
1.0
  0
VERTEX
  8
OBJECT
 62
     7
 10
24.614871
 20
30.129804
 30
0.0
  0
VERTEX
  8
OBJECT
 62
     7
 10
24.052871
 20
30.129804
 30
0.0
 42
1.0
  0
VERTEX
  8
OBJECT
 62
     7
 10
24.052871
 20
29.879804
 30
0.0
  0
SEQEND
  8
OBJECT
 62
     7
  0
POLYLINE
  8
OBJECT
 62
     7
 66
     1
 10
0.0
 20
0.0
 30
0.0
 70
     1
  0
VERTEX
  8
OBJECT
 62
     7
 10
21.833871
 20
29.879804
 30
0.0
 42
1.0
  0
VERTEX
  8
OBJECT
 62
     7
 10
21.833871
 20
30.129804
 30
0.0
  0
VERTEX
  8
OBJECT
 62
     7
 10
21.271871
 20
30.129804
 30
0.0
 42
1.0
  0
VERTEX
  8
OBJECT
 62
     7
 10
21.271871
 20
29.879804
 30
0.0
  0
SEQEND
  8
OBJECT
 62
     7
  0
LINE
  8
CENTER
 62
     7
 10
21.462871
 20
30.004804
 30
0.0
 11
21.642871
 21
30.004804
 31
0.0
  0
LINE
  8
CENTER
 62
     7
 10
21.552871
 20
29.914804
 30
0.0
 11
21.552871
 21
30.094804
 31
0.0
  0
LINE
  8
OBJECT
 62
     7
 10
25.817871
 20
29.676804
 30
0.0
 11
25.817871
 21
30.441804
 31
0.0
  0
LINE
  8
CENTER
 62
     7
 10
24.333871
 20
29.914804
 30
0.0
 11
24.333871
 21
30.094804
 31
0.0
  0
LINE
  8
CENTER
 62
     7
 10
24.243871
 20
30.004804
 30
0.0
 11
24.423871
 21
30.004804
 31
0.0
  0
LINE
  8
OBJECT
 62
     7
 10
25.895371
 20
29.738804
 30
0.0
 11
25.817871
 21
29.738804
 31
0.0
  0
LINE
  8
OBJECT
 62
     7
 10
25.895371
 20
28.973804
 30
0.0
 11
25.833371
 21
28.973804
 31
0.0
  0
LINE
  8
OBJECT
 62
     7
 10
25.895371
 20
28.973804
 30
0.0
 11
25.895371
 21
29.738804
 31
0.0
  0
LINE
  8
OBJECT
 62
     7
 10
25.833371
 20
28.973804
 30
0.0
 11
25.833371
 21
29.676804
 31
0.0
  0
DIMENSION
  8
DIM
 62
     7
  2
*D7
 10
6.691871
 20
35.61543
 30
0.0
 11
2.960621
 21
35.61543
 31
0.0
 12
0.0
 22
24.590096
 32
0.0
 13
8.175871
 23
30.094804
 33
0.0
 14
6.691871
 24
30.441804
 34
0.0
  3
23NSTD
  0
DIMENSION
  8
DIM
 62
     7
  2
*D9
 10
10.956871
 20
33.92943
 30
0.0
 11
9.566371
 21
33.92943
 31
0.0
 12
0.0
 22
24.590096
 32
0.0
 13
8.175871
 23
30.094804
 33
0.0
 14
10.956871
 24
30.094804
 34
0.0
  3
23NSTDI
  0
DIMENSION
  8
DIM
 62
     7
  2
*D8
 10
13.737871
 20
32.24343
 30
0.0
 11
12.347371
 21
32.24343
 31
0.0
 12
0.0
 22
24.590096
 32
0.0
 13
10.956871
 23
30.094804
 33
0.0
 14
13.737871
 24
30.094804
 34
0.0
  3
23NSTDI
  0
DIMENSION
  8
DIM
 62
     7
  2
*D10
 10
16.254871
 20
37.30143
 30
0.0
 11
11.473371
 21
37.30143
 31
0.0
 12
0.0
 22
24.590096
 32
0.0
 13
6.691871
 23
30.441804
 33
0.0
 14
16.254871
 24
30.094804
 34
0.0
  3
23NSTD
  0
DIMENSION
  8
DIM
 62
     7
  2
*D17
 10
6.614371
 20
32.80143
 30
0.0
 11
2.883121
 21
32.80143
 31
0.0
 12
0.0
 22
24.590096
 32
0.0
 13
6.691871
 23
30.441804
 33
0.0
 14
6.614371
 24
29.738804
 34
0.0
  3
23NSTD
  0
DIMENSION
  8
DIM
 62
     7
  2
*D15
 10
39.219291
 20
32.601804
 30
0.0
 11
48.172291
 21
32.601804
 31
0.0
 12
2.367206
 22
24.590096
 32
0.0
 13
57.125291
 23
30.441804
 33
0.0
 14
39.219291
 24
30.441804
 34
0.0
  3
23NSTD
  0
LINE
  8
HIDDEN
 62
     7
 10
39.312291
 20
29.676804
 30
0.0
 11
57.032291
 21
29.676804
 31
0.0
  0
LINE
  8
OBJECT
 62
     7
 10
39.312291
 20
28.973804
 30
0.0
 11
57.032291
 21
28.973804
 31
0.0
  0
LINE
  8
OBJECT
 62
     7
 10
39.281291
 20
29.738804
 30
0.0
 11
57.063291
 21
29.738804
 31
0.0
  0
LINE
  8
OBJECT
 62
     7
 10
39.281291
 20
30.441804
 30
0.0
 11
39.281291
 21
29.738804
 31
0.0
  0
LINE
  8
OBJECT
 62
     7
 10
39.219291
 20
30.441804
 30
0.0
 11
39.219291
 21
29.676804
 31
0.0
  0
LINE
  8
OBJECT
 62
     7
 10
39.219291
 20
30.441804
 30
0.0
 11
39.281291
 21
30.441804
 31
0.0
  0
LINE
  8
OBJECT
 62
     7
 10
39.312291
 20
29.738804
 30
0.0
 11
39.312291
 21
28.973804
 31
0.0
  0
LINE
  8
OBJECT
 62
     7
 10
39.219291
 20
29.676804
 30
0.0
 11
39.312291
 21
29.676804
 31
0.0
  0
DIMENSION
  8
DIM
 62
     7
  2
*D12
 10
58.272269
 20
29.676804
 30
0.0
 11
55.574144
 21
27.516804
 31
0.0
 12
2.367206
 22
24.590096
 32
0.0
 13
57.125291
 23
30.441804
 33
0.0
 14
57.125291
 24
29.676804
 34
0.0
 50
270.0
  3
23NSTD
  0
LINE
  8
OBJECT
 62
     7
 10
57.125291
 20
30.441804
 30
0.0
 11
57.125291
 21
29.676804
 31
0.0
  0
LINE
  8
OBJECT
 62
     7
 10
57.063291
 20
30.441804
 30
0.0
 11
57.063291
 21
29.738804
 31
0.0
  0
LINE
  8
OBJECT
 62
     7
 10
57.125291
 20
30.441804
 30
0.0
 11
57.063291
 21
30.441804
 31
0.0
  0
LINE
  8
OBJECT
 62
     7
 10
57.032291
 20
29.738804
 30
0.0
 11
57.032291
 21
28.973804
 31
0.0
  0
LINE
  8
OBJECT
 62
     7
 10
57.032291
 20
29.676804
 30
0.0
 11
57.125291
 21
29.676804
 31
0.0
  0
DIMENSION
  8
DIM
 62
     7
  2
*D0
 10
37.703533
 20
28.973804
 30
0.0
 11
37.703533
 21
29.707804
 31
0.0
 12
0.267615
 22
24.590096
 32
0.0
 13
39.219291
 23
30.441804
 33
0.0
 14
39.312291
 24
28.973804
 34
0.0
 50
90.0
  3
23NSTDI
  0
DIMENSION
  8
DIM
 62
     7
  2
*D6
 10
13.737871
 20
6.234758
 30
0.0
 11
15.128371
 21
6.234758
 31
0.0
 12
0.0
 22
-15.225047
 32
0.0
 13
16.518871
 23
4.483876
 33
0.0
 14
13.737871
 24
4.483876
 34
0.0
  3
23NSTDI
  0
DIMENSION
  8
DIM
 62
     7
  2
*D5
 10
10.956871
 20
7.920758
 30
0.0
 11
12.347371
 21
7.920758
 31
0.0
 12
0.0
 22
-15.225047
 32
0.0
 13
13.737871
 23
4.483876
 33
0.0
 14
10.956871
 24
4.483876
 34
0.0
  3
23NSTDI
  0
DIMENSION
  8
DIM
 62
     7
  2
*D4
 10
8.175871
 20
9.606758
 30
0.0
 11
9.566371
 21
9.606758
 31
0.0
 12
0.0
 22
-15.225047
 32
0.0
 13
10.956871
 23
4.483876
 33
0.0
 14
8.175871
 24
4.483876
 34
0.0
  3
23NSTDI
  0
DIMENSION
  8
DIM
 62
     7
  2
*D3
 10
6.691871
 20
11.292758
 30
0.0
 11
2.960621
 21
11.292758
 31
0.0
 12
0.0
 22
-15.225047
 32
0.0
 13
8.175871
 23
4.483876
 33
0.0
 14
6.691871
 24
4.830876
 34
0.0
  3
23NSTD
  0
DIMENSION
  8
DIM
 62
     7
  2
*D19
 10
25.021871
 20
8.876502
 30
0.0
 11
23.631371
 21
8.876502
 31
0.0
 12
0.0
 22
-13.455697
 32
0.0
 13
22.240871
 23
4.483876
 33
0.0
 14
25.021871
 24
4.483876
 34
0.0
  3
23NSTDI
  0
DIMENSION
  8
DIM
 62
     7
  2
*D20
 10
27.802871
 20
10.562502
 30
0.0
 11
26.412371
 21
10.562502
 31
0.0
 12
0.0
 22
-13.455697
 32
0.0
 13
25.021871
 23
4.483876
 33
0.0
 14
27.802871
 24
4.483876
 34
0.0
  3
23NSTDI
  0
DIMENSION
  8
DIM
 62
     7
  2
*D21
 10
29.286871
 20
12.248502
 30
0.0
 11
33.018121
 21
12.248502
 31
0.0
 12
0.0
 22
-13.455697
 32
0.0
 13
27.802871
 23
4.483876
 33
0.0
 14
29.286871
 24
4.830876
 34
0.0
  3
23NSTD
  0
DIMENSION
  8
DIM
 62
     7
  2
*D22
 10
22.240871
 20
7.190502
 30
0.0
 11
20.850371
 21
7.190502
 31
0.0
 12
0.0
 22
-13.455697
 32
0.0
 13
19.459871
 23
4.483876
 33
0.0
 14
22.240871
 24
4.483876
 34
0.0
  3
23NSTDI
  0
DIMENSION
  8
DIM
 62
     7
  2
*D26
 10
18.771871
 20
31.662556
 30
0.0
 11
20.162371
 21
31.662556
 31
0.0
 12
0.0
 22
24.590096
 32
0.0
 13
21.552871
 23
30.094804
 33
0.0
 14
18.771871
 24
30.094804
 34
0.0
  3
23NSTDI
  0
DIMENSION
  8
DIM
 62
     7
  2
*D27
 10
21.552871
 20
33.348556
 30
0.0
 11
22.943371
 21
33.348556
 31
0.0
 12
0.0
 22
24.590096
 32
0.0
 13
24.333871
 23
30.094804
 33
0.0
 14
21.552871
 24
30.094804
 34
0.0
  3
23NSTDI
  0
DIMENSION
  8
DIM
 62
     7
  2
*D25
 10
25.817871
 20
35.034556
 30
0.0
 11
29.549121
 21
35.034556
 31
0.0
 12
0.0
 22
24.590096
 32
0.0
 13
24.333871
 23
30.094804
 33
0.0
 14
25.817871
 24
30.441804
 34
0.0
  3
23NSTD
  0
DIMENSION
  8
DIM
 62
     7
  2
*D16
 10
39.219291
 20
6.990876
 30
0.0
 11
48.172291
 21
6.990876
 31
0.0
 12
2.367206
 22
-13.455697
 32
0.0
 13
57.125291
 23
4.830876
 33
0.0
 14
39.219291
 24
4.830876
 34
0.0
  3
23NSTD
  0
LINE
  8
HIDDEN
 62
     7
 10
39.312291
 20
4.065876
 30
0.0
 11
57.032291
 21
4.065876
 31
0.0
  0
LINE
  8
OBJECT
 62
     7
 10
39.312291
 20
3.362876
 30
0.0
 11
57.032291
 21
3.362876
 31
0.0
  0
LINE
  8
OBJECT
 62
     7
 10
39.281291
 20
4.127876
 30
0.0
 11
57.063291
 21
4.127876
 31
0.0
  0
DIMENSION
  8
DIM
 62
     7
  2
*D0
 10
37.703533
 20
3.362876
 30
0.0
 11
37.703533
 21
4.096876
 31
0.0
 12
0.267615
 22
-1.020832
 32
0.0
 13
39.219291
 23
4.830876
 33
0.0
 14
39.312291
 24
3.362876
 34
0.0
 50
90.0
  3
23NSTDI
  0
LINE
  8
OBJECT
 62
     7
 10
39.219291
 20
4.830876
 30
0.0
 11
39.281291
 21
4.830876
 31
0.0
  0
LINE
  8
OBJECT
 62
     7
 10
39.219291
 20
4.065876
 30
0.0
 11
39.312291
 21
4.065876
 31
0.0
  0
LINE
  8
OBJECT
 62
     7
 10
39.219291
 20
4.830876
 30
0.0
 11
39.219291
 21
4.065876
 31
0.0
  0
LINE
  8
OBJECT
 62
     7
 10
39.281291
 20
4.830876
 30
0.0
 11
39.281291
 21
4.127876
 31
0.0
  0
LINE
  8
OBJECT
 62
     7
 10
39.312291
 20
4.127876
 30
0.0
 11
39.312291
 21
3.362876
 31
0.0
  0
DIMENSION
  8
DIM
 62
     7
  2
*D11
 10
58.272269
 20
4.065876
 30
0.0
 11
55.574144
 21
1.905876
 31
0.0
 12
2.367206
 22
-13.455697
 32
0.0
 13
57.125291
 23
4.830876
 33
0.0
 14
57.125291
 24
4.065876
 34
0.0
 50
270.0
  3
23NSTD
  0
LINE
  8
OBJECT
 62
     7
 10
57.125291
 20
4.830876
 30
0.0
 11
57.125291
 21
4.065876
 31
0.0
  0
LINE
  8
OBJECT
 62
     7
 10
57.063291
 20
4.830876
 30
0.0
 11
57.063291
 21
4.127876
 31
0.0
  0
LINE
  8
OBJECT
 62
     7
 10
57.125291
 20
4.830876
 30
0.0
 11
57.063291
 21
4.830876
 31
0.0
  0
LINE
  8
OBJECT
 62
     7
 10
57.032291
 20
4.127876
 30
0.0
 11
57.032291
 21
3.362876
 31
0.0
  0
LINE
  8
OBJECT
 62
     7
 10
57.032291
 20
4.065876
 30
0.0
 11
57.125291
 21
4.065876
 31
0.0
  0
DIMENSION
  8
DIM
 62
     7
  2
*D12
 10
51.526543
 20
28.973804
 30
0.0
 11
48.828418
 21
26.813804
 31
0.0
 12
-4.37852
 22
23.887096
 32
0.0
 13
50.379565
 23
29.738804
 33
0.0
 14
50.379565
 24
28.973804
 34
0.0
 50
270.0
  3
23NSTD
  0
DIMENSION
  8
DIM
 62
     7
  2
*D11
 10
51.526543
 20
3.362876
 30
0.0
 11
48.828418
 21
1.202876
 31
0.0
 12
-4.37852
 22
-14.158697
 32
0.0
 13
50.379565
 23
4.127876
 33
0.0
 14
50.379565
 24
3.362876
 34
0.0
 50
270.0
  3
23NSTD
  0
DIMENSION
  8
DIM
 62
     7
  2
*D18
 10
5.052196
 20
30.004804
 30
0.0
 11
2.354071
 21
27.844804
 31
0.0
 12
0.0
 22
24.590096
 32
0.0
 13
6.691871
 23
30.441804
 33
0.0
 14
8.085871
 24
30.004804
 34
0.0
 50
90.0
  3
23NSTD
  0
DIMENSION
  8
DIM
 62
     7
  2
*D18
 10
5.052196
 20
4.393876
 30
0.0
 11
2.354071
 21
2.233876
 31
0.0
 12
0.0
 22
-1.020832
 32
0.0
 13
6.691871
 23
4.830876
 33
0.0
 14
8.085871
 24
4.393876
 34
0.0
 50
90.0
  3
23NSTD
  0
DIMENSION
  8
DIM
 62
     7
  2
*D17
 10
6.614371
 20
7.190502
 30
0.0
 11
2.883121
 21
7.190502
 31
0.0
 12
0.0
 22
-1.020832
 32
0.0
 13
6.691871
 23
4.830876
 33
0.0
 14
6.614371
 24
4.127876
 34
0.0
  3
23NSTD
  0
POLYLINE
  8
DIM
 62
     7
 66
     1
 10
0.0
 20
0.0
 30
0.0
 41
0.405
  0
VERTEX
  8
DIM
 62
     7
 10
24.614871
 20
30.129804
 30
0.0
  0
VERTEX
  8
DIM
 62
     7
 10
25.455588
 20
30.807738
 30
0.0
 41
0.0
  0
VERTEX
  8
DIM
 62
     7
 10
27.321827
 20
32.312632
 30
0.0
 41
0.0
  0
VERTEX
  8
DIM
 62
     7
 10
28.401827
 20
32.312632
 30
0.0
 41
0.0
  0
SEQEND
  8
DIM
 62
     7
  0
TEXT
  8
DIM
 62
     7
 10
28.941827
 20
31.937632
 30
0.0
 40
0.75
  1
0.250 x 0.812
 41
0.75
  7
TXT
 11
28.941827
 21
32.312632
 31
0.0
 73
     2
  0
TEXT
  8
DIM
 62
     7
 10
28.941827
 20
30.687632
 30
0.0
 40
0.75
  1
(12) SLOTS
 41
0.75
  7
TXT
 11
28.941827
 21
31.062632
 31
0.0
 73
     2
  0
POLYLINE
  8
DIM
 62
     7
 66
     1
 10
0.0
 20
0.0
 30
0.0
 41
0.405
  0
VERTEX
  8
DIM
 62
     7
 10
28.083871
 20
4.518876
 30
0.0
  0
VERTEX
  8
DIM
 62
     7
 10
28.483057
 20
5.522395
 30
0.0
 41
0.0
  0
VERTEX
  8
DIM
 62
     7
 10
29.819285
 20
8.881553
 30
0.0
 41
0.0
  0
VERTEX
  8
DIM
 62
     7
 10
30.899285
 20
8.881553
 30
0.0
 41
0.0
  0
SEQEND
  8
DIM
 62
     7
  0
TEXT
  8
DIM
 62
     7
 10
31.439285
 20
7.256553
 30
0.0
 40
0.75
  1
(16) SLOTS
 41
0.75
  7
TXT
 11
31.439285
 21
7.631553
 31
0.0
 73
     2
  0
TEXT
  8
DIM
 62
     7
 10
31.439285
 20
8.506553
 30
0.0
 40
0.75
  1
0.250 x 0.812
 41
0.75
  7
TXT
 11
31.439285
 21
8.881553
 31
0.0
 73
     2
  0
POLYLINE
  8
DIM
 62
     7
 66
     1
 10
0.0
 20
0.0
 30
0.0
 41
0.405
  0
VERTEX
  8
DIM
 62
     7
 10
16.500748
 20
30.129804
 30
0.0
  0
VERTEX
  8
DIM
 62
     7
 10
16.82557
 20
31.159799
 30
0.0
 41
0.0
  0
VERTEX
  8
DIM
 62
     7
 10
18.887164
 20
37.69703
 30
0.0
 41
0.0
  0
VERTEX
  8
DIM
 62
     7
 10
19.967164
 20
37.69703
 30
0.0
 41
0.0
  0
SEQEND
  8
DIM
 62
     7
  0
TEXT
  8
DIM
 62
     7
 10
20.507164
 20
37.32203
 30
0.0
 40
0.75
  1
0.250 x 1.344
 41
0.75
  7
TXT
 11
20.507164
 21
37.69703
 31
0.0
 73
     2
  0
TEXT
  8
DIM
 62
     7
 10
20.507164
 20
36.07203
 30
0.0
 40
0.75
  1
(2) SLOTS
 41
0.75
  7
TXT
 11
20.507164
 21
36.44703
 31
0.0
 73
     2
  0
POLYLINE
  8
OBJECT
 62
     7
 66
     1
 10
0.0
 20
0.0
 30
0.0
 70
     1
  0
VERTEX
  8
OBJECT
 62
     7
 10
26.188196
 20
59.882026
 30
0.0
 42
1.0
  0
VERTEX
  8
OBJECT
 62
     7
 10
26.406196
 20
59.882026
 30
0.0
  0
VERTEX
  8
OBJECT
 62
     7
 10
26.406196
 20
60.914026
 30
0.0
 42
1.0
  0
VERTEX
  8
OBJECT
 62
     7
 10
26.188196
 20
60.914026
 30
0.0
  0
SEQEND
  8
OBJECT
 62
     7
  0
POLYLINE
  8
OBJECT
 62
     7
 66
     1
 10
0.0
 20
0.0
 30
0.0
 70
     1
  0
VERTEX
  8
OBJECT
 62
     7
 10
26.188196
 20
70.914026
 30
0.0
  0
VERTEX
  8
OBJECT
 62
     7
 10
26.188196
 20
69.882026
 30
0.0
 42
1.0
  0
VERTEX
  8
OBJECT
 62
     7
 10
26.406196
 20
69.882026
 30
0.0
  0
VERTEX
  8
OBJECT
 62
     7
 10
26.406196
 20
70.914026
 30
0.0
 42
1.0
  0
SEQEND
  8
OBJECT
 62
     7
  0
POLYLINE
  8
OBJECT
 62
     7
 66
     1
 10
0.0
 20
0.0
 30
0.0
  0
VERTEX
  8
OBJECT
 62
     7
 10
25.843196
 20
72.398026
 30
0.0
  0
VERTEX
  8
OBJECT
 62
     7
 10
25.843196
 20
57.007026
 30
0.0
  0
VERTEX
  8
OBJECT
 62
     7
 10
26.609196
 20
57.007026
 30
0.0
  0
VERTEX
  8
OBJECT
 62
     7
 10
26.609196
 20
56.898026
 30
0.0
  0
VERTEX
  8
OBJECT
 62
     7
 10
25.734196
 20
56.898026
 30
0.0
  0
VERTEX
  8
OBJECT
 62
     7
 10
25.734196
 20
72.398026
 30
0.0
  0
VERTEX
  8
OBJECT
 62
     7
 10
26.609196
 20
72.398026
 30
0.0
  0
VERTEX
  8
OBJECT
 62
     7
 10
26.609196
 20
58.023026
 30
0.0
  0
VERTEX
  8
OBJECT
 62
     7
 10
25.843196
 20
58.023026
 30
0.0
  0
SEQEND
  8
OBJECT
 62
     7
  0
POLYLINE
  8
OBJECT
 62
     7
 66
     1
 10
0.0
 20
0.0
 30
0.0
  0
VERTEX
  8
OBJECT
 62
     7
 10
8.375196
 20
72.398026
 30
0.0
  0
VERTEX
  8
OBJECT
 62
     7
 10
8.375196
 20
57.007026
 30
0.0
  0
VERTEX
  8
OBJECT
 62
     7
 10
7.609196
 20
57.007026
 30
0.0
  0
VERTEX
  8
OBJECT
 62
     7
 10
7.609196
 20
56.898026
 30
0.0
  0
VERTEX
  8
OBJECT
 62
     7
 10
8.484196
 20
56.898026
 30
0.0
  0
VERTEX
  8
OBJECT
 62
     7
 10
8.484196
 20
72.398026
 30
0.0
  0
VERTEX
  8
OBJECT
 62
     7
 10
7.609196
 20
72.398026
 30
0.0
  0
VERTEX
  8
OBJECT
 62
     7
 10
7.609196
 20
58.023026
 30
0.0
  0
VERTEX
  8
OBJECT
 62
     7
 10
8.375196
 20
58.023026
 30
0.0
  0
SEQEND
  8
OBJECT
 62
     7
  0
POLYLINE
  8
OBJECT
 62
     7
 66
     1
 10
0.0
 20
0.0
 30
0.0
 70
     1
  0
VERTEX
  8
OBJECT
 62
     7
 10
8.030196
 20
59.882026
 30
0.0
 42
-1.0
  0
VERTEX
  8
OBJECT
 62
     7
 10
7.812196
 20
59.882026
 30
0.0
  0
VERTEX
  8
OBJECT
 62
     7
 10
7.812196
 20
60.914026
 30
0.0
 42
-1.0
  0
VERTEX
  8
OBJECT
 62
     7
 10
8.030196
 20
60.914026
 30
0.0
  0
SEQEND
  8
OBJECT
 62
     7
  0
CIRCLE
  8
OBJECT
 62
     7
 10
7.921196
 20
59.898026
 30
0.0
 40
0.095
  0
POLYLINE
  8
OBJECT
 62
     7
 66
     1
 10
0.0
 20
0.0
 30
0.0
 70
     1
  0
VERTEX
  8
OBJECT
 62
     7
 10
8.108196
 20
59.790061
 30
0.0
  0
VERTEX
  8
OBJECT
 62
     7
 10
7.921196
 20
59.682097
 30
0.0
  0
VERTEX
  8
OBJECT
 62
     7
 10
7.734196
 20
59.790061
 30
0.0
  0
VERTEX
  8
OBJECT
 62
     7
 10
7.734196
 20
60.00599
 30
0.0
  0
VERTEX
  8
OBJECT
 62
     7
 10
7.921196
 20
60.113955
 30
0.0
  0
VERTEX
  8
OBJECT
 62
     7
 10
8.108196
 20
60.00599
 30
0.0
  0
SEQEND
  8
OBJECT
 62
     7
  0
POLYLINE
  8
OBJECT
 62
     7
 66
     1
 10
0.0
 20
0.0
 30
0.0
 70
     1
  0
VERTEX
  8
OBJECT
 62
     7
 10
8.030196
 20
70.914026
 30
0.0
  0
VERTEX
  8
OBJECT
 62
     7
 10
8.030196
 20
69.882026
 30
0.0
 42
-1.0
  0
VERTEX
  8
OBJECT
 62
     7
 10
7.812196
 20
69.882026
 30
0.0
  0
VERTEX
  8
OBJECT
 62
     7
 10
7.812196
 20
70.914026
 30
0.0
 42
-1.0
  0
SEQEND
  8
OBJECT
 62
     7
  0
CIRCLE
  8
OBJECT
 62
     7
 10
7.921196
 20
69.898026
 30
0.0
 40
0.095
  0
POLYLINE
  8
OBJECT
 62
     7
 66
     1
 10
0.0
 20
0.0
 30
0.0
 70
     1
  0
VERTEX
  8
OBJECT
 62
     7
 10
8.108196
 20
69.790061
 30
0.0
  0
VERTEX
  8
OBJECT
 62
     7
 10
7.921196
 20
69.682097
 30
0.0
  0
VERTEX
  8
OBJECT
 62
     7
 10
7.734196
 20
69.790061
 30
0.0
  0
VERTEX
  8
OBJECT
 62
     7
 10
7.734196
 20
70.00599
 30
0.0
  0
VERTEX
  8
OBJECT
 62
     7
 10
7.921196
 20
70.113955
 30
0.0
  0
VERTEX
  8
OBJECT
 62
     7
 10
8.108196
 20
70.00599
 30
0.0
  0
SEQEND
  8
OBJECT
 62
     7
  0
POLYLINE
  8
OBJECT
 62
     7
 66
     1
 10
0.0
 20
0.0
 30
0.0
  0
VERTEX
  8
OBJECT
 62
     7
 10
52.174299
 20
86.468621
 30
0.0
  0
VERTEX
  8
OBJECT
 62
     7
 10
52.174299
 20
85.843621
 30
0.0
  0
VERTEX
  8
OBJECT
 62
     7
 10
53.299299
 20
85.843621
 30
0.0
  0
VERTEX
  8
OBJECT
 62
     7
 10
53.299299
 20
79.468621
 30
0.0
  0
VERTEX
  8
OBJECT
 62
     7
 10
52.549299
 20
79.468621
 30
0.0
  0
VERTEX
  8
OBJECT
 62
     7
 10
37.799299
 20
85.843621
 30
0.0
  0
VERTEX
  8
OBJECT
 62
     7
 10
37.799299
 20
86.468621
 30
0.0
  0
SEQEND
  8
OBJECT
 62
     7
  0
POLYLINE
  8
OBJECT
  6
PHANTOM2
 62
     7
 66
     1
 10
0.0
 20
0.0
 30
0.0
  0
VERTEX
  8
OBJECT
  6
PHANTOM2
 62
     7
 10
53.049299
 20
86.468621
 30
0.0
  0
VERTEX
  8
OBJECT
  6
PHANTOM2
 62
     7
 10
53.049299
 20
85.843621
 30
0.0
  0
VERTEX
  8
OBJECT
  6
PHANTOM2
 62
     7
 10
54.174299
 20
85.843621
 30
0.0
  0
VERTEX
  8
OBJECT
  6
PHANTOM2
 62
     7
 10
54.174299
 20
79.468621
 30
0.0
  0
VERTEX
  8
OBJECT
  6
PHANTOM2
 62
     7
 10
53.424299
 20
79.468621
 30
0.0
  0
VERTEX
  8
OBJECT
  6
PHANTOM2
 62
     7
 10
38.674299
 20
85.843621
 30
0.0
  0
VERTEX
  8
OBJECT
  6
PHANTOM2
 62
     7
 10
38.674299
 20
86.468621
 30
0.0
  0
SEQEND
  8
OBJECT
  6
PHANTOM2
 62
     7
  0
DIMENSION
  8
DIM
 62
     7
  2
*D30
 10
54.174299
 20
88.140717
 30
0.0
 11
57.952424
 21
88.140717
 31
0.0
 12
0.0
 22
3.015248
 32
0.0
 13
53.299299
 23
86.530621
 33
0.0
 14
54.174299
 24
85.843621
 34
0.0
  3
23NSTD
  0
LINE
  8
OBJECT
 62
     7
 10
18.706144
 20
39.049757
 30
0.0
 11
35.547846
 21
43.562477
 31
0.0
  0
LINE
  8
OBJECT
 62
     7
 10
33.766498
 20
44.039788
 30
0.0
 11
21.899859
 21
47.219444
 31
0.0
  0
LINE
  8
OBJECT
 62
     7
 10
18.706144
 20
39.971152
 30
0.0
 11
35.547846
 21
44.483873
 31
0.0
  0
LINE
  8
OBJECT
 62
     7
 10
18.644144
 20
39.987765
 30
0.0
 11
35.485846
 21
44.500486
 31
0.0
  0
LINE
  8
OBJECT
 62
     7
 10
5.01427
 20
42.685257
 30
0.0
 11
18.566144
 21
39.054044
 31
0.0
  0
LINE
  8
OBJECT
 62
     7
 10
5.01427
 20
41.9088
 30
0.0
 11
18.566144
 21
38.277587
 31
0.0
  0
LINE
  8
OBJECT
 62
     7
 10
21.839972
 20
48.156886
 30
0.0
 11
4.99827
 21
43.644166
 31
0.0
  0
LINE
  8
OBJECT
 62
     7
 10
21.899859
 20
48.14084
 30
0.0
 11
5.058158
 21
43.628119
 31
0.0
  0
LINE
  8
OBJECT
 62
     7
 10
21.917972
 20
47.214591
 30
0.0
 11
5.01427
 21
42.685257
 31
0.0
  0
LINE
  8
OBJECT
 62
     7
 10
4.99827
 20
42.658583
 30
0.0
 11
4.99827
 21
43.644166
 31
0.0
  0
LINE
  8
OBJECT
 62
     7
 10
5.058158
 20
42.697017
 30
0.0
 11
5.058158
 21
43.628119
 31
0.0
  0
LINE
  8
OBJECT
 62
     7
 10
5.058158
 20
43.628119
 30
0.0
 11
4.99827
 21
43.644166
 31
0.0
  0
LINE
  8
OBJECT
 62
     7
 10
4.99827
 20
42.658583
 30
0.0
 11
5.01427
 21
42.654296
 31
0.0
  0
LINE
  8
OBJECT
 62
     7
 10
5.01427
 20
41.9088
 30
0.0
 11
5.01427
 21
42.685257
 31
0.0
  0
POLYLINE
  8
OBJECT
 62
     7
 66
     1
 10
0.0
 20
0.0
 30
0.0
  0
VERTEX
  8
OBJECT
 62
     7
 10
6.732376
 20
43.546818
 30
0.0
 42
0.072341
 70
     2
 50
30.0
  0
VERTEX
  8
OBJECT
 62
     7
 10
6.77191
 20
43.578013
 30
0.0
 42
0.058752
 50
30.0
  0
VERTEX
  8
OBJECT
 62
     7
 10
6.808923
 20
43.627624
 30
0.0
 42
0.058752
  0
VERTEX
  8
OBJECT
 62
     7
 10
6.833381
 20
43.684484
 30
0.0
 42
0.072341
  0
VERTEX
  8
OBJECT
 62
     7
 10
6.840629
 20
43.734318
 30
0.0
 42
0.106617
 70
     2
 50
90.0
  0
VERTEX
  8
OBJECT
 62
     7
 10
6.830699
 20
43.780361
 30
0.0
 42
0.070004
 50
90.0
  0
VERTEX
  8
OBJECT
 62
     7
 10
6.8228
 20
43.79283
 30
0.0
 42
0.156851
  0
SEQEND
  8
OBJECT
 62
     7
  0
LINE
  8
OBJECT
 62
     7
 10
6.217604
 20
43.626792
 30
0.0
 11
6.792264
 21
43.780772
 31
0.0
  0
POLYLINE
  8
OBJECT
 62
     7
 66
     1
 10
0.0
 20
0.0
 30
0.0
  0
VERTEX
  8
OBJECT
 62
     7
 10
6.792264
 20
43.530772
 30
0.0
 42
0.072341
 70
     2
 50
30.0
  0
VERTEX
  8
OBJECT
 62
     7
 10
6.831798
 20
43.561966
 30
0.0
 42
0.058752
 50
30.0
  0
VERTEX
  8
OBJECT
 62
     7
 10
6.86881
 20
43.611577
 30
0.0
 42
0.058752
  0
VERTEX
  8
OBJECT
 62
     7
 10
6.893269
 20
43.668437
 30
0.0
 42
0.072341
  0
VERTEX
  8
OBJECT
 62
     7
 10
6.900517
 20
43.718272
 30
0.0
 42
0.106617
 70
     2
 50
90.0
  0
VERTEX
  8
OBJECT
 62
     7
 10
6.890586
 20
43.764315
 30
0.0
 42
0.156851
 50
90.0
  0
VERTEX
  8
OBJECT
 62
     7
 10
6.86881
 20
43.788354
 30
0.0
 42
0.156851
  0
VERTEX
  8
OBJECT
 62
     7
 10
6.837104
 20
43.795193
 30
0.0
 42
0.106617
  0
VERTEX
  8
OBJECT
 62
     7
 10
6.792264
 20
43.780772
 30
0.0
 42
0.072341
 70
     2
 50
210.0
  0
SEQEND
  8
OBJECT
 62
     7
  0
POLYLINE
  8
OBJECT
 62
     7
 66
     1
 10
0.0
 20
0.0
 30
0.0
  0
VERTEX
  8
OBJECT
 62
     7
 10
6.12718
 20
43.38078
 30
0.0
 42
0.073881
  0
VERTEX
  8
OBJECT
 62
     7
 10
6.157716
 20
43.392839
 30
0.0
 42
0.072341
 70
     2
 50
30.0
  0
SEQEND
  8
OBJECT
 62
     7
  0
LINE
  8
OBJECT
 62
     7
 10
6.732376
 20
43.546818
 30
0.0
 11
6.157716
 21
43.392839
 31
0.0
  0
LINE
  8
OBJECT
 62
     7
 10
6.792264
 20
43.530772
 30
0.0
 11
6.217604
 21
43.376792
 31
0.0
  0
POLYLINE
  8
OBJECT
 62
     7
 66
     1
 10
0.0
 20
0.0
 30
0.0
  0
VERTEX
  8
OBJECT
 62
     7
 10
6.217604
 20
43.626792
 30
0.0
 42
0.072341
 70
     2
 50
210.0
  0
VERTEX
  8
OBJECT
 62
     7
 10
6.17807
 20
43.595597
 30
0.0
 42
0.058752
 50
210.0
  0
VERTEX
  8
OBJECT
 62
     7
 10
6.141057
 20
43.545986
 30
0.0
 42
0.058752
  0
SEQEND
  8
OBJECT
 62
     7
  0
POLYLINE
  8
OBJECT
 62
     7
 66
     1
 10
0.0
 20
0.0
 30
0.0
  0
VERTEX
  8
OBJECT
 62
     7
 10
6.141057
 20
43.545986
 30
0.0
 42
0.058752
  0
VERTEX
  8
OBJECT
 62
     7
 10
6.116599
 20
43.489126
 30
0.0
 42
0.072341
  0
VERTEX
  8
OBJECT
 62
     7
 10
6.10935
 20
43.439292
 30
0.0
 42
0.106617
 70
     2
 50
270.0
  0
VERTEX
  8
OBJECT
 62
     7
 10
6.119281
 20
43.393249
 30
0.0
 42
0.156851
 50
270.0
  0
VERTEX
  8
OBJECT
 62
     7
 10
6.141057
 20
43.369209
 30
0.0
 42
0.156851
  0
VERTEX
  8
OBJECT
 62
     7
 10
6.172764
 20
43.362371
 30
0.0
 42
0.106617
  0
VERTEX
  8
OBJECT
 62
     7
 10
6.217604
 20
43.376792
 30
0.0
 42
0.072341
 70
     2
 50
30.0
  0
SEQEND
  8
OBJECT
 62
     7
  0
LINE
  8
OBJECT
 62
     7
 10
8.572531
 20
44.257793
 30
0.0
 11
9.147191
 21
44.411772
 31
0.0
  0
LINE
  8
OBJECT
 62
     7
 10
9.147191
 20
44.161772
 30
0.0
 11
8.572531
 21
44.007793
 31
0.0
  0
LINE
  8
OBJECT
 62
     7
 10
9.087303
 20
44.177819
 30
0.0
 11
8.512643
 21
44.023839
 31
0.0
  0
POLYLINE
  8
OBJECT
 62
     7
 66
     1
 10
0.0
 20
0.0
 30
0.0
  0
VERTEX
  8
OBJECT
 62
     7
 10
8.495984
 20
44.176987
 30
0.0
 42
0.058752
  0
VERTEX
  8
OBJECT
 62
     7
 10
8.471526
 20
44.120127
 30
0.0
 42
0.072341
  0
VERTEX
  8
OBJECT
 62
     7
 10
8.464278
 20
44.070293
 30
0.0
 42
0.106617
 70
     2
 50
270.0
  0
VERTEX
  8
OBJECT
 62
     7
 10
8.474208
 20
44.02425
 30
0.0
 42
0.156851
 50
270.0
  0
VERTEX
  8
OBJECT
 62
     7
 10
8.495984
 20
44.00021
 30
0.0
 42
0.156851
  0
VERTEX
  8
OBJECT
 62
     7
 10
8.527691
 20
43.993371
 30
0.0
 42
0.106617
  0
VERTEX
  8
OBJECT
 62
     7
 10
8.572531
 20
44.007793
 30
0.0
 42
0.072341
 70
     2
 50
30.0
  0
SEQEND
  8
OBJECT
 62
     7
  0
POLYLINE
  8
OBJECT
 62
     7
 66
     1
 10
0.0
 20
0.0
 30
0.0
  0
VERTEX
  8
OBJECT
 62
     7
 10
8.572531
 20
44.257793
 30
0.0
 42
0.072341
 70
     2
 50
210.0
  0
VERTEX
  8
OBJECT
 62
     7
 10
8.532997
 20
44.226598
 30
0.0
 42
0.058752
 50
210.0
  0
VERTEX
  8
OBJECT
 62
     7
 10
8.495984
 20
44.176987
 30
0.0
 42
0.058752
  0
SEQEND
  8
OBJECT
 62
     7
  0
POLYLINE
  8
OBJECT
 62
     7
 66
     1
 10
0.0
 20
0.0
 30
0.0
  0
VERTEX
  8
OBJECT
 62
     7
 10
8.482107
 20
44.01178
 30
0.0
 42
0.073881
  0
VERTEX
  8
OBJECT
 62
     7
 10
8.512643
 20
44.023839
 30
0.0
 42
0.072341
 70
     2
 50
30.0
  0
SEQEND
  8
OBJECT
 62
     7
  0
POLYLINE
  8
OBJECT
 62
     7
 66
     1
 10
0.0
 20
0.0
 30
0.0
  0
VERTEX
  8
OBJECT
 62
     7
 10
9.147191
 20
44.161772
 30
0.0
 42
0.072341
 70
     2
 50
30.0
  0
VERTEX
  8
OBJECT
 62
     7
 10
9.186725
 20
44.192967
 30
0.0
 42
0.058752
 50
30.0
  0
VERTEX
  8
OBJECT
 62
     7
 10
9.223737
 20
44.242578
 30
0.0
 42
0.058752
  0
VERTEX
  8
OBJECT
 62
     7
 10
9.248196
 20
44.299438
 30
0.0
 42
0.072341
  0
VERTEX
  8
OBJECT
 62
     7
 10
9.255444
 20
44.349272
 30
0.0
 42
0.106617
 70
     2
 50
90.0
  0
VERTEX
  8
OBJECT
 62
     7
 10
9.245513
 20
44.395315
 30
0.0
 42
0.156851
 50
90.0
  0
VERTEX
  8
OBJECT
 62
     7
 10
9.223737
 20
44.419355
 30
0.0
 42
0.156851
  0
VERTEX
  8
OBJECT
 62
     7
 10
9.192031
 20
44.426194
 30
0.0
 42
0.106617
  0
VERTEX
  8
OBJECT
 62
     7
 10
9.147191
 20
44.411772
 30
0.0
 42
0.072341
 70
     2
 50
210.0
  0
SEQEND
  8
OBJECT
 62
     7
  0
POLYLINE
  8
OBJECT
 62
     7
 66
     1
 10
0.0
 20
0.0
 30
0.0
  0
VERTEX
  8
OBJECT
 62
     7
 10
9.087303
 20
44.177819
 30
0.0
 42
0.072341
 70
     2
 50
30.0
  0
VERTEX
  8
OBJECT
 62
     7
 10
9.126837
 20
44.209013
 30
0.0
 42
0.058752
 50
30.0
  0
VERTEX
  8
OBJECT
 62
     7
 10
9.16385
 20
44.258625
 30
0.0
 42
0.058752
  0
VERTEX
  8
OBJECT
 62
     7
 10
9.188309
 20
44.315485
 30
0.0
 42
0.072341
  0
VERTEX
  8
OBJECT
 62
     7
 10
9.195557
 20
44.365319
 30
0.0
 42
0.106617
 70
     2
 50
90.0
  0
VERTEX
  8
OBJECT
 62
     7
 10
9.185626
 20
44.411362
 30
0.0
 42
0.070004
 50
90.0
  0
VERTEX
  8
OBJECT
 62
     7
 10
9.177727
 20
44.423831
 30
0.0
 42
0.156851
  0
SEQEND
  8
OBJECT
 62
     7
  0
POLYLINE
  8
OBJECT
 62
     7
 66
     1
 10
0.0
 20
0.0
 30
0.0
  0
VERTEX
  8
OBJECT
 62
     7
 10
10.837034
 20
44.642781
 30
0.0
 42
0.073881
  0
VERTEX
  8
OBJECT
 62
     7
 10
10.867571
 20
44.65484
 30
0.0
 42
0.072341
 70
     2
 50
30.0
  0
SEQEND
  8
OBJECT
 62
     7
  0
POLYLINE
  8
OBJECT
 62
     7
 66
     1
 10
0.0
 20
0.0
 30
0.0
  0
VERTEX
  8
OBJECT
 62
     7
 10
11.442231
 20
44.80882
 30
0.0
 42
0.072341
 70
     2
 50
30.0
  0
VERTEX
  8
OBJECT
 62
     7
 10
11.481765
 20
44.840014
 30
0.0
 42
0.058752
 50
30.0
  0
VERTEX
  8
OBJECT
 62
     7
 10
11.518777
 20
44.889626
 30
0.0
 42
0.058752
  0
VERTEX
  8
OBJECT
 62
     7
 10
11.543236
 20
44.946485
 30
0.0
 42
0.072341
  0
VERTEX
  8
OBJECT
 62
     7
 10
11.550484
 20
44.99632
 30
0.0
 42
0.106617
 70
     2
 50
90.0
  0
VERTEX
  8
OBJECT
 62
     7
 10
11.540553
 20
45.042363
 30
0.0
 42
0.070004
 50
90.0
  0
VERTEX
  8
OBJECT
 62
     7
 10
11.532655
 20
45.054832
 30
0.0
 42
0.156851
  0
SEQEND
  8
OBJECT
 62
     7
  0
LINE
  8
OBJECT
 62
     7
 10
11.442231
 20
44.80882
 30
0.0
 11
10.867571
 21
44.65484
 31
0.0
  0
LINE
  8
OBJECT
 62
     7
 10
11.502118
 20
44.792773
 30
0.0
 11
10.927458
 21
44.638793
 31
0.0
  0
LINE
  8
OBJECT
 62
     7
 10
10.927458
 20
44.888793
 30
0.0
 11
11.502118
 21
45.042773
 31
0.0
  0
POLYLINE
  8
OBJECT
 62
     7
 66
     1
 10
0.0
 20
0.0
 30
0.0
  0
VERTEX
  8
OBJECT
 62
     7
 10
10.927458
 20
44.888793
 30
0.0
 42
0.072341
 70
     2
 50
210.0
  0
VERTEX
  8
OBJECT
 62
     7
 10
10.887924
 20
44.857599
 30
0.0
 42
0.058752
 50
210.0
  0
VERTEX
  8
OBJECT
 62
     7
 10
10.850911
 20
44.807988
 30
0.0
 42
0.058752
  0
SEQEND
  8
OBJECT
 62
     7
  0
POLYLINE
  8
OBJECT
 62
     7
 66
     1
 10
0.0
 20
0.0
 30
0.0
  0
VERTEX
  8
OBJECT
 62
     7
 10
10.850911
 20
44.807988
 30
0.0
 42
0.058752
  0
VERTEX
  8
OBJECT
 62
     7
 10
10.826453
 20
44.751128
 30
0.0
 42
0.072341
  0
VERTEX
  8
OBJECT
 62
     7
 10
10.819205
 20
44.701293
 30
0.0
 42
0.106617
 70
     2
 50
270.0
  0
VERTEX
  8
OBJECT
 62
     7
 10
10.829136
 20
44.65525
 30
0.0
 42
0.156851
 50
270.0
  0
VERTEX
  8
OBJECT
 62
     7
 10
10.850911
 20
44.631211
 30
0.0
 42
0.156851
  0
VERTEX
  8
OBJECT
 62
     7
 10
10.882618
 20
44.624372
 30
0.0
 42
0.106617
  0
VERTEX
  8
OBJECT
 62
     7
 10
10.927458
 20
44.638793
 30
0.0
 42
0.072341
 70
     2
 50
30.0
  0
SEQEND
  8
OBJECT
 62
     7
  0
POLYLINE
  8
OBJECT
 62
     7
 66
     1
 10
0.0
 20
0.0
 30
0.0
  0
VERTEX
  8
OBJECT
 62
     7
 10
11.502118
 20
44.792773
 30
0.0
 42
0.072341
 70
     2
 50
30.0
  0
VERTEX
  8
OBJECT
 62
     7
 10
11.541652
 20
44.823968
 30
0.0
 42
0.058752
 50
30.0
  0
VERTEX
  8
OBJECT
 62
     7
 10
11.578665
 20
44.873579
 30
0.0
 42
0.058752
  0
VERTEX
  8
OBJECT
 62
     7
 10
11.603123
 20
44.930439
 30
0.0
 42
0.072341
  0
VERTEX
  8
OBJECT
 62
     7
 10
11.610371
 20
44.980273
 30
0.0
 42
0.106617
 70
     2
 50
90.0
  0
VERTEX
  8
OBJECT
 62
     7
 10
11.60044
 20
45.026316
 30
0.0
 42
0.156851
 50
90.0
  0
VERTEX
  8
OBJECT
 62
     7
 10
11.578665
 20
45.050356
 30
0.0
 42
0.156851
  0
VERTEX
  8
OBJECT
 62
     7
 10
11.546958
 20
45.057194
 30
0.0
 42
0.106617
  0
VERTEX
  8
OBJECT
 62
     7
 10
11.502118
 20
45.042773
 30
0.0
 42
0.072341
 70
     2
 50
210.0
  0
SEQEND
  8
OBJECT
 62
     7
  0
POLYLINE
  8
OBJECT
 62
     7
 66
     1
 10
0.0
 20
0.0
 30
0.0
  0
VERTEX
  8
OBJECT
 62
     7
 10
13.857045
 20
45.423774
 30
0.0
 42
0.072341
 70
     2
 50
30.0
  0
VERTEX
  8
OBJECT
 62
     7
 10
13.896579
 20
45.454968
 30
0.0
 42
0.058752
 50
30.0
  0
VERTEX
  8
OBJECT
 62
     7
 10
13.933592
 20
45.50458
 30
0.0
 42
0.058752
  0
VERTEX
  8
OBJECT
 62
     7
 10
13.95805
 20
45.561439
 30
0.0
 42
0.072341
  0
VERTEX
  8
OBJECT
 62
     7
 10
13.965298
 20
45.611274
 30
0.0
 42
0.106617
 70
     2
 50
90.0
  0
VERTEX
  8
OBJECT
 62
     7
 10
13.955368
 20
45.657317
 30
0.0
 42
0.156851
 50
90.0
  0
VERTEX
  8
OBJECT
 62
     7
 10
13.933592
 20
45.681357
 30
0.0
 42
0.156851
  0
VERTEX
  8
OBJECT
 62
     7
 10
13.901885
 20
45.688195
 30
0.0
 42
0.106617
  0
VERTEX
  8
OBJECT
 62
     7
 10
13.857045
 20
45.673774
 30
0.0
 42
0.072341
 70
     2
 50
210.0
  0
SEQEND
  8
OBJECT
 62
     7
  0
POLYLINE
  8
OBJECT
 62
     7
 66
     1
 10
0.0
 20
0.0
 30
0.0
  0
VERTEX
  8
OBJECT
 62
     7
 10
13.205839
 20
45.438988
 30
0.0
 42
0.058752
  0
VERTEX
  8
OBJECT
 62
     7
 10
13.18138
 20
45.382129
 30
0.0
 42
0.072341
  0
VERTEX
  8
OBJECT
 62
     7
 10
13.174132
 20
45.332294
 30
0.0
 42
0.106617
 70
     2
 50
270.0
  0
VERTEX
  8
OBJECT
 62
     7
 10
13.184063
 20
45.286251
 30
0.0
 42
0.156851
 50
270.0
  0
VERTEX
  8
OBJECT
 62
     7
 10
13.205839
 20
45.262212
 30
0.0
 42
0.156851
  0
VERTEX
  8
OBJECT
 62
     7
 10
13.237545
 20
45.255373
 30
0.0
 42
0.106617
  0
VERTEX
  8
OBJECT
 62
     7
 10
13.282385
 20
45.269794
 30
0.0
 42
0.072341
 70
     2
 50
30.0
  0
SEQEND
  8
OBJECT
 62
     7
  0
POLYLINE
  8
OBJECT
 62
     7
 66
     1
 10
0.0
 20
0.0
 30
0.0
  0
VERTEX
  8
OBJECT
 62
     7
 10
13.282385
 20
45.519794
 30
0.0
 42
0.072341
 70
     2
 50
210.0
  0
VERTEX
  8
OBJECT
 62
     7
 10
13.242851
 20
45.4886
 30
0.0
 42
0.058752
 50
210.0
  0
VERTEX
  8
OBJECT
 62
     7
 10
13.205839
 20
45.438988
 30
0.0
 42
0.058752
  0
SEQEND
  8
OBJECT
 62
     7
  0
LINE
  8
OBJECT
 62
     7
 10
13.282385
 20
45.519794
 30
0.0
 11
13.857045
 21
45.673774
 31
0.0
  0
LINE
  8
OBJECT
 62
     7
 10
13.857045
 20
45.423774
 30
0.0
 11
13.282385
 21
45.269794
 31
0.0
  0
LINE
  8
OBJECT
 62
     7
 10
13.797158
 20
45.439821
 30
0.0
 11
13.222498
 21
45.285841
 31
0.0
  0
POLYLINE
  8
OBJECT
 62
     7
 66
     1
 10
0.0
 20
0.0
 30
0.0
  0
VERTEX
  8
OBJECT
 62
     7
 10
13.797158
 20
45.439821
 30
0.0
 42
0.072341
 70
     2
 50
30.0
  0
VERTEX
  8
OBJECT
 62
     7
 10
13.836692
 20
45.471015
 30
0.0
 42
0.058752
 50
30.0
  0
VERTEX
  8
OBJECT
 62
     7
 10
13.873704
 20
45.520627
 30
0.0
 42
0.058752
  0
VERTEX
  8
OBJECT
 62
     7
 10
13.898163
 20
45.577486
 30
0.0
 42
0.072341
  0
VERTEX
  8
OBJECT
 62
     7
 10
13.905411
 20
45.627321
 30
0.0
 42
0.106617
 70
     2
 50
90.0
  0
VERTEX
  8
OBJECT
 62
     7
 10
13.89548
 20
45.673364
 30
0.0
 42
0.070004
 50
90.0
  0
VERTEX
  8
OBJECT
 62
     7
 10
13.887582
 20
45.685833
 30
0.0
 42
0.156851
  0
SEQEND
  8
OBJECT
 62
     7
  0
POLYLINE
  8
OBJECT
 62
     7
 66
     1
 10
0.0
 20
0.0
 30
0.0
  0
VERTEX
  8
OBJECT
 62
     7
 10
13.191961
 20
45.273782
 30
0.0
 42
0.073881
  0
VERTEX
  8
OBJECT
 62
     7
 10
13.222498
 20
45.285841
 30
0.0
 42
0.072341
 70
     2
 50
30.0
  0
SEQEND
  8
OBJECT
 62
     7
  0
POLYLINE
  8
OBJECT
 62
     7
 66
     1
 10
0.0
 20
0.0
 30
0.0
  0
VERTEX
  8
OBJECT
 62
     7
 10
16.152085
 20
46.070822
 30
0.0
 42
0.072341
 70
     2
 50
30.0
  0
VERTEX
  8
OBJECT
 62
     7
 10
16.191619
 20
46.102016
 30
0.0
 42
0.058752
 50
30.0
  0
VERTEX
  8
OBJECT
 62
     7
 10
16.228631
 20
46.151627
 30
0.0
 42
0.058752
  0
VERTEX
  8
OBJECT
 62
     7
 10
16.25309
 20
46.208487
 30
0.0
 42
0.072341
  0
VERTEX
  8
OBJECT
 62
     7
 10
16.260338
 20
46.258322
 30
0.0
 42
0.106617
 70
     2
 50
90.0
  0
VERTEX
  8
OBJECT
 62
     7
 10
16.250407
 20
46.304365
 30
0.0
 42
0.070004
 50
90.0
  0
VERTEX
  8
OBJECT
 62
     7
 10
16.242509
 20
46.316834
 30
0.0
 42
0.156851
  0
SEQEND
  8
OBJECT
 62
     7
  0
POLYLINE
  8
OBJECT
 62
     7
 66
     1
 10
0.0
 20
0.0
 30
0.0
  0
VERTEX
  8
OBJECT
 62
     7
 10
16.211972
 20
46.054775
 30
0.0
 42
0.072341
 70
     2
 50
30.0
  0
VERTEX
  8
OBJECT
 62
     7
 10
16.251506
 20
46.085969
 30
0.0
 42
0.058752
 50
30.0
  0
VERTEX
  8
OBJECT
 62
     7
 10
16.288519
 20
46.135581
 30
0.0
 42
0.058752
  0
VERTEX
  8
OBJECT
 62
     7
 10
16.312977
 20
46.19244
 30
0.0
 42
0.072341
  0
VERTEX
  8
OBJECT
 62
     7
 10
16.320226
 20
46.242275
 30
0.0
 42
0.106617
 70
     2
 50
90.0
  0
VERTEX
  8
OBJECT
 62
     7
 10
16.310295
 20
46.288318
 30
0.0
 42
0.156851
 50
90.0
  0
VERTEX
  8
OBJECT
 62
     7
 10
16.288519
 20
46.312357
 30
0.0
 42
0.156851
  0
VERTEX
  8
OBJECT
 62
     7
 10
16.256812
 20
46.319196
 30
0.0
 42
0.106617
  0
VERTEX
  8
OBJECT
 62
     7
 10
16.211972
 20
46.304775
 30
0.0
 42
0.072341
 70
     2
 50
210.0
  0
SEQEND
  8
OBJECT
 62
     7
  0
LINE
  8
OBJECT
 62
     7
 10
15.637312
 20
46.150795
 30
0.0
 11
16.211972
 21
46.304775
 31
0.0
  0
LINE
  8
OBJECT
 62
     7
 10
16.152085
 20
46.070822
 30
0.0
 11
15.577425
 21
45.916842
 31
0.0
  0
LINE
  8
OBJECT
 62
     7
 10
16.211972
 20
46.054775
 30
0.0
 11
15.637312
 21
45.900795
 31
0.0
  0
POLYLINE
  8
OBJECT
 62
     7
 66
     1
 10
0.0
 20
0.0
 30
0.0
  0
VERTEX
  8
OBJECT
 62
     7
 10
15.546888
 20
45.904783
 30
0.0
 42
0.073881
  0
VERTEX
  8
OBJECT
 62
     7
 10
15.577425
 20
45.916842
 30
0.0
 42
0.072341
 70
     2
 50
30.0
  0
SEQEND
  8
OBJECT
 62
     7
  0
POLYLINE
  8
OBJECT
 62
     7
 66
     1
 10
0.0
 20
0.0
 30
0.0
  0
VERTEX
  8
OBJECT
 62
     7
 10
15.637312
 20
46.150795
 30
0.0
 42
0.072341
 70
     2
 50
210.0
  0
VERTEX
  8
OBJECT
 62
     7
 10
15.597778
 20
46.119601
 30
0.0
 42
0.058752
 50
210.0
  0
VERTEX
  8
OBJECT
 62
     7
 10
15.560766
 20
46.069989
 30
0.0
 42
0.058752
  0
SEQEND
  8
OBJECT
 62
     7
  0
POLYLINE
  8
OBJECT
 62
     7
 66
     1
 10
0.0
 20
0.0
 30
0.0
  0
VERTEX
  8
OBJECT
 62
     7
 10
15.560766
 20
46.069989
 30
0.0
 42
0.058752
  0
VERTEX
  8
OBJECT
 62
     7
 10
15.536307
 20
46.01313
 30
0.0
 42
0.072341
  0
VERTEX
  8
OBJECT
 62
     7
 10
15.529059
 20
45.963295
 30
0.0
 42
0.106617
 70
     2
 50
270.0
  0
VERTEX
  8
OBJECT
 62
     7
 10
15.53899
 20
45.917252
 30
0.0
 42
0.156851
 50
270.0
  0
VERTEX
  8
OBJECT
 62
     7
 10
15.560766
 20
45.893213
 30
0.0
 42
0.156851
  0
VERTEX
  8
OBJECT
 62
     7
 10
15.592472
 20
45.886374
 30
0.0
 42
0.106617
  0
VERTEX
  8
OBJECT
 62
     7
 10
15.637312
 20
45.900795
 30
0.0
 42
0.072341
 70
     2
 50
30.0
  0
SEQEND
  8
OBJECT
 62
     7
  0
LINE
  8
OBJECT
 62
     7
 10
18.566144
 20
39.054044
 30
0.0
 11
18.566144
 21
38.277587
 31
0.0
  0
LINE
  8
OBJECT
 62
     7
 10
18.628144
 20
39.070657
 30
0.0
 11
18.628144
 21
38.294199
 31
0.0
  0
LINE
  8
OBJECT
 62
     7
 10
18.566144
 20
38.277587
 30
0.0
 11
18.628144
 21
38.294199
 31
0.0
  0
LINE
  8
OBJECT
 62
     7
 10
19.86559
 20
39.969825
 30
0.0
 11
20.44025
 21
40.123805
 31
0.0
  0
LINE
  8
OBJECT
 62
     7
 10
20.44025
 20
39.873805
 30
0.0
 11
19.86559
 21
39.719825
 31
0.0
  0
LINE
  8
OBJECT
 62
     7
 10
20.380362
 20
39.889851
 30
0.0
 11
19.805702
 21
39.735872
 31
0.0
  0
LINE
  8
OBJECT
 62
     7
 10
18.706144
 20
39.971152
 30
0.0
 11
18.644144
 21
39.987765
 31
0.0
  0
LINE
  8
OBJECT
 62
     7
 10
18.566144
 20
39.054044
 30
0.0
 11
18.628144
 21
39.070657
 31
0.0
  0
LINE
  8
OBJECT
 62
     7
 10
18.628144
 20
39.070657
 30
0.0
 11
18.706144
 21
39.049757
 31
0.0
  0
LINE
  8
OBJECT
 62
     7
 10
18.644144
 20
39.066369
 30
0.0
 11
18.644144
 21
39.987765
 31
0.0
  0
LINE
  8
OBJECT
 62
     7
 10
18.706144
 20
39.049757
 30
0.0
 11
18.706144
 21
39.971152
 31
0.0
  0
POLYLINE
  8
OBJECT
 62
     7
 66
     1
 10
0.0
 20
0.0
 30
0.0
  0
VERTEX
  8
OBJECT
 62
     7
 10
19.789043
 20
39.889019
 30
0.0
 42
0.058752
  0
VERTEX
  8
OBJECT
 62
     7
 10
19.764585
 20
39.83216
 30
0.0
 42
0.072341
  0
VERTEX
  8
OBJECT
 62
     7
 10
19.757337
 20
39.782325
 30
0.0
 42
0.106617
 70
     2
 50
270.0
  0
VERTEX
  8
OBJECT
 62
     7
 10
19.767267
 20
39.736282
 30
0.0
 42
0.156851
 50
270.0
  0
VERTEX
  8
OBJECT
 62
     7
 10
19.789043
 20
39.712242
 30
0.0
 42
0.156851
  0
VERTEX
  8
OBJECT
 62
     7
 10
19.82075
 20
39.705404
 30
0.0
 42
0.106617
  0
VERTEX
  8
OBJECT
 62
     7
 10
19.86559
 20
39.719825
 30
0.0
 42
0.072341
 70
     2
 50
30.0
  0
SEQEND
  8
OBJECT
 62
     7
  0
POLYLINE
  8
OBJECT
 62
     7
 66
     1
 10
0.0
 20
0.0
 30
0.0
  0
VERTEX
  8
OBJECT
 62
     7
 10
19.86559
 20
39.969825
 30
0.0
 42
0.072341
 70
     2
 50
210.0
  0
VERTEX
  8
OBJECT
 62
     7
 10
19.826056
 20
39.938631
 30
0.0
 42
0.058752
 50
210.0
  0
VERTEX
  8
OBJECT
 62
     7
 10
19.789043
 20
39.889019
 30
0.0
 42
0.058752
  0
SEQEND
  8
OBJECT
 62
     7
  0
POLYLINE
  8
OBJECT
 62
     7
 66
     1
 10
0.0
 20
0.0
 30
0.0
  0
VERTEX
  8
OBJECT
 62
     7
 10
19.775166
 20
39.723813
 30
0.0
 42
0.073881
  0
VERTEX
  8
OBJECT
 62
     7
 10
19.805702
 20
39.735872
 30
0.0
 42
0.072341
 70
     2
 50
30.0
  0
SEQEND
  8
OBJECT
 62
     7
  0
POLYLINE
  8
OBJECT
 62
     7
 66
     1
 10
0.0
 20
0.0
 30
0.0
  0
VERTEX
  8
OBJECT
 62
     7
 10
20.44025
 20
39.873805
 30
0.0
 42
0.072341
 70
     2
 50
30.0
  0
VERTEX
  8
OBJECT
 62
     7
 10
20.479784
 20
39.904999
 30
0.0
 42
0.058752
 50
30.0
  0
VERTEX
  8
OBJECT
 62
     7
 10
20.516796
 20
39.95461
 30
0.0
 42
0.058752
  0
VERTEX
  8
OBJECT
 62
     7
 10
20.541255
 20
40.01147
 30
0.0
 42
0.072341
  0
VERTEX
  8
OBJECT
 62
     7
 10
20.548503
 20
40.061305
 30
0.0
 42
0.106617
 70
     2
 50
90.0
  0
VERTEX
  8
OBJECT
 62
     7
 10
20.538572
 20
40.107348
 30
0.0
 42
0.156851
 50
90.0
  0
VERTEX
  8
OBJECT
 62
     7
 10
20.516796
 20
40.131387
 30
0.0
 42
0.156851
  0
VERTEX
  8
OBJECT
 62
     7
 10
20.48509
 20
40.138226
 30
0.0
 42
0.106617
  0
VERTEX
  8
OBJECT
 62
     7
 10
20.44025
 20
40.123805
 30
0.0
 42
0.072341
 70
     2
 50
210.0
  0
SEQEND
  8
OBJECT
 62
     7
  0
POLYLINE
  8
OBJECT
 62
     7
 66
     1
 10
0.0
 20
0.0
 30
0.0
  0
VERTEX
  8
OBJECT
 62
     7
 10
20.380362
 20
39.889851
 30
0.0
 42
0.072341
 70
     2
 50
30.0
  0
VERTEX
  8
OBJECT
 62
     7
 10
20.419896
 20
39.921046
 30
0.0
 42
0.058752
 50
30.0
  0
VERTEX
  8
OBJECT
 62
     7
 10
20.456909
 20
39.970657
 30
0.0
 42
0.058752
  0
VERTEX
  8
OBJECT
 62
     7
 10
20.481367
 20
40.027517
 30
0.0
 42
0.072341
  0
VERTEX
  8
OBJECT
 62
     7
 10
20.488616
 20
40.077351
 30
0.0
 42
0.106617
 70
     2
 50
90.0
  0
VERTEX
  8
OBJECT
 62
     7
 10
20.478685
 20
40.123395
 30
0.0
 42
0.070004
 50
90.0
  0
VERTEX
  8
OBJECT
 62
     7
 10
20.470786
 20
40.135864
 30
0.0
 42
0.156851
  0
SEQEND
  8
OBJECT
 62
     7
  0
POLYLINE
  8
OBJECT
 62
     7
 66
     1
 10
0.0
 20
0.0
 30
0.0
  0
VERTEX
  8
OBJECT
 62
     7
 10
22.130093
 20
40.354814
 30
0.0
 42
0.073881
  0
VERTEX
  8
OBJECT
 62
     7
 10
22.16063
 20
40.366873
 30
0.0
 42
0.072341
 70
     2
 50
30.0
  0
SEQEND
  8
OBJECT
 62
     7
  0
POLYLINE
  8
OBJECT
 62
     7
 66
     1
 10
0.0
 20
0.0
 30
0.0
  0
VERTEX
  8
OBJECT
 62
     7
 10
22.73529
 20
40.520852
 30
0.0
 42
0.072341
 70
     2
 50
30.0
  0
VERTEX
  8
OBJECT
 62
     7
 10
22.774824
 20
40.552047
 30
0.0
 42
0.058752
 50
30.0
  0
VERTEX
  8
OBJECT
 62
     7
 10
22.811836
 20
40.601658
 30
0.0
 42
0.058752
  0
VERTEX
  8
OBJECT
 62
     7
 10
22.836295
 20
40.658518
 30
0.0
 42
0.072341
  0
VERTEX
  8
OBJECT
 62
     7
 10
22.843543
 20
40.708352
 30
0.0
 42
0.106617
 70
     2
 50
90.0
  0
VERTEX
  8
OBJECT
 62
     7
 10
22.833612
 20
40.754395
 30
0.0
 42
0.070004
 50
90.0
  0
VERTEX
  8
OBJECT
 62
     7
 10
22.825714
 20
40.766864
 30
0.0
 42
0.156851
  0
SEQEND
  8
OBJECT
 62
     7
  0
LINE
  8
OBJECT
 62
     7
 10
22.73529
 20
40.520852
 30
0.0
 11
22.16063
 21
40.366873
 31
0.0
  0
LINE
  8
OBJECT
 62
     7
 10
22.795177
 20
40.504805
 30
0.0
 11
22.220517
 21
40.350826
 31
0.0
  0
LINE
  8
OBJECT
 62
     7
 10
22.220517
 20
40.600826
 30
0.0
 11
22.795177
 21
40.754805
 31
0.0
  0
POLYLINE
  8
OBJECT
 62
     7
 66
     1
 10
0.0
 20
0.0
 30
0.0
  0
VERTEX
  8
OBJECT
 62
     7
 10
22.220517
 20
40.600826
 30
0.0
 42
0.072341
 70
     2
 50
210.0
  0
VERTEX
  8
OBJECT
 62
     7
 10
22.180983
 20
40.569631
 30
0.0
 42
0.058752
 50
210.0
  0
VERTEX
  8
OBJECT
 62
     7
 10
22.14397
 20
40.52002
 30
0.0
 42
0.058752
  0
SEQEND
  8
OBJECT
 62
     7
  0
POLYLINE
  8
OBJECT
 62
     7
 66
     1
 10
0.0
 20
0.0
 30
0.0
  0
VERTEX
  8
OBJECT
 62
     7
 10
22.14397
 20
40.52002
 30
0.0
 42
0.058752
  0
VERTEX
  8
OBJECT
 62
     7
 10
22.119512
 20
40.46316
 30
0.0
 42
0.072341
  0
VERTEX
  8
OBJECT
 62
     7
 10
22.112264
 20
40.413326
 30
0.0
 42
0.106617
 70
     2
 50
270.0
  0
VERTEX
  8
OBJECT
 62
     7
 10
22.122195
 20
40.367283
 30
0.0
 42
0.156851
 50
270.0
  0
VERTEX
  8
OBJECT
 62
     7
 10
22.14397
 20
40.343243
 30
0.0
 42
0.156851
  0
VERTEX
  8
OBJECT
 62
     7
 10
22.175677
 20
40.336405
 30
0.0
 42
0.106617
  0
VERTEX
  8
OBJECT
 62
     7
 10
22.220517
 20
40.350826
 30
0.0
 42
0.072341
 70
     2
 50
30.0
  0
SEQEND
  8
OBJECT
 62
     7
  0
POLYLINE
  8
OBJECT
 62
     7
 66
     1
 10
0.0
 20
0.0
 30
0.0
  0
VERTEX
  8
OBJECT
 62
     7
 10
22.795177
 20
40.504805
 30
0.0
 42
0.072341
 70
     2
 50
30.0
  0
VERTEX
  8
OBJECT
 62
     7
 10
22.834711
 20
40.536
 30
0.0
 42
0.058752
 50
30.0
  0
VERTEX
  8
OBJECT
 62
     7
 10
22.871724
 20
40.585611
 30
0.0
 42
0.058752
  0
VERTEX
  8
OBJECT
 62
     7
 10
22.896182
 20
40.642471
 30
0.0
 42
0.072341
  0
VERTEX
  8
OBJECT
 62
     7
 10
22.90343
 20
40.692305
 30
0.0
 42
0.106617
 70
     2
 50
90.0
  0
VERTEX
  8
OBJECT
 62
     7
 10
22.893499
 20
40.738349
 30
0.0
 42
0.156851
 50
90.0
  0
VERTEX
  8
OBJECT
 62
     7
 10
22.871724
 20
40.762388
 30
0.0
 42
0.156851
  0
VERTEX
  8
OBJECT
 62
     7
 10
22.840017
 20
40.769227
 30
0.0
 42
0.106617
  0
VERTEX
  8
OBJECT
 62
     7
 10
22.795177
 20
40.754805
 30
0.0
 42
0.072341
 70
     2
 50
210.0
  0
SEQEND
  8
OBJECT
 62
     7
  0
POLYLINE
  8
OBJECT
 62
     7
 66
     1
 10
0.0
 20
0.0
 30
0.0
  0
VERTEX
  8
OBJECT
 62
     7
 10
17.915693
 20
46.70099
 30
0.0
 42
0.058752
  0
VERTEX
  8
OBJECT
 62
     7
 10
17.891234
 20
46.644131
 30
0.0
 42
0.072341
  0
VERTEX
  8
OBJECT
 62
     7
 10
17.883986
 20
46.594296
 30
0.0
 42
0.106617
 70
     2
 50
270.0
  0
VERTEX
  8
OBJECT
 62
     7
 10
17.893917
 20
46.548253
 30
0.0
 42
0.156851
 50
270.0
  0
VERTEX
  8
OBJECT
 62
     7
 10
17.915693
 20
46.524213
 30
0.0
 42
0.156851
  0
VERTEX
  8
OBJECT
 62
     7
 10
17.9474
 20
46.517375
 30
0.0
 42
0.106617
  0
VERTEX
  8
OBJECT
 62
     7
 10
17.992239
 20
46.531796
 30
0.0
 42
0.072341
 70
     2
 50
30.0
  0
SEQEND
  8
OBJECT
 62
     7
  0
POLYLINE
  8
OBJECT
 62
     7
 66
     1
 10
0.0
 20
0.0
 30
0.0
  0
VERTEX
  8
OBJECT
 62
     7
 10
17.992239
 20
46.781796
 30
0.0
 42
0.072341
 70
     2
 50
210.0
  0
VERTEX
  8
OBJECT
 62
     7
 10
17.952705
 20
46.750602
 30
0.0
 42
0.058752
 50
210.0
  0
VERTEX
  8
OBJECT
 62
     7
 10
17.915693
 20
46.70099
 30
0.0
 42
0.058752
  0
SEQEND
  8
OBJECT
 62
     7
  0
LINE
  8
OBJECT
 62
     7
 10
18.5669
 20
46.685776
 30
0.0
 11
17.992239
 21
46.531796
 31
0.0
  0
LINE
  8
OBJECT
 62
     7
 10
18.507012
 20
46.701822
 30
0.0
 11
17.932352
 21
46.547843
 31
0.0
  0
POLYLINE
  8
OBJECT
 62
     7
 66
     1
 10
0.0
 20
0.0
 30
0.0
  0
VERTEX
  8
OBJECT
 62
     7
 10
17.901815
 20
46.535784
 30
0.0
 42
0.073881
  0
VERTEX
  8
OBJECT
 62
     7
 10
17.932352
 20
46.547843
 30
0.0
 42
0.072341
 70
     2
 50
30.0
  0
SEQEND
  8
OBJECT
 62
     7
  0
POLYLINE
  8
OBJECT
 62
     7
 66
     1
 10
0.0
 20
0.0
 30
0.0
  0
VERTEX
  8
OBJECT
 62
     7
 10
18.5669
 20
46.685776
 30
0.0
 42
0.072341
 70
     2
 50
30.0
  0
VERTEX
  8
OBJECT
 62
     7
 10
18.606433
 20
46.71697
 30
0.0
 42
0.058752
 50
30.0
  0
VERTEX
  8
OBJECT
 62
     7
 10
18.643446
 20
46.766582
 30
0.0
 42
0.058752
  0
VERTEX
  8
OBJECT
 62
     7
 10
18.667905
 20
46.823441
 30
0.0
 42
0.072341
  0
VERTEX
  8
OBJECT
 62
     7
 10
18.675153
 20
46.873276
 30
0.0
 42
0.106617
 70
     2
 50
90.0
  0
VERTEX
  8
OBJECT
 62
     7
 10
18.665222
 20
46.919319
 30
0.0
 42
0.156851
 50
90.0
  0
VERTEX
  8
OBJECT
 62
     7
 10
18.643446
 20
46.943358
 30
0.0
 42
0.156851
  0
VERTEX
  8
OBJECT
 62
     7
 10
18.611739
 20
46.950197
 30
0.0
 42
0.106617
  0
VERTEX
  8
OBJECT
 62
     7
 10
18.5669
 20
46.935776
 30
0.0
 42
0.072341
 70
     2
 50
210.0
  0
SEQEND
  8
OBJECT
 62
     7
  0
LINE
  8
OBJECT
 62
     7
 10
17.992239
 20
46.781796
 30
0.0
 11
18.5669
 21
46.935776
 31
0.0
  0
POLYLINE
  8
OBJECT
 62
     7
 66
     1
 10
0.0
 20
0.0
 30
0.0
  0
VERTEX
  8
OBJECT
 62
     7
 10
18.507012
 20
46.701822
 30
0.0
 42
0.072341
 70
     2
 50
30.0
  0
VERTEX
  8
OBJECT
 62
     7
 10
18.546546
 20
46.733017
 30
0.0
 42
0.058752
 50
30.0
  0
VERTEX
  8
OBJECT
 62
     7
 10
18.583559
 20
46.782628
 30
0.0
 42
0.058752
  0
VERTEX
  8
OBJECT
 62
     7
 10
18.608017
 20
46.839488
 30
0.0
 42
0.072341
  0
VERTEX
  8
OBJECT
 62
     7
 10
18.615265
 20
46.889322
 30
0.0
 42
0.106617
 70
     2
 50
90.0
  0
VERTEX
  8
OBJECT
 62
     7
 10
18.605334
 20
46.935366
 30
0.0
 42
0.070004
 50
90.0
  0
VERTEX
  8
OBJECT
 62
     7
 10
18.597436
 20
46.947835
 30
0.0
 42
0.156851
  0
SEQEND
  8
OBJECT
 62
     7
  0
POLYLINE
  8
OBJECT
 62
     7
 66
     1
 10
0.0
 20
0.0
 30
0.0
  0
VERTEX
  8
OBJECT
 62
     7
 10
20.256743
 20
47.166785
 30
0.0
 42
0.073881
  0
VERTEX
  8
OBJECT
 62
     7
 10
20.287279
 20
47.178844
 30
0.0
 42
0.072341
 70
     2
 50
30.0
  0
SEQEND
  8
OBJECT
 62
     7
  0
POLYLINE
  8
OBJECT
 62
     7
 66
     1
 10
0.0
 20
0.0
 30
0.0
  0
VERTEX
  8
OBJECT
 62
     7
 10
20.861939
 20
47.332823
 30
0.0
 42
0.072341
 70
     2
 50
30.0
  0
VERTEX
  8
OBJECT
 62
     7
 10
20.901473
 20
47.364018
 30
0.0
 42
0.058752
 50
30.0
  0
VERTEX
  8
OBJECT
 62
     7
 10
20.938486
 20
47.413629
 30
0.0
 42
0.058752
  0
VERTEX
  8
OBJECT
 62
     7
 10
20.962944
 20
47.470489
 30
0.0
 42
0.072341
  0
VERTEX
  8
OBJECT
 62
     7
 10
20.970192
 20
47.520323
 30
0.0
 42
0.106617
 70
     2
 50
90.0
  0
VERTEX
  8
OBJECT
 62
     7
 10
20.960262
 20
47.566366
 30
0.0
 42
0.070004
 50
90.0
  0
VERTEX
  8
OBJECT
 62
     7
 10
20.952363
 20
47.578835
 30
0.0
 42
0.156851
  0
SEQEND
  8
OBJECT
 62
     7
  0
LINE
  8
OBJECT
 62
     7
 10
20.861939
 20
47.332823
 30
0.0
 11
20.287279
 21
47.178844
 31
0.0
  0
LINE
  8
OBJECT
 62
     7
 10
20.921827
 20
47.316777
 30
0.0
 11
20.347167
 21
47.162797
 31
0.0
  0
LINE
  8
OBJECT
 62
     7
 10
20.347167
 20
47.412797
 30
0.0
 11
20.921827
 21
47.566777
 31
0.0
  0
POLYLINE
  8
OBJECT
 62
     7
 66
     1
 10
0.0
 20
0.0
 30
0.0
  0
VERTEX
  8
OBJECT
 62
     7
 10
20.347167
 20
47.412797
 30
0.0
 42
0.072341
 70
     2
 50
210.0
  0
VERTEX
  8
OBJECT
 62
     7
 10
20.307633
 20
47.381602
 30
0.0
 42
0.058752
 50
210.0
  0
VERTEX
  8
OBJECT
 62
     7
 10
20.27062
 20
47.331991
 30
0.0
 42
0.058752
  0
SEQEND
  8
OBJECT
 62
     7
  0
POLYLINE
  8
OBJECT
 62
     7
 66
     1
 10
0.0
 20
0.0
 30
0.0
  0
VERTEX
  8
OBJECT
 62
     7
 10
20.27062
 20
47.331991
 30
0.0
 42
0.058752
  0
VERTEX
  8
OBJECT
 62
     7
 10
20.246162
 20
47.275131
 30
0.0
 42
0.072341
  0
VERTEX
  8
OBJECT
 62
     7
 10
20.238913
 20
47.225297
 30
0.0
 42
0.106617
 70
     2
 50
270.0
  0
VERTEX
  8
OBJECT
 62
     7
 10
20.248844
 20
47.179254
 30
0.0
 42
0.156851
 50
270.0
  0
VERTEX
  8
OBJECT
 62
     7
 10
20.27062
 20
47.155214
 30
0.0
 42
0.156851
  0
VERTEX
  8
OBJECT
 62
     7
 10
20.302327
 20
47.148376
 30
0.0
 42
0.106617
  0
VERTEX
  8
OBJECT
 62
     7
 10
20.347167
 20
47.162797
 30
0.0
 42
0.072341
 70
     2
 50
30.0
  0
SEQEND
  8
OBJECT
 62
     7
  0
POLYLINE
  8
OBJECT
 62
     7
 66
     1
 10
0.0
 20
0.0
 30
0.0
  0
VERTEX
  8
OBJECT
 62
     7
 10
20.921827
 20
47.316777
 30
0.0
 42
0.072341
 70
     2
 50
30.0
  0
VERTEX
  8
OBJECT
 62
     7
 10
20.961361
 20
47.347971
 30
0.0
 42
0.058752
 50
30.0
  0
VERTEX
  8
OBJECT
 62
     7
 10
20.998373
 20
47.397582
 30
0.0
 42
0.058752
  0
VERTEX
  8
OBJECT
 62
     7
 10
21.022832
 20
47.454442
 30
0.0
 42
0.072341
  0
VERTEX
  8
OBJECT
 62
     7
 10
21.03008
 20
47.504277
 30
0.0
 42
0.106617
 70
     2
 50
90.0
  0
VERTEX
  8
OBJECT
 62
     7
 10
21.020149
 20
47.55032
 30
0.0
 42
0.156851
 50
90.0
  0
VERTEX
  8
OBJECT
 62
     7
 10
20.998373
 20
47.574359
 30
0.0
 42
0.156851
  0
VERTEX
  8
OBJECT
 62
     7
 10
20.966667
 20
47.581198
 30
0.0
 42
0.106617
  0
VERTEX
  8
OBJECT
 62
     7
 10
20.921827
 20
47.566777
 30
0.0
 42
0.072341
 70
     2
 50
210.0
  0
SEQEND
  8
OBJECT
 62
     7
  0
LINE
  8
OBJECT
 62
     7
 10
21.899859
 20
47.219444
 30
0.0
 11
21.899859
 21
48.14084
 31
0.0
  0
LINE
  8
OBJECT
 62
     7
 10
21.839972
 20
48.156886
 30
0.0
 11
21.899859
 21
48.14084
 31
0.0
  0
POLYLINE
  8
OBJECT
 62
     7
 66
     1
 10
0.0
 20
0.0
 30
0.0
  0
VERTEX
  8
OBJECT
 62
     7
 10
25.150104
 20
41.135806
 30
0.0
 42
0.072341
 70
     2
 50
30.0
  0
VERTEX
  8
OBJECT
 62
     7
 10
25.189638
 20
41.167001
 30
0.0
 42
0.058752
 50
30.0
  0
VERTEX
  8
OBJECT
 62
     7
 10
25.226651
 20
41.216612
 30
0.0
 42
0.058752
  0
VERTEX
  8
OBJECT
 62
     7
 10
25.251109
 20
41.273472
 30
0.0
 42
0.072341
  0
VERTEX
  8
OBJECT
 62
     7
 10
25.258357
 20
41.323306
 30
0.0
 42
0.106617
 70
     2
 50
90.0
  0
VERTEX
  8
OBJECT
 62
     7
 10
25.248426
 20
41.369349
 30
0.0
 42
0.156851
 50
90.0
  0
VERTEX
  8
OBJECT
 62
     7
 10
25.226651
 20
41.393389
 30
0.0
 42
0.156851
  0
VERTEX
  8
OBJECT
 62
     7
 10
25.194944
 20
41.400228
 30
0.0
 42
0.106617
  0
VERTEX
  8
OBJECT
 62
     7
 10
25.150104
 20
41.385806
 30
0.0
 42
0.072341
 70
     2
 50
210.0
  0
SEQEND
  8
OBJECT
 62
     7
  0
LINE
  8
OBJECT
 62
     7
 10
24.575444
 20
41.231827
 30
0.0
 11
25.150104
 21
41.385806
 31
0.0
  0
POLYLINE
  8
OBJECT
 62
     7
 66
     1
 10
0.0
 20
0.0
 30
0.0
  0
VERTEX
  8
OBJECT
 62
     7
 10
25.090217
 20
41.151853
 30
0.0
 42
0.072341
 70
     2
 50
30.0
  0
VERTEX
  8
OBJECT
 62
     7
 10
25.129751
 20
41.183047
 30
0.0
 42
0.058752
 50
30.0
  0
VERTEX
  8
OBJECT
 62
     7
 10
25.166763
 20
41.232659
 30
0.0
 42
0.058752
  0
VERTEX
  8
OBJECT
 62
     7
 10
25.191222
 20
41.289519
 30
0.0
 42
0.072341
  0
VERTEX
  8
OBJECT
 62
     7
 10
25.19847
 20
41.339353
 30
0.0
 42
0.106617
 70
     2
 50
90.0
  0
VERTEX
  8
OBJECT
 62
     7
 10
25.188539
 20
41.385396
 30
0.0
 42
0.070004
 50
90.0
  0
VERTEX
  8
OBJECT
 62
     7
 10
25.180641
 20
41.397865
 30
0.0
 42
0.156851
  0
SEQEND
  8
OBJECT
 62
     7
  0
POLYLINE
  8
OBJECT
 62
     7
 66
     1
 10
0.0
 20
0.0
 30
0.0
  0
VERTEX
  8
OBJECT
 62
     7
 10
24.498898
 20
41.151021
 30
0.0
 42
0.058752
  0
VERTEX
  8
OBJECT
 62
     7
 10
24.474439
 20
41.094161
 30
0.0
 42
0.072341
  0
VERTEX
  8
OBJECT
 62
     7
 10
24.467191
 20
41.044327
 30
0.0
 42
0.106617
 70
     2
 50
270.0
  0
VERTEX
  8
OBJECT
 62
     7
 10
24.477122
 20
40.998284
 30
0.0
 42
0.156851
 50
270.0
  0
VERTEX
  8
OBJECT
 62
     7
 10
24.498898
 20
40.974244
 30
0.0
 42
0.156851
  0
VERTEX
  8
OBJECT
 62
     7
 10
24.530604
 20
40.967405
 30
0.0
 42
0.106617
  0
VERTEX
  8
OBJECT
 62
     7
 10
24.575444
 20
40.981827
 30
0.0
 42
0.072341
 70
     2
 50
30.0
  0
SEQEND
  8
OBJECT
 62
     7
  0
POLYLINE
  8
OBJECT
 62
     7
 66
     1
 10
0.0
 20
0.0
 30
0.0
  0
VERTEX
  8
OBJECT
 62
     7
 10
24.575444
 20
41.231827
 30
0.0
 42
0.072341
 70
     2
 50
210.0
  0
VERTEX
  8
OBJECT
 62
     7
 10
24.53591
 20
41.200632
 30
0.0
 42
0.058752
 50
210.0
  0
VERTEX
  8
OBJECT
 62
     7
 10
24.498898
 20
41.151021
 30
0.0
 42
0.058752
  0
SEQEND
  8
OBJECT
 62
     7
  0
LINE
  8
OBJECT
 62
     7
 10
25.150104
 20
41.135806
 30
0.0
 11
24.575444
 21
40.981827
 31
0.0
  0
LINE
  8
OBJECT
 62
     7
 10
25.090217
 20
41.151853
 30
0.0
 11
24.515557
 21
40.997873
 31
0.0
  0
POLYLINE
  8
OBJECT
 62
     7
 66
     1
 10
0.0
 20
0.0
 30
0.0
  0
VERTEX
  8
OBJECT
 62
     7
 10
24.48502
 20
40.985814
 30
0.0
 42
0.073881
  0
VERTEX
  8
OBJECT
 62
     7
 10
24.515557
 20
40.997873
 30
0.0
 42
0.072341
 70
     2
 50
30.0
  0
SEQEND
  8
OBJECT
 62
     7
  0
LINE
  8
OBJECT
 62
     7
 10
27.445144
 20
41.782854
 30
0.0
 11
26.870484
 21
41.628874
 31
0.0
  0
LINE
  8
OBJECT
 62
     7
 10
27.505031
 20
41.766807
 30
0.0
 11
26.930371
 21
41.612827
 31
0.0
  0
LINE
  8
OBJECT
 62
     7
 10
26.930371
 20
41.862827
 30
0.0
 11
27.505031
 21
42.016807
 31
0.0
  0
POLYLINE
  8
OBJECT
 62
     7
 66
     1
 10
0.0
 20
0.0
 30
0.0
  0
VERTEX
  8
OBJECT
 62
     7
 10
26.839947
 20
41.616815
 30
0.0
 42
0.073881
  0
VERTEX
  8
OBJECT
 62
     7
 10
26.870484
 20
41.628874
 30
0.0
 42
0.072341
 70
     2
 50
30.0
  0
SEQEND
  8
OBJECT
 62
     7
  0
POLYLINE
  8
OBJECT
 62
     7
 66
     1
 10
0.0
 20
0.0
 30
0.0
  0
VERTEX
  8
OBJECT
 62
     7
 10
26.930371
 20
41.862827
 30
0.0
 42
0.072341
 70
     2
 50
210.0
  0
VERTEX
  8
OBJECT
 62
     7
 10
26.890837
 20
41.831633
 30
0.0
 42
0.058752
 50
210.0
  0
VERTEX
  8
OBJECT
 62
     7
 10
26.853825
 20
41.782022
 30
0.0
 42
0.058752
  0
SEQEND
  8
OBJECT
 62
     7
  0
POLYLINE
  8
OBJECT
 62
     7
 66
     1
 10
0.0
 20
0.0
 30
0.0
  0
VERTEX
  8
OBJECT
 62
     7
 10
26.853825
 20
41.782022
 30
0.0
 42
0.058752
  0
VERTEX
  8
OBJECT
 62
     7
 10
26.829366
 20
41.725162
 30
0.0
 42
0.072341
  0
VERTEX
  8
OBJECT
 62
     7
 10
26.822118
 20
41.675327
 30
0.0
 42
0.106617
 70
     2
 50
270.0
  0
VERTEX
  8
OBJECT
 62
     7
 10
26.832049
 20
41.629284
 30
0.0
 42
0.156851
 50
270.0
  0
VERTEX
  8
OBJECT
 62
     7
 10
26.853825
 20
41.605245
 30
0.0
 42
0.156851
  0
VERTEX
  8
OBJECT
 62
     7
 10
26.885531
 20
41.598406
 30
0.0
 42
0.106617
  0
VERTEX
  8
OBJECT
 62
     7
 10
26.930371
 20
41.612827
 30
0.0
 42
0.072341
 70
     2
 50
30.0
  0
SEQEND
  8
OBJECT
 62
     7
  0
POLYLINE
  8
OBJECT
 62
     7
 66
     1
 10
0.0
 20
0.0
 30
0.0
  0
VERTEX
  8
OBJECT
 62
     7
 10
27.445144
 20
41.782854
 30
0.0
 42
0.072341
 70
     2
 50
30.0
  0
VERTEX
  8
OBJECT
 62
     7
 10
27.484678
 20
41.814048
 30
0.0
 42
0.058752
 50
30.0
  0
VERTEX
  8
OBJECT
 62
     7
 10
27.52169
 20
41.86366
 30
0.0
 42
0.058752
  0
VERTEX
  8
OBJECT
 62
     7
 10
27.546149
 20
41.920519
 30
0.0
 42
0.072341
  0
VERTEX
  8
OBJECT
 62
     7
 10
27.553397
 20
41.970354
 30
0.0
 42
0.106617
 70
     2
 50
90.0
  0
VERTEX
  8
OBJECT
 62
     7
 10
27.543466
 20
42.016397
 30
0.0
 42
0.070004
 50
90.0
  0
VERTEX
  8
OBJECT
 62
     7
 10
27.535568
 20
42.028866
 30
0.0
 42
0.156851
  0
SEQEND
  8
OBJECT
 62
     7
  0
POLYLINE
  8
OBJECT
 62
     7
 66
     1
 10
0.0
 20
0.0
 30
0.0
  0
VERTEX
  8
OBJECT
 62
     7
 10
27.505031
 20
41.766807
 30
0.0
 42
0.072341
 70
     2
 50
30.0
  0
VERTEX
  8
OBJECT
 62
     7
 10
27.544565
 20
41.798001
 30
0.0
 42
0.058752
 50
30.0
  0
VERTEX
  8
OBJECT
 62
     7
 10
27.581578
 20
41.847613
 30
0.0
 42
0.058752
  0
VERTEX
  8
OBJECT
 62
     7
 10
27.606036
 20
41.904473
 30
0.0
 42
0.072341
  0
VERTEX
  8
OBJECT
 62
     7
 10
27.613284
 20
41.954307
 30
0.0
 42
0.106617
 70
     2
 50
90.0
  0
VERTEX
  8
OBJECT
 62
     7
 10
27.603354
 20
42.00035
 30
0.0
 42
0.156851
 50
90.0
  0
VERTEX
  8
OBJECT
 62
     7
 10
27.581578
 20
42.02439
 30
0.0
 42
0.156851
  0
VERTEX
  8
OBJECT
 62
     7
 10
27.549871
 20
42.031228
 30
0.0
 42
0.106617
  0
VERTEX
  8
OBJECT
 62
     7
 10
27.505031
 20
42.016807
 30
0.0
 42
0.072341
 70
     2
 50
210.0
  0
SEQEND
  8
OBJECT
 62
     7
  0
LINE
  8
OBJECT
 62
     7
 10
35.485846
 20
42.795864
 30
0.0
 11
34.086327
 21
43.170864
 31
0.0
  0
LINE
  8
OBJECT
 62
     7
 10
33.995153
 20
43.75583
 30
0.0
 11
34.569813
 21
43.90981
 31
0.0
  0
LINE
  8
OBJECT
 62
     7
 10
34.569813
 20
43.65981
 30
0.0
 11
33.995153
 21
43.50583
 31
0.0
  0
LINE
  8
OBJECT
 62
     7
 10
34.509925
 20
43.675856
 30
0.0
 11
33.935265
 21
43.521877
 31
0.0
  0
POLYLINE
  8
OBJECT
 62
     7
 66
     1
 10
0.0
 20
0.0
 30
0.0
  0
VERTEX
  8
OBJECT
 62
     7
 10
33.995153
 20
43.75583
 30
0.0
 42
0.072341
 70
     2
 50
210.0
  0
VERTEX
  8
OBJECT
 62
     7
 10
33.955619
 20
43.724636
 30
0.0
 42
0.058752
 50
210.0
  0
VERTEX
  8
OBJECT
 62
     7
 10
33.918606
 20
43.675024
 30
0.0
 42
0.058752
  0
SEQEND
  8
OBJECT
 62
     7
  0
POLYLINE
  8
OBJECT
 62
     7
 66
     1
 10
0.0
 20
0.0
 30
0.0
  0
VERTEX
  8
OBJECT
 62
     7
 10
29.859958
 20
42.397808
 30
0.0
 42
0.072341
 70
     2
 50
30.0
  0
VERTEX
  8
OBJECT
 62
     7
 10
29.899492
 20
42.429002
 30
0.0
 42
0.058752
 50
30.0
  0
VERTEX
  8
OBJECT
 62
     7
 10
29.936505
 20
42.478614
 30
0.0
 42
0.058752
  0
VERTEX
  8
OBJECT
 62
     7
 10
29.960964
 20
42.535473
 30
0.0
 42
0.072341
  0
VERTEX
  8
OBJECT
 62
     7
 10
29.968212
 20
42.585308
 30
0.0
 42
0.106617
 70
     2
 50
90.0
  0
VERTEX
  8
OBJECT
 62
     7
 10
29.958281
 20
42.631351
 30
0.0
 42
0.156851
 50
90.0
  0
VERTEX
  8
OBJECT
 62
     7
 10
29.936505
 20
42.655391
 30
0.0
 42
0.156851
  0
VERTEX
  8
OBJECT
 62
     7
 10
29.904798
 20
42.662229
 30
0.0
 42
0.106617
  0
VERTEX
  8
OBJECT
 62
     7
 10
29.859958
 20
42.647808
 30
0.0
 42
0.072341
 70
     2
 50
210.0
  0
SEQEND
  8
OBJECT
 62
     7
  0
POLYLINE
  8
OBJECT
 62
     7
 66
     1
 10
0.0
 20
0.0
 30
0.0
  0
VERTEX
  8
OBJECT
 62
     7
 10
29.208752
 20
42.413022
 30
0.0
 42
0.058752
  0
VERTEX
  8
OBJECT
 62
     7
 10
29.184293
 20
42.356163
 30
0.0
 42
0.072341
  0
VERTEX
  8
OBJECT
 62
     7
 10
29.177045
 20
42.306328
 30
0.0
 42
0.106617
 70
     2
 50
270.0
  0
VERTEX
  8
OBJECT
 62
     7
 10
29.186976
 20
42.260285
 30
0.0
 42
0.156851
 50
270.0
  0
VERTEX
  8
OBJECT
 62
     7
 10
29.208752
 20
42.236246
 30
0.0
 42
0.156851
  0
VERTEX
  8
OBJECT
 62
     7
 10
29.240458
 20
42.229407
 30
0.0
 42
0.106617
  0
VERTEX
  8
OBJECT
 62
     7
 10
29.285298
 20
42.243828
 30
0.0
 42
0.072341
 70
     2
 50
30.0
  0
SEQEND
  8
OBJECT
 62
     7
  0
POLYLINE
  8
OBJECT
 62
     7
 66
     1
 10
0.0
 20
0.0
 30
0.0
  0
VERTEX
  8
OBJECT
 62
     7
 10
29.285298
 20
42.493828
 30
0.0
 42
0.072341
 70
     2
 50
210.0
  0
VERTEX
  8
OBJECT
 62
     7
 10
29.245764
 20
42.462634
 30
0.0
 42
0.058752
 50
210.0
  0
VERTEX
  8
OBJECT
 62
     7
 10
29.208752
 20
42.413022
 30
0.0
 42
0.058752
  0
SEQEND
  8
OBJECT
 62
     7
  0
LINE
  8
OBJECT
 62
     7
 10
29.285298
 20
42.493828
 30
0.0
 11
29.859958
 21
42.647808
 31
0.0
  0
LINE
  8
OBJECT
 62
     7
 10
29.859958
 20
42.397808
 30
0.0
 11
29.285298
 21
42.243828
 31
0.0
  0
LINE
  8
OBJECT
 62
     7
 10
29.800071
 20
42.413855
 30
0.0
 11
29.225411
 21
42.259875
 31
0.0
  0
POLYLINE
  8
OBJECT
 62
     7
 66
     1
 10
0.0
 20
0.0
 30
0.0
  0
VERTEX
  8
OBJECT
 62
     7
 10
29.800071
 20
42.413855
 30
0.0
 42
0.072341
 70
     2
 50
30.0
  0
VERTEX
  8
OBJECT
 62
     7
 10
29.839605
 20
42.445049
 30
0.0
 42
0.058752
 50
30.0
  0
VERTEX
  8
OBJECT
 62
     7
 10
29.876618
 20
42.494661
 30
0.0
 42
0.058752
  0
VERTEX
  8
OBJECT
 62
     7
 10
29.901076
 20
42.55152
 30
0.0
 42
0.072341
  0
VERTEX
  8
OBJECT
 62
     7
 10
29.908324
 20
42.601355
 30
0.0
 42
0.106617
 70
     2
 50
90.0
  0
VERTEX
  8
OBJECT
 62
     7
 10
29.898393
 20
42.647398
 30
0.0
 42
0.070004
 50
90.0
  0
VERTEX
  8
OBJECT
 62
     7
 10
29.890495
 20
42.659867
 30
0.0
 42
0.156851
  0
SEQEND
  8
OBJECT
 62
     7
  0
POLYLINE
  8
OBJECT
 62
     7
 66
     1
 10
0.0
 20
0.0
 30
0.0
  0
VERTEX
  8
OBJECT
 62
     7
 10
29.194874
 20
42.247816
 30
0.0
 42
0.073881
  0
VERTEX
  8
OBJECT
 62
     7
 10
29.225411
 20
42.259875
 30
0.0
 42
0.072341
 70
     2
 50
30.0
  0
SEQEND
  8
OBJECT
 62
     7
  0
POLYLINE
  8
OBJECT
 62
     7
 66
     1
 10
0.0
 20
0.0
 30
0.0
  0
VERTEX
  8
OBJECT
 62
     7
 10
31.549802
 20
42.878817
 30
0.0
 42
0.073881
  0
VERTEX
  8
OBJECT
 62
     7
 10
31.580338
 20
42.890876
 30
0.0
 42
0.072341
 70
     2
 50
30.0
  0
SEQEND
  8
OBJECT
 62
     7
  0
POLYLINE
  8
OBJECT
 62
     7
 66
     1
 10
0.0
 20
0.0
 30
0.0
  0
VERTEX
  8
OBJECT
 62
     7
 10
32.154998
 20
43.044856
 30
0.0
 42
0.072341
 70
     2
 50
30.0
  0
VERTEX
  8
OBJECT
 62
     7
 10
32.194532
 20
43.07605
 30
0.0
 42
0.058752
 50
30.0
  0
VERTEX
  8
OBJECT
 62
     7
 10
32.231545
 20
43.125661
 30
0.0
 42
0.058752
  0
VERTEX
  8
OBJECT
 62
     7
 10
32.256003
 20
43.182521
 30
0.0
 42
0.072341
  0
VERTEX
  8
OBJECT
 62
     7
 10
32.263251
 20
43.232356
 30
0.0
 42
0.106617
 70
     2
 50
90.0
  0
VERTEX
  8
OBJECT
 62
     7
 10
32.253321
 20
43.278399
 30
0.0
 42
0.070004
 50
90.0
  0
VERTEX
  8
OBJECT
 62
     7
 10
32.245422
 20
43.290868
 30
0.0
 42
0.156851
  0
SEQEND
  8
OBJECT
 62
     7
  0
LINE
  8
OBJECT
 62
     7
 10
32.154998
 20
43.044856
 30
0.0
 11
31.580338
 21
42.890876
 31
0.0
  0
LINE
  8
OBJECT
 62
     7
 10
32.214886
 20
43.028809
 30
0.0
 11
31.640226
 21
42.874829
 31
0.0
  0
LINE
  8
OBJECT
 62
     7
 10
31.640226
 20
43.124829
 30
0.0
 11
32.214886
 21
43.278809
 31
0.0
  0
POLYLINE
  8
OBJECT
 62
     7
 66
     1
 10
0.0
 20
0.0
 30
0.0
  0
VERTEX
  8
OBJECT
 62
     7
 10
31.640226
 20
43.124829
 30
0.0
 42
0.072341
 70
     2
 50
210.0
  0
VERTEX
  8
OBJECT
 62
     7
 10
31.600692
 20
43.093635
 30
0.0
 42
0.058752
 50
210.0
  0
VERTEX
  8
OBJECT
 62
     7
 10
31.563679
 20
43.044023
 30
0.0
 42
0.058752
  0
SEQEND
  8
OBJECT
 62
     7
  0
POLYLINE
  8
OBJECT
 62
     7
 66
     1
 10
0.0
 20
0.0
 30
0.0
  0
VERTEX
  8
OBJECT
 62
     7
 10
31.563679
 20
43.044023
 30
0.0
 42
0.058752
  0
VERTEX
  8
OBJECT
 62
     7
 10
31.53922
 20
42.987164
 30
0.0
 42
0.072341
  0
VERTEX
  8
OBJECT
 62
     7
 10
31.531972
 20
42.937329
 30
0.0
 42
0.106617
 70
     2
 50
270.0
  0
VERTEX
  8
OBJECT
 62
     7
 10
31.541903
 20
42.891286
 30
0.0
 42
0.156851
 50
270.0
  0
VERTEX
  8
OBJECT
 62
     7
 10
31.563679
 20
42.867247
 30
0.0
 42
0.156851
  0
VERTEX
  8
OBJECT
 62
     7
 10
31.595386
 20
42.860408
 30
0.0
 42
0.106617
  0
VERTEX
  8
OBJECT
 62
     7
 10
31.640226
 20
42.874829
 30
0.0
 42
0.072341
 70
     2
 50
30.0
  0
SEQEND
  8
OBJECT
 62
     7
  0
POLYLINE
  8
OBJECT
 62
     7
 66
     1
 10
0.0
 20
0.0
 30
0.0
  0
VERTEX
  8
OBJECT
 62
     7
 10
32.214886
 20
43.028809
 30
0.0
 42
0.072341
 70
     2
 50
30.0
  0
VERTEX
  8
OBJECT
 62
     7
 10
32.25442
 20
43.060003
 30
0.0
 42
0.058752
 50
30.0
  0
VERTEX
  8
OBJECT
 62
     7
 10
32.291432
 20
43.109615
 30
0.0
 42
0.058752
  0
VERTEX
  8
OBJECT
 62
     7
 10
32.315891
 20
43.166474
 30
0.0
 42
0.072341
  0
VERTEX
  8
OBJECT
 62
     7
 10
32.323139
 20
43.216309
 30
0.0
 42
0.106617
 70
     2
 50
90.0
  0
VERTEX
  8
OBJECT
 62
     7
 10
32.313208
 20
43.262352
 30
0.0
 42
0.156851
 50
90.0
  0
VERTEX
  8
OBJECT
 62
     7
 10
32.291432
 20
43.286391
 30
0.0
 42
0.156851
  0
VERTEX
  8
OBJECT
 62
     7
 10
32.259726
 20
43.29323
 30
0.0
 42
0.106617
  0
VERTEX
  8
OBJECT
 62
     7
 10
32.214886
 20
43.278809
 30
0.0
 42
0.072341
 70
     2
 50
210.0
  0
SEQEND
  8
OBJECT
 62
     7
  0
POLYLINE
  8
OBJECT
 62
     7
 66
     1
 10
0.0
 20
0.0
 30
0.0
  0
VERTEX
  8
OBJECT
 62
     7
 10
33.918606
 20
43.675024
 30
0.0
 42
0.058752
  0
VERTEX
  8
OBJECT
 62
     7
 10
33.894148
 20
43.618165
 30
0.0
 42
0.072341
  0
VERTEX
  8
OBJECT
 62
     7
 10
33.8869
 20
43.56833
 30
0.0
 42
0.106617
 70
     2
 50
270.0
  0
VERTEX
  8
OBJECT
 62
     7
 10
33.89683
 20
43.522287
 30
0.0
 42
0.156851
 50
270.0
  0
VERTEX
  8
OBJECT
 62
     7
 10
33.918606
 20
43.498247
 30
0.0
 42
0.156851
  0
VERTEX
  8
OBJECT
 62
     7
 10
33.950313
 20
43.491409
 30
0.0
 42
0.106617
  0
VERTEX
  8
OBJECT
 62
     7
 10
33.995153
 20
43.50583
 30
0.0
 42
0.072341
 70
     2
 50
30.0
  0
SEQEND
  8
OBJECT
 62
     7
  0
POLYLINE
  8
OBJECT
 62
     7
 66
     1
 10
0.0
 20
0.0
 30
0.0
  0
VERTEX
  8
OBJECT
 62
     7
 10
33.904729
 20
43.509818
 30
0.0
 42
0.073881
  0
VERTEX
  8
OBJECT
 62
     7
 10
33.935265
 20
43.521877
 30
0.0
 42
0.072341
 70
     2
 50
30.0
  0
SEQEND
  8
OBJECT
 62
     7
  0
POLYLINE
  8
OBJECT
 62
     7
 66
     1
 10
0.0
 20
0.0
 30
0.0
  0
VERTEX
  8
OBJECT
 62
     7
 10
34.569813
 20
43.65981
 30
0.0
 42
0.072341
 70
     2
 50
30.0
  0
VERTEX
  8
OBJECT
 62
     7
 10
34.609347
 20
43.691004
 30
0.0
 42
0.058752
 50
30.0
  0
VERTEX
  8
OBJECT
 62
     7
 10
34.646359
 20
43.740615
 30
0.0
 42
0.058752
  0
VERTEX
  8
OBJECT
 62
     7
 10
34.670818
 20
43.797475
 30
0.0
 42
0.072341
  0
VERTEX
  8
OBJECT
 62
     7
 10
34.678066
 20
43.84731
 30
0.0
 42
0.106617
 70
     2
 50
90.0
  0
VERTEX
  8
OBJECT
 62
     7
 10
34.668135
 20
43.893353
 30
0.0
 42
0.156851
 50
90.0
  0
VERTEX
  8
OBJECT
 62
     7
 10
34.646359
 20
43.917392
 30
0.0
 42
0.156851
  0
VERTEX
  8
OBJECT
 62
     7
 10
34.614653
 20
43.924231
 30
0.0
 42
0.106617
  0
VERTEX
  8
OBJECT
 62
     7
 10
34.569813
 20
43.90981
 30
0.0
 42
0.072341
 70
     2
 50
210.0
  0
SEQEND
  8
OBJECT
 62
     7
  0
POLYLINE
  8
OBJECT
 62
     7
 66
     1
 10
0.0
 20
0.0
 30
0.0
  0
VERTEX
  8
OBJECT
 62
     7
 10
34.509925
 20
43.675856
 30
0.0
 42
0.072341
 70
     2
 50
30.0
  0
VERTEX
  8
OBJECT
 62
     7
 10
34.549459
 20
43.707051
 30
0.0
 42
0.058752
 50
30.0
  0
VERTEX
  8
OBJECT
 62
     7
 10
34.586472
 20
43.756662
 30
0.0
 42
0.058752
  0
VERTEX
  8
OBJECT
 62
     7
 10
34.61093
 20
43.813522
 30
0.0
 42
0.072341
  0
VERTEX
  8
OBJECT
 62
     7
 10
34.618179
 20
43.863356
 30
0.0
 42
0.106617
 70
     2
 50
90.0
  0
VERTEX
  8
OBJECT
 62
     7
 10
34.608248
 20
43.9094
 30
0.0
 42
0.070004
 50
90.0
  0
VERTEX
  8
OBJECT
 62
     7
 10
34.600349
 20
43.921869
 30
0.0
 42
0.156851
  0
SEQEND
  8
OBJECT
 62
     7
  0
LINE
  8
OBJECT
 62
     7
 10
35.547846
 20
43.562477
 30
0.0
 11
35.547846
 21
44.483873
 31
0.0
  0
LINE
  8
OBJECT
 62
     7
 10
35.547846
 20
43.562477
 30
0.0
 11
35.547846
 21
42.812477
 31
0.0
  0
LINE
  8
OBJECT
 62
     7
 10
35.547846
 20
42.812477
 30
0.0
 11
35.485846
 21
42.795864
 31
0.0
  0
LINE
  8
OBJECT
 62
     7
 10
35.485846
 20
43.545864
 30
0.0
 11
35.485846
 21
42.795864
 31
0.0
  0
LINE
  8
OBJECT
 62
     7
 10
35.547846
 20
44.483873
 30
0.0
 11
35.485846
 21
44.500486
 31
0.0
  0
TEXT
  8
TEXT
 62
     7
 10
44.564713
 20
42.218304
 30
0.0
 40
0.75
  1
%%uFINISH:
 41
0.75
  0
TEXT
  8
TEXT
 62
     7
 10
45.480277
 20
40.968304
 30
0.0
 40
0.75
  1
SMOOTH BLACK
 41
0.75
  0
TEXT
  8
TEXT
 62
     7
 10
44.564713
 20
44.718304
 30
0.0
 40
0.75
  1
%%uMATERIAL:%%u 16 GA. STEEL
 41
0.75
  0
DIMENSION
  8
DIM
 62
     7
  2
*D31
 10
28.109196
 20
73.962701
 30
0.0
 11
31.887321
 21
73.962701
 31
0.0
 12
0.0
 22
2.059262
 32
0.0
 13
27.734196
 23
72.523026
 33
0.0
 14
28.109196
 24
72.898026
 34
0.0
  3
23NSTD
  0
DIMENSION
  8
DIM
 62
     7
  2
*D32
 10
19.467827
 20
72.898026
 30
0.0
 11
22.165952
 21
75.058026
 31
0.0
 12
-7.571321
 22
2.059262
 32
0.0
 13
20.162875
 23
72.523026
 33
0.0
 14
20.537875
 24
72.898026
 34
0.0
 50
90.0
  3
23NSTD
  0
DIMENSION
  8
DIM
 62
     7
  2
*D33
 10
6.109196
 20
73.962701
 30
0.0
 11
2.331071
 21
73.962701
 31
0.0
 12
0.0
 22
2.059262
 32
0.0
 13
6.484196
 23
72.523026
 33
0.0
 14
6.109196
 24
72.898026
 34
0.0
  3
23NSTD
  0
TEXT
  8
TEXT
 10
1.247
 20
90.360475
 30
0.0
 40
0.75
  1
NAME
 72
     1
 11
2.622
 21
90.360475
 31
0.0
  0
TEXT
  8
TEXT
 10
1.247
 20
91.610475
 30
0.0
 40
0.75
  1
PART
 72
     1
 11
2.622
 21
91.610475
 31
0.0
  0
TEXT
  8
TEXT
 10
32.046
 20
90.360475
 30
0.0
 40
0.75
  1
No.
 72
     1
 11
32.796
 21
90.360475
 31
0.0
  0
TEXT
  8
TEXT
 10
31.421
 20
91.610475
 30
0.0
 40
0.75
  1
PART
 72
     1
 11
32.796
 21
91.610475
 31
0.0
  0
LINE
  8
TITLE
 10
35.046
 20
92.628
 30
0.0
 11
35.046
 21
90.12
 31
0.0
  0
LINE
  8
TITLE
 10
30.546
 20
92.628
 30
0.0
 11
30.546
 21
90.12
 31
0.0
  0
LINE
  8
TITLE
 10
30.174
 20
92.628
 30
0.0
 11
30.174
 21
90.12
 31
0.0
  0
LINE
  8
TITLE
 10
4.872
 20
90.12
 30
0.0
 11
4.872
 21
92.628
 31
0.0
  0
LINE
  8
TITLE
 10
0.372
 20
90.12
 30
0.0
 11
60.348
 21
90.12
 31
0.0
  0
LINE
  8
TITLE
 10
60.348
 20
0.372
 30
0.0
 11
0.372
 21
0.372
 31
0.0
  0
LINE
  8
TITLE
 10
60.348
 20
92.628
 30
0.0
 11
60.348
 21
52.116
 31
0.0
  0
LINE
  8
TITLE
 10
0.372
 20
92.628
 30
0.0
 11
60.348
 21
92.628
 31
0.0
  0
LINE
  8
TITLE
 10
0.372
 20
0.372
 30
0.0
 11
0.372
 21
25.372
 31
0.0
  0
LINE
  8
TITLE
 10
0.0
 20
0.0
 30
0.0
 11
0.0
 21
93.0
 31
0.0
  0
LINE
  8
TITLE
 10
60.72
 20
0.0
 30
0.0
 11
0.0
 21
0.0
 31
0.0
  0
LINE
  8
TITLE
 10
60.72
 20
93.0
 30
0.0
 11
60.72
 21
0.0
 31
0.0
  0
LINE
  8
TITLE
 10
0.0
 20
93.0
 30
0.0
 11
60.72
 21
93.0
 31
0.0
  0
TEXT
  8
TEXT
 10
12.71575
 20
90.905
 30
0.0
 40
0.938
  1
SHELF ASSEMBLY
 41
0.75
  7
TXT
 72
     4
 11
17.523
 21
91.374
 31
0.0
  0
TEXT
  8
TEXT
 10
41.189625
 20
90.905
 30
0.0
 40
0.938
  1
SA-1719  AND SA-1720
 41
0.75
  7
TXT
 72
     4
 11
47.697
 21
91.374
 31
0.0
  0
POLYLINE
  8
DIM
 62
     7
 66
     1
 10
0.0
 20
0.0
 30
0.0
 41
0.405
  0
VERTEX
  8
DIM
 62
     7
 10
26.327696
 20
80.843621
 30
0.0
  0
VERTEX
  8
DIM
 62
     7
 10
26.829066
 20
79.88705
 30
0.0
 41
0.0
  0
VERTEX
  8
DIM
 62
     7
 10
27.921632
 20
77.802525
 30
0.0
 41
0.0
  0
VERTEX
  8
DIM
 62
     7
 10
29.001632
 20
77.802525
 30
0.0
 41
0.0
  0
SEQEND
  8
DIM
 62
     7
  0
TEXT
  8
DIM
 62
     7
 10
29.541632
 20
77.427525
 30
0.0
 40
0.75
  1
0.278 x 0.406
 41
0.75
  7
TXT
 11
29.541632
 21
77.802525
 31
0.0
 73
     2
  0
TEXT
  8
DIM
 62
     7
 10
29.541632
 20
76.177525
 30
0.0
 40
0.75
  1
(4) SLOTS
 41
0.75
  7
TXT
 11
29.541632
 21
76.552525
 31
0.0
 73
     2
  0
LINE
  8
TITLE
 62
     7
 10
0.372
 20
52.116
 30
0.0
 11
60.348
 21
52.116
 31
0.0
  0
LINE
  8
TITLE
 62
     7
 10
0.372
 20
51.744
 30
0.0
 11
60.348
 21
51.744
 31
0.0
  0
LINE
  8
TITLE
 62
     7
 10
0.372
 20
49.236
 30
0.0
 11
60.348
 21
49.236
 31
0.0
  0
TEXT
  8
TEXT
 62
     7
 10
1.247
 20
49.476475
 30
0.0
 40
0.75
  1
NAME
 72
     1
 11
2.622
 21
49.476475
 31
0.0
  0
TEXT
  8
TEXT
 62
     7
 10
1.247
 20
50.726475
 30
0.0
 40
0.75
  1
PART
 72
     1
 11
2.622
 21
50.726475
 31
0.0
  0
TEXT
  8
TEXT
 62
     7
 10
15.8815
 20
50.021
 30
0.0
 40
0.938
  1
SHELF
 41
0.75
  7
TXT
 72
     4
 11
17.523
 21
50.49
 31
0.0
  0
LINE
  8
TITLE
 62
     7
 10
4.872
 20
49.236
 30
0.0
 11
4.872
 21
51.744
 31
0.0
  0
TEXT
  8
TEXT
 62
     7
 10
45.46925
 20
50.021
 30
0.0
 40
0.938
  1
60-2380
 41
0.75
  7
TXT
 72
     4
 11
47.697
 21
50.49
 31
0.0
  0
TEXT
  8
TEXT
 62
     7
 10
32.046
 20
49.476475
 30
0.0
 40
0.75
  1
No.
 72
     1
 11
32.796
 21
49.476475
 31
0.0
  0
LINE
  8
TITLE
 62
     7
 10
35.046
 20
51.744
 30
0.0
 11
35.046
 21
49.236
 31
0.0
  0
LINE
  8
TITLE
 62
     7
 10
30.546
 20
51.744
 30
0.0
 11
30.546
 21
49.236
 31
0.0
  0
LINE
  8
TITLE
 62
     7
 10
30.174
 20
51.744
 30
0.0
 11
30.174
 21
49.236
 31
0.0
  0
TEXT
  8
TEXT
 62
     7
 10
31.421
 20
50.726475
 30
0.0
 40
0.75
  1
PART
 72
     1
 11
32.796
 21
50.726475
 31
0.0
  0
LINE
  8
TITLE
 10
60.348
 20
51.744
 30
0.0
 11
60.348
 21
25.744
 31
0.0
  0
LINE
  8
TITLE
 10
0.372
 20
52.116
 30
0.0
 11
0.372
 21
92.628
 31
0.0
  0
LINE
  8
TITLE
 62
     7
 10
0.372
 20
25.744
 30
0.0
 11
60.348
 21
25.744
 31
0.0
  0
LINE
  8
TITLE
 62
     7
 10
0.372
 20
22.864
 30
0.0
 11
60.348
 21
22.864
 31
0.0
  0
LINE
  8
TITLE
 62
     7
 10
0.372
 20
25.372
 30
0.0
 11
60.348
 21
25.372
 31
0.0
  0
TEXT
  8
TEXT
 62
     7
 10
1.247
 20
23.104475
 30
0.0
 40
0.75
  1
NAME
 72
     1
 11
2.622
 21
23.104475
 31
0.0
  0
TEXT
  8
TEXT
 62
     7
 10
1.247
 20
24.354475
 30
0.0
 40
0.75
  1
PART
 72
     1
 11
2.622
 21
24.354475
 31
0.0
  0
LINE
  8
TITLE
 62
     7
 10
4.872
 20
22.864
 30
0.0
 11
4.872
 21
25.372
 31
0.0
  0
TEXT
  8
TEXT
 62
     7
 10
15.8815
 20
23.649
 30
0.0
 40
0.938
  1
SHELF
 41
0.75
  7
TXT
 72
     4
 11
17.523
 21
24.118
 31
0.0
  0
TEXT
  8
TEXT
 62
     7
 10
45.527875
 20
23.649
 30
0.0
 40
0.938
  1
60-2381
 41
0.75
  7
TXT
 72
     4
 11
47.697
 21
24.118
 31
0.0
  0
LINE
  8
TITLE
 62
     7
 10
30.174
 20
25.372
 30
0.0
 11
30.174
 21
22.864
 31
0.0
  0
LINE
  8
TITLE
 62
     7
 10
30.546
 20
25.372
 30
0.0
 11
30.546
 21
22.864
 31
0.0
  0
LINE
  8
TITLE
 62
     7
 10
35.046
 20
25.372
 30
0.0
 11
35.046
 21
22.864
 31
0.0
  0
TEXT
  8
TEXT
 62
     7
 10
32.046
 20
23.104475
 30
0.0
 40
0.75
  1
No.
 72
     1
 11
32.796
 21
23.104475
 31
0.0
  0
TEXT
  8
TEXT
 62
     7
 10
31.421
 20
24.354475
 30
0.0
 40
0.75
  1
PART
 72
     1
 11
32.796
 21
24.354475
 31
0.0
  0
LINE
  8
TITLE
 62
     7
 10
0.372
 20
53.366
 30
0.0
 11
60.348
 21
53.366
 31
0.0
  0
LINE
  8
TITLE
 62
     7
 10
0.372
 20
54.616
 30
0.0
 11
60.348
 21
54.616
 31
0.0
  0
LINE
  8
TITLE
 62
     7
 10
5.872
 20
52.116
 30
0.0
 11
5.872
 21
54.616
 31
0.0
  0
LINE
  8
TITLE
 62
     7
 10
30.174
 20
52.116
 30
0.0
 11
30.174
 21
54.616
 31
0.0
  0
LINE
  8
TITLE
 62
     7
 10
30.546
 20
52.116
 30
0.0
 11
30.546
 21
54.616
 31
0.0
  0
LINE
  8
TITLE
 62
     7
 10
36.046
 20
52.116
 30
0.0
 11
36.046
 21
54.616
 31
0.0
  0
TEXT
  8
TEXT
 62
     7
 10
1.15325
 20
53.616
 30
0.0
 40
0.75
  1
PART No.
 41
0.75
  7
TXT
 72
     4
 11
3.122
 21
53.991
 31
0.0
  0
TEXT
  8
TEXT
 62
     7
 10
1.4345
 20
52.366
 30
0.0
 40
0.75
  1
SA-1719
 41
0.75
  7
TXT
 72
     4
 11
3.122
 21
52.741
 31
0.0
  0
TEXT
  8
TEXT
 62
     7
 10
16.7105
 20
53.616
 30
0.0
 40
0.75
  1
DEPTH
 41
0.75
  7
TXT
 72
     4
 11
18.023
 21
53.991
 31
0.0
  0
TEXT
  8
TEXT
 62
     7
 10
16.851125
 20
52.366
 30
0.0
 40
0.75
  1
16.000
 41
0.75
  7
TXT
 72
     4
 11
18.023
 21
52.741
 31
0.0
  0
TEXT
  8
TEXT
 62
     7
 10
31.32725
 20
53.616
 30
0.0
 40
0.75
  1
PART No.
 41
0.75
  7
TXT
 72
     4
 11
33.296
 21
53.991
 31
0.0
  0
TEXT
  8
TEXT
 62
     7
 10
31.561625
 20
52.366
 30
0.0
 40
0.75
  1
SA-1720
 41
0.75
  7
TXT
 72
     4
 11
33.296
 21
52.741
 31
0.0
  0
TEXT
  8
TEXT
 62
     7
 10
46.8845
 20
53.616
 30
0.0
 40
0.75
  1
DEPTH
 41
0.75
  7
TXT
 72
     4
 11
48.197
 21
53.991
 31
0.0
  0
TEXT
  8
TEXT
 62
     7
 10
46.97825
 20
52.366
 30
0.0
 40
0.75
  1
20.000
 41
0.75
  7
TXT
 72
     4
 11
48.197
 21
52.741
 31
0.0
  0
LINE
  8
TITLE
 10
60.348
 20
25.372
 30
0.0
 11
60.348
 21
0.372
 31
0.0
  0
LINE
  8
TITLE
 10
0.372
 20
25.744
 30
0.0
 11
0.372
 21
51.744
 31
0.0
  0
TEXT
  8
TEXT
 62
     7
 10
44.564713
 20
38.508902
 30
0.0
 40
0.75
  1
LOAD RATING:  200 LBS. MAX.
 41
0.75
  0
TEXT
  8
TEXT
 62
     7
 10
44.564713
 20
12.331386
 30
0.0
 40
0.75
  1
LOAD RATING:  200 LBS. MAX.
 41
0.75
  0
TEXT
  8
TEXT
 62
     7
 10
31.709429
 20
59.970441
 30
0.0
 40
0.75
  1
LOAD RATING:  100 LBS. MAX.
 41
0.75
  0
ENDSEC
  0
EOF
