  0
SECTION
  2
HEADER
  9
$ACADVER
  1
AC1009
  9
$INSBASE
 10
0.0
 20
0.0
 30
0.0
  9
$EXTMIN
 10
0.0
 20
0.0
 30
-0.881197
  9
$EXTMAX
 10
60.72
 20
93.0
 30
0.0
  9
$LIMMIN
 10
0.0
 20
0.0
  9
$LIMMAX
 10
70.84
 20
108.5
  9
$ORTHOMODE
 70
     0
  9
$REGENMODE
 70
     1
  9
$FILLMODE
 70
     1
  9
$QTEXTMODE
 70
     0
  9
$MIRRTEXT
 70
     0
  9
$DRAGMODE
 70
     2
  9
$LTSCALE
 40
2.5
  9
$OSMODE
 70
    65
  9
$ATTMODE
 70
     1
  9
$TEXTSIZE
 40
0.75
  9
$TRACEWID
 40
0.05
  9
$TEXTSTYLE
  7
STANDARD
  9
$CLAYER
  8
OBJECT
  9
$CELTYPE
  6
BYLAYER
  9
$CECOLOR
 62
   256
  9
$DIMSCALE
 40
6.0
  9
$DIMASZ
 40
0.18
  9
$DIMEXO
 40
0.063
  9
$DIMDLI
 40
0.38
  9
$DIMRND
 40
0.0
  9
$DIMDLE
 40
0.0
  9
$DIMEXE
 40
0.093
  9
$DIMTP
 40
0.0
  9
$DIMTM
 40
0.0
  9
$DIMTXT
 40
0.125
  9
$DIMCEN
 40
0.09
  9
$DIMTSZ
 40
0.0
  9
$DIMTOL
 70
     0
  9
$DIMLIM
 70
     0
  9
$DIMTIH
 70
     1
  9
$DIMTOH
 70
     1
  9
$DIMSE1
 70
     0
  9
$DIMSE2
 70
     0
  9
$DIMTAD
 70
     0
  9
$DIMZIN
 70
     0
  9
$DIMBLK
  1

  9
$DIMASO
 70
     1
  9
$DIMSHO
 70
     1
  9
$DIMPOST
  1

  9
$DIMAPOST
  1

  9
$DIMALT
 70
     0
  9
$DIMALTD
 70
     2
  9
$DIMALTF
 40
25.4
  9
$DIMLFAC
 40
1.0
  9
$DIMTOFL
 70
     0
  9
$DIMTVP
 40
0.0
  9
$DIMTIX
 70
     0
  9
$DIMSOXD
 70
     0
  9
$DIMSAH
 70
     0
  9
$DIMBLK1
  1

  9
$DIMBLK2
  1

  9
$DIMSTYLE
  2
23NSTD
  9
$DIMCLRD
 70
     0
  9
$DIMCLRE
 70
     0
  9
$DIMCLRT
 70
     0
  9
$DIMTFAC
 40
1.0
  9
$DIMGAP
 40
0.09
  9
$LUNITS
 70
     2
  9
$LUPREC
 70
     3
  9
$SKETCHINC
 40
0.1
  9
$FILLETRAD
 40
0.0
  9
$AUNITS
 70
     0
  9
$AUPREC
 70
     0
  9
$MENU
  1
acad
  9
$ELEVATION
 40
0.0
  9
$PELEVATION
 40
0.0
  9
$THICKNESS
 40
0.0
  9
$LIMCHECK
 70
     0
  9
$BLIPMODE
 70
     1
  9
$CHAMFERA
 40
0.0
  9
$CHAMFERB
 40
0.0
  9
$SKPOLY
 70
     0
  9
$TDCREATE
 40
2448371.324109259
  9
$TDUPDATE
 40
2451354.317237847
  9
$TDINDWG
 40
0.4713320602
  9
$TDUSRTIMER
 40
0.4713320602
  9
$USRTIMER
 70
     1
  9
$ANGBASE
 50
0.0
  9
$ANGDIR
 70
     0
  9
$PDMODE
 70
     0
  9
$PDSIZE
 40
0.0
  9
$PLINEWID
 40
0.0
  9
$COORDS
 70
     0
  9
$SPLFRAME
 70
     0
  9
$SPLINETYPE
 70
     6
  9
$SPLINESEGS
 70
     8
  9
$ATTDIA
 70
     0
  9
$ATTREQ
 70
     1
  9
$HANDLING
 70
     0
  9
$HANDSEED
  5
0
  9
$SURFTAB1
 70
     6
  9
$SURFTAB2
 70
     6
  9
$SURFTYPE
 70
     6
  9
$SURFU
 70
     6
  9
$SURFV
 70
     6
  9
$UCSNAME
  2

  9
$UCSORG
 10
0.0
 20
0.0
 30
0.0
  9
$UCSXDIR
 10
1.0
 20
0.0
 30
0.0
  9
$UCSYDIR
 10
0.0
 20
1.0
 30
0.0
  9
$PUCSNAME
  2

  9
$PUCSORG
 10
0.0
 20
0.0
 30
0.0
  9
$PUCSXDIR
 10
1.0
 20
0.0
 30
0.0
  9
$PUCSYDIR
 10
0.0
 20
1.0
 30
0.0
  9
$USERI1
 70
     0
  9
$USERI2
 70
     0
  9
$USERI3
 70
     0
  9
$USERI4
 70
     0
  9
$USERI5
 70
     0
  9
$USERR1
 40
0.0
  9
$USERR2
 40
0.0
  9
$USERR3
 40
0.0
  9
$USERR4
 40
0.0
  9
$USERR5
 40
0.0
  9
$WORLDVIEW
 70
     1
  9
$SHADEDGE
 70
     3
  9
$SHADEDIF
 70
    70
  9
$TILEMODE
 70
     1
  9
$MAXACTVP
 70
    16
  9
$PINSBASE
 10
0.0
 20
0.0
 30
0.0
  9
$PLIMCHECK
 70
     0
  9
$PEXTMIN
 10
1.000000E+20
 20
1.000000E+20
 30
1.000000E+20
  9
$PEXTMAX
 10
-1.000000E+20
 20
-1.000000E+20
 30
-1.000000E+20
  9
$PLIMMIN
 10
0.0
 20
0.0
  9
$PLIMMAX
 10
12.0
 20
9.0
  9
$UNITMODE
 70
     0
  9
$VISRETAIN
 70
     0
  9
$PLINEGEN
 70
     0
  9
$PSLTSCALE
 70
     0
  9
$TREEDEPTH
 70
  3020
  9
$DWGCODEPAGE
  3
undefined
  0
ENDSEC
  0
SECTION
  2
TABLES
  0
TABLE
  2
VPORT
 70
     2
  0
VPORT
  2
*ACTIVE
 70
     0
 10
0.0
 20
0.0
 11
1.0
 21
1.0
 12
63.348787
 22
46.5
 13
0.0
 23
0.0
 14
1.0
 24
1.0
 15
0.5
 25
0.5
 16
0.0
 26
0.0
 36
1.0
 17
0.0
 27
0.0
 37
0.0
 40
93.0
 41
1.36234
 42
50.0
 43
0.0
 44
0.0
 50
0.0
 51
0.0
 71
     0
 72
   100
 73
     1
 74
     0
 75
     0
 76
     0
 77
     0
 78
     0
  0
ENDTAB
  0
TABLE
  2
LTYPE
 70
     4
  0
LTYPE
  2
CONTINUOUS
 70
    64
  3
Solid line
 72
    65
 73
     0
 40
0.0
  0
LTYPE
  2
HIDDEN
 70
    64
  3
_ _ _ _ _ _ _ _ _ _ _ _ _ _ _ _ _ _ _ _ _ _ _
 72
    65
 73
     2
 40
0.375
 49
0.25
 49
-0.125
  0
LTYPE
  2
CENTER
 70
    64
  3
____ _ ____ _ ____ _ ____ _ ____ _ ____ _ ____
 72
    65
 73
     4
 40
2.0
 49
1.25
 49
-0.25
 49
0.25
 49
-0.25
  0
LTYPE
  2
HIDDEN2
 70
    64
  3
_ _ _ _ _ _ _ _ _ _ _ _ _ _ _ _ _ _ _ _ _ _ _ _
 72
    65
 73
     2
 40
0.1875
 49
0.125
 49
-0.0625
  0
ENDTAB
  0
TABLE
  2
LAYER
 70
     9
  0
LAYER
  2
0
 70
    64
 62
     7
  6
CONTINUOUS
  0
LAYER
  2
OBJECT
 70
    64
 62
     7
  6
CONTINUOUS
  0
LAYER
  2
DIM
 70
    64
 62
     7
  6
CONTINUOUS
  0
LAYER
  2
HIDDEN
 70
    64
 62
     7
  6
HIDDEN
  0
LAYER
  2
TEXT
 70
    64
 62
     7
  6
CONTINUOUS
  0
LAYER
  2
TITLE
 70
    64
 62
     7
  6
CONTINUOUS
  0
LAYER
  2
CENTER
 70
    64
 62
     7
  6
CENTER
  0
LAYER
  2
DEFPOINTS
 70
    64
 62
     7
  6
CONTINUOUS
  0
LAYER
  2
AM_VIS
 70
    64
 62
     7
  6
CONTINUOUS
  0
ENDTAB
  0
TABLE
  2
STYLE
 70
     1
  0
STYLE
  2
STANDARD
 70
    64
 40
0.0
 41
0.75
 50
0.0
 71
     0
 42
0.75
  3
TXT.shx
  4

  0
ENDTAB
  0
TABLE
  2
VIEW
 70
     0
  0
ENDTAB
  0
TABLE
  2
UCS
 70
     0
  0
ENDTAB
  0
TABLE
  2
APPID
 70
     1
  0
APPID
  2
ACAD
 70
    64
  0
ENDTAB
  0
TABLE
  2
DIMSTYLE
 70
     2
  0
DIMSTYLE
  2
23NSTD
 70
    64
  3

  4

  5

  6

  7

 40
6.0
 41
0.18
 42
0.063
 43
0.38
 44
0.093
 45
0.0
 46
0.0
 47
0.0
 48
0.0
140
0.125
141
0.09
142
0.0
143
25.4
144
1.0
145
0.0
146
1.0
147
0.09
 71
     0
 72
     0
 73
     1
 74
     1
 75
     0
 76
     0
 77
     0
 78
     0
170
     0
171
     2
172
     0
173
     0
174
     0
175
     0
176
     0
177
     0
178
     0
  0
DIMSTYLE
  2
23NSTDI
 70
    64
  3

  4

  5

  6

  7

 40
6.0
 41
0.18
 42
0.063
 43
0.38
 44
0.093
 45
0.0
 46
0.0
 47
0.0
 48
0.0
140
0.125
141
0.09
142
0.0
143
25.4
144
1.0
145
0.0
146
1.0
147
0.09
 71
     0
 72
     0
 73
     1
 74
     1
 75
     0
 76
     0
 77
     0
 78
     0
170
     0
171
     2
172
     0
173
     0
174
     1
175
     0
176
     0
177
     0
178
     0
  0
ENDTAB
  0
ENDSEC
  0
SECTION
  2
BLOCKS
  0
BLOCK
  8
0
  2
HB
 70
    64
 10
0.0
 20
0.0
 30
0.0
  3
HB
  0
TEXT
  8
TEXT
 10
0.207833
 20
15.060079
 30
0.0
 40
0.125
  1
NAME
 72
     1
 11
0.437
 21
15.060079
 31
0.0
  0
TEXT
  8
TEXT
 10
0.207833
 20
15.268413
 30
0.0
 40
0.125
  1
PART
 72
     1
 11
0.437
 21
15.268413
 31
0.0
  0
TEXT
  8
TEXT
 10
5.372
 20
15.060079
 30
0.0
 40
0.125
  1
No.
 72
     1
 11
5.497
 21
15.060079
 31
0.0
  0
TEXT
  8
TEXT
 10
5.267833
 20
15.268413
 30
0.0
 40
0.125
  1
PART
 72
     1
 11
5.497
 21
15.268413
 31
0.0
  0
LINE
  8
TITLE
 10
5.872
 20
15.438
 30
0.0
 11
5.872
 21
15.02
 31
0.0
  0
LINE
  8
TITLE
 10
5.122
 20
15.438
 30
0.0
 11
5.122
 21
15.02
 31
0.0
  0
LINE
  8
TITLE
 10
5.06
 20
15.438
 30
0.0
 11
5.06
 21
15.02
 31
0.0
  0
LINE
  8
TITLE
 10
0.812
 20
15.02
 30
0.0
 11
0.812
 21
15.438
 31
0.0
  0
LINE
  8
TITLE
 10
0.062
 20
15.02
 30
0.0
 11
10.058
 21
15.02
 31
0.0
  0
LINE
  8
TITLE
 10
10.058
 20
0.062
 30
0.0
 11
0.062
 21
0.062
 31
0.0
  0
LINE
  8
TITLE
 10
10.058
 20
15.438
 30
0.0
 11
10.058
 21
0.062
 31
0.0
  0
LINE
  8
TITLE
 10
0.062
 20
15.438
 30
0.0
 11
10.058
 21
15.438
 31
0.0
  0
LINE
  8
TITLE
 10
0.062
 20
0.062
 30
0.0
 11
0.062
 21
15.438
 31
0.0
  0
LINE
  8
TITLE
 10
0.0
 20
0.0
 30
0.0
 11
0.0
 21
15.5
 31
0.0
  0
LINE
  8
TITLE
 10
10.12
 20
0.0
 30
0.0
 11
0.0
 21
0.0
 31
0.0
  0
LINE
  8
TITLE
 10
10.12
 20
15.5
 30
0.0
 11
10.12
 21
0.0
 31
0.0
  0
LINE
  8
TITLE
 10
0.0
 20
15.5
 30
0.0
 11
10.12
 21
15.5
 31
0.0
  0
ENDBLK
  8
0
  0
BLOCK
  8
0
  2
*D1
 70
    65
 10
0.0
 20
0.0
 30
0.0
  3
*D
  0
LINE
  8
0
  6
BYBLOCK
 62
     0
 10
84.982022
 20
1.662056
 30
0.0
 11
82.595494
 21
1.662056
 31
0.0
  0
LINE
  8
0
  6
BYBLOCK
 62
     0
 10
84.982022
 20
-0.055944
 30
0.0
 11
82.595494
 21
-0.055944
 31
0.0
  0
LINE
  8
0
  6
BYBLOCK
 62
     0
 10
83.153494
 20
2.742056
 30
0.0
 11
83.153494
 21
3.822056
 31
0.0
  0
LINE
  8
0
  6
BYBLOCK
 62
     0
 10
83.153494
 20
-1.135944
 30
0.0
 11
83.153494
 21
-2.215944
 31
0.0
  0
SOLID
  8
0
  6
BYBLOCK
 62
     0
 10
82.973494
 20
2.742056
 30
0.0
 11
83.333494
 21
2.742056
 31
0.0
 12
83.153494
 22
1.662056
 32
0.0
 13
83.153494
 23
1.662056
 33
0.0
  0
SOLID
  8
0
  6
BYBLOCK
 62
     0
 10
82.973494
 20
-1.135944
 30
0.0
 11
83.333494
 21
-1.135944
 31
0.0
 12
83.153494
 22
-0.055944
 32
0.0
 13
83.153494
 23
-0.055944
 33
0.0
  0
TEXT
  8
0
  6
BYBLOCK
 62
     0
 10
82.215994
 20
0.428056
 30
0.0
 40
0.75
  1
1.718
 41
0.75
 72
     1
 11
83.153494
 21
0.803056
 31
0.0
 73
     2
  0
POINT
  8
DEFPOINTS
  6
BYBLOCK
 62
     0
 10
85.360022
 20
1.662056
 30
0.0
  0
POINT
  8
DEFPOINTS
  6
BYBLOCK
 62
     0
 10
85.360022
 20
-0.055944
 30
0.0
  0
POINT
  8
DEFPOINTS
  6
BYBLOCK
 62
     0
 10
83.153494
 20
-0.055944
 30
0.0
  0
ENDBLK
  8
0
  0
BLOCK
  8
0
  2
*D2
 70
    65
 10
0.0
 20
0.0
 30
0.0
  3
*D
  0
LINE
  8
0
  6
BYBLOCK
 62
     0
 10
85.891022
 20
25.272028
 30
0.0
 11
85.891022
 21
29.237565
 31
0.0
  0
LINE
  8
0
  6
BYBLOCK
 62
     0
 10
103.767022
 20
25.272028
 30
0.0
 11
103.767022
 21
29.237565
 31
0.0
  0
LINE
  8
0
  6
BYBLOCK
 62
     0
 10
86.971022
 20
28.679565
 30
0.0
 11
92.976522
 21
28.679565
 31
0.0
  0
LINE
  8
0
  6
BYBLOCK
 62
     0
 10
102.687022
 20
28.679565
 30
0.0
 11
96.681522
 21
28.679565
 31
0.0
  0
SOLID
  8
0
  6
BYBLOCK
 62
     0
 10
86.971022
 20
28.859565
 30
0.0
 11
86.971022
 21
28.499565
 31
0.0
 12
85.891022
 22
28.679565
 32
0.0
 13
85.891022
 23
28.679565
 33
0.0
  0
SOLID
  8
0
  6
BYBLOCK
 62
     0
 10
102.687022
 20
28.859565
 30
0.0
 11
102.687022
 21
28.499565
 31
0.0
 12
103.767022
 22
28.679565
 32
0.0
 13
103.767022
 23
28.679565
 33
0.0
  0
TEXT
  8
0
  6
BYBLOCK
 62
     0
 10
93.516522
 20
28.304565
 30
0.0
 40
0.75
  1
17.876
 41
0.75
 72
     1
 11
94.829022
 21
28.679565
 31
0.0
 73
     2
  0
POINT
  8
DEFPOINTS
  6
BYBLOCK
 62
     0
 10
85.891022
 20
24.894028
 30
0.0
  0
POINT
  8
DEFPOINTS
  6
BYBLOCK
 62
     0
 10
103.767022
 20
24.894028
 30
0.0
  0
POINT
  8
DEFPOINTS
  6
BYBLOCK
 62
     0
 10
103.767022
 20
28.679565
 30
0.0
  0
ENDBLK
  8
0
  0
BLOCK
  8
0
  2
*D3
 70
    65
 10
0.0
 20
0.0
 30
0.0
  3
*D
  0
LINE
  8
0
  6
BYBLOCK
 62
     0
 10
102.704022
 20
24.272028
 30
0.0
 11
102.704022
 21
27.369322
 31
0.0
  0
LINE
  8
0
  6
BYBLOCK
 62
     0
 10
103.079022
 20
24.272028
 30
0.0
 11
103.079022
 21
27.369322
 31
0.0
  0
LINE
  8
0
  6
BYBLOCK
 62
     0
 10
101.624022
 20
26.811322
 30
0.0
 11
100.544022
 21
26.811322
 31
0.0
  0
LINE
  8
0
  6
BYBLOCK
 62
     0
 10
104.159022
 20
26.811322
 30
0.0
 11
105.239022
 21
26.811322
 31
0.0
  0
SOLID
  8
0
  6
BYBLOCK
 62
     0
 10
101.624022
 20
26.991322
 30
0.0
 11
101.624022
 21
26.631322
 31
0.0
 12
102.704022
 22
26.811322
 32
0.0
 13
102.704022
 23
26.811322
 33
0.0
  0
SOLID
  8
0
  6
BYBLOCK
 62
     0
 10
104.159022
 20
26.991322
 30
0.0
 11
104.159022
 21
26.631322
 31
0.0
 12
103.079022
 22
26.811322
 32
0.0
 13
103.079022
 23
26.811322
 33
0.0
  0
TEXT
  8
0
  6
BYBLOCK
 62
     0
 10
108.122772
 20
26.436322
 30
0.0
 40
0.75
  1
 SLIDE
 41
0.75
 72
     1
 11
109.622772
 21
26.811322
 31
0.0
 73
     2
  0
TEXT
  8
0
  6
BYBLOCK
 62
     0
 10
105.779022
 20
26.436322
 30
0.0
 40
0.75
  1
0.375
 41
0.75
 72
     1
 11
106.857147
 21
26.811322
 31
0.0
 73
     2
  0
POINT
  8
DEFPOINTS
  6
BYBLOCK
 62
     0
 10
102.704022
 20
23.894028
 30
0.0
  0
POINT
  8
DEFPOINTS
  6
BYBLOCK
 62
     0
 10
103.079022
 20
23.894028
 30
0.0
  0
POINT
  8
DEFPOINTS
  6
BYBLOCK
 62
     0
 10
103.079022
 20
26.811322
 30
0.0
  0
ENDBLK
  8
0
  0
BLOCK
  8
0
  2
*D4
 70
    65
 10
0.0
 20
0.0
 30
0.0
  3
*D
  0
LINE
  8
0
  6
BYBLOCK
 62
     0
 10
93.201022
 20
2.27961
 30
0.0
 11
89.901853
 21
2.27961
 31
0.0
  0
LINE
  8
0
  6
BYBLOCK
 62
     0
 10
90.438154
 20
1.77961
 30
0.0
 11
89.901853
 21
1.77961
 31
0.0
  0
LINE
  8
0
  6
BYBLOCK
 62
     0
 10
90.459853
 20
3.35961
 30
0.0
 11
90.459853
 21
4.43961
 31
0.0
  0
LINE
  8
0
  6
BYBLOCK
 62
     0
 10
90.459853
 20
0.69961
 30
0.0
 11
90.459853
 21
-0.38039
 31
0.0
  0
LINE
  8
0
  6
BYBLOCK
 62
     0
 10
90.459853
 20
-0.38039
 30
0.0
 11
89.379853
 21
-0.38039
 31
0.0
  0
SOLID
  8
0
  6
BYBLOCK
 62
     0
 10
90.279853
 20
3.35961
 30
0.0
 11
90.639853
 21
3.35961
 31
0.0
 12
90.459853
 22
2.27961
 32
0.0
 13
90.459853
 23
2.27961
 33
0.0
  0
SOLID
  8
0
  6
BYBLOCK
 62
     0
 10
90.279853
 20
0.69961
 30
0.0
 11
90.639853
 21
0.69961
 31
0.0
 12
90.459853
 22
1.77961
 32
0.0
 13
90.459853
 23
1.77961
 33
0.0
  0
TEXT
  8
0
  6
BYBLOCK
 62
     0
 10
86.871103
 20
-0.75539
 30
0.0
 40
0.75
  1
0.500
 41
0.75
 72
     1
 11
87.855478
 21
-0.38039
 31
0.0
 73
     2
  0
POINT
  8
DEFPOINTS
  6
BYBLOCK
 62
     0
 10
93.579022
 20
2.27961
 30
0.0
  0
POINT
  8
DEFPOINTS
  6
BYBLOCK
 62
     0
 10
90.816154
 20
1.77961
 30
0.0
  0
POINT
  8
DEFPOINTS
  6
BYBLOCK
 62
     0
 10
90.459853
 20
1.77961
 30
0.0
  0
ENDBLK
  8
0
  0
BLOCK
  8
0
  2
*D5
 70
    65
 10
0.0
 20
0.0
 30
0.0
  3
*D
  0
LINE
  8
0
  6
BYBLOCK
 62
     0
 10
17.812549
 20
18.716175
 30
0.0
 11
18.311558
 21
18.716175
 31
0.0
  0
LINE
  8
0
  6
BYBLOCK
 62
     0
 10
17.812549
 20
34.466175
 30
0.0
 11
18.311558
 21
34.466175
 31
0.0
  0
LINE
  8
0
  6
BYBLOCK
 62
     0
 10
17.753558
 20
19.796175
 30
0.0
 11
17.753558
 21
25.676175
 31
0.0
  0
LINE
  8
0
  6
BYBLOCK
 62
     0
 10
17.753558
 20
33.386175
 30
0.0
 11
17.753558
 21
27.506175
 31
0.0
  0
SOLID
  8
0
  6
BYBLOCK
 62
     0
 10
17.573558
 20
19.796175
 30
0.0
 11
17.933558
 21
19.796175
 31
0.0
 12
17.753558
 22
18.716175
 32
0.0
 13
17.753558
 23
18.716175
 33
0.0
  0
SOLID
  8
0
  6
BYBLOCK
 62
     0
 10
17.573558
 20
33.386175
 30
0.0
 11
17.933558
 21
33.386175
 31
0.0
 12
17.753558
 22
34.466175
 32
0.0
 13
17.753558
 23
34.466175
 33
0.0
  0
TEXT
  8
0
  6
BYBLOCK
 62
     0
 10
16.956683
 20
26.216175
 30
0.0
 40
0.75
  1
 DESKTOP
 41
0.75
 72
     1
 11
19.112933
 21
26.591175
 31
0.0
 73
     2
  0
TEXT
  8
0
  6
BYBLOCK
 62
     0
 10
14.237933
 20
26.216175
 30
0.0
 40
0.75
  1
15.750
 41
0.75
 72
     1
 11
15.503558
 21
26.591175
 31
0.0
 73
     2
  0
POINT
  8
DEFPOINTS
  6
BYBLOCK
 62
     0
 10
17.434549
 20
18.716175
 30
0.0
  0
POINT
  8
DEFPOINTS
  6
BYBLOCK
 62
     0
 10
17.434549
 20
34.466175
 30
0.0
  0
POINT
  8
DEFPOINTS
  6
BYBLOCK
 62
     0
 10
17.753558
 20
34.466175
 30
0.0
  0
ENDBLK
  8
0
  0
BLOCK
  8
0
  2
*D6
 70
    65
 10
0.0
 20
0.0
 30
0.0
  3
*D
  0
LINE
  8
0
  6
BYBLOCK
 62
     0
 10
7.374211
 20
35.094175
 30
0.0
 11
7.374211
 21
38.19147
 31
0.0
  0
LINE
  8
0
  6
BYBLOCK
 62
     0
 10
23.124211
 20
35.094175
 30
0.0
 11
23.124211
 21
38.19147
 31
0.0
  0
LINE
  8
0
  6
BYBLOCK
 62
     0
 10
8.454211
 20
37.63347
 30
0.0
 11
11.193586
 21
37.63347
 31
0.0
  0
LINE
  8
0
  6
BYBLOCK
 62
     0
 10
22.044211
 20
37.63347
 30
0.0
 11
19.304836
 21
37.63347
 31
0.0
  0
SOLID
  8
0
  6
BYBLOCK
 62
     0
 10
8.454211
 20
37.81347
 30
0.0
 11
8.454211
 21
37.45347
 31
0.0
 12
7.374211
 22
37.63347
 32
0.0
 13
7.374211
 23
37.63347
 33
0.0
  0
SOLID
  8
0
  6
BYBLOCK
 62
     0
 10
22.044211
 20
37.81347
 30
0.0
 11
22.044211
 21
37.45347
 31
0.0
 12
23.124211
 22
37.63347
 32
0.0
 13
23.124211
 23
37.63347
 33
0.0
  0
TEXT
  8
0
  6
BYBLOCK
 62
     0
 10
14.452336
 20
37.25847
 30
0.0
 40
0.75
  1
 DESKTOP
 41
0.75
 72
     1
 11
16.608586
 21
37.63347
 31
0.0
 73
     2
  0
TEXT
  8
0
  6
BYBLOCK
 62
     0
 10
11.733586
 20
37.25847
 30
0.0
 40
0.75
  1
15.750
 41
0.75
 72
     1
 11
12.999211
 21
37.63347
 31
0.0
 73
     2
  0
POINT
  8
DEFPOINTS
  6
BYBLOCK
 62
     0
 10
7.374211
 20
34.716175
 30
0.0
  0
POINT
  8
DEFPOINTS
  6
BYBLOCK
 62
     0
 10
23.124211
 20
34.716175
 30
0.0
  0
POINT
  8
DEFPOINTS
  6
BYBLOCK
 62
     0
 10
23.124211
 20
37.63347
 30
0.0
  0
ENDBLK
  8
0
  0
BLOCK
  8
0
  2
*D7
 70
    65
 10
0.0
 20
0.0
 30
0.0
  3
*D
  0
LINE
  8
0
  6
BYBLOCK
 62
     0
 10
58.314629
 20
5.432929
 30
0.0
 11
58.314629
 21
7.317444
 31
0.0
  0
LINE
  8
0
  6
BYBLOCK
 62
     0
 10
41.314629
 20
5.432929
 30
0.0
 11
41.314629
 21
7.317444
 31
0.0
  0
LINE
  8
0
  6
BYBLOCK
 62
     0
 10
57.234629
 20
6.759444
 30
0.0
 11
53.776504
 21
6.759444
 31
0.0
  0
LINE
  8
0
  6
BYBLOCK
 62
     0
 10
42.394629
 20
6.759444
 30
0.0
 11
45.852754
 21
6.759444
 31
0.0
  0
SOLID
  8
0
  6
BYBLOCK
 62
     0
 10
57.234629
 20
6.939444
 30
0.0
 11
57.234629
 21
6.579444
 31
0.0
 12
58.314629
 22
6.759444
 32
0.0
 13
58.314629
 23
6.759444
 33
0.0
  0
SOLID
  8
0
  6
BYBLOCK
 62
     0
 10
42.394629
 20
6.939444
 30
0.0
 11
42.394629
 21
6.579444
 31
0.0
 12
41.314629
 22
6.759444
 32
0.0
 13
41.314629
 23
6.759444
 33
0.0
  0
TEXT
  8
0
  6
BYBLOCK
 62
     0
 10
48.924004
 20
6.384444
 30
0.0
 40
0.75
  1
 BRACKET
 41
0.75
 72
     1
 11
51.080254
 21
6.759444
 31
0.0
 73
     2
  0
TEXT
  8
0
  6
BYBLOCK
 62
     0
 10
46.392754
 20
6.384444
 30
0.0
 40
0.75
  1
17.000
 41
0.75
 72
     1
 11
47.564629
 21
6.759444
 31
0.0
 73
     2
  0
POINT
  8
DEFPOINTS
  6
BYBLOCK
 62
     0
 10
58.314629
 20
5.054929
 30
0.0
  0
POINT
  8
DEFPOINTS
  6
BYBLOCK
 62
     0
 10
41.314629
 20
5.054929
 30
0.0
  0
POINT
  8
DEFPOINTS
  6
BYBLOCK
 62
     0
 10
41.314629
 20
6.759444
 30
0.0
  0
ENDBLK
  8
0
  0
BLOCK
  8
0
  2
*D8
 70
    65
 10
0.0
 20
0.0
 30
0.0
  3
*D
  0
LINE
  8
0
  6
BYBLOCK
 62
     0
 10
37.564906
 20
5.432929
 30
0.0
 11
37.564906
 21
7.317444
 31
0.0
  0
LINE
  8
0
  6
BYBLOCK
 62
     0
 10
34.564906
 20
5.432929
 30
0.0
 11
34.564906
 21
7.317444
 31
0.0
  0
LINE
  8
0
  6
BYBLOCK
 62
     0
 10
38.644906
 20
6.759444
 30
0.0
 11
39.724906
 21
6.759444
 31
0.0
  0
LINE
  8
0
  6
BYBLOCK
 62
     0
 10
33.484906
 20
6.759444
 30
0.0
 11
32.404906
 21
6.759444
 31
0.0
  0
SOLID
  8
0
  6
BYBLOCK
 62
     0
 10
38.644906
 20
6.939444
 30
0.0
 11
38.644906
 21
6.579444
 31
0.0
 12
37.564906
 22
6.759444
 32
0.0
 13
37.564906
 23
6.759444
 33
0.0
  0
SOLID
  8
0
  6
BYBLOCK
 62
     0
 10
33.484906
 20
6.939444
 30
0.0
 11
33.484906
 21
6.579444
 31
0.0
 12
34.564906
 22
6.759444
 32
0.0
 13
34.564906
 23
6.759444
 33
0.0
  0
TEXT
  8
0
  6
BYBLOCK
 62
     0
 10
27.552406
 20
6.384444
 30
0.0
 40
0.75
  1
 BRACKET
 41
0.75
 72
     1
 11
29.708656
 21
6.759444
 31
0.0
 73
     2
  0
TEXT
  8
0
  6
BYBLOCK
 62
     0
 10
25.396156
 20
6.384444
 30
0.0
 40
0.75
  1
3.000
 41
0.75
 72
     1
 11
26.380531
 21
6.759444
 31
0.0
 73
     2
  0
POINT
  8
DEFPOINTS
  6
BYBLOCK
 62
     0
 10
37.564906
 20
5.054929
 30
0.0
  0
POINT
  8
DEFPOINTS
  6
BYBLOCK
 62
     0
 10
34.564906
 20
5.054929
 30
0.0
  0
POINT
  8
DEFPOINTS
  6
BYBLOCK
 62
     0
 10
34.564906
 20
6.759444
 30
0.0
  0
ENDBLK
  8
0
  0
BLOCK
  8
0
  2
*D9
 70
    65
 10
0.0
 20
0.0
 30
0.0
  3
*D
  0
LINE
  8
0
  6
BYBLOCK
 62
     0
 10
13.749211
 20
12.348757
 30
0.0
 11
13.749211
 21
9.883757
 31
0.0
  0
LINE
  8
0
  6
BYBLOCK
 62
     0
 10
16.749211
 20
12.348757
 30
0.0
 11
16.749211
 21
9.883757
 31
0.0
  0
LINE
  8
0
  6
BYBLOCK
 62
     0
 10
12.669211
 20
10.441757
 30
0.0
 11
11.589211
 21
10.441757
 31
0.0
  0
LINE
  8
0
  6
BYBLOCK
 62
     0
 10
17.829211
 20
10.441757
 30
0.0
 11
18.909211
 21
10.441757
 31
0.0
  0
SOLID
  8
0
  6
BYBLOCK
 62
     0
 10
12.669211
 20
10.621757
 30
0.0
 11
12.669211
 21
10.261757
 31
0.0
 12
13.749211
 22
10.441757
 32
0.0
 13
13.749211
 23
10.441757
 33
0.0
  0
SOLID
  8
0
  6
BYBLOCK
 62
     0
 10
17.829211
 20
10.621757
 30
0.0
 11
17.829211
 21
10.261757
 31
0.0
 12
16.749211
 22
10.441757
 32
0.0
 13
16.749211
 23
10.441757
 33
0.0
  0
TEXT
  8
0
  6
BYBLOCK
 62
     0
 10
14.264836
 20
10.066757
 30
0.0
 40
0.75
  1
3.000
 41
0.75
 72
     1
 11
15.249211
 21
10.441757
 31
0.0
 73
     2
  0
POINT
  8
DEFPOINTS
  6
BYBLOCK
 62
     0
 10
13.749211
 20
12.726757
 30
0.0
  0
POINT
  8
DEFPOINTS
  6
BYBLOCK
 62
     0
 10
16.749211
 20
12.726757
 30
0.0
  0
POINT
  8
DEFPOINTS
  6
BYBLOCK
 62
     0
 10
16.749211
 20
10.441757
 30
0.0
  0
ENDBLK
  8
0
  0
BLOCK
  8
0
  2
*D10
 70
    65
 10
0.0
 20
0.0
 30
0.0
  3
*D
  0
LINE
  8
0
  6
BYBLOCK
 62
     0
 10
35.374594
 20
14.697757
 30
0.0
 11
35.374594
 21
17.037757
 31
0.0
  0
LINE
  8
0
  6
BYBLOCK
 62
     0
 10
52.374594
 20
14.697757
 30
0.0
 11
52.374594
 21
17.037757
 31
0.0
  0
LINE
  8
0
  6
BYBLOCK
 62
     0
 10
36.454594
 20
16.479757
 30
0.0
 11
39.912719
 21
16.479757
 31
0.0
  0
LINE
  8
0
  6
BYBLOCK
 62
     0
 10
51.294594
 20
16.479757
 30
0.0
 11
47.836469
 21
16.479757
 31
0.0
  0
SOLID
  8
0
  6
BYBLOCK
 62
     0
 10
36.454594
 20
16.659757
 30
0.0
 11
36.454594
 21
16.299757
 31
0.0
 12
35.374594
 22
16.479757
 32
0.0
 13
35.374594
 23
16.479757
 33
0.0
  0
SOLID
  8
0
  6
BYBLOCK
 62
     0
 10
51.294594
 20
16.659757
 30
0.0
 11
51.294594
 21
16.299757
 31
0.0
 12
52.374594
 22
16.479757
 32
0.0
 13
52.374594
 23
16.479757
 33
0.0
  0
TEXT
  8
0
  6
BYBLOCK
 62
     0
 10
42.983969
 20
16.104757
 30
0.0
 40
0.75
  1
 BRACKET
 41
0.75
 72
     1
 11
45.140219
 21
16.479757
 31
0.0
 73
     2
  0
TEXT
  8
0
  6
BYBLOCK
 62
     0
 10
40.452719
 20
16.104757
 30
0.0
 40
0.75
  1
17.000
 41
0.75
 72
     1
 11
41.624594
 21
16.479757
 31
0.0
 73
     2
  0
POINT
  8
DEFPOINTS
  6
BYBLOCK
 62
     0
 10
35.374594
 20
14.319757
 30
0.0
  0
POINT
  8
DEFPOINTS
  6
BYBLOCK
 62
     0
 10
52.374594
 20
14.319757
 30
0.0
  0
POINT
  8
DEFPOINTS
  6
BYBLOCK
 62
     0
 10
52.374594
 20
16.479757
 30
0.0
  0
ENDBLK
  8
0
  0
BLOCK
  8
0
  2
*D11
 70
    65
 10
0.0
 20
0.0
 30
0.0
  3
*D
  0
LINE
  8
0
  6
BYBLOCK
 62
     0
 10
52.752594
 20
12.757757
 30
0.0
 11
55.092594
 21
12.757757
 31
0.0
  0
LINE
  8
0
  6
BYBLOCK
 62
     0
 10
52.752594
 20
14.319757
 30
0.0
 11
55.092594
 21
14.319757
 31
0.0
  0
LINE
  8
0
  6
BYBLOCK
 62
     0
 10
54.534594
 20
11.677757
 30
0.0
 11
54.534594
 21
10.597757
 31
0.0
  0
LINE
  8
0
  6
BYBLOCK
 62
     0
 10
54.534594
 20
15.399757
 30
0.0
 11
54.534594
 21
16.479757
 31
0.0
  0
SOLID
  8
0
  6
BYBLOCK
 62
     0
 10
54.354594
 20
11.677757
 30
0.0
 11
54.714594
 21
11.677757
 31
0.0
 12
54.534594
 22
12.757757
 32
0.0
 13
54.534594
 23
12.757757
 33
0.0
  0
SOLID
  8
0
  6
BYBLOCK
 62
     0
 10
54.354594
 20
15.399757
 30
0.0
 11
54.714594
 21
15.399757
 31
0.0
 12
54.534594
 22
14.319757
 32
0.0
 13
54.534594
 23
14.319757
 33
0.0
  0
TEXT
  8
0
  6
BYBLOCK
 62
     0
 10
53.503344
 20
13.163757
 30
0.0
 40
0.75
  1
1.562
 41
0.75
 72
     1
 11
54.534594
 21
13.538757
 31
0.0
 73
     2
  0
POINT
  8
DEFPOINTS
  6
BYBLOCK
 62
     0
 10
52.374594
 20
12.757757
 30
0.0
  0
POINT
  8
DEFPOINTS
  6
BYBLOCK
 62
     0
 10
52.374594
 20
14.319757
 30
0.0
  0
POINT
  8
DEFPOINTS
  6
BYBLOCK
 62
     0
 10
54.534594
 20
14.319757
 30
0.0
  0
ENDBLK
  8
0
  0
BLOCK
  8
0
  2
*D12
 70
    65
 10
0.0
 20
0.0
 30
0.0
  3
*D
  0
LINE
  8
0
  6
BYBLOCK
 62
     0
 10
23.250911
 20
12.223757
 30
0.0
 11
23.250911
 21
9.883757
 31
0.0
  0
LINE
  8
0
  6
BYBLOCK
 62
     0
 10
35.250594
 20
12.223757
 30
0.0
 11
35.250594
 21
9.883757
 31
0.0
  0
LINE
  8
0
  6
BYBLOCK
 62
     0
 10
24.330911
 20
10.441757
 30
0.0
 11
25.007627
 21
10.441757
 31
0.0
  0
LINE
  8
0
  6
BYBLOCK
 62
     0
 10
34.170594
 20
10.441757
 30
0.0
 11
33.493877
 21
10.441757
 31
0.0
  0
SOLID
  8
0
  6
BYBLOCK
 62
     0
 10
24.330911
 20
10.621757
 30
0.0
 11
24.330911
 21
10.261757
 31
0.0
 12
23.250911
 22
10.441757
 32
0.0
 13
23.250911
 23
10.441757
 33
0.0
  0
SOLID
  8
0
  6
BYBLOCK
 62
     0
 10
34.170594
 20
10.621757
 30
0.0
 11
34.170594
 21
10.261757
 31
0.0
 12
35.250594
 22
10.441757
 32
0.0
 13
35.250594
 23
10.441757
 33
0.0
  0
TEXT
  8
0
  6
BYBLOCK
 62
     0
 10
28.078877
 20
10.066757
 30
0.0
 40
0.75
  1
 EXTENDED
 41
0.75
 72
     1
 11
30.516377
 21
10.441757
 31
0.0
 73
     2
  0
TEXT
  8
0
  6
BYBLOCK
 62
     0
 10
25.547627
 20
10.066757
 30
0.0
 40
0.75
  1
12.000
 41
0.75
 72
     1
 11
26.719502
 21
10.441757
 31
0.0
 73
     2
  0
POINT
  8
DEFPOINTS
  6
BYBLOCK
 62
     0
 10
23.250911
 20
12.601757
 30
0.0
  0
POINT
  8
DEFPOINTS
  6
BYBLOCK
 62
     0
 10
35.250594
 20
12.601757
 30
0.0
  0
POINT
  8
DEFPOINTS
  6
BYBLOCK
 62
     0
 10
35.250594
 20
10.441757
 30
0.0
  0
ENDBLK
  8
0
  0
BLOCK
  8
0
  2
*D13
 70
    65
 10
0.0
 20
0.0
 30
0.0
  3
*D
  0
LINE
  8
0
  6
BYBLOCK
 62
     0
 10
22.772768
 20
14.697757
 30
0.0
 11
22.772768
 21
17.037757
 31
0.0
  0
LINE
  8
0
  6
BYBLOCK
 62
     0
 10
3.834768
 20
14.697757
 30
0.0
 11
3.834768
 21
17.037757
 31
0.0
  0
LINE
  8
0
  6
BYBLOCK
 62
     0
 10
21.692768
 20
16.479757
 30
0.0
 11
18.531268
 21
16.479757
 31
0.0
  0
LINE
  8
0
  6
BYBLOCK
 62
     0
 10
4.914768
 20
16.479757
 30
0.0
 11
8.076268
 21
16.479757
 31
0.0
  0
SOLID
  8
0
  6
BYBLOCK
 62
     0
 10
21.692768
 20
16.659757
 30
0.0
 11
21.692768
 21
16.299757
 31
0.0
 12
22.772768
 22
16.479757
 32
0.0
 13
22.772768
 23
16.479757
 33
0.0
  0
SOLID
  8
0
  6
BYBLOCK
 62
     0
 10
4.914768
 20
16.659757
 30
0.0
 11
4.914768
 21
16.299757
 31
0.0
 12
3.834768
 22
16.479757
 32
0.0
 13
3.834768
 23
16.479757
 33
0.0
  0
TEXT
  8
0
  6
BYBLOCK
 62
     0
 10
11.428768
 20
16.104757
 30
0.0
 40
0.75
  1
 FRONT PANEL
 41
0.75
 72
     1
 11
14.710018
 21
16.479757
 31
0.0
 73
     2
  0
TEXT
  8
0
  6
BYBLOCK
 62
     0
 10
8.616268
 20
16.104757
 30
0.0
 40
0.75
  1
18.938
 41
0.75
 72
     1
 11
9.928768
 21
16.479757
 31
0.0
 73
     2
  0
POINT
  8
DEFPOINTS
  6
BYBLOCK
 62
     0
 10
22.772768
 20
14.319757
 30
0.0
  0
POINT
  8
DEFPOINTS
  6
BYBLOCK
 62
     0
 10
3.834768
 20
14.319757
 30
0.0
  0
POINT
  8
DEFPOINTS
  6
BYBLOCK
 62
     0
 10
3.834768
 20
16.479757
 30
0.0
  0
ENDBLK
  8
0
  0
BLOCK
  8
0
  2
*D14
 70
    65
 10
0.0
 20
0.0
 30
0.0
  3
*D
  0
LINE
  8
0
  6
BYBLOCK
 62
     0
 10
33.192914
 20
57.322524
 30
0.0
 11
29.976345
 21
55.465437
 31
0.0
  0
LINE
  8
0
  6
BYBLOCK
 62
     0
 10
27.130785
 20
60.822496
 30
0.0
 11
23.914216
 21
58.965409
 31
0.0
  0
LINE
  8
0
  6
BYBLOCK
 62
     0
 10
29.599037
 20
56.327599
 30
0.0
 11
29.027655
 21
56.657486
 31
0.0
  0
LINE
  8
0
  6
BYBLOCK
 62
     0
 10
25.407523
 20
58.74757
 30
0.0
 11
25.978905
 21
58.417683
 31
0.0
  0
SOLID
  8
0
  6
BYBLOCK
 62
     0
 10
29.689037
 20
56.483483
 30
0.0
 11
29.509037
 21
56.171714
 31
0.0
 12
30.534345
 22
55.787599
 32
0.0
 13
30.534345
 23
55.787599
 33
0.0
  0
SOLID
  8
0
  6
BYBLOCK
 62
     0
 10
25.497523
 20
58.903455
 30
0.0
 11
25.317523
 21
58.591686
 31
0.0
 12
24.472216
 22
59.28757
 32
0.0
 13
24.472216
 23
59.28757
 33
0.0
  0
TEXT
  8
0
  6
BYBLOCK
 62
     0
 10
26.518905
 20
57.162584
 30
0.0
 40
0.75
  1
7.000
 41
0.75
 72
     1
 11
27.50328
 21
57.537584
 31
0.0
 73
     2
  0
POINT
  8
DEFPOINTS
  6
BYBLOCK
 62
     0
 10
33.570914
 20
57.540763
 30
-0.881197
  0
POINT
  8
DEFPOINTS
  6
BYBLOCK
 62
     0
 10
27.508785
 20
61.040734
 30
-0.881197
  0
POINT
  8
DEFPOINTS
  6
BYBLOCK
 62
     0
 10
24.472216
 20
59.28757
 30
0.0
  0
ENDBLK
  8
0
  0
BLOCK
  8
0
  2
*D15
 70
    65
 10
0.0
 20
0.0
 30
0.0
  3
*D
  0
LINE
  8
0
  6
BYBLOCK
 62
     0
 10
33.948914
 20
57.322524
 30
0.0
 11
37.205924
 21
55.442089
 31
0.0
  0
LINE
  8
0
  6
BYBLOCK
 62
     0
 10
41.74308
 20
61.822488
 30
0.0
 11
45.00009
 21
59.942052
 31
0.0
  0
LINE
  8
0
  6
BYBLOCK
 62
     0
 10
37.583232
 20
56.30425
 30
0.0
 11
39.020632
 21
57.134134
 31
0.0
  0
LINE
  8
0
  6
BYBLOCK
 62
     0
 10
43.506783
 20
59.724214
 30
0.0
 11
42.069382
 21
58.89433
 31
0.0
  0
SOLID
  8
0
  6
BYBLOCK
 62
     0
 10
37.493232
 20
56.460135
 30
0.0
 11
37.673232
 21
56.148365
 31
0.0
 12
36.647924
 22
55.76425
 32
0.0
 13
36.647924
 23
55.76425
 33
0.0
  0
SOLID
  8
0
  6
BYBLOCK
 62
     0
 10
43.416783
 20
59.880098
 30
0.0
 11
43.596783
 21
59.568329
 31
0.0
 12
44.44209
 22
60.264214
 32
0.0
 13
44.44209
 23
60.264214
 33
0.0
  0
TEXT
  8
0
  6
BYBLOCK
 62
     0
 10
39.560632
 20
57.639232
 30
0.0
 40
0.75
  1
9.000
 41
0.75
 72
     1
 11
40.545007
 21
58.014232
 31
0.0
 73
     2
  0
POINT
  8
DEFPOINTS
  6
BYBLOCK
 62
     0
 10
33.570914
 20
57.540763
 30
-0.881197
  0
POINT
  8
DEFPOINTS
  6
BYBLOCK
 62
     0
 10
41.36508
 20
62.040726
 30
-0.881197
  0
POINT
  8
DEFPOINTS
  6
BYBLOCK
 62
     0
 10
44.44209
 20
60.264214
 30
0.0
  0
ENDBLK
  8
0
  0
BLOCK
  8
0
  2
*D16
 70
    65
 10
0.0
 20
0.0
 30
0.0
  3
*D
  0
LINE
  8
0
  6
BYBLOCK
 62
     0
 10
41.74308
 20
62.258965
 30
0.0
 11
45.507052
 21
64.432095
 31
0.0
  0
LINE
  8
0
  6
BYBLOCK
 62
     0
 10
41.74308
 20
63.008959
 30
0.0
 11
45.507052
 21
65.182089
 31
0.0
  0
LINE
  8
0
  6
BYBLOCK
 62
     0
 10
44.949052
 20
63.029933
 30
0.0
 11
44.949052
 21
61.949933
 31
0.0
  0
LINE
  8
0
  6
BYBLOCK
 62
     0
 10
44.949052
 20
65.939927
 30
0.0
 11
44.949052
 21
67.019927
 31
0.0
  0
LINE
  8
0
  6
BYBLOCK
 62
     0
 10
44.949052
 20
67.019927
 30
0.0
 11
46.029052
 21
67.019927
 31
0.0
  0
SOLID
  8
0
  6
BYBLOCK
 62
     0
 10
44.769052
 20
63.029933
 30
0.0
 11
45.129052
 21
63.029933
 31
0.0
 12
44.949052
 22
64.109933
 32
0.0
 13
44.949052
 23
64.109933
 33
0.0
  0
SOLID
  8
0
  6
BYBLOCK
 62
     0
 10
44.769052
 20
65.939927
 30
0.0
 11
45.129052
 21
65.939927
 31
0.0
 12
44.949052
 22
64.859927
 32
0.0
 13
44.949052
 23
64.859927
 33
0.0
  0
TEXT
  8
0
  6
BYBLOCK
 62
     0
 10
46.569052
 20
66.644927
 30
0.0
 40
0.75
  1
0.750
 41
0.75
 72
     1
 11
47.600302
 21
67.019927
 31
0.0
 73
     2
  0
POINT
  8
DEFPOINTS
  6
BYBLOCK
 62
     0
 10
41.36508
 20
62.040726
 30
-0.881197
  0
POINT
  8
DEFPOINTS
  6
BYBLOCK
 62
     0
 10
41.36508
 20
62.79072
 30
-0.881197
  0
POINT
  8
DEFPOINTS
  6
BYBLOCK
 62
     0
 10
44.949052
 20
64.859927
 30
0.0
  0
ENDBLK
  8
0
  0
BLOCK
  8
0
  2
*D17
 70
    65
 10
0.0
 20
0.0
 30
0.0
  3
*D
  0
LINE
  8
0
  6
BYBLOCK
 62
     0
 10
9.647155
 20
71.352632
 30
0.0
 11
9.647155
 21
75.201714
 31
0.0
  0
LINE
  8
0
  6
BYBLOCK
 62
     0
 10
18.307339
 20
76.352591
 30
0.0
 11
18.307339
 21
80.201673
 31
0.0
  0
LINE
  8
0
  6
BYBLOCK
 62
     0
 10
10.582463
 20
75.097391
 30
0.0
 11
12.392421
 21
76.142371
 31
0.0
  0
LINE
  8
0
  6
BYBLOCK
 62
     0
 10
17.372032
 20
79.017351
 30
0.0
 11
15.562074
 21
77.972371
 31
0.0
  0
SOLID
  8
0
  6
BYBLOCK
 62
     0
 10
10.492463
 20
75.253275
 30
0.0
 11
10.672463
 21
74.941506
 31
0.0
 12
9.647155
 22
74.557391
 32
0.0
 13
9.647155
 23
74.557391
 33
0.0
  0
SOLID
  8
0
  6
BYBLOCK
 62
     0
 10
17.282032
 20
79.173235
 30
0.0
 11
17.462032
 21
78.861466
 31
0.0
 12
18.307339
 22
79.557351
 32
0.0
 13
18.307339
 23
79.557351
 33
0.0
  0
TEXT
  8
0
  6
BYBLOCK
 62
     0
 10
12.852247
 20
76.682371
 30
0.0
 40
0.75
  1
10.000
 41
0.75
 72
     1
 11
13.977247
 21
77.057371
 31
0.0
 73
     2
  0
POINT
  8
DEFPOINTS
  6
BYBLOCK
 62
     0
 10
9.647155
 20
70.916155
 30
-0.881197
  0
POINT
  8
DEFPOINTS
  6
BYBLOCK
 62
     0
 10
18.307339
 20
75.916115
 30
-0.881197
  0
POINT
  8
DEFPOINTS
  6
BYBLOCK
 62
     0
 10
18.307339
 20
79.557351
 30
0.0
  0
ENDBLK
  8
0
  0
BLOCK
  8
0
  2
*D18
 70
    65
 10
0.0
 20
0.0
 30
0.0
  3
*D
  0
LINE
  8
0
  6
BYBLOCK
 62
     0
 10
36.11396
 20
66.008919
 30
0.0
 11
39.460468
 21
67.941027
 31
0.0
  0
LINE
  8
0
  6
BYBLOCK
 62
     0
 10
36.11396
 20
67.883919
 30
0.0
 11
39.460468
 21
69.816027
 31
0.0
  0
LINE
  8
0
  6
BYBLOCK
 62
     0
 10
38.902468
 20
66.538865
 30
0.0
 11
38.902468
 21
65.458865
 31
0.0
  0
LINE
  8
0
  6
BYBLOCK
 62
     0
 10
38.902468
 20
70.573865
 30
0.0
 11
38.902468
 21
71.653865
 31
0.0
  0
LINE
  8
0
  6
BYBLOCK
 62
     0
 10
38.902468
 20
71.653865
 30
0.0
 11
39.982468
 21
71.653865
 31
0.0
  0
SOLID
  8
0
  6
BYBLOCK
 62
     0
 10
38.722468
 20
66.538865
 30
0.0
 11
39.082468
 21
66.538865
 31
0.0
 12
38.902468
 22
67.618865
 32
0.0
 13
38.902468
 23
67.618865
 33
0.0
  0
SOLID
  8
0
  6
BYBLOCK
 62
     0
 10
38.722468
 20
70.573865
 30
0.0
 11
39.082468
 21
70.573865
 31
0.0
 12
38.902468
 22
69.493865
 32
0.0
 13
38.902468
 23
69.493865
 33
0.0
  0
TEXT
  8
0
  6
BYBLOCK
 62
     0
 10
40.522468
 20
71.278865
 30
0.0
 40
0.75
  1
1.875
 41
0.75
 72
     1
 11
41.553718
 21
71.653865
 31
0.0
 73
     2
  0
POINT
  8
DEFPOINTS
  6
BYBLOCK
 62
     0
 10
35.73596
 20
65.790681
 30
-0.881197
  0
POINT
  8
DEFPOINTS
  6
BYBLOCK
 62
     0
 10
35.73596
 20
67.665681
 30
-0.881197
  0
POINT
  8
DEFPOINTS
  6
BYBLOCK
 62
     0
 10
38.902468
 20
69.493865
 30
0.0
  0
ENDBLK
  8
0
  0
BLOCK
  8
0
  2
*D19
 70
    65
 10
0.0
 20
0.0
 30
0.0
  3
*D
  0
LINE
  8
0
  6
BYBLOCK
 62
     0
 10
9.431967
 20
71.039397
 30
0.0
 11
5.603308
 21
73.249874
 31
0.0
  0
LINE
  8
0
  6
BYBLOCK
 62
     0
 10
9.431967
 20
70.664397
 30
0.0
 11
5.603308
 21
72.874874
 31
0.0
  0
LINE
  8
0
  6
BYBLOCK
 62
     0
 10
6.161308
 20
74.007712
 30
0.0
 11
6.161308
 21
75.087712
 31
0.0
  0
LINE
  8
0
  6
BYBLOCK
 62
     0
 10
6.161308
 20
71.472712
 30
0.0
 11
6.161308
 21
70.392712
 31
0.0
  0
LINE
  8
0
  6
BYBLOCK
 62
     0
 10
6.161308
 20
70.392712
 30
0.0
 11
5.081308
 21
70.392712
 31
0.0
  0
SOLID
  8
0
  6
BYBLOCK
 62
     0
 10
5.981308
 20
74.007712
 30
0.0
 11
6.341308
 21
74.007712
 31
0.0
 12
6.161308
 22
72.927712
 32
0.0
 13
6.161308
 23
72.927712
 33
0.0
  0
SOLID
  8
0
  6
BYBLOCK
 62
     0
 10
5.981308
 20
71.472712
 30
0.0
 11
6.341308
 21
71.472712
 31
0.0
 12
6.161308
 22
72.552712
 32
0.0
 13
6.161308
 23
72.552712
 33
0.0
  0
TEXT
  8
0
  6
BYBLOCK
 62
     0
 10
2.385058
 20
70.017712
 30
0.0
 40
0.75
  1
0.375
 41
0.75
 72
     1
 11
3.463183
 21
70.392712
 31
0.0
 73
     2
  0
POINT
  8
DEFPOINTS
  6
BYBLOCK
 62
     0
 10
9.809967
 20
70.821159
 30
-0.881197
  0
POINT
  8
DEFPOINTS
  6
BYBLOCK
 62
     0
 10
9.809967
 20
70.446159
 30
-0.881197
  0
POINT
  8
DEFPOINTS
  6
BYBLOCK
 62
     0
 10
6.161308
 20
72.552712
 30
0.0
  0
ENDBLK
  8
0
  0
BLOCK
  8
0
  2
*D20
 70
    65
 10
0.0
 20
0.0
 30
0.0
  3
*D
  0
LINE
  8
0
  6
BYBLOCK
 62
     0
 10
9.336705
 20
70.673917
 30
0.0
 11
6.485595
 21
69.027828
 31
0.0
  0
LINE
  8
0
  6
BYBLOCK
 62
     0
 10
26.765325
 20
60.611498
 30
0.0
 11
23.914216
 21
58.965409
 31
0.0
  0
LINE
  8
0
  6
BYBLOCK
 62
     0
 10
7.978902
 20
68.809989
 30
0.0
 11
15.030405
 21
64.738802
 31
0.0
  0
LINE
  8
0
  6
BYBLOCK
 62
     0
 10
23.536908
 20
59.82757
 30
0.0
 11
16.485405
 21
63.898757
 31
0.0
  0
SOLID
  8
0
  6
BYBLOCK
 62
     0
 10
8.068902
 20
68.965874
 30
0.0
 11
7.888902
 21
68.654105
 31
0.0
 12
7.043595
 22
69.349989
 32
0.0
 13
7.043595
 23
69.349989
 33
0.0
  0
SOLID
  8
0
  6
BYBLOCK
 62
     0
 10
23.626908
 20
59.983455
 30
0.0
 11
23.446908
 21
59.671686
 31
0.0
 12
24.472216
 22
59.28757
 32
0.0
 13
24.472216
 23
59.28757
 33
0.0
  0
TEXT
  8
0
  6
BYBLOCK
 62
     0
 10
15.570405
 20
63.94378
 30
0.0
 40
0.75
  1
A
 41
0.75
 72
     1
 11
15.757905
 21
64.31878
 31
0.0
 73
     2
  0
POINT
  8
DEFPOINTS
  6
BYBLOCK
 62
     0
 10
9.714705
 20
70.892155
 30
-0.881197
  0
POINT
  8
DEFPOINTS
  6
BYBLOCK
 62
     0
 10
27.143325
 20
60.829736
 30
-0.881197
  0
POINT
  8
DEFPOINTS
  6
BYBLOCK
 62
     0
 10
24.472216
 20
59.28757
 30
0.0
  0
ENDBLK
  8
0
  0
BLOCK
  8
0
  2
*D21
 70
    65
 10
0.0
 20
0.0
 30
0.0
  3
*D
  0
LINE
  8
0
  6
BYBLOCK
 62
     0
 10
6.665595
 20
69.131751
 30
0.0
 11
4.096421
 21
67.648438
 31
0.0
  0
LINE
  8
0
  6
BYBLOCK
 62
     0
 10
30.156345
 20
55.56936
 30
0.0
 11
27.587171
 21
54.086047
 31
0.0
  0
LINE
  8
0
  6
BYBLOCK
 62
     0
 10
5.589729
 20
67.430599
 30
0.0
 11
15.672296
 21
61.609426
 31
0.0
  0
LINE
  8
0
  6
BYBLOCK
 62
     0
 10
27.209864
 20
54.948208
 30
0.0
 11
17.127296
 21
60.769381
 31
0.0
  0
SOLID
  8
0
  6
BYBLOCK
 62
     0
 10
5.679729
 20
67.586484
 30
0.0
 11
5.499729
 21
67.274715
 31
0.0
 12
4.654421
 22
67.970599
 32
0.0
 13
4.654421
 23
67.970599
 33
0.0
  0
SOLID
  8
0
  6
BYBLOCK
 62
     0
 10
27.299864
 20
55.104093
 30
0.0
 11
27.119864
 21
54.792324
 31
0.0
 12
28.145171
 22
54.408208
 32
0.0
 13
28.145171
 23
54.408208
 33
0.0
  0
TEXT
  8
0
  6
BYBLOCK
 62
     0
 10
16.212296
 20
60.814404
 30
0.0
 40
0.75
  1
B
 41
0.75
 72
     1
 11
16.399796
 21
61.189404
 31
0.0
 73
     2
  0
POINT
  8
DEFPOINTS
  6
BYBLOCK
 62
     0
 10
7.043595
 20
69.349989
 30
0.0
  0
POINT
  8
DEFPOINTS
  6
BYBLOCK
 62
     0
 10
30.534345
 20
55.787599
 30
0.0
  0
POINT
  8
DEFPOINTS
  6
BYBLOCK
 62
     0
 10
28.145171
 20
54.408208
 30
0.0
  0
ENDBLK
  8
0
  0
ENDSEC
  0
SECTION
  2
ENTITIES
  0
TEXT
  8
DIM
 10
71.801781
 20
34.87778
 30
0.0
 40
0.5
  1

  0
TEXT
  8
DIM
 10
54.379781
 20
52.774474
 30
0.0
 40
0.5
  1

  0
TEXT
  8
DIM
 10
87.448961
 20
47.29276
 30
0.0
 40
0.5
  1

  0
TEXT
  8
DIM
 10
89.976239
 20
45.549278
 30
0.0
 40
0.5
  1

  0
TEXT
  8
DIM
 10
31.743216
 20
25.924103
 30
0.0
 40
0.5
  1

  0
TEXT
  8
DIM
 10
41.802344
 20
29.840124
 30
0.0
 40
0.5
  1

  0
TEXT
  8
DIM
 10
71.073399
 20
39.946353
 30
0.0
 40
0.5
  1

  0
TEXT
  8
DIM
 10
52.323399
 20
39.946353
 30
0.0
 40
0.5
  1

  0
TEXT
  8
DIM
 10
67.906732
 20
31.802667
 30
0.0
 40
0.5
  1

  0
INSERT
  8
TEXT
  2
HB
 10
0.0
 20
0.0
 30
0.0
 41
6.0
 42
6.0
 43
6.0
  0
LINE
  8
TITLE
 10
0.372
 20
49.380493
 30
0.0
 11
60.348
 21
49.380493
 31
0.0
  0
LINE
  8
TITLE
 10
0.372
 20
51.880493
 30
0.0
 11
60.348
 21
51.880493
 31
0.0
  0
LINE
  8
TITLE
 10
35.232
 20
51.880493
 30
0.0
 11
35.232
 21
49.380493
 31
0.0
  0
LINE
  8
TITLE
 10
30.732
 20
51.880493
 30
0.0
 11
30.732
 21
49.380493
 31
0.0
  0
LINE
  8
TITLE
 10
30.36
 20
51.880493
 30
0.0
 11
30.36
 21
49.380493
 31
0.0
  0
LINE
  8
TITLE
 10
0.372
 20
52.252493
 30
0.0
 11
60.348
 21
52.252493
 31
0.0
  0
LINE
  8
TITLE
 10
4.872
 20
51.880493
 30
0.0
 11
4.872
 21
49.380493
 31
0.0
  0
TEXT
  8
TEXT
 10
1.670423
 20
69.319027
 30
0.0
 40
0.75
  1
%%UMATERIAL:
 41
0.75
  0
TEXT
  8
TEXT
 10
2.65218
 20
68.069027
 30
0.0
 40
0.75
  1
KEYBOARD SHELF
 41
0.75
  0
TEXT
  8
TEXT
 10
2.65218
 20
66.819027
 30
0.0
 40
0.75
  1
 AND MOUSE PAD
 41
0.75
  0
TEXT
  8
TEXT
 10
1.670423
 20
64.35881
 30
0.0
 40
0.75
  1
%%UFINISH:
 41
0.75
  0
TEXT
  8
TEXT
 10
2.65218
 20
63.10881
 30
0.0
 40
0.75
  1
KEYBOARD SHELF
 41
0.75
  0
TEXT
  8
TEXT
 10
2.65218
 20
61.85881
 30
0.0
 40
0.75
  1
 AND MOUSE PAD
 41
0.75
  0
TEXT
  8
TEXT
 10
17.784569
 20
66.814993
 30
0.0
 40
0.75
  1
16 GA. STEEL
 41
0.75
 72
     2
 11
23.784569
 21
66.814993
 31
0.0
  0
TEXT
  8
TEXT
 10
14.977389
 20
61.888527
 30
0.0
 40
0.75
  1
BLACK TEXTURE OR
 41
0.75
 72
     2
 11
23.789889
 21
61.888527
 31
0.0
  0
LINE
  8
TEXT
 10
10.792165
 20
66.81096
 30
0.0
 11
17.064501
 21
66.81096
 31
0.0
  0
LINE
  8
TEXT
 10
10.866506
 20
61.949281
 30
0.0
 11
14.494371
 21
61.949281
 31
0.0
  0
TEXT
  8
TEXT
 10
1.670423
 20
15.482285
 30
0.0
 40
0.75
  1
%%UMATERIAL:
 41
0.75
  0
TEXT
  8
TEXT
 10
2.65218
 20
14.232285
 30
0.0
 40
0.75
  1
PANEL AND BRACKETS
 41
0.75
  0
TEXT
  8
TEXT
 10
1.670423
 20
9.254744
 30
0.0
 40
0.75
  1
%%UFINISH:
 41
0.75
  0
TEXT
  8
TEXT
 10
15.133694
 20
8.004744
 30
0.0
 40
0.75
  1
METALLIC GRAY
 41
0.75
  0
TEXT
  8
TEXT
 10
15.133694
 20
6.754744
 30
0.0
 40
0.75
  1
WHITE TEXTURE
 41
0.75
  0
TEXT
  8
TEXT
 10
2.65218
 20
3.062918
 30
0.0
 40
0.75
  1
TOP
 41
0.75
  0
TEXT
  8
TEXT
 10
16.848613
 20
3.058885
 30
0.0
 40
0.75
  1
ANTIQUE WHITE
 41
0.75
 72
     2
 11
23.786113
 21
3.058885
 31
0.0
  0
LINE
  8
TEXT
 10
4.471433
 20
3.119639
 30
0.0
 11
16.35601
 21
3.119639
 31
0.0
  0
TEXT
  8
TEXT
 10
2.65218
 20
13.018035
 30
0.0
 40
0.75
  1
TOP
 41
0.75
  0
TEXT
  8
TEXT
 10
17.786113
 20
14.21597
 30
0.0
 40
0.75
  1
16 GA. STEEL
 41
0.75
 72
     2
 11
23.786113
 21
14.21597
 31
0.0
  0
TEXT
  8
TEXT
 10
10.286113
 20
12.96597
 30
0.0
 40
0.75
  1
3/4" THK. PLASTIC LAMINATE
 41
0.75
 72
     2
 11
23.786113
 21
12.96597
 31
0.0
  0
TEXT
  8
TEXT
 10
12.911113
 20
11.71597
 30
0.0
 40
0.75
  1
FACED PARTICLE BOARD
 41
0.75
 72
     2
 11
23.786113
 21
11.71597
 31
0.0
  0
LINE
  8
TEXT
 10
12.878976
 20
14.228496
 30
0.0
 11
17.466129
 21
14.228496
 31
0.0
  0
LINE
  8
TEXT
 10
4.198286
 20
13.031465
 30
0.0
 11
10.054159
 21
13.031465
 31
0.0
  0
TEXT
  8
TEXT
 10
1.247
 20
50.870968
 30
0.0
 40
0.75
  1
PART
 72
     1
 11
2.622
 21
50.870968
 31
0.0
  0
TEXT
  8
TEXT
 10
1.247
 20
49.620968
 30
0.0
 40
0.75
  1
NAME
 72
     1
 11
2.622
 21
49.620968
 31
0.0
  0
TEXT
  8
TEXT
 10
31.607
 20
50.870968
 30
0.0
 40
0.75
  1
PART
 72
     1
 11
32.982
 21
50.870968
 31
0.0
  0
TEXT
  8
TEXT
 10
32.232
 20
49.620968
 30
0.0
 40
0.75
  1
No.
 72
     1
 11
32.982
 21
49.620968
 31
0.0
  0
TEXT
  8
TEXT
 10
39.398733
 20
90.737466
 30
0.0
 40
1.062
  1
SA-1775  AND  SA-1776
 41
0.75
 72
     1
 11
47.363733
 21
90.737466
 31
0.0
  0
TEXT
  8
TEXT
 10
5.718105
 20
90.737466
 30
0.0
 40
1.062
  1
KEYBOARD AND MOUSE SHELF ASSEMBLY
 41
0.688
 72
     1
 11
17.652153
 21
90.737466
 31
0.0
  0
TEXT
  8
TEXT
 10
12.076653
 20
49.997959
 30
0.0
 40
1.062
  1
SLIDING DESKTOP
 41
0.75
 72
     1
 11
17.652153
 21
49.997959
 31
0.0
  0
TEXT
  8
TEXT
 10
44.907858
 20
49.997959
 30
0.0
 40
1.062
  1
60-2361
 41
0.75
 72
     1
 11
47.363733
 21
49.997959
 31
0.0
  0
LINE
  8
TITLE
 10
0.372
 20
53.500493
 30
0.0
 11
60.348
 21
53.500493
 31
0.0
  0
LINE
  8
TITLE
 10
0.372
 20
54.748493
 30
0.0
 11
60.348
 21
54.748493
 31
0.0
  0
LINE
  8
TITLE
 10
0.372
 20
55.996493
 30
0.0
 11
60.348
 21
55.996493
 31
0.0
  0
TEXT
  8
TEXT
 10
5.90025
 20
54.999297
 30
0.0
 40
0.75
  1
PART No.
 41
0.75
 72
     1
 11
7.869
 21
54.999297
 31
0.0
  0
TEXT
  8
TEXT
 10
6.08775
 20
53.749297
 30
0.0
 40
0.75
  1
SA-1775
 41
0.75
 72
     1
 11
7.869
 21
53.749297
 31
0.0
  0
TEXT
  8
TEXT
 10
6.08775
 20
52.499297
 30
0.0
 40
0.75
  1
SA-1776
 41
0.75
 72
     1
 11
7.869
 21
52.499297
 31
0.0
  0
LINE
  8
TITLE
 10
15.366
 20
52.252493
 30
0.0
 11
15.366
 21
55.996493
 31
0.0
  0
TEXT
  8
TEXT
 10
19.863
 20
54.999297
 30
0.0
 40
0.75
  1
PANEL SPACE
 41
0.75
 72
     1
 11
22.863
 21
54.999297
 31
0.0
  0
TEXT
  8
TEXT
 10
21.691125
 20
53.749297
 30
0.0
 40
0.75
  1
19.000
 41
0.75
 72
     1
 11
22.863
 21
53.749297
 31
0.0
  0
TEXT
  8
TEXT
 10
21.597375
 20
52.499297
 30
0.0
 40
0.75
  1
23.000
 41
0.75
 72
     1
 11
22.863
 21
52.499297
 31
0.0
  0
LINE
  8
TITLE
 10
30.36
 20
52.252493
 30
0.0
 11
30.36
 21
55.996493
 31
0.0
  0
TEXT
  8
TEXT
 10
37.6695
 20
54.999297
 30
0.0
 40
0.75
  1
A
 41
0.75
 72
     1
 11
37.857
 21
54.999297
 31
0.0
  0
TEXT
  8
TEXT
 10
36.591375
 20
53.749297
 30
0.0
 40
0.75
  1
20.125
 41
0.75
 72
     1
 11
37.857
 21
53.749297
 31
0.0
  0
TEXT
  8
TEXT
 10
36.5445
 20
52.499297
 30
0.0
 40
0.75
  1
24.125
 41
0.75
 72
     1
 11
37.857
 21
52.499297
 31
0.0
  0
LINE
  8
TITLE
 10
45.354
 20
52.252493
 30
0.0
 11
45.354
 21
55.996493
 31
0.0
  0
TEXT
  8
TEXT
 10
52.6635
 20
54.999297
 30
0.0
 40
0.75
  1
B
 41
0.75
 72
     1
 11
52.851
 21
54.999297
 31
0.0
  0
TEXT
  8
TEXT
 10
51.5385
 20
53.749297
 30
0.0
 40
0.75
  1
27.125
 41
0.75
 72
     1
 11
52.851
 21
53.749297
 31
0.0
  0
TEXT
  8
TEXT
 10
51.63225
 20
52.499297
 30
0.0
 40
0.75
  1
31.125
 41
0.75
 72
     1
 11
52.851
 21
52.499297
 31
0.0
  0
LINE
  8
OBJECT
 10
3.834768
 20
26.181777
 30
0.0
 11
22.772768
 21
26.181777
 31
0.0
  0
LINE
  8
OBJECT
 10
5.428768
 20
41.931777
 30
0.0
 11
21.178768
 21
41.931777
 31
0.0
  0
LINE
  8
OBJECT
 10
5.428768
 20
26.181777
 30
0.0
 11
5.428768
 21
41.931777
 31
0.0
  0
LINE
  8
HIDDEN
 10
5.428768
 20
20.754359
 30
0.0
 11
21.178768
 21
20.754359
 31
0.0
  0
LINE
  8
HIDDEN
 10
5.428768
 20
21.573359
 30
0.0
 11
5.428768
 21
20.558859
 31
0.0
  0
LINE
  8
HIDDEN
 10
4.553768
 20
21.597359
 30
0.0
 11
5.053768
 21
21.597359
 31
0.0
  0
LINE
  8
HIDDEN
 10
5.053768
 20
21.597359
 30
0.0
 11
5.053768
 21
20.347359
 31
0.0
  0
LINE
  8
HIDDEN
 10
4.553768
 20
21.535359
 30
0.0
 11
4.991768
 21
21.535359
 31
0.0
  0
LINE
  8
HIDDEN
 10
4.991768
 20
21.535359
 30
0.0
 11
4.991768
 21
20.285359
 31
0.0
  0
LINE
  8
HIDDEN
 10
5.053768
 20
20.347359
 30
0.0
 11
5.991768
 21
20.347359
 31
0.0
  0
LINE
  8
HIDDEN
 10
5.991768
 20
20.347359
 30
0.0
 11
5.991768
 21
20.285359
 31
0.0
  0
LINE
  8
HIDDEN
 10
4.553768
 20
21.597359
 30
0.0
 11
4.553768
 21
21.535359
 31
0.0
  0
LINE
  8
HIDDEN
 10
5.990768
 20
20.223359
 30
0.0
 11
4.365768
 21
20.223359
 31
0.0
  0
LINE
  8
HIDDEN
 10
4.365768
 20
20.223359
 30
0.0
 11
4.365768
 21
21.785359
 31
0.0
  0
LINE
  8
HIDDEN
 10
4.365768
 20
21.785359
 30
0.0
 11
4.990768
 21
21.785359
 31
0.0
  0
LINE
  8
HIDDEN
 10
5.990768
 20
20.285359
 30
0.0
 11
4.427768
 21
20.285359
 31
0.0
  0
LINE
  8
HIDDEN
 10
4.427768
 20
20.285359
 30
0.0
 11
4.427768
 21
21.723359
 31
0.0
  0
LINE
  8
HIDDEN
 10
4.427768
 20
21.723359
 30
0.0
 11
4.990768
 21
21.723359
 31
0.0
  0
LINE
  8
HIDDEN
 10
4.990768
 20
21.785359
 30
0.0
 11
4.990768
 21
21.723359
 31
0.0
  0
LINE
  8
HIDDEN
 10
5.990768
 20
20.223359
 30
0.0
 11
5.990768
 21
20.285359
 31
0.0
  0
LINE
  8
OBJECT
 10
3.834768
 20
21.785359
 30
0.0
 11
22.772768
 21
21.785359
 31
0.0
  0
LINE
  8
OBJECT
 10
3.834768
 20
20.067359
 30
0.0
 11
11.678768
 21
20.067359
 31
0.0
  0
LINE
  8
OBJECT
 10
3.834768
 20
20.067359
 30
0.0
 11
3.834768
 21
21.785359
 31
0.0
  0
POLYLINE
  8
HIDDEN
 66
     1
 10
0.0
 20
0.0
 30
0.0
 70
     1
 75
     6
  0
VERTEX
  8
HIDDEN
 10
5.658768
 20
20.223359
 30
0.0
  0
VERTEX
  8
HIDDEN
 10
5.658768
 20
20.598359
 30
0.0
  0
VERTEX
  8
HIDDEN
 10
5.822768
 20
20.598359
 30
0.0
  0
VERTEX
  8
HIDDEN
 10
5.822768
 20
20.223359
 30
0.0
  0
VERTEX
  8
HIDDEN
 10
5.901768
 20
20.223359
 30
0.0
  0
VERTEX
  8
HIDDEN
 10
5.901768
 20
20.192359
 30
0.0
 42
-0.521739
  0
VERTEX
  8
HIDDEN
 10
5.579768
 20
20.192359
 30
0.0
  0
VERTEX
  8
HIDDEN
 10
5.579768
 20
20.223359
 30
0.0
  0
SEQEND
  8
HIDDEN
  0
POLYLINE
  8
HIDDEN
 66
     1
 10
0.0
 20
0.0
 30
0.0
 70
     1
 75
     6
  0
VERTEX
  8
HIDDEN
 10
5.115768
 20
20.984359
 30
0.0
  0
VERTEX
  8
HIDDEN
 10
4.740768
 20
20.984359
 30
0.0
  0
VERTEX
  8
HIDDEN
 10
4.740768
 20
21.148359
 30
0.0
  0
VERTEX
  8
HIDDEN
 10
5.115768
 20
21.148359
 30
0.0
  0
VERTEX
  8
HIDDEN
 10
5.115768
 20
21.227359
 30
0.0
  0
VERTEX
  8
HIDDEN
 10
5.146768
 20
21.227359
 30
0.0
 42
-0.521739
  0
VERTEX
  8
HIDDEN
 10
5.146768
 20
20.905359
 30
0.0
  0
VERTEX
  8
HIDDEN
 10
5.115768
 20
20.905359
 30
0.0
  0
SEQEND
  8
HIDDEN
  0
POLYLINE
  8
HIDDEN
 66
     1
 10
0.0
 20
0.0
 30
0.0
 70
     1
 75
     6
  0
VERTEX
  8
HIDDEN
 10
5.866768
 20
21.066359
 30
0.0
  0
VERTEX
  8
HIDDEN
 10
5.366768
 20
20.984359
 30
0.0
  0
VERTEX
  8
HIDDEN
 10
5.366768
 20
20.905359
 30
0.0
  0
VERTEX
  8
HIDDEN
 10
5.335768
 20
20.905359
 30
0.0
 42
-0.521739
  0
VERTEX
  8
HIDDEN
 10
5.335768
 20
21.227359
 30
0.0
  0
VERTEX
  8
HIDDEN
 10
5.366768
 20
21.227359
 30
0.0
  0
VERTEX
  8
HIDDEN
 10
5.366768
 20
21.148359
 30
0.0
  0
SEQEND
  8
HIDDEN
  0
LINE
  8
HIDDEN
 10
5.991768
 20
20.285359
 30
0.0
 11
4.991768
 21
20.285359
 31
0.0
  0
LINE
  8
OBJECT
 10
5.053768
 20
26.181777
 30
0.0
 11
5.053768
 21
42.181777
 31
0.0
  0
LINE
  8
OBJECT
 10
5.428768
 20
26.181777
 30
0.0
 11
5.428768
 21
42.181777
 31
0.0
  0
LINE
  8
OBJECT
 10
22.772768
 20
20.067359
 30
0.0
 11
22.772768
 21
21.785359
 31
0.0
  0
LINE
  8
OBJECT
 10
12.053768
 20
20.567359
 30
0.0
 11
14.553768
 21
20.567359
 31
0.0
  0
LINE
  8
OBJECT
 10
11.803768
 20
20.192359
 30
0.0
 11
11.803768
 21
20.317359
 31
0.0
  0
LINE
  8
OBJECT
 10
14.803768
 20
20.192359
 30
0.0
 11
14.803768
 21
20.317359
 31
0.0
  0
LINE
  8
OBJECT
 10
14.928768
 20
20.067359
 30
0.0
 11
22.772768
 21
20.067359
 31
0.0
  0
ARC
  8
OBJECT
 10
11.678768
 20
20.192359
 30
0.0
 40
0.125
 50
270.0
 51
0.0
  0
ARC
  8
OBJECT
 10
14.928768
 20
20.192359
 30
0.0
 40
0.125
 50
180.0
 51
270.0
  0
ARC
  8
OBJECT
 10
12.053768
 20
20.317359
 30
0.0
 40
0.25
 50
90.0
 51
180.0
  0
ARC
  8
OBJECT
 10
14.553768
 20
20.317359
 30
0.0
 40
0.25
 50
360.0
 51
90.0
  0
POLYLINE
  8
HIDDEN
 66
     1
 10
0.0
 20
0.0
 30
0.0
 75
     6
  0
VERTEX
  8
HIDDEN
 10
69.05149
 20
-12.607995
 30
0.0
  0
SEQEND
  8
HIDDEN
  0
POLYLINE
  8
HIDDEN
 66
     1
 10
0.0
 20
0.0
 30
0.0
 75
     6
  0
VERTEX
  8
HIDDEN
 10
5.428768
 20
21.573859
 30
0.0
 42
1.0
  0
VERTEX
  8
HIDDEN
 10
5.053768
 20
21.573859
 30
0.0
  0
VERTEX
  8
HIDDEN
 10
5.053768
 20
20.558859
 30
0.0
 42
1.0
  0
VERTEX
  8
HIDDEN
 10
5.428768
 20
20.558859
 30
0.0
  0
SEQEND
  8
HIDDEN
  0
LINE
  8
HIDDEN
 10
4.553768
 20
26.181777
 30
0.0
 11
4.553768
 21
42.181777
 31
0.0
  0
LINE
  8
OBJECT
 10
5.053768
 20
26.181777
 30
0.0
 11
5.053768
 21
42.181777
 31
0.0
  0
LINE
  8
HIDDEN
 10
5.991768
 20
26.181777
 30
0.0
 11
5.991768
 21
42.181777
 31
0.0
  0
CIRCLE
  8
HIDDEN
 10
5.741768
 20
26.681777
 30
0.0
 40
0.094
  0
CIRCLE
  8
HIDDEN
 10
5.741768
 20
28.681777
 30
0.0
 40
0.094
  0
CIRCLE
  8
HIDDEN
 10
5.741768
 20
39.681777
 30
0.0
 40
0.094
  0
CIRCLE
  8
HIDDEN
 10
5.741768
 20
41.681777
 30
0.0
 40
0.094
  0
LINE
  8
OBJECT
 10
4.990768
 20
26.181777
 30
0.0
 11
4.990768
 21
43.181777
 31
0.0
  0
LINE
  8
OBJECT
 10
4.365768
 20
26.181777
 30
0.0
 11
4.365768
 21
43.181777
 31
0.0
  0
LINE
  8
HIDDEN
 10
4.427768
 20
26.181777
 30
0.0
 11
4.427768
 21
43.181777
 31
0.0
  0
LINE
  8
OBJECT
 10
4.365768
 20
43.181777
 30
0.0
 11
5.990768
 21
43.181777
 31
0.0
  0
LINE
  8
OBJECT
 10
4.365768
 20
26.181777
 30
0.0
 11
5.990768
 21
26.181777
 31
0.0
  0
LINE
  8
HIDDEN
 10
4.553768
 20
42.181777
 30
0.0
 11
5.053768
 21
42.181777
 31
0.0
  0
LINE
  8
OBJECT
 10
5.053768
 20
42.181777
 30
0.0
 11
5.991768
 21
42.181777
 31
0.0
  0
POLYLINE
  8
HIDDEN
 66
     1
 10
0.0
 20
0.0
 30
0.0
 70
     1
 75
     6
  0
VERTEX
  8
HIDDEN
 10
5.866768
 20
27.181777
 30
0.0
  0
VERTEX
  8
HIDDEN
 10
5.366768
 20
27.099777
 30
0.0
  0
VERTEX
  8
HIDDEN
 10
5.366768
 20
27.020777
 30
0.0
  0
VERTEX
  8
HIDDEN
 10
5.335768
 20
27.020777
 30
0.0
 42
-0.521739
  0
VERTEX
  8
HIDDEN
 10
5.335768
 20
27.342777
 30
0.0
  0
VERTEX
  8
HIDDEN
 10
5.366768
 20
27.342777
 30
0.0
  0
VERTEX
  8
HIDDEN
 10
5.366768
 20
27.263777
 30
0.0
  0
SEQEND
  8
HIDDEN
  0
POLYLINE
  8
HIDDEN
 66
     1
 10
0.0
 20
0.0
 30
0.0
 70
     1
 75
     6
  0
VERTEX
  8
HIDDEN
 10
5.866768
 20
31.181777
 30
0.0
  0
VERTEX
  8
HIDDEN
 10
5.366768
 20
31.099777
 30
0.0
  0
VERTEX
  8
HIDDEN
 10
5.366768
 20
31.020777
 30
0.0
  0
VERTEX
  8
HIDDEN
 10
5.335768
 20
31.020777
 30
0.0
 42
-0.521739
  0
VERTEX
  8
HIDDEN
 10
5.335768
 20
31.342777
 30
0.0
  0
VERTEX
  8
HIDDEN
 10
5.366768
 20
31.342777
 30
0.0
  0
VERTEX
  8
HIDDEN
 10
5.366768
 20
31.263777
 30
0.0
  0
SEQEND
  8
HIDDEN
  0
POLYLINE
  8
HIDDEN
 66
     1
 10
0.0
 20
0.0
 30
0.0
 70
     1
 75
     6
  0
VERTEX
  8
HIDDEN
 10
5.866768
 20
39.681777
 30
0.0
  0
VERTEX
  8
HIDDEN
 10
5.366768
 20
39.599777
 30
0.0
  0
VERTEX
  8
HIDDEN
 10
5.366768
 20
39.520777
 30
0.0
  0
VERTEX
  8
HIDDEN
 10
5.335768
 20
39.520777
 30
0.0
 42
-0.521739
  0
VERTEX
  8
HIDDEN
 10
5.335768
 20
39.842777
 30
0.0
  0
VERTEX
  8
HIDDEN
 10
5.366768
 20
39.842777
 30
0.0
  0
VERTEX
  8
HIDDEN
 10
5.366768
 20
39.763777
 30
0.0
  0
SEQEND
  8
HIDDEN
  0
LINE
  8
OBJECT
 10
5.990768
 20
43.181777
 30
0.0
 11
5.990768
 21
41.931777
 31
0.0
  0
LINE
  8
HIDDEN
 10
3.834768
 20
26.119777
 30
0.0
 11
22.772768
 21
26.119777
 31
0.0
  0
LINE
  8
OBJECT
 10
3.834768
 20
26.057777
 30
0.0
 11
22.772768
 21
26.057777
 31
0.0
  0
LINE
  8
OBJECT
 10
3.834768
 20
26.057777
 30
0.0
 11
3.834768
 21
26.181777
 31
0.0
  0
LINE
  8
OBJECT
 10
22.772768
 20
26.057777
 30
0.0
 11
22.772768
 21
26.181777
 31
0.0
  0
ARC
  8
OBJECT
 10
5.803268
 20
42.556777
 30
0.0
 40
0.1095
 50
270.000019
 51
90.000019
  0
ARC
  8
OBJECT
 10
5.678268
 20
42.556777
 30
0.0
 40
0.1095
 50
90.000019
 51
270.000019
  0
LINE
  8
OBJECT
 10
5.678268
 20
42.666277
 30
0.0
 11
5.803268
 21
42.666277
 31
0.0
  0
LINE
  8
OBJECT
 10
5.678268
 20
42.447277
 30
0.0
 11
5.803268
 21
42.447277
 31
0.0
  0
POLYLINE
  8
HIDDEN
 66
     1
 10
0.0
 20
0.0
 30
0.0
 75
     6
  0
VERTEX
  8
HIDDEN
 10
21.178768
 20
21.573859
 30
0.0
 42
-1.0
  0
VERTEX
  8
HIDDEN
 10
21.553768
 20
21.573859
 30
0.0
  0
VERTEX
  8
HIDDEN
 10
21.553768
 20
20.558859
 30
0.0
 42
-1.0
  0
VERTEX
  8
HIDDEN
 10
21.178768
 20
20.558859
 30
0.0
  0
SEQEND
  8
HIDDEN
  0
LINE
  8
HIDDEN
 10
22.179768
 20
20.285359
 30
0.0
 11
22.179768
 21
21.723359
 31
0.0
  0
LINE
  8
HIDDEN
 10
22.241768
 20
20.223359
 30
0.0
 11
22.241768
 21
21.785359
 31
0.0
  0
LINE
  8
HIDDEN
 10
21.178768
 20
21.573359
 30
0.0
 11
21.178768
 21
20.558859
 31
0.0
  0
POLYLINE
  8
HIDDEN
 66
     1
 10
0.0
 20
0.0
 30
0.0
 70
     1
 75
     6
  0
VERTEX
  8
HIDDEN
 10
21.491768
 20
20.984359
 30
0.0
  0
VERTEX
  8
HIDDEN
 10
21.866768
 20
20.984359
 30
0.0
  0
VERTEX
  8
HIDDEN
 10
21.866768
 20
21.148359
 30
0.0
  0
VERTEX
  8
HIDDEN
 10
21.491768
 20
21.148359
 30
0.0
  0
VERTEX
  8
HIDDEN
 10
21.491768
 20
21.227359
 30
0.0
  0
VERTEX
  8
HIDDEN
 10
21.460768
 20
21.227359
 30
0.0
 42
0.521739
  0
VERTEX
  8
HIDDEN
 10
21.460768
 20
20.905359
 30
0.0
  0
VERTEX
  8
HIDDEN
 10
21.491768
 20
20.905359
 30
0.0
  0
SEQEND
  8
HIDDEN
  0
LINE
  8
HIDDEN
 10
20.616768
 20
20.285359
 30
0.0
 11
22.179768
 21
20.285359
 31
0.0
  0
LINE
  8
HIDDEN
 10
20.616768
 20
20.223359
 30
0.0
 11
22.241768
 21
20.223359
 31
0.0
  0
LINE
  8
HIDDEN
 10
22.053768
 20
21.535359
 30
0.0
 11
21.615768
 21
21.535359
 31
0.0
  0
LINE
  8
HIDDEN
 10
22.053768
 20
21.597359
 30
0.0
 11
21.553768
 21
21.597359
 31
0.0
  0
LINE
  8
HIDDEN
 10
22.053768
 20
21.597359
 30
0.0
 11
22.053768
 21
21.535359
 31
0.0
  0
LINE
  8
HIDDEN
 10
21.615768
 20
21.535359
 30
0.0
 11
21.615768
 21
20.285359
 31
0.0
  0
LINE
  8
HIDDEN
 10
21.553768
 20
21.597359
 30
0.0
 11
21.553768
 21
20.347359
 31
0.0
  0
LINE
  8
HIDDEN
 10
20.615768
 20
20.285359
 30
0.0
 11
21.615768
 21
20.285359
 31
0.0
  0
POLYLINE
  8
HIDDEN
 66
     1
 10
0.0
 20
0.0
 30
0.0
 70
     1
 75
     6
  0
VERTEX
  8
HIDDEN
 10
20.948768
 20
20.223359
 30
0.0
  0
VERTEX
  8
HIDDEN
 10
20.948768
 20
20.598359
 30
0.0
  0
VERTEX
  8
HIDDEN
 10
20.784768
 20
20.598359
 30
0.0
  0
VERTEX
  8
HIDDEN
 10
20.784768
 20
20.223359
 30
0.0
  0
VERTEX
  8
HIDDEN
 10
20.705768
 20
20.223359
 30
0.0
  0
VERTEX
  8
HIDDEN
 10
20.705768
 20
20.192359
 30
0.0
 42
0.521739
  0
VERTEX
  8
HIDDEN
 10
21.027768
 20
20.192359
 30
0.0
  0
VERTEX
  8
HIDDEN
 10
21.027768
 20
20.223359
 30
0.0
  0
SEQEND
  8
HIDDEN
  0
LINE
  8
HIDDEN
 10
21.553768
 20
20.347359
 30
0.0
 11
20.615768
 21
20.347359
 31
0.0
  0
LINE
  8
HIDDEN
 10
20.616768
 20
20.223359
 30
0.0
 11
20.616768
 21
20.285359
 31
0.0
  0
LINE
  8
HIDDEN
 10
20.615768
 20
20.347359
 30
0.0
 11
20.615768
 21
20.285359
 31
0.0
  0
POLYLINE
  8
HIDDEN
 66
     1
 10
0.0
 20
0.0
 30
0.0
 70
     1
 75
     6
  0
VERTEX
  8
HIDDEN
 10
20.740768
 20
21.066359
 30
0.0
  0
VERTEX
  8
HIDDEN
 10
21.240768
 20
20.984359
 30
0.0
  0
VERTEX
  8
HIDDEN
 10
21.240768
 20
20.905359
 30
0.0
  0
VERTEX
  8
HIDDEN
 10
21.271768
 20
20.905359
 30
0.0
 42
0.521739
  0
VERTEX
  8
HIDDEN
 10
21.271768
 20
21.227359
 30
0.0
  0
VERTEX
  8
HIDDEN
 10
21.240768
 20
21.227359
 30
0.0
  0
VERTEX
  8
HIDDEN
 10
21.240768
 20
21.148359
 30
0.0
  0
SEQEND
  8
HIDDEN
  0
LINE
  8
HIDDEN
 10
22.179768
 20
21.723359
 30
0.0
 11
21.616768
 21
21.723359
 31
0.0
  0
LINE
  8
HIDDEN
 10
22.241768
 20
21.785359
 30
0.0
 11
21.616768
 21
21.785359
 31
0.0
  0
LINE
  8
HIDDEN
 10
21.616768
 20
21.785359
 30
0.0
 11
21.616768
 21
21.723359
 31
0.0
  0
POLYLINE
  8
HIDDEN
 66
     1
 10
0.0
 20
0.0
 30
0.0
 70
     1
 75
     6
  0
VERTEX
  8
HIDDEN
 10
5.115768
 20
26.724777
 30
0.0
  0
VERTEX
  8
HIDDEN
 10
4.740768
 20
26.724777
 30
0.0
  0
VERTEX
  8
HIDDEN
 10
4.740768
 20
26.888777
 30
0.0
  0
VERTEX
  8
HIDDEN
 10
5.115768
 20
26.888777
 30
0.0
  0
VERTEX
  8
HIDDEN
 10
5.115768
 20
26.967777
 30
0.0
  0
VERTEX
  8
HIDDEN
 10
5.146768
 20
26.967777
 30
0.0
 42
-0.521739
  0
VERTEX
  8
HIDDEN
 10
5.146768
 20
26.645777
 30
0.0
  0
VERTEX
  8
HIDDEN
 10
5.115768
 20
26.645777
 30
0.0
  0
SEQEND
  8
HIDDEN
  0
POLYLINE
  8
HIDDEN
 66
     1
 10
0.0
 20
0.0
 30
0.0
 75
     6
  0
VERTEX
  8
HIDDEN
 10
4.991768
 20
20.867859
 30
0.0
  0
VERTEX
  8
HIDDEN
 10
4.861768
 20
20.867859
 30
0.0
  0
VERTEX
  8
HIDDEN
 10
4.861768
 20
21.264859
 30
0.0
  0
VERTEX
  8
HIDDEN
 10
4.991768
 20
21.264859
 30
0.0
  0
SEQEND
  8
HIDDEN
  0
POLYLINE
  8
HIDDEN
 66
     1
 10
0.0
 20
0.0
 30
0.0
 75
     6
  0
VERTEX
  8
HIDDEN
 10
5.542268
 20
20.347359
 30
0.0
  0
VERTEX
  8
HIDDEN
 10
5.542268
 20
20.477359
 30
0.0
  0
VERTEX
  8
HIDDEN
 10
5.939268
 20
20.477359
 30
0.0
  0
VERTEX
  8
HIDDEN
 10
5.939268
 20
20.347359
 30
0.0
  0
SEQEND
  8
HIDDEN
  0
POLYLINE
  8
HIDDEN
 66
     1
 10
0.0
 20
0.0
 30
0.0
 75
     6
  0
VERTEX
  8
HIDDEN
 10
21.615768
 20
20.867859
 30
0.0
  0
VERTEX
  8
HIDDEN
 10
21.745768
 20
20.867859
 30
0.0
  0
VERTEX
  8
HIDDEN
 10
21.745768
 20
21.264859
 30
0.0
  0
VERTEX
  8
HIDDEN
 10
21.615768
 20
21.264859
 30
0.0
  0
SEQEND
  8
HIDDEN
  0
POLYLINE
  8
HIDDEN
 66
     1
 10
0.0
 20
0.0
 30
0.0
 75
     6
  0
VERTEX
  8
HIDDEN
 10
21.065268
 20
20.347359
 30
0.0
  0
VERTEX
  8
HIDDEN
 10
21.065268
 20
20.477359
 30
0.0
  0
VERTEX
  8
HIDDEN
 10
20.668268
 20
20.477359
 30
0.0
  0
VERTEX
  8
HIDDEN
 10
20.668268
 20
20.347359
 30
0.0
  0
SEQEND
  8
HIDDEN
  0
POLYLINE
  8
HIDDEN
 66
     1
 10
0.0
 20
0.0
 30
0.0
 75
     6
  0
VERTEX
  8
HIDDEN
 10
4.991768
 20
26.608277
 30
0.0
  0
VERTEX
  8
HIDDEN
 10
4.861768
 20
26.608277
 30
0.0
  0
VERTEX
  8
HIDDEN
 10
4.861768
 20
27.005277
 30
0.0
  0
VERTEX
  8
HIDDEN
 10
4.991768
 20
27.005277
 30
0.0
  0
SEQEND
  8
HIDDEN
  0
POLYLINE
  8
HIDDEN
 66
     1
 10
0.0
 20
0.0
 30
0.0
 70
     1
 75
     6
  0
VERTEX
  8
HIDDEN
 10
5.115768
 20
31.099777
 30
0.0
  0
VERTEX
  8
HIDDEN
 10
4.740768
 20
31.099777
 30
0.0
  0
VERTEX
  8
HIDDEN
 10
4.740768
 20
31.263777
 30
0.0
  0
VERTEX
  8
HIDDEN
 10
5.115768
 20
31.263777
 30
0.0
  0
VERTEX
  8
HIDDEN
 10
5.115768
 20
31.342777
 30
0.0
  0
VERTEX
  8
HIDDEN
 10
5.146768
 20
31.342777
 30
0.0
 42
-0.521739
  0
VERTEX
  8
HIDDEN
 10
5.146768
 20
31.020777
 30
0.0
  0
VERTEX
  8
HIDDEN
 10
5.115768
 20
31.020777
 30
0.0
  0
SEQEND
  8
HIDDEN
  0
POLYLINE
  8
HIDDEN
 66
     1
 10
0.0
 20
0.0
 30
0.0
 75
     6
  0
VERTEX
  8
HIDDEN
 10
4.991768
 20
30.983277
 30
0.0
  0
VERTEX
  8
HIDDEN
 10
4.861768
 20
30.983277
 30
0.0
  0
VERTEX
  8
HIDDEN
 10
4.861768
 20
31.380277
 30
0.0
  0
VERTEX
  8
HIDDEN
 10
4.991768
 20
31.380277
 30
0.0
  0
SEQEND
  8
HIDDEN
  0
POLYLINE
  8
HIDDEN
 66
     1
 10
0.0
 20
0.0
 30
0.0
 75
     6
  0
VERTEX
  8
HIDDEN
 10
4.991768
 20
36.483277
 30
0.0
  0
VERTEX
  8
HIDDEN
 10
4.861768
 20
36.483277
 30
0.0
  0
VERTEX
  8
HIDDEN
 10
4.861768
 20
36.880277
 30
0.0
  0
VERTEX
  8
HIDDEN
 10
4.991768
 20
36.880277
 30
0.0
  0
SEQEND
  8
HIDDEN
  0
POLYLINE
  8
HIDDEN
 66
     1
 10
0.0
 20
0.0
 30
0.0
 70
     1
 75
     6
  0
VERTEX
  8
HIDDEN
 10
5.115768
 20
36.599777
 30
0.0
  0
VERTEX
  8
HIDDEN
 10
4.740768
 20
36.599777
 30
0.0
  0
VERTEX
  8
HIDDEN
 10
4.740768
 20
36.763777
 30
0.0
  0
VERTEX
  8
HIDDEN
 10
5.115768
 20
36.763777
 30
0.0
  0
VERTEX
  8
HIDDEN
 10
5.115768
 20
36.842777
 30
0.0
  0
VERTEX
  8
HIDDEN
 10
5.146768
 20
36.842777
 30
0.0
 42
-0.521739
  0
VERTEX
  8
HIDDEN
 10
5.146768
 20
36.520777
 30
0.0
  0
VERTEX
  8
HIDDEN
 10
5.115768
 20
36.520777
 30
0.0
  0
SEQEND
  8
HIDDEN
  0
POLYLINE
  8
HIDDEN
 66
     1
 10
0.0
 20
0.0
 30
0.0
 75
     6
  0
VERTEX
  8
HIDDEN
 10
4.991768
 20
40.858277
 30
0.0
  0
VERTEX
  8
HIDDEN
 10
4.861768
 20
40.858277
 30
0.0
  0
VERTEX
  8
HIDDEN
 10
4.861768
 20
41.255277
 30
0.0
  0
VERTEX
  8
HIDDEN
 10
4.991768
 20
41.255277
 30
0.0
  0
SEQEND
  8
HIDDEN
  0
POLYLINE
  8
HIDDEN
 66
     1
 10
0.0
 20
0.0
 30
0.0
 70
     1
 75
     6
  0
VERTEX
  8
HIDDEN
 10
5.115768
 20
40.974777
 30
0.0
  0
VERTEX
  8
HIDDEN
 10
4.740768
 20
40.974777
 30
0.0
  0
VERTEX
  8
HIDDEN
 10
4.740768
 20
41.138777
 30
0.0
  0
VERTEX
  8
HIDDEN
 10
5.115768
 20
41.138777
 30
0.0
  0
VERTEX
  8
HIDDEN
 10
5.115768
 20
41.217777
 30
0.0
  0
VERTEX
  8
HIDDEN
 10
5.146768
 20
41.217777
 30
0.0
 42
-0.521739
  0
VERTEX
  8
HIDDEN
 10
5.146768
 20
40.895777
 30
0.0
  0
VERTEX
  8
HIDDEN
 10
5.115768
 20
40.895777
 30
0.0
  0
SEQEND
  8
HIDDEN
  0
LINE
  8
HIDDEN
 10
6.303768
 20
26.181777
 30
0.0
 11
6.303768
 21
26.869777
 31
0.0
  0
LINE
  8
HIDDEN
 10
6.303768
 20
26.869777
 30
0.0
 11
20.303768
 21
26.869777
 31
0.0
  0
POLYLINE
  8
HIDDEN
 66
     1
 10
0.0
 20
0.0
 30
0.0
 70
     1
 75
     6
  0
VERTEX
  8
HIDDEN
 10
7.303768
 20
21.192359
 30
0.0
  0
VERTEX
  8
HIDDEN
 10
7.385768
 20
20.692359
 30
0.0
  0
VERTEX
  8
HIDDEN
 10
7.464768
 20
20.692359
 30
0.0
  0
VERTEX
  8
HIDDEN
 10
7.464768
 20
20.661359
 30
0.0
 42
-0.521739
  0
VERTEX
  8
HIDDEN
 10
7.142768
 20
20.661359
 30
0.0
  0
VERTEX
  8
HIDDEN
 10
7.142768
 20
20.692359
 30
0.0
  0
VERTEX
  8
HIDDEN
 10
7.221768
 20
20.692359
 30
0.0
  0
SEQEND
  8
HIDDEN
  0
LINE
  8
HIDDEN
 10
6.303768
 20
20.692359
 30
0.0
 11
20.303768
 21
20.692359
 31
0.0
  0
LINE
  8
HIDDEN
 10
6.303768
 20
20.754359
 30
0.0
 11
6.303768
 21
20.692359
 31
0.0
  0
CIRCLE
  8
HIDDEN
 10
7.303768
 20
26.525777
 30
0.0
 40
0.094
  0
LINE
  8
HIDDEN
 10
20.303768
 20
20.754359
 30
0.0
 11
20.303768
 21
20.692359
 31
0.0
  0
POLYLINE
  8
HIDDEN
 66
     1
 10
0.0
 20
0.0
 30
0.0
 70
     1
 75
     6
  0
VERTEX
  8
HIDDEN
 10
19.303768
 20
21.192359
 30
0.0
  0
VERTEX
  8
HIDDEN
 10
19.221768
 20
20.692359
 30
0.0
  0
VERTEX
  8
HIDDEN
 10
19.142768
 20
20.692359
 30
0.0
  0
VERTEX
  8
HIDDEN
 10
19.142768
 20
20.661359
 30
0.0
 42
0.521739
  0
VERTEX
  8
HIDDEN
 10
19.464768
 20
20.661359
 30
0.0
  0
VERTEX
  8
HIDDEN
 10
19.464768
 20
20.692359
 30
0.0
  0
VERTEX
  8
HIDDEN
 10
19.385768
 20
20.692359
 30
0.0
  0
SEQEND
  8
HIDDEN
  0
LINE
  8
HIDDEN
 10
20.303768
 20
26.181777
 30
0.0
 11
20.303768
 21
26.869777
 31
0.0
  0
CIRCLE
  8
HIDDEN
 10
19.303768
 20
26.525777
 30
0.0
 40
0.094
  0
DIMENSION
  8
DIM
  2
*D13
 10
3.834768
 20
23.945359
 30
0.0
 11
13.303768
 21
23.945359
 31
0.0
 12
0.0
 22
7.465602
 32
0.0
  1
<> FRONT PANEL
 13
22.772768
 23
21.785359
 33
0.0
 14
3.834768
 24
21.785359
 34
0.0
  3
23NSTD
  0
DIMENSION
  8
DIM
  2
*D5
 10
15.808115
 20
41.931777
 30
0.0
 11
15.808115
 21
34.056777
 31
0.0
 12
-1.945443
 22
7.465602
 32
0.0
  1
<> DESKTOP
 13
15.489106
 23
26.181777
 33
0.0
 14
15.489106
 24
41.931777
 34
0.0
 50
90.0
  3
23NSTD
  0
DIMENSION
  8
DIM
  2
*D6
 10
21.178768
 20
45.099071
 30
0.0
 11
13.303768
 21
45.099071
 31
0.0
 12
-1.945443
 22
7.465602
 32
0.0
  1
<> DESKTOP
 13
5.428768
 23
42.181777
 33
0.0
 14
21.178768
 24
42.181777
 34
0.0
  3
23NSTD
  0
DIMENSION
  8
DIM
  2
*D3
 10
21.553768
 20
45.099071
 30
0.0
 11
26.925643
 21
45.099071
 31
0.0
 12
-81.525255
 22
18.287749
 32
0.0
  1
<> SLIDE
 13
21.178768
 23
42.181777
 33
0.0
 14
21.553768
 24
42.181777
 34
0.0
  3
23NSTD
  0
POLYLINE
  8
HIDDEN
 66
     1
 10
0.0
 20
0.0
 30
0.0
 75
     6
  0
VERTEX
  8
HIDDEN
 10
5.366768
 20
21.573859
 30
0.0
 42
1.0
  0
VERTEX
  8
HIDDEN
 10
5.115768
 20
21.573859
 30
0.0
  0
VERTEX
  8
HIDDEN
 10
5.115768
 20
20.558859
 30
0.0
 42
1.0
  0
VERTEX
  8
HIDDEN
 10
5.366768
 20
20.558859
 30
0.0
 42
1.0
  0
SEQEND
  8
HIDDEN
  0
LINE
  8
HIDDEN
 10
5.366768
 20
21.573859
 30
0.0
 11
5.366768
 21
20.558859
 31
0.0
  0
POLYLINE
  8
HIDDEN
 66
     1
 10
0.0
 20
0.0
 30
0.0
 75
     6
  0
VERTEX
  8
HIDDEN
 10
21.240768
 20
21.573859
 30
0.0
 42
-1.0
  0
VERTEX
  8
HIDDEN
 10
21.491768
 20
21.573859
 30
0.0
  0
VERTEX
  8
HIDDEN
 10
21.491768
 20
20.558859
 30
0.0
 42
-1.0
  0
VERTEX
  8
HIDDEN
 10
21.240768
 20
20.558859
 30
0.0
 42
-1.0
  0
SEQEND
  8
HIDDEN
  0
LINE
  8
HIDDEN
 10
21.240768
 20
21.573859
 30
0.0
 11
21.240768
 21
20.558859
 31
0.0
  0
CIRCLE
  8
HIDDEN
 10
5.741768
 20
30.931777
 30
0.0
 40
0.094
  0
CIRCLE
  8
HIDDEN
 10
5.741768
 20
32.931777
 30
0.0
 40
0.094
  0
CIRCLE
  8
HIDDEN
 10
5.741768
 20
35.431777
 30
0.0
 40
0.094
  0
CIRCLE
  8
HIDDEN
 10
5.741768
 20
37.431777
 30
0.0
 40
0.094
  0
LINE
  8
HIDDEN
 10
35.736821
 20
20.754359
 30
0.0
 11
51.486821
 21
20.754359
 31
0.0
  0
LINE
  8
HIDDEN
 10
35.736821
 20
21.535359
 30
0.0
 11
51.736821
 21
21.535359
 31
0.0
  0
LINE
  8
HIDDEN
 10
35.736821
 20
21.597359
 30
0.0
 11
51.736821
 21
21.597359
 31
0.0
  0
LINE
  8
HIDDEN
 10
52.736821
 20
20.285359
 30
0.0
 11
35.736821
 21
20.285359
 31
0.0
  0
LINE
  8
OBJECT
 10
35.736821
 20
21.785359
 30
0.0
 11
52.736821
 21
21.785359
 31
0.0
  0
LINE
  8
OBJECT
 10
35.736821
 20
20.223359
 30
0.0
 11
52.736821
 21
20.223359
 31
0.0
  0
LINE
  8
OBJECT
 10
36.611821
 20
21.051359
 30
0.0
 11
36.111821
 21
21.051359
 31
0.0
  0
LINE
  8
OBJECT
 10
36.611821
 20
20.801359
 30
0.0
 11
36.111821
 21
20.801359
 31
0.0
  0
POLYLINE
  8
OBJECT
 66
     1
 10
0.0
 20
0.0
 30
0.0
 75
     6
  0
VERTEX
  8
OBJECT
 10
36.318821
 20
20.223359
 30
0.0
  0
VERTEX
  8
OBJECT
 10
36.397821
 20
20.223359
 30
0.0
  0
VERTEX
  8
OBJECT
 10
36.397821
 20
20.192359
 30
0.0
 42
-0.521739
  0
VERTEX
  8
OBJECT
 10
36.075821
 20
20.192359
 30
0.0
  0
VERTEX
  8
OBJECT
 10
36.075821
 20
20.223359
 30
0.0
  0
VERTEX
  8
OBJECT
 10
36.154821
 20
20.223359
 30
0.0
  0
SEQEND
  8
OBJECT
  0
LINE
  8
OBJECT
 10
35.612821
 20
20.067359
 30
0.0
 11
35.612821
 21
21.723359
 31
0.0
  0
LINE
  8
OBJECT
 10
35.674821
 20
20.067359
 30
0.0
 11
35.674821
 21
21.723359
 31
0.0
  0
LINE
  8
OBJECT
 10
35.612821
 20
20.067359
 30
0.0
 11
35.674821
 21
20.067359
 31
0.0
  0
LINE
  8
HIDDEN
 10
35.674821
 20
20.692359
 30
0.0
 11
36.424821
 21
20.692359
 31
0.0
  0
LINE
  8
OBJECT
 10
35.736821
 20
20.223359
 30
0.0
 11
35.736821
 21
21.785359
 31
0.0
  0
ARC
  8
OBJECT
 10
35.674821
 20
21.723359
 30
0.0
 40
0.062
 50
0.0
 51
180.0
  0
LINE
  8
HIDDEN
 10
36.424821
 20
20.692359
 30
0.0
 11
36.424821
 21
20.754359
 31
0.0
  0
POLYLINE
  8
HIDDEN
  6
HIDDEN
 66
     1
 10
0.0
 20
0.0
 30
0.0
 75
     6
  0
VERTEX
  8
HIDDEN
  6
HIDDEN
 10
36.154821
 20
20.223359
 30
0.0
  0
VERTEX
  8
HIDDEN
  6
HIDDEN
 10
36.154821
 20
20.598359
 30
0.0
  0
VERTEX
  8
HIDDEN
  6
HIDDEN
 10
36.318821
 20
20.598359
 30
0.0
  0
VERTEX
  8
HIDDEN
  6
HIDDEN
 10
36.318821
 20
20.223359
 30
0.0
  0
SEQEND
  8
HIDDEN
  6
HIDDEN
  0
POLYLINE
  8
HIDDEN
  6
HIDDEN
 66
     1
 10
0.0
 20
0.0
 30
0.0
 75
     6
  0
VERTEX
  8
HIDDEN
  6
HIDDEN
 10
36.038321
 20
20.347359
 30
0.0
  0
VERTEX
  8
HIDDEN
  6
HIDDEN
 10
36.038321
 20
20.477359
 30
0.0
  0
VERTEX
  8
HIDDEN
  6
HIDDEN
 10
36.435321
 20
20.477359
 30
0.0
  0
VERTEX
  8
HIDDEN
  6
HIDDEN
 10
36.435321
 20
20.347359
 30
0.0
  0
SEQEND
  8
HIDDEN
  6
HIDDEN
  0
POLYLINE
  8
HIDDEN
  6
HIDDEN2
 66
     1
 10
0.0
 20
0.0
 30
0.0
 70
     1
  0
VERTEX
  8
HIDDEN
  6
HIDDEN2
 10
36.533727
 20
21.165609
 30
0.0
  0
VERTEX
  8
HIDDEN
  6
HIDDEN2
 10
36.361821
 20
21.264859
 30
0.0
  0
VERTEX
  8
HIDDEN
  6
HIDDEN2
 10
36.189915
 20
21.165609
 30
0.0
  0
VERTEX
  8
HIDDEN
  6
HIDDEN2
 10
36.189915
 20
20.967109
 30
0.0
  0
VERTEX
  8
HIDDEN
  6
HIDDEN2
 10
36.361821
 20
20.867859
 30
0.0
  0
VERTEX
  8
HIDDEN
  6
HIDDEN2
 10
36.533727
 20
20.967109
 30
0.0
  0
SEQEND
  8
HIDDEN
  6
HIDDEN2
  0
CIRCLE
  8
HIDDEN
 10
36.361821
 20
21.066359
 30
0.0
 40
0.082
  0
POLYLINE
  8
OBJECT
 66
     1
 10
0.0
 20
0.0
 30
0.0
 75
     6
  0
VERTEX
  8
OBJECT
 10
38.318821
 20
20.223359
 30
0.0
  0
VERTEX
  8
OBJECT
 10
38.397821
 20
20.223359
 30
0.0
  0
VERTEX
  8
OBJECT
 10
38.397821
 20
20.192359
 30
0.0
 42
-0.521739
  0
VERTEX
  8
OBJECT
 10
38.075821
 20
20.192359
 30
0.0
  0
VERTEX
  8
OBJECT
 10
38.075821
 20
20.223359
 30
0.0
  0
VERTEX
  8
OBJECT
 10
38.154821
 20
20.223359
 30
0.0
  0
SEQEND
  8
OBJECT
  0
POLYLINE
  8
HIDDEN
 66
     1
 10
0.0
 20
0.0
 30
0.0
 75
     6
  0
VERTEX
  8
HIDDEN
 10
38.154821
 20
20.223359
 30
0.0
  0
VERTEX
  8
HIDDEN
 10
38.154821
 20
20.598359
 30
0.0
  0
VERTEX
  8
HIDDEN
 10
38.318821
 20
20.598359
 30
0.0
  0
VERTEX
  8
HIDDEN
 10
38.318821
 20
20.223359
 30
0.0
  0
SEQEND
  8
HIDDEN
  0
POLYLINE
  8
HIDDEN
 66
     1
 10
0.0
 20
0.0
 30
0.0
 75
     6
  0
VERTEX
  8
HIDDEN
 10
38.038321
 20
20.347359
 30
0.0
  0
VERTEX
  8
HIDDEN
 10
38.038321
 20
20.477359
 30
0.0
  0
VERTEX
  8
HIDDEN
 10
38.435321
 20
20.477359
 30
0.0
  0
VERTEX
  8
HIDDEN
 10
38.435321
 20
20.347359
 30
0.0
  0
SEQEND
  8
HIDDEN
  0
ARC
  8
OBJECT
 10
36.111821
 20
20.926359
 30
0.0
 40
0.125
 50
89.999981
 51
269.999981
  0
POLYLINE
  8
OBJECT
 66
     1
 10
0.0
 20
0.0
 30
0.0
 75
     6
  0
VERTEX
  8
OBJECT
 10
49.318821
 20
20.223359
 30
0.0
  0
VERTEX
  8
OBJECT
 10
49.397821
 20
20.223359
 30
0.0
  0
VERTEX
  8
OBJECT
 10
49.397821
 20
20.192359
 30
0.0
 42
-0.521739
  0
VERTEX
  8
OBJECT
 10
49.075821
 20
20.192359
 30
0.0
  0
VERTEX
  8
OBJECT
 10
49.075821
 20
20.223359
 30
0.0
  0
VERTEX
  8
OBJECT
 10
49.154821
 20
20.223359
 30
0.0
  0
SEQEND
  8
OBJECT
  0
LINE
  8
OBJECT
 10
37.986821
 20
21.051359
 30
0.0
 11
36.986821
 21
21.051359
 31
0.0
  0
LINE
  8
OBJECT
 10
37.986821
 20
20.801359
 30
0.0
 11
36.986821
 21
20.801359
 31
0.0
  0
POLYLINE
  8
HIDDEN
  6
HIDDEN2
 66
     1
 10
0.0
 20
0.0
 30
0.0
 70
     1
  0
VERTEX
  8
HIDDEN
  6
HIDDEN2
 10
40.908727
 20
21.165609
 30
0.0
  0
VERTEX
  8
HIDDEN
  6
HIDDEN2
 10
40.736821
 20
21.264859
 30
0.0
  0
VERTEX
  8
HIDDEN
  6
HIDDEN2
 10
40.564915
 20
21.165609
 30
0.0
  0
VERTEX
  8
HIDDEN
  6
HIDDEN2
 10
40.564915
 20
20.967109
 30
0.0
  0
VERTEX
  8
HIDDEN
  6
HIDDEN2
 10
40.736821
 20
20.867859
 30
0.0
  0
VERTEX
  8
HIDDEN
  6
HIDDEN2
 10
40.908727
 20
20.967109
 30
0.0
  0
SEQEND
  8
HIDDEN
  6
HIDDEN2
  0
POLYLINE
  8
HIDDEN
 66
     1
 10
0.0
 20
0.0
 30
0.0
 75
     6
  0
VERTEX
  8
HIDDEN
 10
49.038321
 20
20.347359
 30
0.0
  0
VERTEX
  8
HIDDEN
 10
49.038321
 20
20.477359
 30
0.0
  0
VERTEX
  8
HIDDEN
 10
49.435321
 20
20.477359
 30
0.0
  0
VERTEX
  8
HIDDEN
 10
49.435321
 20
20.347359
 30
0.0
  0
SEQEND
  8
HIDDEN
  0
POLYLINE
  8
HIDDEN
 66
     1
 10
0.0
 20
0.0
 30
0.0
 75
     6
  0
VERTEX
  8
HIDDEN
 10
49.154821
 20
20.223359
 30
0.0
  0
VERTEX
  8
HIDDEN
 10
49.154821
 20
20.598359
 30
0.0
  0
VERTEX
  8
HIDDEN
 10
49.318821
 20
20.598359
 30
0.0
  0
VERTEX
  8
HIDDEN
 10
49.318821
 20
20.223359
 30
0.0
  0
SEQEND
  8
HIDDEN
  0
ARC
  8
OBJECT
 10
36.611821
 20
20.926359
 30
0.0
 40
0.125
 50
269.999981
 51
89.999981
  0
CIRCLE
  8
HIDDEN
 10
40.736821
 20
21.066359
 30
0.0
 40
0.082
  0
ARC
  8
OBJECT
 10
36.986821
 20
20.926359
 30
0.0
 40
0.125
 50
89.999981
 51
269.999981
  0
ARC
  8
OBJECT
 10
37.986821
 20
20.926359
 30
0.0
 40
0.125
 50
269.999981
 51
89.999981
  0
POLYLINE
  8
OBJECT
 66
     1
 10
0.0
 20
0.0
 30
0.0
 75
     6
  0
VERTEX
  8
OBJECT
 10
51.318821
 20
20.223359
 30
0.0
  0
VERTEX
  8
OBJECT
 10
51.397821
 20
20.223359
 30
0.0
  0
VERTEX
  8
OBJECT
 10
51.397821
 20
20.192359
 30
0.0
 42
-0.521739
  0
VERTEX
  8
OBJECT
 10
51.075821
 20
20.192359
 30
0.0
  0
VERTEX
  8
OBJECT
 10
51.075821
 20
20.223359
 30
0.0
  0
VERTEX
  8
OBJECT
 10
51.154821
 20
20.223359
 30
0.0
  0
SEQEND
  8
OBJECT
  0
POLYLINE
  8
HIDDEN
 66
     1
 10
0.0
 20
0.0
 30
0.0
 75
     6
  0
VERTEX
  8
HIDDEN
 10
51.154821
 20
20.223359
 30
0.0
  0
VERTEX
  8
HIDDEN
 10
51.154821
 20
20.598359
 30
0.0
  0
VERTEX
  8
HIDDEN
 10
51.318821
 20
20.598359
 30
0.0
  0
VERTEX
  8
HIDDEN
 10
51.318821
 20
20.223359
 30
0.0
  0
SEQEND
  8
HIDDEN
  0
POLYLINE
  8
HIDDEN
 66
     1
 10
0.0
 20
0.0
 30
0.0
 75
     6
  0
VERTEX
  8
HIDDEN
 10
51.038321
 20
20.347359
 30
0.0
  0
VERTEX
  8
HIDDEN
 10
51.038321
 20
20.477359
 30
0.0
  0
VERTEX
  8
HIDDEN
 10
51.435321
 20
20.477359
 30
0.0
  0
VERTEX
  8
HIDDEN
 10
51.435321
 20
20.347359
 30
0.0
  0
SEQEND
  8
HIDDEN
  0
POLYLINE
  8
HIDDEN
  6
HIDDEN2
 66
     1
 10
0.0
 20
0.0
 30
0.0
 70
     1
  0
VERTEX
  8
HIDDEN
  6
HIDDEN2
 10
46.408727
 20
21.165609
 30
0.0
  0
VERTEX
  8
HIDDEN
  6
HIDDEN2
 10
46.236821
 20
21.264859
 30
0.0
  0
VERTEX
  8
HIDDEN
  6
HIDDEN2
 10
46.064915
 20
21.165609
 30
0.0
  0
VERTEX
  8
HIDDEN
  6
HIDDEN2
 10
46.064915
 20
20.967109
 30
0.0
  0
VERTEX
  8
HIDDEN
  6
HIDDEN2
 10
46.236821
 20
20.867859
 30
0.0
  0
VERTEX
  8
HIDDEN
  6
HIDDEN2
 10
46.408727
 20
20.967109
 30
0.0
  0
SEQEND
  8
HIDDEN
  6
HIDDEN2
  0
CIRCLE
  8
HIDDEN
 10
46.236821
 20
21.066359
 30
0.0
 40
0.082
  0
LINE
  8
OBJECT
 10
50.486821
 20
20.801359
 30
0.0
 11
51.486821
 21
20.801359
 31
0.0
  0
LINE
  8
OBJECT
 10
50.486821
 20
21.051359
 30
0.0
 11
51.486821
 21
21.051359
 31
0.0
  0
POLYLINE
  8
HIDDEN
  6
HIDDEN2
 66
     1
 10
0.0
 20
0.0
 30
0.0
 70
     1
  0
VERTEX
  8
HIDDEN
  6
HIDDEN2
 10
50.783727
 20
21.165609
 30
0.0
  0
VERTEX
  8
HIDDEN
  6
HIDDEN2
 10
50.611821
 20
21.264859
 30
0.0
  0
VERTEX
  8
HIDDEN
  6
HIDDEN2
 10
50.439915
 20
21.165609
 30
0.0
  0
VERTEX
  8
HIDDEN
  6
HIDDEN2
 10
50.439915
 20
20.967109
 30
0.0
  0
VERTEX
  8
HIDDEN
  6
HIDDEN2
 10
50.611821
 20
20.867859
 30
0.0
  0
VERTEX
  8
HIDDEN
  6
HIDDEN2
 10
50.783727
 20
20.967109
 30
0.0
  0
SEQEND
  8
HIDDEN
  6
HIDDEN2
  0
CIRCLE
  8
HIDDEN
 10
50.611821
 20
21.066359
 30
0.0
 40
0.082
  0
LINE
  8
HIDDEN
 10
51.486821
 20
20.754359
 30
0.0
 11
51.486821
 21
21.566359
 31
0.0
  0
ARC
  8
OBJECT
 10
50.486821
 20
20.926359
 30
0.0
 40
0.125
 50
90.000019
 51
270.000019
  0
DIMENSION
  8
DIM
  2
*D11
 10
54.896821
 20
21.785359
 30
0.0
 11
54.896821
 21
21.004359
 31
0.0
 12
0.362227
 22
7.465602
 32
0.0
 13
52.736821
 23
20.223359
 33
0.0
 14
52.736821
 24
21.785359
 34
0.0
 50
270.0
  3
23NSTDI
  0
LINE
  8
OBJECT
 10
51.861821
 20
20.801359
 30
0.0
 11
52.361821
 21
20.801359
 31
0.0
  0
LINE
  8
OBJECT
 10
51.861821
 20
21.051359
 30
0.0
 11
52.361821
 21
21.051359
 31
0.0
  0
ARC
  8
OBJECT
 10
51.861821
 20
20.926359
 30
0.0
 40
0.125
 50
90.000019
 51
270.000019
  0
ARC
  8
OBJECT
 10
51.486821
 20
20.926359
 30
0.0
 40
0.125
 50
270.000019
 51
90.000019
  0
LINE
  8
OBJECT
 10
52.736821
 20
21.785359
 30
0.0
 11
52.736821
 21
20.223359
 31
0.0
  0
ARC
  8
OBJECT
 10
52.361821
 20
20.926359
 30
0.0
 40
0.125
 50
270.000019
 51
90.000019
  0
DIMENSION
  8
DIM
  2
*D10
 10
52.736821
 20
23.945359
 30
0.0
 11
44.236821
 21
23.945359
 31
0.0
 12
0.362227
 22
7.465602
 32
0.0
  1
<> BRACKET
 13
35.736821
 23
21.785359
 33
0.0
 14
52.736821
 24
21.785359
 34
0.0
 50
180.0
  3
23NSTD
  0
LINE
  8
OBJECT
 10
42.828656
 20
8.02372
 30
0.0
 11
59.828656
 21
8.02372
 31
0.0
  0
LINE
  8
HIDDEN
 10
42.828656
 20
9.52372
 30
0.0
 11
59.828656
 21
9.52372
 31
0.0
  0
LINE
  8
OBJECT
 10
42.828656
 20
9.58572
 30
0.0
 11
59.828656
 21
9.58572
 31
0.0
  0
LINE
  8
HIDDEN
 10
59.828656
 20
8.08572
 30
0.0
 11
42.866704
 21
8.08572
 31
0.0
  0
LINE
  8
HIDDEN
 10
36.078933
 20
9.39772
 30
0.0
 11
39.006858
 21
9.39772
 31
0.0
  0
LINE
  8
HIDDEN
 10
36.078933
 20
9.33572
 30
0.0
 11
39.006858
 21
9.33572
 31
0.0
  0
LINE
  8
HIDDEN
 10
52.078933
 20
8.14772
 30
0.0
 11
36.078933
 21
8.14772
 31
0.0
  0
LINE
  8
HIDDEN
 10
36.078933
 20
8.55472
 30
0.0
 11
51.828933
 21
8.55472
 31
0.0
  0
LINE
  8
OBJECT
 10
43.703656
 20
8.60172
 30
0.0
 11
43.203656
 21
8.60172
 31
0.0
  0
LINE
  8
OBJECT
 10
43.703656
 20
8.85172
 30
0.0
 11
43.203656
 21
8.85172
 31
0.0
  0
LINE
  8
HIDDEN
 10
36.078933
 20
9.52372
 30
0.0
 11
39.078933
 21
9.52372
 31
0.0
  0
LINE
  8
OBJECT
 10
36.078933
 20
8.02372
 30
0.0
 11
39.078933
 21
8.02372
 31
0.0
  0
LINE
  8
OBJECT
 10
36.078933
 20
9.58572
 30
0.0
 11
39.078933
 21
9.58572
 31
0.0
  0
LINE
  8
HIDDEN
 10
36.016933
 20
8.49272
 30
0.0
 11
36.766933
 21
8.49272
 31
0.0
  0
LINE
  8
OBJECT
 10
36.078933
 20
8.02372
 30
0.0
 11
36.078933
 21
9.58572
 31
0.0
  0
LINE
  8
OBJECT
 10
36.016933
 20
7.86772
 30
0.0
 11
36.016933
 21
9.52372
 31
0.0
  0
LINE
  8
OBJECT
 10
35.954933
 20
7.86772
 30
0.0
 11
35.954933
 21
9.52372
 31
0.0
  0
LINE
  8
OBJECT
 10
35.954933
 20
7.86772
 30
0.0
 11
36.016933
 21
7.86772
 31
0.0
  0
ARC
  8
OBJECT
 10
36.016933
 20
9.52372
 30
0.0
 40
0.062
 50
0.0
 51
180.0
  0
POLYLINE
  8
HIDDEN
  6
HIDDEN
 66
     1
 10
0.0
 20
0.0
 30
0.0
 75
     6
  0
VERTEX
  8
HIDDEN
  6
HIDDEN
 10
36.380433
 20
8.14772
 30
0.0
  0
VERTEX
  8
HIDDEN
  6
HIDDEN
 10
36.380433
 20
8.27772
 30
0.0
  0
VERTEX
  8
HIDDEN
  6
HIDDEN
 10
36.777433
 20
8.27772
 30
0.0
  0
VERTEX
  8
HIDDEN
  6
HIDDEN
 10
36.777433
 20
8.14772
 30
0.0
  0
SEQEND
  8
HIDDEN
  6
HIDDEN
  0
POLYLINE
  8
HIDDEN
  6
HIDDEN
 66
     1
 10
0.0
 20
0.0
 30
0.0
 75
     6
  0
VERTEX
  8
HIDDEN
  6
HIDDEN
 10
36.496933
 20
8.02372
 30
0.0
  0
VERTEX
  8
HIDDEN
  6
HIDDEN
 10
36.496933
 20
8.39872
 30
0.0
  0
VERTEX
  8
HIDDEN
  6
HIDDEN
 10
36.660933
 20
8.39872
 30
0.0
  0
VERTEX
  8
HIDDEN
  6
HIDDEN
 10
36.660933
 20
8.02372
 30
0.0
  0
SEQEND
  8
HIDDEN
  6
HIDDEN
  0
POLYLINE
  8
OBJECT
 66
     1
 10
0.0
 20
0.0
 30
0.0
 75
     6
  0
VERTEX
  8
OBJECT
 10
36.660933
 20
8.02372
 30
0.0
  0
VERTEX
  8
OBJECT
 10
36.739933
 20
8.02372
 30
0.0
  0
VERTEX
  8
OBJECT
 10
36.739933
 20
7.99272
 30
0.0
 42
-0.521739
  0
VERTEX
  8
OBJECT
 10
36.417933
 20
7.99272
 30
0.0
  0
VERTEX
  8
OBJECT
 10
36.417933
 20
8.02372
 30
0.0
  0
VERTEX
  8
OBJECT
 10
36.496933
 20
8.02372
 30
0.0
  0
SEQEND
  8
OBJECT
  0
ARC
  8
OBJECT
 10
37.328933
 20
8.72672
 30
0.0
 40
0.125
 50
270.000019
 51
90.000019
  0
CIRCLE
  8
HIDDEN
 10
36.703933
 20
8.86672
 30
0.0
 40
0.082
  0
ARC
  8
OBJECT
 10
36.578933
 20
8.72672
 30
0.0
 40
0.125
 50
90.000019
 51
270.000019
  0
POLYLINE
  8
HIDDEN
  6
HIDDEN2
 66
     1
 10
0.0
 20
0.0
 30
0.0
 70
     1
  0
VERTEX
  8
HIDDEN
  6
HIDDEN2
 10
36.875839
 20
8.96597
 30
0.0
  0
VERTEX
  8
HIDDEN
  6
HIDDEN2
 10
36.703933
 20
9.06522
 30
0.0
  0
VERTEX
  8
HIDDEN
  6
HIDDEN2
 10
36.532027
 20
8.96597
 30
0.0
  0
VERTEX
  8
HIDDEN
  6
HIDDEN2
 10
36.532027
 20
8.76747
 30
0.0
  0
VERTEX
  8
HIDDEN
  6
HIDDEN2
 10
36.703933
 20
8.66822
 30
0.0
  0
VERTEX
  8
HIDDEN
  6
HIDDEN2
 10
36.875839
 20
8.76747
 30
0.0
  0
SEQEND
  8
HIDDEN
  6
HIDDEN2
  0
LINE
  8
HIDDEN
 10
36.766933
 20
8.49272
 30
0.0
 11
36.766933
 21
8.55472
 31
0.0
  0
LINE
  8
OBJECT
 10
36.578933
 20
8.60172
 30
0.0
 11
37.328933
 21
8.60172
 31
0.0
  0
LINE
  8
OBJECT
 10
36.578933
 20
8.85172
 30
0.0
 11
37.328933
 21
8.85172
 31
0.0
  0
POLYLINE
  8
HIDDEN
 66
     1
 10
0.0
 20
0.0
 30
0.0
 75
     6
  0
VERTEX
  8
HIDDEN
 10
38.380433
 20
8.14772
 30
0.0
  0
VERTEX
  8
HIDDEN
 10
38.380433
 20
8.27772
 30
0.0
  0
VERTEX
  8
HIDDEN
 10
38.777433
 20
8.27772
 30
0.0
  0
VERTEX
  8
HIDDEN
 10
38.777433
 20
8.14772
 30
0.0
  0
SEQEND
  8
HIDDEN
  0
POLYLINE
  8
HIDDEN
 66
     1
 10
0.0
 20
0.0
 30
0.0
 75
     6
  0
VERTEX
  8
HIDDEN
 10
38.496933
 20
8.02372
 30
0.0
  0
VERTEX
  8
HIDDEN
 10
38.496933
 20
8.39872
 30
0.0
  0
VERTEX
  8
HIDDEN
 10
38.660933
 20
8.39872
 30
0.0
  0
VERTEX
  8
HIDDEN
 10
38.660933
 20
8.02372
 30
0.0
  0
SEQEND
  8
HIDDEN
  0
POLYLINE
  8
OBJECT
 66
     1
 10
0.0
 20
0.0
 30
0.0
 75
     6
  0
VERTEX
  8
OBJECT
 10
38.660933
 20
8.02372
 30
0.0
  0
VERTEX
  8
OBJECT
 10
38.739933
 20
8.02372
 30
0.0
  0
VERTEX
  8
OBJECT
 10
38.739933
 20
7.99272
 30
0.0
 42
-0.521739
  0
VERTEX
  8
OBJECT
 10
38.417933
 20
7.99272
 30
0.0
  0
VERTEX
  8
OBJECT
 10
38.417933
 20
8.02372
 30
0.0
  0
VERTEX
  8
OBJECT
 10
38.496933
 20
8.02372
 30
0.0
  0
SEQEND
  8
OBJECT
  0
ARC
  8
OBJECT
 10
37.828933
 20
8.72672
 30
0.0
 40
0.125
 50
90.000019
 51
270.000019
  0
ARC
  8
OBJECT
 10
38.578933
 20
8.72672
 30
0.0
 40
0.125
 50
270.000019
 51
90.000019
  0
LINE
  8
OBJECT
 10
37.828933
 20
8.60172
 30
0.0
 11
38.578933
 21
8.60172
 31
0.0
  0
LINE
  8
OBJECT
 10
37.828933
 20
8.85172
 30
0.0
 11
38.578933
 21
8.85172
 31
0.0
  0
LINE
  8
OBJECT
 10
42.828656
 20
9.58572
 30
0.0
 11
42.828656
 21
8.02372
 31
0.0
  0
LINE
  8
OBJECT
 10
39.078933
 20
9.58572
 30
0.0
 11
39.078933
 21
8.02372
 31
0.0
  0
ARC
  8
OBJECT
 10
43.203656
 20
8.72672
 30
0.0
 40
0.125
 50
89.999981
 51
269.999981
  0
POLYLINE
  8
OBJECT
 66
     1
 10
0.0
 20
0.0
 30
0.0
 70
     1
  0
VERTEX
  8
OBJECT
 10
41.250839
 20
8.96597
 30
0.0
  0
VERTEX
  8
OBJECT
 10
41.078933
 20
9.06522
 30
0.0
  0
VERTEX
  8
OBJECT
 10
40.907027
 20
8.96597
 30
0.0
  0
VERTEX
  8
OBJECT
 10
40.907027
 20
8.76747
 30
0.0
  0
VERTEX
  8
OBJECT
 10
41.078933
 20
8.66822
 30
0.0
  0
VERTEX
  8
OBJECT
 10
41.250839
 20
8.76747
 30
0.0
  0
SEQEND
  8
OBJECT
  0
LINE
  8
OBJECT
 10
45.078656
 20
8.60172
 30
0.0
 11
44.078656
 21
8.60172
 31
0.0
  0
LINE
  8
OBJECT
 10
45.078656
 20
8.85172
 30
0.0
 11
44.078656
 21
8.85172
 31
0.0
  0
POLYLINE
  8
HIDDEN
 66
     1
 10
0.0
 20
0.0
 30
0.0
 75
     6
  0
VERTEX
  8
HIDDEN
 10
45.246933
 20
8.02372
 30
0.0
  0
VERTEX
  8
HIDDEN
 10
45.246933
 20
8.39872
 30
0.0
  0
VERTEX
  8
HIDDEN
 10
45.410933
 20
8.39872
 30
0.0
  0
VERTEX
  8
HIDDEN
 10
45.410933
 20
8.02372
 30
0.0
  0
SEQEND
  8
HIDDEN
  0
POLYLINE
  8
HIDDEN
 66
     1
 10
0.0
 20
0.0
 30
0.0
 75
     6
  0
VERTEX
  8
HIDDEN
 10
45.130433
 20
8.14772
 30
0.0
  0
VERTEX
  8
HIDDEN
 10
45.130433
 20
8.27772
 30
0.0
  0
VERTEX
  8
HIDDEN
 10
45.527433
 20
8.27772
 30
0.0
  0
VERTEX
  8
HIDDEN
 10
45.527433
 20
8.14772
 30
0.0
  0
SEQEND
  8
HIDDEN
  0
POLYLINE
  8
OBJECT
 66
     1
 10
0.0
 20
0.0
 30
0.0
 75
     6
  0
VERTEX
  8
OBJECT
 10
45.410933
 20
8.02372
 30
0.0
  0
VERTEX
  8
OBJECT
 10
45.489933
 20
8.02372
 30
0.0
  0
VERTEX
  8
OBJECT
 10
45.489933
 20
7.99272
 30
0.0
 42
-0.521739
  0
VERTEX
  8
OBJECT
 10
45.167933
 20
7.99272
 30
0.0
  0
VERTEX
  8
OBJECT
 10
45.167933
 20
8.02372
 30
0.0
  0
VERTEX
  8
OBJECT
 10
45.246933
 20
8.02372
 30
0.0
  0
SEQEND
  8
OBJECT
  0
ARC
  8
OBJECT
 10
44.078656
 20
8.72672
 30
0.0
 40
0.125
 50
89.999981
 51
269.999981
  0
CIRCLE
  8
OBJECT
 10
41.078933
 20
8.86672
 30
0.0
 40
0.082
  0
ARC
  8
OBJECT
 10
43.703656
 20
8.72672
 30
0.0
 40
0.125
 50
269.999981
 51
89.999981
  0
ARC
  8
OBJECT
 10
45.078656
 20
8.72672
 30
0.0
 40
0.125
 50
269.999981
 51
89.999981
  0
POLYLINE
  8
HIDDEN
 66
     1
 10
0.0
 20
0.0
 30
0.0
 75
     6
  0
VERTEX
  8
HIDDEN
 10
49.380433
 20
8.14772
 30
0.0
  0
VERTEX
  8
HIDDEN
 10
49.380433
 20
8.27772
 30
0.0
  0
VERTEX
  8
HIDDEN
 10
49.777433
 20
8.27772
 30
0.0
  0
VERTEX
  8
HIDDEN
 10
49.777433
 20
8.14772
 30
0.0
  0
SEQEND
  8
HIDDEN
  0
POLYLINE
  8
HIDDEN
 66
     1
 10
0.0
 20
0.0
 30
0.0
 75
     6
  0
VERTEX
  8
HIDDEN
 10
49.496933
 20
8.02372
 30
0.0
  0
VERTEX
  8
HIDDEN
 10
49.496933
 20
8.39872
 30
0.0
  0
VERTEX
  8
HIDDEN
 10
49.660933
 20
8.39872
 30
0.0
  0
VERTEX
  8
HIDDEN
 10
49.660933
 20
8.02372
 30
0.0
  0
SEQEND
  8
HIDDEN
  0
POLYLINE
  8
OBJECT
 66
     1
 10
0.0
 20
0.0
 30
0.0
 75
     6
  0
VERTEX
  8
OBJECT
 10
49.660933
 20
8.02372
 30
0.0
  0
VERTEX
  8
OBJECT
 10
49.739933
 20
8.02372
 30
0.0
  0
VERTEX
  8
OBJECT
 10
49.739933
 20
7.99272
 30
0.0
 42
-0.521739
  0
VERTEX
  8
OBJECT
 10
49.417933
 20
7.99272
 30
0.0
  0
VERTEX
  8
OBJECT
 10
49.417933
 20
8.02372
 30
0.0
  0
VERTEX
  8
OBJECT
 10
49.496933
 20
8.02372
 30
0.0
  0
SEQEND
  8
OBJECT
  0
CIRCLE
  8
HIDDEN
 10
46.578933
 20
8.86672
 30
0.0
 40
0.082
  0
POLYLINE
  8
HIDDEN
  6
HIDDEN2
 66
     1
 10
0.0
 20
0.0
 30
0.0
 70
     1
  0
VERTEX
  8
HIDDEN
  6
HIDDEN2
 10
46.750839
 20
8.96597
 30
0.0
  0
VERTEX
  8
HIDDEN
  6
HIDDEN2
 10
46.578933
 20
9.06522
 30
0.0
  0
VERTEX
  8
HIDDEN
  6
HIDDEN2
 10
46.407027
 20
8.96597
 30
0.0
  0
VERTEX
  8
HIDDEN
  6
HIDDEN2
 10
46.407027
 20
8.76747
 30
0.0
  0
VERTEX
  8
HIDDEN
  6
HIDDEN2
 10
46.578933
 20
8.66822
 30
0.0
  0
VERTEX
  8
HIDDEN
  6
HIDDEN2
 10
46.750839
 20
8.76747
 30
0.0
  0
SEQEND
  8
HIDDEN
  6
HIDDEN2
  0
LINE
  8
OBJECT
 10
57.578656
 20
8.85172
 30
0.0
 11
58.578656
 21
8.85172
 31
0.0
  0
LINE
  8
OBJECT
 10
57.578656
 20
8.60172
 30
0.0
 11
58.578656
 21
8.60172
 31
0.0
  0
CIRCLE
  8
HIDDEN
 10
50.953933
 20
8.86672
 30
0.0
 40
0.082
  0
POLYLINE
  8
HIDDEN
  6
HIDDEN2
 66
     1
 10
0.0
 20
0.0
 30
0.0
 70
     1
  0
VERTEX
  8
HIDDEN
  6
HIDDEN2
 10
51.125839
 20
8.96597
 30
0.0
  0
VERTEX
  8
HIDDEN
  6
HIDDEN2
 10
50.953933
 20
9.06522
 30
0.0
  0
VERTEX
  8
HIDDEN
  6
HIDDEN2
 10
50.782027
 20
8.96597
 30
0.0
  0
VERTEX
  8
HIDDEN
  6
HIDDEN2
 10
50.782027
 20
8.76747
 30
0.0
  0
VERTEX
  8
HIDDEN
  6
HIDDEN2
 10
50.953933
 20
8.66822
 30
0.0
  0
VERTEX
  8
HIDDEN
  6
HIDDEN2
 10
51.125839
 20
8.76747
 30
0.0
  0
SEQEND
  8
HIDDEN
  6
HIDDEN2
  0
LINE
  8
HIDDEN
 10
51.828933
 20
8.55472
 30
0.0
 11
51.828933
 21
9.36672
 31
0.0
  0
ARC
  8
OBJECT
 10
57.578656
 20
8.72672
 30
0.0
 40
0.125
 50
90.000019
 51
270.000019
  0
LINE
  8
OBJECT
 10
58.953656
 20
8.85172
 30
0.0
 11
59.453656
 21
8.85172
 31
0.0
  0
LINE
  8
OBJECT
 10
58.953656
 20
8.60172
 30
0.0
 11
59.453656
 21
8.60172
 31
0.0
  0
ARC
  8
OBJECT
 10
58.578656
 20
8.72672
 30
0.0
 40
0.125
 50
270.000019
 51
90.000019
  0
ARC
  8
OBJECT
 10
58.953656
 20
8.72672
 30
0.0
 40
0.125
 50
90.000019
 51
270.000019
  0
LINE
  8
OBJECT
 10
59.828656
 20
9.58572
 30
0.0
 11
59.828656
 21
8.02372
 31
0.0
  0
ARC
  8
OBJECT
 10
59.453656
 20
8.72672
 30
0.0
 40
0.125
 50
270.000019
 51
90.000019
  0
LINE
  8
OBJECT
 10
42.828656
 20
9.39772
 30
0.0
 11
39.078933
 21
9.39772
 31
0.0
  0
LINE
  8
OBJECT
 10
39.078933
 20
9.33572
 30
0.0
 11
42.828656
 21
9.33572
 31
0.0
  0
LINE
  8
OBJECT
 10
42.828656
 20
8.08572
 30
0.0
 11
39.078933
 21
8.08572
 31
0.0
  0
LINE
  8
HIDDEN
 10
42.890759
 20
9.39772
 30
0.0
 11
52.078933
 21
9.39772
 31
0.0
  0
LINE
  8
HIDDEN
 10
42.890759
 20
9.33572
 30
0.0
 11
52.078933
 21
9.33572
 31
0.0
  0
LINE
  8
OBJECT
 10
42.828656
 20
9.56172
 30
0.0
 11
39.078933
 21
9.56172
 31
0.0
  0
LINE
  8
HIDDEN
 10
5.428768
 20
21.566359
 30
0.0
 11
21.178768
 21
21.566359
 31
0.0
  0
LINE
  8
HIDDEN
 10
52.736821
 20
21.723359
 30
0.0
 11
35.736821
 21
21.723359
 31
0.0
  0
LINE
  8
HIDDEN
 10
35.736821
 20
21.566359
 30
0.0
 11
51.486821
 21
21.566359
 31
0.0
  0
POLYLINE
  8
HIDDEN
 66
     1
 10
0.0
 20
0.0
 30
0.0
  0
VERTEX
  8
HIDDEN
 10
35.736821
 20
21.761359
 30
0.0
  0
VERTEX
  8
HIDDEN
 10
51.736821
 20
21.761359
 30
0.0
  0
VERTEX
  8
HIDDEN
 10
51.736821
 20
20.371359
 30
0.0
  0
VERTEX
  8
HIDDEN
 10
35.736821
 20
20.371359
 30
0.0
  0
SEQEND
  8
HIDDEN
  0
POLYLINE
  8
HIDDEN
 66
     1
 10
0.0
 20
0.0
 30
0.0
  0
VERTEX
  8
HIDDEN
 10
51.736821
 20
20.347359
 30
0.0
  0
VERTEX
  8
HIDDEN
 10
35.736821
 20
20.347359
 30
0.0
  0
SEQEND
  8
HIDDEN
  0
LINE
  8
HIDDEN
 10
36.078933
 20
9.36672
 30
0.0
 11
51.828933
 21
9.36672
 31
0.0
  0
LINE
  8
HIDDEN
 10
39.033114
 20
8.08572
 30
0.0
 11
36.078933
 21
8.08572
 31
0.0
  0
POLYLINE
  8
HIDDEN
 66
     1
 10
0.0
 20
0.0
 30
0.0
  0
VERTEX
  8
HIDDEN
 10
36.078933
 20
9.56172
 30
0.0
  0
VERTEX
  8
HIDDEN
 10
52.078933
 20
9.56172
 30
0.0
  0
VERTEX
  8
HIDDEN
 10
52.078933
 20
8.17172
 30
0.0
  0
VERTEX
  8
HIDDEN
 10
36.078933
 20
8.17172
 30
0.0
  0
SEQEND
  8
HIDDEN
  0
TEXT
  8
TEXT
 10
2.65218
 20
8.009615
 30
0.0
 40
0.75
  1
PANEL
 41
0.75
  0
TEXT
  8
TEXT
 10
2.65218
 20
4.279817
 30
0.0
 40
0.75
  1
BRACKETS
 41
0.75
  0
TEXT
  8
TEXT
 10
17.179993
 20
4.274946
 30
0.0
 40
0.75
  1
SMOOTH BLACK
 41
0.75
 72
     2
 11
23.742493
 21
4.274946
 31
0.0
  0
LINE
  8
TEXT
 10
5.624127
 20
8.025717
 30
0.0
 11
14.750416
 21
8.025717
 31
0.0
  0
LINE
  8
TEXT
 10
7.125148
 20
4.295919
 30
0.0
 11
17.001949
 21
4.295919
 31
0.0
  0
TEXT
  8
TEXT
 10
2.65218
 20
1.848668
 30
0.0
 40
0.75
  1
SLIDES
 41
0.75
  0
TEXT
  8
TEXT
 10
14.786113
 20
1.844635
 30
0.0
 40
0.75
  1
BRIGHT ZINC PLATE
 41
0.75
 72
     2
 11
23.786113
 21
1.844635
 31
0.0
  0
LINE
  8
TEXT
 10
5.889013
 20
1.868636
 30
0.0
 11
14.529678
 21
1.868636
 31
0.0
  0
LINE
  8
HIDDEN
 10
22.179768
 20
26.181777
 30
0.0
 11
22.179768
 21
43.181777
 31
0.0
  0
LINE
  8
OBJECT
 10
22.241768
 20
26.181777
 30
0.0
 11
22.241768
 21
43.181777
 31
0.0
  0
LINE
  8
OBJECT
 10
21.616768
 20
26.181777
 30
0.0
 11
21.616768
 21
43.181777
 31
0.0
  0
LINE
  8
HIDDEN
 10
20.615768
 20
26.181777
 30
0.0
 11
20.615768
 21
42.181777
 31
0.0
  0
LINE
  8
OBJECT
 10
21.553768
 20
26.181777
 30
0.0
 11
21.553768
 21
42.181777
 31
0.0
  0
LINE
  8
HIDDEN
 10
22.053768
 20
26.181777
 30
0.0
 11
22.053768
 21
42.181777
 31
0.0
  0
LINE
  8
OBJECT
 10
21.178768
 20
26.181777
 30
0.0
 11
21.178768
 21
42.181777
 31
0.0
  0
LINE
  8
OBJECT
 10
21.553768
 20
26.181777
 30
0.0
 11
21.553768
 21
42.181777
 31
0.0
  0
LINE
  8
OBJECT
 10
21.178768
 20
26.181777
 30
0.0
 11
21.178768
 21
41.931777
 31
0.0
  0
POLYLINE
  8
HIDDEN
 66
     1
 10
0.0
 20
0.0
 30
0.0
 70
     1
 75
     6
  0
VERTEX
  8
HIDDEN
 10
20.740768
 20
27.181777
 30
0.0
  0
VERTEX
  8
HIDDEN
 10
21.240768
 20
27.099777
 30
0.0
  0
VERTEX
  8
HIDDEN
 10
21.240768
 20
27.020777
 30
0.0
  0
VERTEX
  8
HIDDEN
 10
21.271768
 20
27.020777
 30
0.0
 42
0.521739
  0
VERTEX
  8
HIDDEN
 10
21.271768
 20
27.342777
 30
0.0
  0
VERTEX
  8
HIDDEN
 10
21.240768
 20
27.342777
 30
0.0
  0
VERTEX
  8
HIDDEN
 10
21.240768
 20
27.263777
 30
0.0
  0
SEQEND
  8
HIDDEN
  0
LINE
  8
OBJECT
 10
22.241768
 20
26.181777
 30
0.0
 11
20.616768
 21
26.181777
 31
0.0
  0
POLYLINE
  8
HIDDEN
 66
     1
 10
0.0
 20
0.0
 30
0.0
 75
     6
  0
VERTEX
  8
HIDDEN
 10
21.615768
 20
26.608277
 30
0.0
  0
VERTEX
  8
HIDDEN
 10
21.745768
 20
26.608277
 30
0.0
  0
VERTEX
  8
HIDDEN
 10
21.745768
 20
27.005277
 30
0.0
  0
VERTEX
  8
HIDDEN
 10
21.615768
 20
27.005277
 30
0.0
  0
SEQEND
  8
HIDDEN
  0
POLYLINE
  8
HIDDEN
 66
     1
 10
0.0
 20
0.0
 30
0.0
 70
     1
 75
     6
  0
VERTEX
  8
HIDDEN
 10
21.491768
 20
26.724777
 30
0.0
  0
VERTEX
  8
HIDDEN
 10
21.866768
 20
26.724777
 30
0.0
  0
VERTEX
  8
HIDDEN
 10
21.866768
 20
26.888777
 30
0.0
  0
VERTEX
  8
HIDDEN
 10
21.491768
 20
26.888777
 30
0.0
  0
VERTEX
  8
HIDDEN
 10
21.491768
 20
26.967777
 30
0.0
  0
VERTEX
  8
HIDDEN
 10
21.460768
 20
26.967777
 30
0.0
 42
0.521739
  0
VERTEX
  8
HIDDEN
 10
21.460768
 20
26.645777
 30
0.0
  0
VERTEX
  8
HIDDEN
 10
21.491768
 20
26.645777
 30
0.0
  0
SEQEND
  8
HIDDEN
  0
CIRCLE
  8
HIDDEN
 10
20.865768
 20
26.681777
 30
0.0
 40
0.094
  0
CIRCLE
  8
HIDDEN
 10
20.865768
 20
28.681777
 30
0.0
 40
0.094
  0
POLYLINE
  8
HIDDEN
 66
     1
 10
0.0
 20
0.0
 30
0.0
 70
     1
 75
     6
  0
VERTEX
  8
HIDDEN
 10
20.740768
 20
31.181777
 30
0.0
  0
VERTEX
  8
HIDDEN
 10
21.240768
 20
31.099777
 30
0.0
  0
VERTEX
  8
HIDDEN
 10
21.240768
 20
31.020777
 30
0.0
  0
VERTEX
  8
HIDDEN
 10
21.271768
 20
31.020777
 30
0.0
 42
0.521739
  0
VERTEX
  8
HIDDEN
 10
21.271768
 20
31.342777
 30
0.0
  0
VERTEX
  8
HIDDEN
 10
21.240768
 20
31.342777
 30
0.0
  0
VERTEX
  8
HIDDEN
 10
21.240768
 20
31.263777
 30
0.0
  0
SEQEND
  8
HIDDEN
  0
POLYLINE
  8
HIDDEN
 66
     1
 10
0.0
 20
0.0
 30
0.0
 75
     6
  0
VERTEX
  8
HIDDEN
 10
21.615768
 20
30.983277
 30
0.0
  0
VERTEX
  8
HIDDEN
 10
21.745768
 20
30.983277
 30
0.0
  0
VERTEX
  8
HIDDEN
 10
21.745768
 20
31.380277
 30
0.0
  0
VERTEX
  8
HIDDEN
 10
21.615768
 20
31.380277
 30
0.0
  0
SEQEND
  8
HIDDEN
  0
POLYLINE
  8
HIDDEN
 66
     1
 10
0.0
 20
0.0
 30
0.0
 70
     1
 75
     6
  0
VERTEX
  8
HIDDEN
 10
21.491768
 20
31.099777
 30
0.0
  0
VERTEX
  8
HIDDEN
 10
21.866768
 20
31.099777
 30
0.0
  0
VERTEX
  8
HIDDEN
 10
21.866768
 20
31.263777
 30
0.0
  0
VERTEX
  8
HIDDEN
 10
21.491768
 20
31.263777
 30
0.0
  0
VERTEX
  8
HIDDEN
 10
21.491768
 20
31.342777
 30
0.0
  0
VERTEX
  8
HIDDEN
 10
21.460768
 20
31.342777
 30
0.0
 42
0.521739
  0
VERTEX
  8
HIDDEN
 10
21.460768
 20
31.020777
 30
0.0
  0
VERTEX
  8
HIDDEN
 10
21.491768
 20
31.020777
 30
0.0
  0
SEQEND
  8
HIDDEN
  0
POLYLINE
  8
HIDDEN
 66
     1
 10
0.0
 20
0.0
 30
0.0
 70
     1
 75
     6
  0
VERTEX
  8
HIDDEN
 10
21.491768
 20
36.599777
 30
0.0
  0
VERTEX
  8
HIDDEN
 10
21.866768
 20
36.599777
 30
0.0
  0
VERTEX
  8
HIDDEN
 10
21.866768
 20
36.763777
 30
0.0
  0
VERTEX
  8
HIDDEN
 10
21.491768
 20
36.763777
 30
0.0
  0
VERTEX
  8
HIDDEN
 10
21.491768
 20
36.842777
 30
0.0
  0
VERTEX
  8
HIDDEN
 10
21.460768
 20
36.842777
 30
0.0
 42
0.521739
  0
VERTEX
  8
HIDDEN
 10
21.460768
 20
36.520777
 30
0.0
  0
VERTEX
  8
HIDDEN
 10
21.491768
 20
36.520777
 30
0.0
  0
SEQEND
  8
HIDDEN
  0
POLYLINE
  8
HIDDEN
 66
     1
 10
0.0
 20
0.0
 30
0.0
 75
     6
  0
VERTEX
  8
HIDDEN
 10
21.615768
 20
36.483277
 30
0.0
  0
VERTEX
  8
HIDDEN
 10
21.745768
 20
36.483277
 30
0.0
  0
VERTEX
  8
HIDDEN
 10
21.745768
 20
36.880277
 30
0.0
  0
VERTEX
  8
HIDDEN
 10
21.615768
 20
36.880277
 30
0.0
  0
SEQEND
  8
HIDDEN
  0
CIRCLE
  8
HIDDEN
 10
20.865768
 20
30.931777
 30
0.0
 40
0.094
  0
CIRCLE
  8
HIDDEN
 10
20.865768
 20
32.931777
 30
0.0
 40
0.094
  0
CIRCLE
  8
HIDDEN
 10
20.865768
 20
35.431777
 30
0.0
 40
0.094
  0
CIRCLE
  8
HIDDEN
 10
20.865768
 20
37.431777
 30
0.0
 40
0.094
  0
POLYLINE
  8
HIDDEN
 66
     1
 10
0.0
 20
0.0
 30
0.0
 70
     1
 75
     6
  0
VERTEX
  8
HIDDEN
 10
20.740768
 20
39.681777
 30
0.0
  0
VERTEX
  8
HIDDEN
 10
21.240768
 20
39.599777
 30
0.0
  0
VERTEX
  8
HIDDEN
 10
21.240768
 20
39.520777
 30
0.0
  0
VERTEX
  8
HIDDEN
 10
21.271768
 20
39.520777
 30
0.0
 42
0.521739
  0
VERTEX
  8
HIDDEN
 10
21.271768
 20
39.842777
 30
0.0
  0
VERTEX
  8
HIDDEN
 10
21.240768
 20
39.842777
 30
0.0
  0
VERTEX
  8
HIDDEN
 10
21.240768
 20
39.763777
 30
0.0
  0
SEQEND
  8
HIDDEN
  0
LINE
  8
OBJECT
 10
21.553768
 20
42.181777
 30
0.0
 11
20.615768
 21
42.181777
 31
0.0
  0
LINE
  8
OBJECT
 10
22.241768
 20
43.181777
 30
0.0
 11
20.616768
 21
43.181777
 31
0.0
  0
POLYLINE
  8
HIDDEN
 66
     1
 10
0.0
 20
0.0
 30
0.0
 70
     1
 75
     6
  0
VERTEX
  8
HIDDEN
 10
21.491768
 20
40.974777
 30
0.0
  0
VERTEX
  8
HIDDEN
 10
21.866768
 20
40.974777
 30
0.0
  0
VERTEX
  8
HIDDEN
 10
21.866768
 20
41.138777
 30
0.0
  0
VERTEX
  8
HIDDEN
 10
21.491768
 20
41.138777
 30
0.0
  0
VERTEX
  8
HIDDEN
 10
21.491768
 20
41.217777
 30
0.0
  0
VERTEX
  8
HIDDEN
 10
21.460768
 20
41.217777
 30
0.0
 42
0.521739
  0
VERTEX
  8
HIDDEN
 10
21.460768
 20
40.895777
 30
0.0
  0
VERTEX
  8
HIDDEN
 10
21.491768
 20
40.895777
 30
0.0
  0
SEQEND
  8
HIDDEN
  0
POLYLINE
  8
HIDDEN
 66
     1
 10
0.0
 20
0.0
 30
0.0
 75
     6
  0
VERTEX
  8
HIDDEN
 10
21.615768
 20
40.858277
 30
0.0
  0
VERTEX
  8
HIDDEN
 10
21.745768
 20
40.858277
 30
0.0
  0
VERTEX
  8
HIDDEN
 10
21.745768
 20
41.255277
 30
0.0
  0
VERTEX
  8
HIDDEN
 10
21.615768
 20
41.255277
 30
0.0
  0
SEQEND
  8
HIDDEN
  0
LINE
  8
HIDDEN
 10
22.053768
 20
42.181777
 30
0.0
 11
21.553768
 21
42.181777
 31
0.0
  0
CIRCLE
  8
HIDDEN
 10
20.865768
 20
41.681777
 30
0.0
 40
0.094
  0
CIRCLE
  8
HIDDEN
 10
20.865768
 20
39.681777
 30
0.0
 40
0.094
  0
LINE
  8
OBJECT
 10
20.929268
 20
42.447277
 30
0.0
 11
20.804268
 21
42.447277
 31
0.0
  0
LINE
  8
OBJECT
 10
20.929268
 20
42.666277
 30
0.0
 11
20.804268
 21
42.666277
 31
0.0
  0
ARC
  8
OBJECT
 10
20.929268
 20
42.556777
 30
0.0
 40
0.1095
 50
269.999981
 51
89.999981
  0
ARC
  8
OBJECT
 10
20.804268
 20
42.556777
 30
0.0
 40
0.1095
 50
89.999981
 51
269.999981
  0
LINE
  8
OBJECT
 10
20.616768
 20
43.181777
 30
0.0
 11
20.616768
 21
41.931777
 31
0.0
  0
DIMENSION
  8
DIM
  2
*D1
 10
1.628239
 20
20.067359
 30
0.0
 11
1.628239
 21
20.926359
 31
0.0
 12
-81.525255
 22
20.123303
 32
0.0
 13
3.834768
 23
21.785359
 33
0.0
 14
3.834768
 24
20.067359
 34
0.0
 50
270.0
  3
23NSTDI
  0
DIMENSION
  8
DIM
  2
*D2
 10
22.241768
 20
46.967314
 30
0.0
 11
13.303768
 21
46.967314
 31
0.0
 12
-81.525255
 22
18.287749
 32
0.0
 13
4.365768
 23
43.181777
 33
0.0
 14
22.241768
 24
43.181777
 34
0.0
  3
23NSTDI
  0
DIMENSION
  8
DIM
  2
*D9
 10
14.803768
 20
17.907359
 30
0.0
 11
13.303768
 21
17.907359
 31
0.0
 12
-1.945443
 22
7.465602
 32
0.0
 13
11.803768
 23
20.192359
 33
0.0
 14
14.803768
 24
20.192359
 34
0.0
  3
23NSTDI
  0
DIMENSION
  8
DIM
  2
*D4
 10
8.934598
 20
20.067359
 30
0.0
 11
6.330223
 21
17.907359
 31
0.0
 12
-81.525255
 22
18.287749
 32
0.0
 13
12.053768
 23
20.567359
 33
0.0
 14
9.2909
 24
20.067359
 34
0.0
 50
90.0
  3
23NSTD
  0
LINE
  8
HIDDEN
 10
23.613137
 20
20.067359
 30
0.0
 11
23.675137
 21
20.067359
 31
0.0
  0
LINE
  8
HIDDEN
 10
23.613137
 20
20.067359
 30
0.0
 11
23.613137
 21
21.723359
 31
0.0
  0
LINE
  8
HIDDEN
 10
23.675137
 20
20.067359
 30
0.0
 11
23.675137
 21
21.723359
 31
0.0
  0
ARC
  8
HIDDEN
 10
23.675137
 20
21.723359
 30
0.0
 40
0.062
 50
0.0
 51
180.0
  0
LINE
  8
HIDDEN
 10
23.675137
 20
20.692359
 30
0.0
 11
24.425137
 21
20.692359
 31
0.0
  0
LINE
  8
HIDDEN
 10
24.425137
 20
20.692359
 30
0.0
 11
24.425137
 21
20.754359
 31
0.0
  0
LINE
  8
HIDDEN
 10
23.737137
 20
20.754359
 30
0.0
 11
35.234711
 21
20.754359
 31
0.0
  0
LINE
  8
HIDDEN
 10
23.737137
 20
21.566359
 30
0.0
 11
35.250897
 21
21.566359
 31
0.0
  0
LINE
  8
HIDDEN
 10
23.737137
 20
21.723359
 30
0.0
 11
23.737137
 21
20.754359
 31
0.0
  0
DIMENSION
  8
DIM
  2
*D12
 10
35.612821
 20
17.907359
 30
0.0
 11
29.612979
 21
17.907359
 31
0.0
 12
0.362227
 22
7.465602
 32
0.0
  1
<> EXTENDED
 13
23.613137
 23
20.067359
 33
0.0
 14
35.612821
 24
20.067359
 34
0.0
  3
23NSTD
  0
TEXT
  8
TEXT
 10
37.851544
 20
15.554881
 30
0.0
 40
0.9375
  1
MOUNTING IN 17.000 CLEAR
 41
0.75
 72
     1
 11
45.410138
 21
15.554881
 31
0.0
  0
DIMENSION
  8
DIM
  2
*D7
 10
42.828656
 20
11.290235
 30
0.0
 11
51.328656
 21
11.290235
 31
0.0
 12
1.514027
 22
4.530791
 32
0.0
  1
<> BRACKET
 13
59.828656
 23
9.58572
 33
0.0
 14
42.828656
 24
9.58572
 34
0.0
  3
23NSTD
  0
DIMENSION
  8
DIM
  2
*D8
 10
36.078933
 20
11.290235
 30
0.0
 11
30.144558
 21
11.290235
 31
0.0
 12
1.514027
 22
4.530791
 32
0.0
  1
<> BRACKET
 13
39.078933
 23
9.58572
 33
0.0
 14
36.078933
 24
9.58572
 34
0.0
  3
23NSTD
  0
TEXT
  8
TEXT
 10
34.162276
 20
5.979746
 30
0.0
 40
0.9375
  1
MOUNTING IN 20.500, 24.000 AND 29.250
 41
0.75
 72
     1
 11
45.47087
 21
5.979746
 31
0.0
  0
POLYLINE
  8
AM_VIS
  6
CONTINUOUS
 66
     1
 10
0.0
 20
0.0
 30
0.0
 70
     8
  0
VERTEX
  8
AM_VIS
  6
CONTINUOUS
 10
19.06252
 20
78.569707
 30
-0.881197
 70
    32
1001
ACAD
1000
R13OBJECT
1002
{
1005
27
1002
}
  0
VERTEX
  8
AM_VIS
  6
CONTINUOUS
 10
19.094227
 20
78.463013
 30
-0.881197
 70
    32
1001
ACAD
1000
R13OBJECT
1002
{
1005
27
1002
}
  0
VERTEX
  8
AM_VIS
  6
CONTINUOUS
 10
19.170773
 20
78.382208
 30
-0.881197
 70
    32
1001
ACAD
1000
R13OBJECT
1002
{
1005
27
1002
}
  0
SEQEND
  8
AM_VIS
  6
CONTINUOUS
1001
ACAD
1000
R13OBJECT
1002
{
1005
27
1002
}
  0
LINE
  8
AM_VIS
 10
19.170773
 20
78.382208
 30
-0.881197
 11
36.27377
 21
68.507788
 31
-0.881197
  0
LINE
  8
AM_VIS
 10
36.436582
 20
68.726751
 30
-0.881197
 11
36.436582
 21
68.601787
 31
-0.881197
  0
POLYLINE
  8
AM_VIS
  6
CONTINUOUS
 66
     1
 10
0.0
 20
0.0
 30
0.0
 70
     8
  0
VERTEX
  8
AM_VIS
  6
CONTINUOUS
 10
36.404876
 20
68.531705
 30
-0.881197
 70
    32
1001
ACAD
1000
R13OBJECT
1002
{
1005
2B
1002
}
  0
VERTEX
  8
AM_VIS
  6
CONTINUOUS
 10
36.428342
 20
68.558709
 30
-0.881197
 70
    32
1001
ACAD
1000
R13OBJECT
1002
{
1005
2B
1002
}
  0
VERTEX
  8
AM_VIS
  6
CONTINUOUS
 10
36.436582
 20
68.601787
 30
-0.881197
 70
    32
1001
ACAD
1000
R13OBJECT
1002
{
1005
2B
1002
}
  0
SEQEND
  8
AM_VIS
  6
CONTINUOUS
1001
ACAD
1000
R13OBJECT
1002
{
1005
2B
1002
}
  0
POLYLINE
  8
AM_VIS
  6
CONTINUOUS
 66
     1
 10
0.0
 20
0.0
 30
0.0
 70
     8
  0
VERTEX
  8
AM_VIS
  6
CONTINUOUS
 10
36.27377
 20
68.507788
 30
-0.881197
 70
    32
1001
ACAD
1000
R13OBJECT
1002
{
1005
2D
1002
}
  0
VERTEX
  8
AM_VIS
  6
CONTINUOUS
 10
36.327897
 20
68.493285
 30
-0.881197
 70
    32
1001
ACAD
1000
R13OBJECT
1002
{
1005
2D
1002
}
  0
VERTEX
  8
AM_VIS
  6
CONTINUOUS
 10
36.36752
 20
68.516161
 30
-0.881197
 70
    32
1001
ACAD
1000
R13OBJECT
1002
{
1005
2D
1002
}
  0
VERTEX
  8
AM_VIS
  6
CONTINUOUS
 10
36.382023
 20
68.570287
 30
-0.881197
 70
    32
1001
ACAD
1000
R13OBJECT
1002
{
1005
2D
1002
}
  0
SEQEND
  8
AM_VIS
  6
CONTINUOUS
1001
ACAD
1000
R13OBJECT
1002
{
1005
2D
1002
}
  0
LINE
  8
AM_VIS
 10
36.382023
 20
68.570287
 30
-0.881197
 11
36.382023
 21
68.758286
 31
-0.881197
  0
LINE
  8
AM_VIS
 10
36.382023
 20
68.758286
 30
-0.881197
 11
36.436582
 21
68.726786
 31
-0.881197
  0
LINE
  8
AM_VIS
 10
36.436582
 20
68.726786
 30
-0.881197
 11
36.436582
 21
68.790261
 31
-0.881197
  0
LINE
  8
AM_VIS
 10
36.436582
 20
68.790261
 30
-0.881197
 11
36.382023
 21
68.821761
 31
-0.881197
  0
LINE
  8
AM_VIS
 10
36.382023
 20
68.821285
 30
-0.881197
 11
19.06252
 21
78.820705
 31
-0.881197
  0
LINE
  8
AM_VIS
 10
19.06252
 20
78.820705
 30
-0.881197
 11
19.06252
 21
78.82118
 31
-0.881197
  0
LINE
  8
AM_VIS
 10
19.06252
 20
78.82118
 30
-0.881197
 11
19.007961
 21
78.85268
 31
-0.881197
  0
LINE
  8
AM_VIS
 10
19.007961
 20
78.789205
 30
-0.881197
 11
19.007961
 21
78.85268
 31
-0.881197
  0
LINE
  8
AM_VIS
 10
19.007961
 20
78.789205
 30
-0.881197
 11
19.06252
 21
78.757705
 31
-0.881197
  0
LINE
  8
AM_VIS
 10
19.06252
 20
78.757705
 30
-0.881197
 11
19.06252
 21
78.569707
 31
-0.881197
  0
LINE
  8
AM_VIS
 10
19.007961
 20
78.85268
 30
-0.881197
 11
19.075511
 21
78.89168
 31
-0.881197
  0
LINE
  8
AM_VIS
 10
19.075511
 20
78.89168
 30
-0.881197
 11
19.075511
 21
79.895671
 31
-0.881197
  0
POLYLINE
  8
AM_VIS
  6
CONTINUOUS
 66
     1
 10
0.0
 20
0.0
 30
0.0
 70
     8
  0
VERTEX
  8
AM_VIS
  6
CONTINUOUS
 10
19.17433
 20
80.077248
 30
-0.881197
 70
    32
1001
ACAD
1000
R13OBJECT
1002
{
1005
3B
1002
}
  0
VERTEX
  8
AM_VIS
  6
CONTINUOUS
 10
19.103951
 20
79.99654
 30
-0.881197
 70
    32
1001
ACAD
1000
R13OBJECT
1002
{
1005
3B
1002
}
  0
VERTEX
  8
AM_VIS
  6
CONTINUOUS
 10
19.075511
 20
79.895671
 30
-0.881197
 70
    32
1001
ACAD
1000
R13OBJECT
1002
{
1005
3B
1002
}
  0
SEQEND
  8
AM_VIS
  6
CONTINUOUS
1001
ACAD
1000
R13OBJECT
1002
{
1005
3B
1002
}
  0
LINE
  8
AM_VIS
 10
19.17433
 20
80.077248
 30
-0.881197
 11
25.936109
 21
84.664158
 31
-0.881197
  0
LINE
  8
AM_VIS
 10
25.936109
 20
84.664158
 30
-0.881197
 11
27.668145
 21
85.664149
 31
-0.881197
  0
POLYLINE
  8
AM_VIS
  6
CONTINUOUS
 66
     1
 10
0.0
 20
0.0
 30
0.0
 70
     8
  0
VERTEX
  8
AM_VIS
  6
CONTINUOUS
 10
20.695782
 20
80.024569
 30
-0.881197
 70
    32
1001
ACAD
1000
R13OBJECT
1002
{
1005
3E
1002
}
  0
VERTEX
  8
AM_VIS
  6
CONTINUOUS
 10
20.717391
 20
80.028899
 30
-0.881197
 70
    32
1001
ACAD
1000
R13OBJECT
1002
{
1005
3E
1002
}
  0
VERTEX
  8
AM_VIS
  6
CONTINUOUS
 10
20.739998
 20
80.039195
 30
-0.881197
 70
    32
1001
ACAD
1000
R13OBJECT
1002
{
1005
3E
1002
}
  0
SEQEND
  8
AM_VIS
  6
CONTINUOUS
1001
ACAD
1000
R13OBJECT
1002
{
1005
3E
1002
}
  0
POLYLINE
  8
AM_VIS
  6
CONTINUOUS
 66
     1
 10
0.0
 20
0.0
 30
0.0
 70
     8
  0
VERTEX
  8
AM_VIS
  6
CONTINUOUS
 10
20.739998
 20
80.039195
 30
-0.881197
 70
    32
1001
ACAD
1000
R13OBJECT
1002
{
1005
3F
1002
}
  0
VERTEX
  8
AM_VIS
  6
CONTINUOUS
 10
20.806697
 20
80.10425
 30
-0.881197
 70
    32
1001
ACAD
1000
R13OBJECT
1002
{
1005
3F
1002
}
  0
VERTEX
  8
AM_VIS
  6
CONTINUOUS
 10
20.845067
 20
80.194765
 30
-0.881197
 70
    32
1001
ACAD
1000
R13OBJECT
1002
{
1005
3F
1002
}
  0
VERTEX
  8
AM_VIS
  6
CONTINUOUS
 10
20.83881
 20
80.272295
 30
-0.881197
 70
    32
1001
ACAD
1000
R13OBJECT
1002
{
1005
3F
1002
}
  0
SEQEND
  8
AM_VIS
  6
CONTINUOUS
1001
ACAD
1000
R13OBJECT
1002
{
1005
3F
1002
}
  0
POLYLINE
  8
AM_VIS
  6
CONTINUOUS
 66
     1
 10
0.0
 20
0.0
 30
0.0
 70
     8
  0
VERTEX
  8
AM_VIS
  6
CONTINUOUS
 10
25.891892
 20
83.024545
 30
-0.881197
 70
    32
1001
ACAD
1000
R13OBJECT
1002
{
1005
40
1002
}
  0
VERTEX
  8
AM_VIS
  6
CONTINUOUS
 10
25.913502
 20
83.028875
 30
-0.881197
 70
    32
1001
ACAD
1000
R13OBJECT
1002
{
1005
40
1002
}
  0
VERTEX
  8
AM_VIS
  6
CONTINUOUS
 10
25.936109
 20
83.039171
 30
-0.881197
 70
    32
1001
ACAD
1000
R13OBJECT
1002
{
1005
40
1002
}
  0
SEQEND
  8
AM_VIS
  6
CONTINUOUS
1001
ACAD
1000
R13OBJECT
1002
{
1005
40
1002
}
  0
POLYLINE
  8
AM_VIS
  6
CONTINUOUS
 66
     1
 10
0.0
 20
0.0
 30
0.0
 70
     8
  0
VERTEX
  8
AM_VIS
  6
CONTINUOUS
 10
25.936109
 20
83.039171
 30
-0.881197
 70
    32
1001
ACAD
1000
R13OBJECT
1002
{
1005
41
1002
}
  0
VERTEX
  8
AM_VIS
  6
CONTINUOUS
 10
26.002808
 20
83.104225
 30
-0.881197
 70
    32
1001
ACAD
1000
R13OBJECT
1002
{
1005
41
1002
}
  0
VERTEX
  8
AM_VIS
  6
CONTINUOUS
 10
26.041178
 20
83.194741
 30
-0.881197
 70
    32
1001
ACAD
1000
R13OBJECT
1002
{
1005
41
1002
}
  0
VERTEX
  8
AM_VIS
  6
CONTINUOUS
 10
26.03492
 20
83.272271
 30
-0.881197
 70
    32
1001
ACAD
1000
R13OBJECT
1002
{
1005
41
1002
}
  0
SEQEND
  8
AM_VIS
  6
CONTINUOUS
1001
ACAD
1000
R13OBJECT
1002
{
1005
41
1002
}
  0
LINE
  8
AM_VIS
 10
19.13007
 20
79.864172
 30
-0.881197
 11
19.13007
 21
78.859704
 31
-0.881197
  0
LINE
  8
AM_VIS
 10
19.075511
 20
79.895671
 30
-0.881197
 11
19.13007
 21
79.864172
 31
-0.881197
  0
LINE
  8
AM_VIS
 10
19.075511
 20
78.89168
 30
-0.881197
 11
19.13007
 21
78.86018
 31
-0.881197
  0
LINE
  8
AM_VIS
 10
36.504131
 20
68.829261
 30
-0.881197
 11
36.436582
 21
68.790261
 31
-0.881197
  0
LINE
  8
AM_VIS
 10
36.449572
 20
68.86076
 30
-0.881197
 11
36.504131
 21
68.829261
 31
-0.881197
  0
POLYLINE
  8
AM_VIS
  6
CONTINUOUS
 66
     1
 10
0.0
 20
0.0
 30
0.0
 70
     8
  0
VERTEX
  8
AM_VIS
  6
CONTINUOUS
 10
19.228889
 20
80.045748
 30
-0.881197
 70
    32
1001
ACAD
1000
R13OBJECT
1002
{
1005
49
1002
}
  0
VERTEX
  8
AM_VIS
  6
CONTINUOUS
 10
19.158511
 20
79.965041
 30
-0.881197
 70
    32
1001
ACAD
1000
R13OBJECT
1002
{
1005
49
1002
}
  0
VERTEX
  8
AM_VIS
  6
CONTINUOUS
 10
19.13007
 20
79.864172
 30
-0.881197
 70
    32
1001
ACAD
1000
R13OBJECT
1002
{
1005
49
1002
}
  0
SEQEND
  8
AM_VIS
  6
CONTINUOUS
1001
ACAD
1000
R13OBJECT
1002
{
1005
49
1002
}
  0
LINE
  8
AM_VIS
 10
19.17433
 20
80.077248
 30
-0.881197
 11
19.228889
 21
80.045748
 31
-0.881197
  0
LINE
  8
AM_VIS
 10
25.990668
 20
84.632658
 30
-0.881197
 11
19.228889
 21
80.045748
 31
-0.881197
  0
LINE
  8
AM_VIS
 10
36.548391
 20
70.046329
 30
-0.881197
 11
43.31017
 21
74.633238
 31
-0.881197
  0
LINE
  8
AM_VIS
 10
43.364729
 20
74.601739
 30
-0.881197
 11
36.60295
 21
70.014829
 31
-0.881197
  0
POLYLINE
  8
AM_VIS
  6
CONTINUOUS
 66
     1
 10
0.0
 20
0.0
 30
0.0
 70
     8
  0
VERTEX
  8
AM_VIS
  6
CONTINUOUS
 10
36.548391
 20
70.046329
 30
-0.881197
 70
    32
1001
ACAD
1000
R13OBJECT
1002
{
1005
51
1002
}
  0
VERTEX
  8
AM_VIS
  6
CONTINUOUS
 10
36.478013
 20
69.965621
 30
-0.881197
 70
    32
1001
ACAD
1000
R13OBJECT
1002
{
1005
51
1002
}
  0
VERTEX
  8
AM_VIS
  6
CONTINUOUS
 10
36.449572
 20
69.864752
 30
-0.881197
 70
    32
1001
ACAD
1000
R13OBJECT
1002
{
1005
51
1002
}
  0
SEQEND
  8
AM_VIS
  6
CONTINUOUS
1001
ACAD
1000
R13OBJECT
1002
{
1005
51
1002
}
  0
POLYLINE
  8
AM_VIS
  6
CONTINUOUS
 66
     1
 10
0.0
 20
0.0
 30
0.0
 70
     8
  0
VERTEX
  8
AM_VIS
  6
CONTINUOUS
 10
36.60295
 20
70.014829
 30
-0.881197
 70
    32
1001
ACAD
1000
R13OBJECT
1002
{
1005
53
1002
}
  0
VERTEX
  8
AM_VIS
  6
CONTINUOUS
 10
36.532572
 20
69.934122
 30
-0.881197
 70
    32
1001
ACAD
1000
R13OBJECT
1002
{
1005
53
1002
}
  0
VERTEX
  8
AM_VIS
  6
CONTINUOUS
 10
36.504131
 20
69.833253
 30
-0.881197
 70
    32
1001
ACAD
1000
R13OBJECT
1002
{
1005
53
1002
}
  0
SEQEND
  8
AM_VIS
  6
CONTINUOUS
1001
ACAD
1000
R13OBJECT
1002
{
1005
53
1002
}
  0
LINE
  8
AM_VIS
 10
36.449572
 20
68.86076
 30
-0.881197
 11
36.449572
 21
69.864752
 31
-0.881197
  0
LINE
  8
AM_VIS
 10
36.504131
 20
69.833253
 30
-0.881197
 11
36.504131
 21
68.829261
 31
-0.881197
  0
LINE
  8
AM_VIS
 10
45.096766
 20
75.601731
 30
-0.881197
 11
43.364729
 21
74.601739
 31
-0.881197
  0
LINE
  8
AM_VIS
 10
44.04109
 20
76.211226
 30
-0.881197
 11
45.096766
 21
75.601731
 31
-0.881197
  0
LINE
  8
AM_VIS
 10
44.04109
 20
76.211226
 30
-0.881197
 11
43.986531
 21
76.179726
 31
-0.881197
  0
LINE
  8
AM_VIS
 10
43.986531
 20
76.179726
 30
-0.881197
 11
44.987648
 21
75.601731
 31
-0.881197
  0
LINE
  8
AM_VIS
 10
44.987648
 20
75.601731
 30
-0.881197
 11
43.31017
 21
74.633238
 31
-0.881197
  0
LINE
  8
AM_VIS
 10
36.436582
 20
68.726786
 30
-0.881197
 11
36.869591
 21
68.976784
 31
-0.881197
  0
LINE
  8
AM_VIS
 10
45.096766
 20
73.976457
 30
-0.881197
 11
45.096766
 21
75.601731
 31
-0.881197
  0
LINE
  8
AM_VIS
 10
27.668145
 20
85.664149
 30
-0.881197
 11
28.723822
 21
85.054654
 31
-0.881197
  0
LINE
  8
AM_VIS
 10
28.723822
 20
85.054654
 30
-0.881197
 11
28.723822
 21
83.336668
 31
-0.881197
  0
LINE
  8
AM_VIS
 10
27.722705
 20
83.851628
 30
-0.881197
 11
27.722705
 21
83.820664
 31
-0.881197
  0
LINE
  8
AM_VIS
 10
27.722705
 20
83.820664
 30
-0.881197
 11
43.473855
 21
74.726733
 31
-0.881197
  0
LINE
  8
AM_VIS
 10
44.379703
 20
75.64123
 30
-0.881197
 11
44.487955
 21
75.578731
 31
-0.881197
  0
POLYLINE
  8
AM_VIS
  6
CONTINUOUS
 66
     1
 10
0.0
 20
0.0
 30
0.0
 70
     8
  0
VERTEX
  8
AM_VIS
  6
CONTINUOUS
 10
44.487955
 20
75.578731
 30
-0.881197
 70
    32
1001
ACAD
1000
R13OBJECT
1002
{
1005
62
1002
}
  0
VERTEX
  8
AM_VIS
  6
CONTINUOUS
 10
44.515778
 20
75.56639
 30
-0.881197
 70
    32
1001
ACAD
1000
R13OBJECT
1002
{
1005
62
1002
}
  0
VERTEX
  8
AM_VIS
  6
CONTINUOUS
 10
44.542127
 20
75.562147
 30
-0.881197
 70
    32
1001
ACAD
1000
R13OBJECT
1002
{
1005
62
1002
}
  0
SEQEND
  8
AM_VIS
  6
CONTINUOUS
1001
ACAD
1000
R13OBJECT
1002
{
1005
62
1002
}
  0
POLYLINE
  8
AM_VIS
  6
CONTINUOUS
 66
     1
 10
0.0
 20
0.0
 30
0.0
 70
     8
  0
VERTEX
  8
AM_VIS
  6
CONTINUOUS
 10
44.270803
 20
75.907274
 30
-0.881197
 70
    32
1001
ACAD
1000
R13OBJECT
1002
{
1005
63
1002
}
  0
VERTEX
  8
AM_VIS
  6
CONTINUOUS
 10
44.260838
 20
75.820332
 30
-0.881197
 70
    32
1001
ACAD
1000
R13OBJECT
1002
{
1005
63
1002
}
  0
VERTEX
  8
AM_VIS
  6
CONTINUOUS
 10
44.30341
 20
75.716327
 30
-0.881197
 70
    32
1001
ACAD
1000
R13OBJECT
1002
{
1005
63
1002
}
  0
VERTEX
  8
AM_VIS
  6
CONTINUOUS
 10
44.379703
 20
75.64123
 30
-0.881197
 70
    32
1001
ACAD
1000
R13OBJECT
1002
{
1005
63
1002
}
  0
SEQEND
  8
AM_VIS
  6
CONTINUOUS
1001
ACAD
1000
R13OBJECT
1002
{
1005
63
1002
}
  0
POLYLINE
  8
AM_VIS
  6
CONTINUOUS
 66
     1
 10
0.0
 20
0.0
 30
0.0
 70
     8
  0
VERTEX
  8
AM_VIS
  6
CONTINUOUS
 10
28.385209
 20
84.875656
 30
-0.881197
 70
    32
1001
ACAD
1000
R13OBJECT
1002
{
1005
64
1002
}
  0
VERTEX
  8
AM_VIS
  6
CONTINUOUS
 10
28.413032
 20
84.863315
 30
-0.881197
 70
    32
1001
ACAD
1000
R13OBJECT
1002
{
1005
64
1002
}
  0
VERTEX
  8
AM_VIS
  6
CONTINUOUS
 10
28.43938
 20
84.859073
 30
-0.881197
 70
    32
1001
ACAD
1000
R13OBJECT
1002
{
1005
64
1002
}
  0
SEQEND
  8
AM_VIS
  6
CONTINUOUS
1001
ACAD
1000
R13OBJECT
1002
{
1005
64
1002
}
  0
POLYLINE
  8
AM_VIS
  6
CONTINUOUS
 66
     1
 10
0.0
 20
0.0
 30
0.0
 70
     8
  0
VERTEX
  8
AM_VIS
  6
CONTINUOUS
 10
28.168057
 20
85.204199
 30
-0.881197
 70
    32
1001
ACAD
1000
R13OBJECT
1002
{
1005
65
1002
}
  0
VERTEX
  8
AM_VIS
  6
CONTINUOUS
 10
28.158091
 20
85.117257
 30
-0.881197
 70
    32
1001
ACAD
1000
R13OBJECT
1002
{
1005
65
1002
}
  0
VERTEX
  8
AM_VIS
  6
CONTINUOUS
 10
28.200664
 20
85.013253
 30
-0.881197
 70
    32
1001
ACAD
1000
R13OBJECT
1002
{
1005
65
1002
}
  0
VERTEX
  8
AM_VIS
  6
CONTINUOUS
 10
28.276956
 20
84.938155
 30
-0.881197
 70
    32
1001
ACAD
1000
R13OBJECT
1002
{
1005
65
1002
}
  0
SEQEND
  8
AM_VIS
  6
CONTINUOUS
1001
ACAD
1000
R13OBJECT
1002
{
1005
65
1002
}
  0
LINE
  8
AM_VIS
 10
28.276956
 20
84.938155
 30
-0.881197
 11
28.385209
 21
84.875656
 31
-0.881197
  0
POLYLINE
  8
AM_VIS
  6
CONTINUOUS
 66
     1
 10
0.0
 20
0.0
 30
0.0
 70
     8
  0
VERTEX
  8
AM_VIS
  6
CONTINUOUS
 10
28.385209
 20
83.625666
 30
-0.881197
 70
    32
1001
ACAD
1000
R13OBJECT
1002
{
1005
67
1002
}
  0
VERTEX
  8
AM_VIS
  6
CONTINUOUS
 10
28.413032
 20
83.613325
 30
-0.881197
 70
    32
1001
ACAD
1000
R13OBJECT
1002
{
1005
67
1002
}
  0
VERTEX
  8
AM_VIS
  6
CONTINUOUS
 10
28.43938
 20
83.609083
 30
-0.881197
 70
    32
1001
ACAD
1000
R13OBJECT
1002
{
1005
67
1002
}
  0
SEQEND
  8
AM_VIS
  6
CONTINUOUS
1001
ACAD
1000
R13OBJECT
1002
{
1005
67
1002
}
  0
POLYLINE
  8
AM_VIS
  6
CONTINUOUS
 66
     1
 10
0.0
 20
0.0
 30
0.0
 70
     8
  0
VERTEX
  8
AM_VIS
  6
CONTINUOUS
 10
28.168057
 20
83.954209
 30
-0.881197
 70
    32
1001
ACAD
1000
R13OBJECT
1002
{
1005
68
1002
}
  0
VERTEX
  8
AM_VIS
  6
CONTINUOUS
 10
28.158091
 20
83.867267
 30
-0.881197
 70
    32
1001
ACAD
1000
R13OBJECT
1002
{
1005
68
1002
}
  0
VERTEX
  8
AM_VIS
  6
CONTINUOUS
 10
28.200664
 20
83.763263
 30
-0.881197
 70
    32
1001
ACAD
1000
R13OBJECT
1002
{
1005
68
1002
}
  0
VERTEX
  8
AM_VIS
  6
CONTINUOUS
 10
28.276956
 20
83.688165
 30
-0.881197
 70
    32
1001
ACAD
1000
R13OBJECT
1002
{
1005
68
1002
}
  0
SEQEND
  8
AM_VIS
  6
CONTINUOUS
1001
ACAD
1000
R13OBJECT
1002
{
1005
68
1002
}
  0
LINE
  8
AM_VIS
 10
28.276956
 20
83.688165
 30
-0.881197
 11
28.385209
 21
83.625666
 31
-0.881197
  0
POLYLINE
  8
AM_VIS
  6
CONTINUOUS
 66
     1
 10
0.0
 20
0.0
 30
0.0
 70
     8
  0
VERTEX
  8
AM_VIS
  6
CONTINUOUS
 10
35.949014
 20
78.071211
 30
-0.881197
 70
    32
1001
ACAD
1000
R13OBJECT
1002
{
1005
6A
1002
}
  0
VERTEX
  8
AM_VIS
  6
CONTINUOUS
 10
36.076194
 20
78.178402
 30
-0.881197
 70
    32
1001
ACAD
1000
R13OBJECT
1002
{
1005
6A
1002
}
  0
VERTEX
  8
AM_VIS
  6
CONTINUOUS
 10
36.127718
 20
78.30488
 30
-0.881197
 70
    32
1001
ACAD
1000
R13OBJECT
1002
{
1005
6A
1002
}
  0
VERTEX
  8
AM_VIS
  6
CONTINUOUS
 10
36.096627
 20
78.433564
 30
-0.881197
 70
    32
1001
ACAD
1000
R13OBJECT
1002
{
1005
6A
1002
}
  0
VERTEX
  8
AM_VIS
  6
CONTINUOUS
 10
35.987119
 20
78.547073
 30
-0.881197
 70
    32
1001
ACAD
1000
R13OBJECT
1002
{
1005
6A
1002
}
  0
VERTEX
  8
AM_VIS
  6
CONTINUOUS
 10
35.813985
 20
78.630078
 30
-0.881197
 70
    32
1001
ACAD
1000
R13OBJECT
1002
{
1005
6A
1002
}
  0
VERTEX
  8
AM_VIS
  6
CONTINUOUS
 10
35.600607
 20
78.671369
 30
-0.881197
 70
    32
1001
ACAD
1000
R13OBJECT
1002
{
1005
6A
1002
}
  0
VERTEX
  8
AM_VIS
  6
CONTINUOUS
 10
35.375802
 20
78.665368
 30
-0.881197
 70
    32
1001
ACAD
1000
R13OBJECT
1002
{
1005
6A
1002
}
  0
VERTEX
  8
AM_VIS
  6
CONTINUOUS
 10
35.169933
 20
78.612887
 30
-0.881197
 70
    32
1001
ACAD
1000
R13OBJECT
1002
{
1005
6A
1002
}
  0
VERTEX
  8
AM_VIS
  6
CONTINUOUS
 10
35.010803
 20
78.521013
 30
-0.881197
 70
    32
1001
ACAD
1000
R13OBJECT
1002
{
1005
6A
1002
}
  0
VERTEX
  8
AM_VIS
  6
CONTINUOUS
 10
34.919903
 20
78.402154
 30
-0.881197
 70
    32
1001
ACAD
1000
R13OBJECT
1002
{
1005
6A
1002
}
  0
VERTEX
  8
AM_VIS
  6
CONTINUOUS
 10
34.909509
 20
78.272363
 30
-0.881197
 70
    32
1001
ACAD
1000
R13OBJECT
1002
{
1005
6A
1002
}
  0
VERTEX
  8
AM_VIS
  6
CONTINUOUS
 10
34.981026
 20
78.149169
 30
-0.881197
 70
    32
1001
ACAD
1000
R13OBJECT
1002
{
1005
6A
1002
}
  0
VERTEX
  8
AM_VIS
  6
CONTINUOUS
 10
35.124795
 20
78.04921
 30
-0.881197
 70
    32
1001
ACAD
1000
R13OBJECT
1002
{
1005
6A
1002
}
  0
VERTEX
  8
AM_VIS
  6
CONTINUOUS
 10
35.321399
 20
77.985986
 30
-0.881197
 70
    32
1001
ACAD
1000
R13OBJECT
1002
{
1005
6A
1002
}
  0
VERTEX
  8
AM_VIS
  6
CONTINUOUS
 10
35.544286
 20
77.968035
 30
-0.881197
 70
    32
1001
ACAD
1000
R13OBJECT
1002
{
1005
6A
1002
}
  0
VERTEX
  8
AM_VIS
  6
CONTINUOUS
 10
35.763352
 20
77.997783
 30
-0.881197
 70
    32
1001
ACAD
1000
R13OBJECT
1002
{
1005
6A
1002
}
  0
VERTEX
  8
AM_VIS
  6
CONTINUOUS
 10
35.949014
 20
78.071211
 30
-0.881197
 70
    32
1001
ACAD
1000
R13OBJECT
1002
{
1005
6A
1002
}
  0
SEQEND
  8
AM_VIS
  6
CONTINUOUS
1001
ACAD
1000
R13OBJECT
1002
{
1005
6A
1002
}
  0
POLYLINE
  8
AM_VIS
  6
CONTINUOUS
 66
     1
 10
0.0
 20
0.0
 30
0.0
 70
     8
  0
VERTEX
  8
AM_VIS
  6
CONTINUOUS
 10
36.125874
 20
78.290111
 30
-0.881197
 70
    32
1001
ACAD
1000
R13OBJECT
1002
{
1005
6B
1002
}
  0
VERTEX
  8
AM_VIS
  6
CONTINUOUS
 10
36.062527
 20
78.417695
 30
-0.881197
 70
    32
1001
ACAD
1000
R13OBJECT
1002
{
1005
6B
1002
}
  0
VERTEX
  8
AM_VIS
  6
CONTINUOUS
 10
35.922161
 20
78.522804
 30
-0.881197
 70
    32
1001
ACAD
1000
R13OBJECT
1002
{
1005
6B
1002
}
  0
VERTEX
  8
AM_VIS
  6
CONTINUOUS
 10
35.724557
 20
78.590624
 30
-0.881197
 70
    32
1001
ACAD
1000
R13OBJECT
1002
{
1005
6B
1002
}
  0
VERTEX
  8
AM_VIS
  6
CONTINUOUS
 10
35.497564
 20
78.611599
 30
-0.881197
 70
    32
1001
ACAD
1000
R13OBJECT
1002
{
1005
6B
1002
}
  0
VERTEX
  8
AM_VIS
  6
CONTINUOUS
 10
35.273169
 20
78.582773
 30
-0.881197
 70
    32
1001
ACAD
1000
R13OBJECT
1002
{
1005
6B
1002
}
  0
VERTEX
  8
AM_VIS
  6
CONTINUOUS
 10
35.082995
 20
78.508207
 30
-0.881197
 70
    32
1001
ACAD
1000
R13OBJECT
1002
{
1005
6B
1002
}
  0
SEQEND
  8
AM_VIS
  6
CONTINUOUS
1001
ACAD
1000
R13OBJECT
1002
{
1005
6B
1002
}
  0
POLYLINE
  8
AM_VIS
  6
CONTINUOUS
 66
     1
 10
0.0
 20
0.0
 30
0.0
 70
     8
  0
VERTEX
  8
AM_VIS
  6
CONTINUOUS
 10
35.082995
 20
78.508207
 30
-0.881197
 70
    32
1001
ACAD
1000
R13OBJECT
1002
{
1005
6C
1002
}
  0
VERTEX
  8
AM_VIS
  6
CONTINUOUS
 10
34.96141
 20
78.408119
 30
-0.881197
 70
    32
1001
ACAD
1000
R13OBJECT
1002
{
1005
6C
1002
}
  0
VERTEX
  8
AM_VIS
  6
CONTINUOUS
 10
34.906134
 20
78.290107
 30
-0.881197
 70
    32
1001
ACAD
1000
R13OBJECT
1002
{
1005
6C
1002
}
  0
SEQEND
  8
AM_VIS
  6
CONTINUOUS
1001
ACAD
1000
R13OBJECT
1002
{
1005
6C
1002
}
  0
POLYLINE
  8
AM_VIS
  6
CONTINUOUS
 66
     1
 10
0.0
 20
0.0
 30
0.0
 70
     8
  0
VERTEX
  8
AM_VIS
  6
CONTINUOUS
 10
20.686305
 20
80.070195
 30
-0.881197
 70
    32
1001
ACAD
1000
R13OBJECT
1002
{
1005
6D
1002
}
  0
VERTEX
  8
AM_VIS
  6
CONTINUOUS
 10
20.70349
 20
80.012537
 30
-0.881197
 70
    32
1001
ACAD
1000
R13OBJECT
1002
{
1005
6D
1002
}
  0
VERTEX
  8
AM_VIS
  6
CONTINUOUS
 10
20.749588
 20
79.993028
 30
-0.881197
 70
    32
1001
ACAD
1000
R13OBJECT
1002
{
1005
6D
1002
}
  0
VERTEX
  8
AM_VIS
  6
CONTINUOUS
 10
20.809963
 20
80.017862
 30
-0.881197
 70
    32
1001
ACAD
1000
R13OBJECT
1002
{
1005
6D
1002
}
  0
VERTEX
  8
AM_VIS
  6
CONTINUOUS
 10
20.865447
 20
80.079155
 30
-0.881197
 70
    32
1001
ACAD
1000
R13OBJECT
1002
{
1005
6D
1002
}
  0
VERTEX
  8
AM_VIS
  6
CONTINUOUS
 10
20.898425
 20
80.157446
 30
-0.881197
 70
    32
1001
ACAD
1000
R13OBJECT
1002
{
1005
6D
1002
}
  0
VERTEX
  8
AM_VIS
  6
CONTINUOUS
 10
20.898425
 20
80.227878
 30
-0.881197
 70
    32
1001
ACAD
1000
R13OBJECT
1002
{
1005
6D
1002
}
  0
VERTEX
  8
AM_VIS
  6
CONTINUOUS
 10
20.865447
 20
80.26809
 30
-0.881197
 70
    32
1001
ACAD
1000
R13OBJECT
1002
{
1005
6D
1002
}
  0
VERTEX
  8
AM_VIS
  6
CONTINUOUS
 10
20.809963
 20
80.265315
 30
-0.881197
 70
    32
1001
ACAD
1000
R13OBJECT
1002
{
1005
6D
1002
}
  0
VERTEX
  8
AM_VIS
  6
CONTINUOUS
 10
20.749588
 20
80.220434
 30
-0.881197
 70
    32
1001
ACAD
1000
R13OBJECT
1002
{
1005
6D
1002
}
  0
VERTEX
  8
AM_VIS
  6
CONTINUOUS
 10
20.70349
 20
80.147696
 30
-0.881197
 70
    32
1001
ACAD
1000
R13OBJECT
1002
{
1005
6D
1002
}
  0
VERTEX
  8
AM_VIS
  6
CONTINUOUS
 10
20.686305
 20
80.070195
 30
-0.881197
 70
    32
1001
ACAD
1000
R13OBJECT
1002
{
1005
6D
1002
}
  0
SEQEND
  8
AM_VIS
  6
CONTINUOUS
1001
ACAD
1000
R13OBJECT
1002
{
1005
6D
1002
}
  0
POLYLINE
  8
AM_VIS
  6
CONTINUOUS
 66
     1
 10
0.0
 20
0.0
 30
0.0
 70
     8
  0
VERTEX
  8
AM_VIS
  6
CONTINUOUS
 10
25.882415
 20
83.07017
 30
-0.881197
 70
    32
1001
ACAD
1000
R13OBJECT
1002
{
1005
6E
1002
}
  0
VERTEX
  8
AM_VIS
  6
CONTINUOUS
 10
25.8996
 20
83.012512
 30
-0.881197
 70
    32
1001
ACAD
1000
R13OBJECT
1002
{
1005
6E
1002
}
  0
VERTEX
  8
AM_VIS
  6
CONTINUOUS
 10
25.945698
 20
82.993004
 30
-0.881197
 70
    32
1001
ACAD
1000
R13OBJECT
1002
{
1005
6E
1002
}
  0
VERTEX
  8
AM_VIS
  6
CONTINUOUS
 10
26.006074
 20
83.017838
 30
-0.881197
 70
    32
1001
ACAD
1000
R13OBJECT
1002
{
1005
6E
1002
}
  0
VERTEX
  8
AM_VIS
  6
CONTINUOUS
 10
26.061558
 20
83.07913
 30
-0.881197
 70
    32
1001
ACAD
1000
R13OBJECT
1002
{
1005
6E
1002
}
  0
VERTEX
  8
AM_VIS
  6
CONTINUOUS
 10
26.094535
 20
83.157421
 30
-0.881197
 70
    32
1001
ACAD
1000
R13OBJECT
1002
{
1005
6E
1002
}
  0
VERTEX
  8
AM_VIS
  6
CONTINUOUS
 10
26.094535
 20
83.227854
 30
-0.881197
 70
    32
1001
ACAD
1000
R13OBJECT
1002
{
1005
6E
1002
}
  0
VERTEX
  8
AM_VIS
  6
CONTINUOUS
 10
26.061558
 20
83.268066
 30
-0.881197
 70
    32
1001
ACAD
1000
R13OBJECT
1002
{
1005
6E
1002
}
  0
VERTEX
  8
AM_VIS
  6
CONTINUOUS
 10
26.006074
 20
83.265291
 30
-0.881197
 70
    32
1001
ACAD
1000
R13OBJECT
1002
{
1005
6E
1002
}
  0
VERTEX
  8
AM_VIS
  6
CONTINUOUS
 10
25.945698
 20
83.22041
 30
-0.881197
 70
    32
1001
ACAD
1000
R13OBJECT
1002
{
1005
6E
1002
}
  0
VERTEX
  8
AM_VIS
  6
CONTINUOUS
 10
25.8996
 20
83.147671
 30
-0.881197
 70
    32
1001
ACAD
1000
R13OBJECT
1002
{
1005
6E
1002
}
  0
VERTEX
  8
AM_VIS
  6
CONTINUOUS
 10
25.882415
 20
83.07017
 30
-0.881197
 70
    32
1001
ACAD
1000
R13OBJECT
1002
{
1005
6E
1002
}
  0
SEQEND
  8
AM_VIS
  6
CONTINUOUS
1001
ACAD
1000
R13OBJECT
1002
{
1005
6E
1002
}
  0
POLYLINE
  8
AM_VIS
  6
CONTINUOUS
 66
     1
 10
0.0
 20
0.0
 30
0.0
 70
     8
  0
VERTEX
  8
AM_VIS
  6
CONTINUOUS
 10
28.33065
 20
83.594166
 30
-0.881197
 70
    32
1001
ACAD
1000
R13OBJECT
1002
{
1005
6F
1002
}
  0
VERTEX
  8
AM_VIS
  6
CONTINUOUS
 10
28.402169
 20
83.579707
 30
-0.881197
 70
    32
1001
ACAD
1000
R13OBJECT
1002
{
1005
6F
1002
}
  0
VERTEX
  8
AM_VIS
  6
CONTINUOUS
 10
28.44637
 20
83.624437
 30
-0.881197
 70
    32
1001
ACAD
1000
R13OBJECT
1002
{
1005
6F
1002
}
  0
VERTEX
  8
AM_VIS
  6
CONTINUOUS
 10
28.44637
 20
83.71127
 30
-0.881197
 70
    32
1001
ACAD
1000
R13OBJECT
1002
{
1005
6F
1002
}
  0
VERTEX
  8
AM_VIS
  6
CONTINUOUS
 10
28.402169
 20
83.807039
 30
-0.881197
 70
    32
1001
ACAD
1000
R13OBJECT
1002
{
1005
6F
1002
}
  0
VERTEX
  8
AM_VIS
  6
CONTINUOUS
 10
28.33065
 20
83.875164
 30
-0.881197
 70
    32
1001
ACAD
1000
R13OBJECT
1002
{
1005
6F
1002
}
  0
SEQEND
  8
AM_VIS
  6
CONTINUOUS
1001
ACAD
1000
R13OBJECT
1002
{
1005
6F
1002
}
  0
LINE
  8
AM_VIS
 10
28.33065
 20
83.594166
 30
-0.881197
 11
28.222397
 21
83.656666
 31
-0.881197
  0
POLYLINE
  8
AM_VIS
  6
CONTINUOUS
 66
     1
 10
0.0
 20
0.0
 30
0.0
 70
     8
  0
VERTEX
  8
AM_VIS
  6
CONTINUOUS
 10
28.222397
 20
83.937663
 30
-0.881197
 70
    32
1001
ACAD
1000
R13OBJECT
1002
{
1005
73
1002
}
  0
VERTEX
  8
AM_VIS
  6
CONTINUOUS
 10
28.161559
 20
83.953965
 30
-0.881197
 70
    32
1001
ACAD
1000
R13OBJECT
1002
{
1005
73
1002
}
  0
VERTEX
  8
AM_VIS
  6
CONTINUOUS
 10
28.117023
 20
83.928252
 30
-0.881197
 70
    32
1001
ACAD
1000
R13OBJECT
1002
{
1005
73
1002
}
  0
VERTEX
  8
AM_VIS
  6
CONTINUOUS
 10
28.100722
 20
83.867414
 30
-0.881197
 70
    32
1001
ACAD
1000
R13OBJECT
1002
{
1005
73
1002
}
  0
VERTEX
  8
AM_VIS
  6
CONTINUOUS
 10
28.117023
 20
83.787753
 30
-0.881197
 70
    32
1001
ACAD
1000
R13OBJECT
1002
{
1005
73
1002
}
  0
VERTEX
  8
AM_VIS
  6
CONTINUOUS
 10
28.161559
 20
83.710614
 30
-0.881197
 70
    32
1001
ACAD
1000
R13OBJECT
1002
{
1005
73
1002
}
  0
VERTEX
  8
AM_VIS
  6
CONTINUOUS
 10
28.222397
 20
83.656666
 30
-0.881197
 70
    32
1001
ACAD
1000
R13OBJECT
1002
{
1005
73
1002
}
  0
SEQEND
  8
AM_VIS
  6
CONTINUOUS
1001
ACAD
1000
R13OBJECT
1002
{
1005
73
1002
}
  0
LINE
  8
AM_VIS
 10
28.222397
 20
83.937663
 30
-0.881197
 11
28.33065
 21
83.875164
 31
-0.881197
  0
POLYLINE
  8
AM_VIS
  6
CONTINUOUS
 66
     1
 10
0.0
 20
0.0
 30
0.0
 70
     8
  0
VERTEX
  8
AM_VIS
  6
CONTINUOUS
 10
28.33065
 20
84.844156
 30
-0.881197
 70
    32
1001
ACAD
1000
R13OBJECT
1002
{
1005
75
1002
}
  0
VERTEX
  8
AM_VIS
  6
CONTINUOUS
 10
28.391487
 20
84.827855
 30
-0.881197
 70
    32
1001
ACAD
1000
R13OBJECT
1002
{
1005
75
1002
}
  0
VERTEX
  8
AM_VIS
  6
CONTINUOUS
 10
28.436024
 20
84.853568
 30
-0.881197
 70
    32
1001
ACAD
1000
R13OBJECT
1002
{
1005
75
1002
}
  0
VERTEX
  8
AM_VIS
  6
CONTINUOUS
 10
28.452325
 20
84.914405
 30
-0.881197
 70
    32
1001
ACAD
1000
R13OBJECT
1002
{
1005
75
1002
}
  0
VERTEX
  8
AM_VIS
  6
CONTINUOUS
 10
28.436024
 20
84.994067
 30
-0.881197
 70
    32
1001
ACAD
1000
R13OBJECT
1002
{
1005
75
1002
}
  0
VERTEX
  8
AM_VIS
  6
CONTINUOUS
 10
28.391487
 20
85.071206
 30
-0.881197
 70
    32
1001
ACAD
1000
R13OBJECT
1002
{
1005
75
1002
}
  0
VERTEX
  8
AM_VIS
  6
CONTINUOUS
 10
28.33065
 20
85.125154
 30
-0.881197
 70
    32
1001
ACAD
1000
R13OBJECT
1002
{
1005
75
1002
}
  0
SEQEND
  8
AM_VIS
  6
CONTINUOUS
1001
ACAD
1000
R13OBJECT
1002
{
1005
75
1002
}
  0
LINE
  8
AM_VIS
 10
28.33065
 20
84.844156
 30
-0.881197
 11
28.222397
 21
84.906656
 31
-0.881197
  0
POLYLINE
  8
AM_VIS
  6
CONTINUOUS
 66
     1
 10
0.0
 20
0.0
 30
0.0
 70
     8
  0
VERTEX
  8
AM_VIS
  6
CONTINUOUS
 10
28.222397
 20
85.187653
 30
-0.881197
 70
    32
1001
ACAD
1000
R13OBJECT
1002
{
1005
79
1002
}
  0
VERTEX
  8
AM_VIS
  6
CONTINUOUS
 10
28.161559
 20
85.203955
 30
-0.881197
 70
    32
1001
ACAD
1000
R13OBJECT
1002
{
1005
79
1002
}
  0
VERTEX
  8
AM_VIS
  6
CONTINUOUS
 10
28.117023
 20
85.178242
 30
-0.881197
 70
    32
1001
ACAD
1000
R13OBJECT
1002
{
1005
79
1002
}
  0
VERTEX
  8
AM_VIS
  6
CONTINUOUS
 10
28.100722
 20
85.117404
 30
-0.881197
 70
    32
1001
ACAD
1000
R13OBJECT
1002
{
1005
79
1002
}
  0
VERTEX
  8
AM_VIS
  6
CONTINUOUS
 10
28.117023
 20
85.037743
 30
-0.881197
 70
    32
1001
ACAD
1000
R13OBJECT
1002
{
1005
79
1002
}
  0
VERTEX
  8
AM_VIS
  6
CONTINUOUS
 10
28.161559
 20
84.960604
 30
-0.881197
 70
    32
1001
ACAD
1000
R13OBJECT
1002
{
1005
79
1002
}
  0
VERTEX
  8
AM_VIS
  6
CONTINUOUS
 10
28.222397
 20
84.906656
 30
-0.881197
 70
    32
1001
ACAD
1000
R13OBJECT
1002
{
1005
79
1002
}
  0
SEQEND
  8
AM_VIS
  6
CONTINUOUS
1001
ACAD
1000
R13OBJECT
1002
{
1005
79
1002
}
  0
LINE
  8
AM_VIS
 10
28.222397
 20
85.187653
 30
-0.881197
 11
28.33065
 21
85.125154
 31
-0.881197
  0
LINE
  8
AM_VIS
 10
44.433396
 20
75.547231
 30
-0.881197
 11
44.325144
 21
75.60973
 31
-0.881197
  0
POLYLINE
  8
AM_VIS
  6
CONTINUOUS
 66
     1
 10
0.0
 20
0.0
 30
0.0
 70
     8
  0
VERTEX
  8
AM_VIS
  6
CONTINUOUS
 10
44.325144
 20
75.890728
 30
-0.881197
 70
    32
1001
ACAD
1000
R13OBJECT
1002
{
1005
7E
1002
}
  0
VERTEX
  8
AM_VIS
  6
CONTINUOUS
 10
44.264306
 20
75.90703
 30
-0.881197
 70
    32
1001
ACAD
1000
R13OBJECT
1002
{
1005
7E
1002
}
  0
VERTEX
  8
AM_VIS
  6
CONTINUOUS
 10
44.21977
 20
75.881317
 30
-0.881197
 70
    32
1001
ACAD
1000
R13OBJECT
1002
{
1005
7E
1002
}
  0
VERTEX
  8
AM_VIS
  6
CONTINUOUS
 10
44.203468
 20
75.820479
 30
-0.881197
 70
    32
1001
ACAD
1000
R13OBJECT
1002
{
1005
7E
1002
}
  0
VERTEX
  8
AM_VIS
  6
CONTINUOUS
 10
44.21977
 20
75.740818
 30
-0.881197
 70
    32
1001
ACAD
1000
R13OBJECT
1002
{
1005
7E
1002
}
  0
VERTEX
  8
AM_VIS
  6
CONTINUOUS
 10
44.264306
 20
75.663678
 30
-0.881197
 70
    32
1001
ACAD
1000
R13OBJECT
1002
{
1005
7E
1002
}
  0
VERTEX
  8
AM_VIS
  6
CONTINUOUS
 10
44.325144
 20
75.60973
 30
-0.881197
 70
    32
1001
ACAD
1000
R13OBJECT
1002
{
1005
7E
1002
}
  0
SEQEND
  8
AM_VIS
  6
CONTINUOUS
1001
ACAD
1000
R13OBJECT
1002
{
1005
7E
1002
}
  0
LINE
  8
AM_VIS
 10
44.325144
 20
75.890728
 30
-0.881197
 11
44.433396
 21
75.828229
 31
-0.881197
  0
POLYLINE
  8
AM_VIS
  6
CONTINUOUS
 66
     1
 10
0.0
 20
0.0
 30
0.0
 70
     8
  0
VERTEX
  8
AM_VIS
  6
CONTINUOUS
 10
44.433396
 20
75.547231
 30
-0.881197
 70
    32
1001
ACAD
1000
R13OBJECT
1002
{
1005
80
1002
}
  0
VERTEX
  8
AM_VIS
  6
CONTINUOUS
 10
44.504915
 20
75.532772
 30
-0.881197
 70
    32
1001
ACAD
1000
R13OBJECT
1002
{
1005
80
1002
}
  0
VERTEX
  8
AM_VIS
  6
CONTINUOUS
 10
44.549116
 20
75.577502
 30
-0.881197
 70
    32
1001
ACAD
1000
R13OBJECT
1002
{
1005
80
1002
}
  0
VERTEX
  8
AM_VIS
  6
CONTINUOUS
 10
44.549116
 20
75.664335
 30
-0.881197
 70
    32
1001
ACAD
1000
R13OBJECT
1002
{
1005
80
1002
}
  0
VERTEX
  8
AM_VIS
  6
CONTINUOUS
 10
44.504915
 20
75.760104
 30
-0.881197
 70
    32
1001
ACAD
1000
R13OBJECT
1002
{
1005
80
1002
}
  0
VERTEX
  8
AM_VIS
  6
CONTINUOUS
 10
44.433396
 20
75.828229
 30
-0.881197
 70
    32
1001
ACAD
1000
R13OBJECT
1002
{
1005
80
1002
}
  0
SEQEND
  8
AM_VIS
  6
CONTINUOUS
1001
ACAD
1000
R13OBJECT
1002
{
1005
80
1002
}
  0
LINE
  8
AM_VIS
 10
27.668145
 20
83.883164
 30
-0.881197
 11
28.669263
 21
83.305168
 31
-0.881197
  0
LINE
  8
AM_VIS
 10
28.669263
 20
83.305168
 30
-0.881197
 11
28.723822
 21
83.336668
 31
-0.881197
  0
LINE
  8
AM_VIS
 10
43.986531
 20
76.179726
 30
-0.881197
 11
43.986531
 21
75.023091
 31
-0.881197
  0
LINE
  8
AM_VIS
 10
28.669263
 20
85.023155
 30
-0.881197
 11
28.723822
 21
85.054654
 31
-0.881197
  0
LINE
  8
AM_VIS
 10
28.669263
 20
85.023155
 30
-0.881197
 11
28.669263
 21
83.305168
 31
-0.881197
  0
LINE
  8
AM_VIS
 10
27.668145
 20
85.60115
 30
-0.881197
 11
28.669263
 21
85.023155
 31
-0.881197
  0
LINE
  8
AM_VIS
 10
27.668145
 20
85.60115
 30
-0.881197
 11
27.668145
 21
83.883164
 31
-0.881197
  0
LINE
  8
AM_VIS
 10
27.722705
 20
83.820664
 30
-0.881197
 11
19.13007
 21
78.859704
 31
-0.881197
  0
LINE
  8
AM_VIS
 10
25.990668
 20
84.632658
 30
-0.881197
 11
27.668145
 21
85.60115
 31
-0.881197
  0
POLYLINE
  8
AM_VIS
  6
CONTINUOUS
 66
     1
 10
0.0
 20
0.0
 30
0.0
 70
     8
  0
VERTEX
  8
AM_VIS
  6
CONTINUOUS
 10
44.131972
 20
66.493678
 30
-0.881197
 70
    32
1001
ACAD
1000
R13OBJECT
1002
{
1005
8A
1002
}
  0
VERTEX
  8
AM_VIS
  6
CONTINUOUS
 10
44.195815
 20
66.521707
 30
-0.881197
 70
    32
1001
ACAD
1000
R13OBJECT
1002
{
1005
8A
1002
}
  0
VERTEX
  8
AM_VIS
  6
CONTINUOUS
 10
44.252733
 20
66.589107
 30
-0.881197
 70
    32
1001
ACAD
1000
R13OBJECT
1002
{
1005
8A
1002
}
  0
VERTEX
  8
AM_VIS
  6
CONTINUOUS
 10
44.282646
 20
66.672099
 30
-0.881197
 70
    32
1001
ACAD
1000
R13OBJECT
1002
{
1005
8A
1002
}
  0
VERTEX
  8
AM_VIS
  6
CONTINUOUS
 10
44.275
 20
66.741405
 30
-0.881197
 70
    32
1001
ACAD
1000
R13OBJECT
1002
{
1005
8A
1002
}
  0
SEQEND
  8
AM_VIS
  6
CONTINUOUS
1001
ACAD
1000
R13OBJECT
1002
{
1005
8A
1002
}
  0
POLYLINE
  8
AM_VIS
  6
CONTINUOUS
 66
     1
 10
0.0
 20
0.0
 30
0.0
 70
     8
  0
VERTEX
  8
AM_VIS
  6
CONTINUOUS
 10
44.122495
 20
66.539304
 30
-0.881197
 70
    32
1001
ACAD
1000
R13OBJECT
1002
{
1005
8B
1002
}
  0
VERTEX
  8
AM_VIS
  6
CONTINUOUS
 10
44.13968
 20
66.481646
 30
-0.881197
 70
    32
1001
ACAD
1000
R13OBJECT
1002
{
1005
8B
1002
}
  0
VERTEX
  8
AM_VIS
  6
CONTINUOUS
 10
44.185778
 20
66.462137
 30
-0.881197
 70
    32
1001
ACAD
1000
R13OBJECT
1002
{
1005
8B
1002
}
  0
VERTEX
  8
AM_VIS
  6
CONTINUOUS
 10
44.246154
 20
66.486971
 30
-0.881197
 70
    32
1001
ACAD
1000
R13OBJECT
1002
{
1005
8B
1002
}
  0
VERTEX
  8
AM_VIS
  6
CONTINUOUS
 10
44.301638
 20
66.548264
 30
-0.881197
 70
    32
1001
ACAD
1000
R13OBJECT
1002
{
1005
8B
1002
}
  0
VERTEX
  8
AM_VIS
  6
CONTINUOUS
 10
44.334615
 20
66.626555
 30
-0.881197
 70
    32
1001
ACAD
1000
R13OBJECT
1002
{
1005
8B
1002
}
  0
VERTEX
  8
AM_VIS
  6
CONTINUOUS
 10
44.334615
 20
66.696987
 30
-0.881197
 70
    32
1001
ACAD
1000
R13OBJECT
1002
{
1005
8B
1002
}
  0
VERTEX
  8
AM_VIS
  6
CONTINUOUS
 10
44.301638
 20
66.737199
 30
-0.881197
 70
    32
1001
ACAD
1000
R13OBJECT
1002
{
1005
8B
1002
}
  0
VERTEX
  8
AM_VIS
  6
CONTINUOUS
 10
44.246154
 20
66.734424
 30
-0.881197
 70
    32
1001
ACAD
1000
R13OBJECT
1002
{
1005
8B
1002
}
  0
VERTEX
  8
AM_VIS
  6
CONTINUOUS
 10
44.185778
 20
66.689543
 30
-0.881197
 70
    32
1001
ACAD
1000
R13OBJECT
1002
{
1005
8B
1002
}
  0
VERTEX
  8
AM_VIS
  6
CONTINUOUS
 10
44.13968
 20
66.616805
 30
-0.881197
 70
    32
1001
ACAD
1000
R13OBJECT
1002
{
1005
8B
1002
}
  0
VERTEX
  8
AM_VIS
  6
CONTINUOUS
 10
44.122495
 20
66.539304
 30
-0.881197
 70
    32
1001
ACAD
1000
R13OBJECT
1002
{
1005
8B
1002
}
  0
SEQEND
  8
AM_VIS
  6
CONTINUOUS
1001
ACAD
1000
R13OBJECT
1002
{
1005
8B
1002
}
  0
POLYLINE
  8
AM_VIS
  6
CONTINUOUS
 66
     1
 10
0.0
 20
0.0
 30
0.0
 70
     8
  0
VERTEX
  8
AM_VIS
  6
CONTINUOUS
 10
49.328083
 20
69.493654
 30
-0.881197
 70
    32
1001
ACAD
1000
R13OBJECT
1002
{
1005
8C
1002
}
  0
VERTEX
  8
AM_VIS
  6
CONTINUOUS
 10
49.391925
 20
69.521682
 30
-0.881197
 70
    32
1001
ACAD
1000
R13OBJECT
1002
{
1005
8C
1002
}
  0
VERTEX
  8
AM_VIS
  6
CONTINUOUS
 10
49.448844
 20
69.589083
 30
-0.881197
 70
    32
1001
ACAD
1000
R13OBJECT
1002
{
1005
8C
1002
}
  0
VERTEX
  8
AM_VIS
  6
CONTINUOUS
 10
49.478757
 20
69.672075
 30
-0.881197
 70
    32
1001
ACAD
1000
R13OBJECT
1002
{
1005
8C
1002
}
  0
VERTEX
  8
AM_VIS
  6
CONTINUOUS
 10
49.471111
 20
69.74138
 30
-0.881197
 70
    32
1001
ACAD
1000
R13OBJECT
1002
{
1005
8C
1002
}
  0
SEQEND
  8
AM_VIS
  6
CONTINUOUS
1001
ACAD
1000
R13OBJECT
1002
{
1005
8C
1002
}
  0
POLYLINE
  8
AM_VIS
  6
CONTINUOUS
 66
     1
 10
0.0
 20
0.0
 30
0.0
 70
     8
  0
VERTEX
  8
AM_VIS
  6
CONTINUOUS
 10
49.318606
 20
69.539279
 30
-0.881197
 70
    32
1001
ACAD
1000
R13OBJECT
1002
{
1005
8D
1002
}
  0
VERTEX
  8
AM_VIS
  6
CONTINUOUS
 10
49.335791
 20
69.481621
 30
-0.881197
 70
    32
1001
ACAD
1000
R13OBJECT
1002
{
1005
8D
1002
}
  0
VERTEX
  8
AM_VIS
  6
CONTINUOUS
 10
49.381889
 20
69.462113
 30
-0.881197
 70
    32
1001
ACAD
1000
R13OBJECT
1002
{
1005
8D
1002
}
  0
VERTEX
  8
AM_VIS
  6
CONTINUOUS
 10
49.442264
 20
69.486947
 30
-0.881197
 70
    32
1001
ACAD
1000
R13OBJECT
1002
{
1005
8D
1002
}
  0
VERTEX
  8
AM_VIS
  6
CONTINUOUS
 10
49.497748
 20
69.548239
 30
-0.881197
 70
    32
1001
ACAD
1000
R13OBJECT
1002
{
1005
8D
1002
}
  0
VERTEX
  8
AM_VIS
  6
CONTINUOUS
 10
49.530726
 20
69.62653
 30
-0.881197
 70
    32
1001
ACAD
1000
R13OBJECT
1002
{
1005
8D
1002
}
  0
VERTEX
  8
AM_VIS
  6
CONTINUOUS
 10
49.530726
 20
69.696963
 30
-0.881197
 70
    32
1001
ACAD
1000
R13OBJECT
1002
{
1005
8D
1002
}
  0
VERTEX
  8
AM_VIS
  6
CONTINUOUS
 10
49.497748
 20
69.737175
 30
-0.881197
 70
    32
1001
ACAD
1000
R13OBJECT
1002
{
1005
8D
1002
}
  0
VERTEX
  8
AM_VIS
  6
CONTINUOUS
 10
49.442264
 20
69.7344
 30
-0.881197
 70
    32
1001
ACAD
1000
R13OBJECT
1002
{
1005
8D
1002
}
  0
VERTEX
  8
AM_VIS
  6
CONTINUOUS
 10
49.381889
 20
69.689519
 30
-0.881197
 70
    32
1001
ACAD
1000
R13OBJECT
1002
{
1005
8D
1002
}
  0
VERTEX
  8
AM_VIS
  6
CONTINUOUS
 10
49.335791
 20
69.616781
 30
-0.881197
 70
    32
1001
ACAD
1000
R13OBJECT
1002
{
1005
8D
1002
}
  0
VERTEX
  8
AM_VIS
  6
CONTINUOUS
 10
49.318606
 20
69.539279
 30
-0.881197
 70
    32
1001
ACAD
1000
R13OBJECT
1002
{
1005
8D
1002
}
  0
SEQEND
  8
AM_VIS
  6
CONTINUOUS
1001
ACAD
1000
R13OBJECT
1002
{
1005
8D
1002
}
  0
LINE
  8
AM_VIS
 10
50.725886
 20
70.72677
 30
-0.881197
 11
42.93172
 21
66.226806
 31
-0.881197
  0
LINE
  8
AM_VIS
 10
42.93172
 20
65.476812
 30
-0.881197
 11
42.93172
 21
66.226806
 31
-0.881197
  0
LINE
  8
AM_VIS
 10
42.93172
 20
65.476812
 30
-0.881197
 11
50.725886
 21
69.976776
 31
-0.881197
  0
LINE
  8
AM_VIS
 10
50.725886
 20
69.976776
 30
-0.881197
 11
50.725886
 21
70.72677
 31
-0.881197
  0
LINE
  8
AM_VIS
 10
42.93172
 20
66.226806
 30
-0.881197
 11
36.869591
 21
69.726778
 31
-0.881197
  0
LINE
  8
AM_VIS
 10
36.869591
 20
68.976784
 30
-0.881197
 11
36.869591
 21
69.726778
 31
-0.881197
  0
LINE
  8
AM_VIS
 10
36.869591
 20
68.976784
 30
-0.881197
 11
42.93172
 21
65.476812
 31
-0.881197
  0
LINE
  8
AM_VIS
 10
36.869591
 20
69.726778
 30
-0.881197
 11
44.663757
 21
74.226742
 31
-0.881197
  0
LINE
  8
AM_VIS
 10
44.663757
 20
74.226742
 30
-0.881197
 11
50.725886
 21
70.72677
 31
-0.881197
  0
LINE
  8
AM_VIS
 10
36.350316
 20
68.500205
 30
-0.881197
 11
36.404876
 21
68.531705
 31
-0.881197
  0
LINE
  8
AM_VIS
 10
32.251263
 20
39.62932
 30
0.0
 11
32.251263
 21
38.748618
 31
0.0
  0
POLYLINE
  8
AM_VIS
  6
CONTINUOUS
 66
     1
 10
0.0
 20
0.0
 30
0.0
 70
     8
  0
VERTEX
  8
AM_VIS
  6
CONTINUOUS
 10
32.607408
 20
39.236547
 30
0.0
 70
    32
1001
ACAD
1000
R13OBJECT
1002
{
1005
4DE
1002
}
  0
VERTEX
  8
AM_VIS
  6
CONTINUOUS
 10
32.574526
 20
39.204402
 30
0.0
 70
    32
1001
ACAD
1000
R13OBJECT
1002
{
1005
4DE
1002
}
  0
VERTEX
  8
AM_VIS
  6
CONTINUOUS
 10
32.549437
 20
39.162068
 30
0.0
 70
    32
1001
ACAD
1000
R13OBJECT
1002
{
1005
4DE
1002
}
  0
VERTEX
  8
AM_VIS
  6
CONTINUOUS
 10
32.536751
 20
39.117325
 30
0.0
 70
    32
1001
ACAD
1000
R13OBJECT
1002
{
1005
4DE
1002
}
  0
VERTEX
  8
AM_VIS
  6
CONTINUOUS
 10
32.538797
 20
39.078391
 30
0.0
 70
    32
1001
ACAD
1000
R13OBJECT
1002
{
1005
4DE
1002
}
  0
VERTEX
  8
AM_VIS
  6
CONTINUOUS
 10
32.555201
 20
39.052421
 30
0.0
 70
    32
1001
ACAD
1000
R13OBJECT
1002
{
1005
4DE
1002
}
  0
VERTEX
  8
AM_VIS
  6
CONTINUOUS
 10
32.582947
 20
39.044187
 30
0.0
 70
    32
1001
ACAD
1000
R13OBJECT
1002
{
1005
4DE
1002
}
  0
VERTEX
  8
AM_VIS
  6
CONTINUOUS
 10
32.616939
 20
39.0552
 30
0.0
 70
    32
1001
ACAD
1000
R13OBJECT
1002
{
1005
4DE
1002
}
  0
SEQEND
  8
AM_VIS
  6
CONTINUOUS
1001
ACAD
1000
R13OBJECT
1002
{
1005
4DE
1002
}
  0
LINE
  8
AM_VIS
 10
32.57602
 20
39.078824
 30
0.0
 11
32.616939
 21
39.0552
 31
0.0
  0
POLYLINE
  8
AM_VIS
  6
CONTINUOUS
 66
     1
 10
0.0
 20
0.0
 30
0.0
 70
     8
  0
VERTEX
  8
AM_VIS
  6
CONTINUOUS
 10
32.542859
 20
39.067855
 30
0.0
 70
    32
1001
ACAD
1000
R13OBJECT
1002
{
1005
4E0
1002
}
  0
VERTEX
  8
AM_VIS
  6
CONTINUOUS
 10
32.559066
 20
39.071103
 30
0.0
 70
    32
1001
ACAD
1000
R13OBJECT
1002
{
1005
4E0
1002
}
  0
VERTEX
  8
AM_VIS
  6
CONTINUOUS
 10
32.57602
 20
39.078824
 30
0.0
 70
    32
1001
ACAD
1000
R13OBJECT
1002
{
1005
4E0
1002
}
  0
SEQEND
  8
AM_VIS
  6
CONTINUOUS
1001
ACAD
1000
R13OBJECT
1002
{
1005
4E0
1002
}
  0
LINE
  8
AM_VIS
 10
32.698135
 20
39.102078
 30
0.0
 11
32.616939
 21
39.0552
 31
0.0
  0
LINE
  8
AM_VIS
 10
32.57602
 20
39.078824
 30
0.0
 11
32.698136
 21
39.149328
 31
0.0
  0
LINE
  8
AM_VIS
 10
34.605751
 20
40.519938
 30
0.0
 11
34.605751
 21
40.472688
 31
0.0
  0
LINE
  8
AM_VIS
 10
32.657209
 20
39.394947
 30
0.0
 11
34.605751
 21
40.519938
 31
0.0
  0
LINE
  8
AM_VIS
 10
32.657209
 20
39.347697
 30
0.0
 11
32.657209
 21
39.394947
 31
0.0
  0
LINE
  8
AM_VIS
 10
32.657209
 20
39.347697
 30
0.0
 11
34.605751
 21
40.472688
 31
0.0
  0
LINE
  8
AM_VIS
 10
32.292183
 20
39.558446
 30
0.0
 11
32.657209
 21
39.347697
 31
0.0
  0
LINE
  8
AM_VIS
 10
32.292183
 20
38.772245
 30
0.0
 11
32.292183
 21
39.558446
 31
0.0
  0
LINE
  8
AM_VIS
 10
34.199805
 20
40.754311
 30
0.0
 11
34.605751
 21
40.519938
 31
0.0
  0
LINE
  8
AM_VIS
 10
32.251263
 20
39.62932
 30
0.0
 11
34.199805
 21
40.754311
 31
0.0
  0
LINE
  8
AM_VIS
 10
32.657209
 20
39.394947
 30
0.0
 11
32.251263
 21
39.62932
 31
0.0
  0
POLYLINE
  8
AM_VIS
  6
CONTINUOUS
 66
     1
 10
0.0
 20
0.0
 30
0.0
 70
     8
  0
VERTEX
  8
AM_VIS
  6
CONTINUOUS
 10
46.25673
 20
47.117635
 30
0.0
 70
    32
1001
ACAD
1000
R13OBJECT
1002
{
1005
4EC
1002
}
  0
VERTEX
  8
AM_VIS
  6
CONTINUOUS
 10
46.221503
 20
47.088012
 30
0.0
 70
    32
1001
ACAD
1000
R13OBJECT
1002
{
1005
4EC
1002
}
  0
VERTEX
  8
AM_VIS
  6
CONTINUOUS
 10
46.193253
 20
47.045689
 30
0.0
 70
    32
1001
ACAD
1000
R13OBJECT
1002
{
1005
4EC
1002
}
  0
VERTEX
  8
AM_VIS
  6
CONTINUOUS
 10
46.177576
 20
46.999047
 30
0.0
 70
    32
1001
ACAD
1000
R13OBJECT
1002
{
1005
4EC
1002
}
  0
VERTEX
  8
AM_VIS
  6
CONTINUOUS
 10
46.177576
 20
46.957325
 30
0.0
 70
    32
1001
ACAD
1000
R13OBJECT
1002
{
1005
4EC
1002
}
  0
VERTEX
  8
AM_VIS
  6
CONTINUOUS
 10
46.193253
 20
46.928786
 30
0.0
 70
    32
1001
ACAD
1000
R13OBJECT
1002
{
1005
4EC
1002
}
  0
VERTEX
  8
AM_VIS
  6
CONTINUOUS
 10
46.221503
 20
46.919082
 30
0.0
 70
    32
1001
ACAD
1000
R13OBJECT
1002
{
1005
4EC
1002
}
  0
VERTEX
  8
AM_VIS
  6
CONTINUOUS
 10
46.25673
 20
46.930136
 30
0.0
 70
    32
1001
ACAD
1000
R13OBJECT
1002
{
1005
4EC
1002
}
  0
SEQEND
  8
AM_VIS
  6
CONTINUOUS
1001
ACAD
1000
R13OBJECT
1002
{
1005
4EC
1002
}
  0
LINE
  8
AM_VIS
 10
46.25673
 20
47.117635
 30
0.0
 11
46.906243
 21
47.492632
 31
0.0
  0
POLYLINE
  8
AM_VIS
  6
CONTINUOUS
 66
     1
 10
0.0
 20
0.0
 30
0.0
 70
     8
  0
VERTEX
  8
AM_VIS
  6
CONTINUOUS
 10
46.906243
 20
47.305133
 30
0.0
 70
    32
1001
ACAD
1000
R13OBJECT
1002
{
1005
4EE
1002
}
  0
VERTEX
  8
AM_VIS
  6
CONTINUOUS
 10
46.94147
 20
47.334755
 30
0.0
 70
    32
1001
ACAD
1000
R13OBJECT
1002
{
1005
4EE
1002
}
  0
VERTEX
  8
AM_VIS
  6
CONTINUOUS
 10
46.96972
 20
47.377079
 30
0.0
 70
    32
1001
ACAD
1000
R13OBJECT
1002
{
1005
4EE
1002
}
  0
VERTEX
  8
AM_VIS
  6
CONTINUOUS
 10
46.985397
 20
47.423721
 30
0.0
 70
    32
1001
ACAD
1000
R13OBJECT
1002
{
1005
4EE
1002
}
  0
VERTEX
  8
AM_VIS
  6
CONTINUOUS
 10
46.985397
 20
47.465443
 30
0.0
 70
    32
1001
ACAD
1000
R13OBJECT
1002
{
1005
4EE
1002
}
  0
VERTEX
  8
AM_VIS
  6
CONTINUOUS
 10
46.96972
 20
47.493982
 30
0.0
 70
    32
1001
ACAD
1000
R13OBJECT
1002
{
1005
4EE
1002
}
  0
VERTEX
  8
AM_VIS
  6
CONTINUOUS
 10
46.94147
 20
47.503686
 30
0.0
 70
    32
1001
ACAD
1000
R13OBJECT
1002
{
1005
4EE
1002
}
  0
VERTEX
  8
AM_VIS
  6
CONTINUOUS
 10
46.906243
 20
47.492632
 30
0.0
 70
    32
1001
ACAD
1000
R13OBJECT
1002
{
1005
4EE
1002
}
  0
SEQEND
  8
AM_VIS
  6
CONTINUOUS
1001
ACAD
1000
R13OBJECT
1002
{
1005
4EE
1002
}
  0
LINE
  8
AM_VIS
 10
46.906243
 20
47.305133
 30
0.0
 11
46.25673
 21
46.930136
 31
0.0
  0
POLYLINE
  8
AM_VIS
  6
CONTINUOUS
 66
     1
 10
0.0
 20
0.0
 30
0.0
 70
     8
  0
VERTEX
  8
AM_VIS
  6
CONTINUOUS
 10
47.149811
 20
47.633255
 30
0.0
 70
    32
1001
ACAD
1000
R13OBJECT
1002
{
1005
4F0
1002
}
  0
VERTEX
  8
AM_VIS
  6
CONTINUOUS
 10
47.114584
 20
47.603633
 30
0.0
 70
    32
1001
ACAD
1000
R13OBJECT
1002
{
1005
4F0
1002
}
  0
VERTEX
  8
AM_VIS
  6
CONTINUOUS
 10
47.086335
 20
47.56131
 30
0.0
 70
    32
1001
ACAD
1000
R13OBJECT
1002
{
1005
4F0
1002
}
  0
VERTEX
  8
AM_VIS
  6
CONTINUOUS
 10
47.070657
 20
47.514668
 30
0.0
 70
    32
1001
ACAD
1000
R13OBJECT
1002
{
1005
4F0
1002
}
  0
VERTEX
  8
AM_VIS
  6
CONTINUOUS
 10
47.070657
 20
47.472946
 30
0.0
 70
    32
1001
ACAD
1000
R13OBJECT
1002
{
1005
4F0
1002
}
  0
VERTEX
  8
AM_VIS
  6
CONTINUOUS
 10
47.086335
 20
47.444406
 30
0.0
 70
    32
1001
ACAD
1000
R13OBJECT
1002
{
1005
4F0
1002
}
  0
VERTEX
  8
AM_VIS
  6
CONTINUOUS
 10
47.114584
 20
47.434703
 30
0.0
 70
    32
1001
ACAD
1000
R13OBJECT
1002
{
1005
4F0
1002
}
  0
VERTEX
  8
AM_VIS
  6
CONTINUOUS
 10
47.149811
 20
47.445757
 30
0.0
 70
    32
1001
ACAD
1000
R13OBJECT
1002
{
1005
4F0
1002
}
  0
SEQEND
  8
AM_VIS
  6
CONTINUOUS
1001
ACAD
1000
R13OBJECT
1002
{
1005
4F0
1002
}
  0
LINE
  8
AM_VIS
 10
47.149811
 20
47.633255
 30
0.0
 11
47.474568
 21
47.820754
 31
0.0
  0
POLYLINE
  8
AM_VIS
  6
CONTINUOUS
 66
     1
 10
0.0
 20
0.0
 30
0.0
 70
     8
  0
VERTEX
  8
AM_VIS
  6
CONTINUOUS
 10
47.474568
 20
47.633255
 30
0.0
 70
    32
1001
ACAD
1000
R13OBJECT
1002
{
1005
4F2
1002
}
  0
VERTEX
  8
AM_VIS
  6
CONTINUOUS
 10
47.509795
 20
47.662878
 30
0.0
 70
    32
1001
ACAD
1000
R13OBJECT
1002
{
1005
4F2
1002
}
  0
VERTEX
  8
AM_VIS
  6
CONTINUOUS
 10
47.538044
 20
47.705201
 30
0.0
 70
    32
1001
ACAD
1000
R13OBJECT
1002
{
1005
4F2
1002
}
  0
VERTEX
  8
AM_VIS
  6
CONTINUOUS
 10
47.553722
 20
47.751843
 30
0.0
 70
    32
1001
ACAD
1000
R13OBJECT
1002
{
1005
4F2
1002
}
  0
VERTEX
  8
AM_VIS
  6
CONTINUOUS
 10
47.553722
 20
47.793565
 30
0.0
 70
    32
1001
ACAD
1000
R13OBJECT
1002
{
1005
4F2
1002
}
  0
VERTEX
  8
AM_VIS
  6
CONTINUOUS
 10
47.538044
 20
47.822104
 30
0.0
 70
    32
1001
ACAD
1000
R13OBJECT
1002
{
1005
4F2
1002
}
  0
VERTEX
  8
AM_VIS
  6
CONTINUOUS
 10
47.509795
 20
47.831808
 30
0.0
 70
    32
1001
ACAD
1000
R13OBJECT
1002
{
1005
4F2
1002
}
  0
VERTEX
  8
AM_VIS
  6
CONTINUOUS
 10
47.474568
 20
47.820754
 30
0.0
 70
    32
1001
ACAD
1000
R13OBJECT
1002
{
1005
4F2
1002
}
  0
SEQEND
  8
AM_VIS
  6
CONTINUOUS
1001
ACAD
1000
R13OBJECT
1002
{
1005
4F2
1002
}
  0
LINE
  8
AM_VIS
 10
47.474568
 20
47.633255
 30
0.0
 11
47.149811
 21
47.445757
 31
0.0
  0
LINE
  8
AM_VIS
 10
47.718136
 20
48.043078
 30
0.0
 11
47.718136
 21
47.387632
 31
0.0
  0
LINE
  8
AM_VIS
 10
36.676401
 20
41.85566
 30
0.0
 11
36.676401
 21
42.089675
 31
0.0
  0
LINE
  8
AM_VIS
 10
43.171546
 20
44.762658
 30
0.0
 11
47.718136
 21
47.387632
 31
0.0
  0
POLYLINE
  8
AM_VIS
  6
CONTINUOUS
 66
     1
 10
0.0
 20
0.0
 30
0.0
 70
     8
  0
VERTEX
  8
AM_VIS
  6
CONTINUOUS
 10
44.155228
 20
44.300095
 30
0.0
 70
    32
1001
ACAD
1000
R13OBJECT
1002
{
1005
4F7
1002
}
  0
VERTEX
  8
AM_VIS
  6
CONTINUOUS
 10
44.200317
 20
44.285065
 30
0.0
 70
    32
1001
ACAD
1000
R13OBJECT
1002
{
1005
4F7
1002
}
  0
VERTEX
  8
AM_VIS
  6
CONTINUOUS
 10
44.252382
 20
44.285065
 30
0.0
 70
    32
1001
ACAD
1000
R13OBJECT
1002
{
1005
4F7
1002
}
  0
VERTEX
  8
AM_VIS
  6
CONTINUOUS
 10
44.297471
 20
44.300095
 30
0.0
 70
    32
1001
ACAD
1000
R13OBJECT
1002
{
1005
4F7
1002
}
  0
VERTEX
  8
AM_VIS
  6
CONTINUOUS
 10
44.323504
 20
44.326127
 30
0.0
 70
    32
1001
ACAD
1000
R13OBJECT
1002
{
1005
4F7
1002
}
  0
VERTEX
  8
AM_VIS
  6
CONTINUOUS
 10
44.323504
 20
44.356187
 30
0.0
 70
    32
1001
ACAD
1000
R13OBJECT
1002
{
1005
4F7
1002
}
  0
VERTEX
  8
AM_VIS
  6
CONTINUOUS
 10
44.297471
 20
44.382219
 30
0.0
 70
    32
1001
ACAD
1000
R13OBJECT
1002
{
1005
4F7
1002
}
  0
SEQEND
  8
AM_VIS
  6
CONTINUOUS
1001
ACAD
1000
R13OBJECT
1002
{
1005
4F7
1002
}
  0
LINE
  8
AM_VIS
 10
44.155228
 20
44.300095
 30
0.0
 11
44.074038
 21
44.346969
 31
0.0
  0
POLYLINE
  8
AM_VIS
  6
CONTINUOUS
 66
     1
 10
0.0
 20
0.0
 30
0.0
 70
     8
  0
VERTEX
  8
AM_VIS
  6
CONTINUOUS
 10
44.216282
 20
44.429094
 30
0.0
 70
    32
1001
ACAD
1000
R13OBJECT
1002
{
1005
4F9
1002
}
  0
VERTEX
  8
AM_VIS
  6
CONTINUOUS
 10
44.171193
 20
44.444124
 30
0.0
 70
    32
1001
ACAD
1000
R13OBJECT
1002
{
1005
4F9
1002
}
  0
VERTEX
  8
AM_VIS
  6
CONTINUOUS
 10
44.119128
 20
44.444124
 30
0.0
 70
    32
1001
ACAD
1000
R13OBJECT
1002
{
1005
4F9
1002
}
  0
VERTEX
  8
AM_VIS
  6
CONTINUOUS
 10
44.074038
 20
44.429094
 30
0.0
 70
    32
1001
ACAD
1000
R13OBJECT
1002
{
1005
4F9
1002
}
  0
VERTEX
  8
AM_VIS
  6
CONTINUOUS
 10
44.048006
 20
44.403061
 30
0.0
 70
    32
1001
ACAD
1000
R13OBJECT
1002
{
1005
4F9
1002
}
  0
VERTEX
  8
AM_VIS
  6
CONTINUOUS
 10
44.048006
 20
44.373002
 30
0.0
 70
    32
1001
ACAD
1000
R13OBJECT
1002
{
1005
4F9
1002
}
  0
VERTEX
  8
AM_VIS
  6
CONTINUOUS
 10
44.074038
 20
44.346969
 30
0.0
 70
    32
1001
ACAD
1000
R13OBJECT
1002
{
1005
4F9
1002
}
  0
SEQEND
  8
AM_VIS
  6
CONTINUOUS
1001
ACAD
1000
R13OBJECT
1002
{
1005
4F9
1002
}
  0
LINE
  8
AM_VIS
 10
44.216282
 20
44.429094
 30
0.0
 11
44.297471
 21
44.382219
 31
0.0
  0
POLYLINE
  8
AM_VIS
  6
CONTINUOUS
 66
     1
 10
0.0
 20
0.0
 30
0.0
 70
     8
  0
VERTEX
  8
AM_VIS
  6
CONTINUOUS
 10
45.616634
 20
45.143838
 30
0.0
 70
    32
1001
ACAD
1000
R13OBJECT
1002
{
1005
4FB
1002
}
  0
VERTEX
  8
AM_VIS
  6
CONTINUOUS
 10
45.661723
 20
45.128808
 30
0.0
 70
    32
1001
ACAD
1000
R13OBJECT
1002
{
1005
4FB
1002
}
  0
VERTEX
  8
AM_VIS
  6
CONTINUOUS
 10
45.713788
 20
45.128808
 30
0.0
 70
    32
1001
ACAD
1000
R13OBJECT
1002
{
1005
4FB
1002
}
  0
VERTEX
  8
AM_VIS
  6
CONTINUOUS
 10
45.758877
 20
45.143838
 30
0.0
 70
    32
1001
ACAD
1000
R13OBJECT
1002
{
1005
4FB
1002
}
  0
VERTEX
  8
AM_VIS
  6
CONTINUOUS
 10
45.78491
 20
45.16987
 30
0.0
 70
    32
1001
ACAD
1000
R13OBJECT
1002
{
1005
4FB
1002
}
  0
VERTEX
  8
AM_VIS
  6
CONTINUOUS
 10
45.78491
 20
45.19993
 30
0.0
 70
    32
1001
ACAD
1000
R13OBJECT
1002
{
1005
4FB
1002
}
  0
VERTEX
  8
AM_VIS
  6
CONTINUOUS
 10
45.758877
 20
45.225962
 30
0.0
 70
    32
1001
ACAD
1000
R13OBJECT
1002
{
1005
4FB
1002
}
  0
SEQEND
  8
AM_VIS
  6
CONTINUOUS
1001
ACAD
1000
R13OBJECT
1002
{
1005
4FB
1002
}
  0
LINE
  8
AM_VIS
 10
45.616634
 20
45.143838
 30
0.0
 11
45.535445
 21
45.190713
 31
0.0
  0
POLYLINE
  8
AM_VIS
  6
CONTINUOUS
 66
     1
 10
0.0
 20
0.0
 30
0.0
 70
     8
  0
VERTEX
  8
AM_VIS
  6
CONTINUOUS
 10
45.677688
 20
45.272837
 30
0.0
 70
    32
1001
ACAD
1000
R13OBJECT
1002
{
1005
4FD
1002
}
  0
VERTEX
  8
AM_VIS
  6
CONTINUOUS
 10
45.632599
 20
45.287867
 30
0.0
 70
    32
1001
ACAD
1000
R13OBJECT
1002
{
1005
4FD
1002
}
  0
VERTEX
  8
AM_VIS
  6
CONTINUOUS
 10
45.580534
 20
45.287867
 30
0.0
 70
    32
1001
ACAD
1000
R13OBJECT
1002
{
1005
4FD
1002
}
  0
VERTEX
  8
AM_VIS
  6
CONTINUOUS
 10
45.535445
 20
45.272837
 30
0.0
 70
    32
1001
ACAD
1000
R13OBJECT
1002
{
1005
4FD
1002
}
  0
VERTEX
  8
AM_VIS
  6
CONTINUOUS
 10
45.509412
 20
45.246805
 30
0.0
 70
    32
1001
ACAD
1000
R13OBJECT
1002
{
1005
4FD
1002
}
  0
VERTEX
  8
AM_VIS
  6
CONTINUOUS
 10
45.509412
 20
45.216745
 30
0.0
 70
    32
1001
ACAD
1000
R13OBJECT
1002
{
1005
4FD
1002
}
  0
VERTEX
  8
AM_VIS
  6
CONTINUOUS
 10
45.535445
 20
45.190713
 30
0.0
 70
    32
1001
ACAD
1000
R13OBJECT
1002
{
1005
4FD
1002
}
  0
SEQEND
  8
AM_VIS
  6
CONTINUOUS
1001
ACAD
1000
R13OBJECT
1002
{
1005
4FD
1002
}
  0
LINE
  8
AM_VIS
 10
45.677688
 20
45.272837
 30
0.0
 11
45.758877
 21
45.225962
 31
0.0
  0
POLYLINE
  8
AM_VIS
  6
CONTINUOUS
 66
     1
 10
0.0
 20
0.0
 30
0.0
 70
     8
  0
VERTEX
  8
AM_VIS
  6
CONTINUOUS
 10
46.266148
 20
45.518835
 30
0.0
 70
    32
1001
ACAD
1000
R13OBJECT
1002
{
1005
4FF
1002
}
  0
VERTEX
  8
AM_VIS
  6
CONTINUOUS
 10
46.311237
 20
45.503805
 30
0.0
 70
    32
1001
ACAD
1000
R13OBJECT
1002
{
1005
4FF
1002
}
  0
VERTEX
  8
AM_VIS
  6
CONTINUOUS
 10
46.363302
 20
45.503805
 30
0.0
 70
    32
1001
ACAD
1000
R13OBJECT
1002
{
1005
4FF
1002
}
  0
VERTEX
  8
AM_VIS
  6
CONTINUOUS
 10
46.408391
 20
45.518835
 30
0.0
 70
    32
1001
ACAD
1000
R13OBJECT
1002
{
1005
4FF
1002
}
  0
VERTEX
  8
AM_VIS
  6
CONTINUOUS
 10
46.434423
 20
45.544867
 30
0.0
 70
    32
1001
ACAD
1000
R13OBJECT
1002
{
1005
4FF
1002
}
  0
VERTEX
  8
AM_VIS
  6
CONTINUOUS
 10
46.434423
 20
45.574927
 30
0.0
 70
    32
1001
ACAD
1000
R13OBJECT
1002
{
1005
4FF
1002
}
  0
VERTEX
  8
AM_VIS
  6
CONTINUOUS
 10
46.408391
 20
45.600959
 30
0.0
 70
    32
1001
ACAD
1000
R13OBJECT
1002
{
1005
4FF
1002
}
  0
SEQEND
  8
AM_VIS
  6
CONTINUOUS
1001
ACAD
1000
R13OBJECT
1002
{
1005
4FF
1002
}
  0
LINE
  8
AM_VIS
 10
46.266148
 20
45.518835
 30
0.0
 11
46.184958
 21
45.56571
 31
0.0
  0
POLYLINE
  8
AM_VIS
  6
CONTINUOUS
 66
     1
 10
0.0
 20
0.0
 30
0.0
 70
     8
  0
VERTEX
  8
AM_VIS
  6
CONTINUOUS
 10
46.327202
 20
45.647834
 30
0.0
 70
    32
1001
ACAD
1000
R13OBJECT
1002
{
1005
501
1002
}
  0
VERTEX
  8
AM_VIS
  6
CONTINUOUS
 10
46.282112
 20
45.662864
 30
0.0
 70
    32
1001
ACAD
1000
R13OBJECT
1002
{
1005
501
1002
}
  0
VERTEX
  8
AM_VIS
  6
CONTINUOUS
 10
46.230048
 20
45.662864
 30
0.0
 70
    32
1001
ACAD
1000
R13OBJECT
1002
{
1005
501
1002
}
  0
VERTEX
  8
AM_VIS
  6
CONTINUOUS
 10
46.184958
 20
45.647834
 30
0.0
 70
    32
1001
ACAD
1000
R13OBJECT
1002
{
1005
501
1002
}
  0
VERTEX
  8
AM_VIS
  6
CONTINUOUS
 10
46.158926
 20
45.621802
 30
0.0
 70
    32
1001
ACAD
1000
R13OBJECT
1002
{
1005
501
1002
}
  0
VERTEX
  8
AM_VIS
  6
CONTINUOUS
 10
46.158926
 20
45.591742
 30
0.0
 70
    32
1001
ACAD
1000
R13OBJECT
1002
{
1005
501
1002
}
  0
VERTEX
  8
AM_VIS
  6
CONTINUOUS
 10
46.184958
 20
45.56571
 30
0.0
 70
    32
1001
ACAD
1000
R13OBJECT
1002
{
1005
501
1002
}
  0
SEQEND
  8
AM_VIS
  6
CONTINUOUS
1001
ACAD
1000
R13OBJECT
1002
{
1005
501
1002
}
  0
LINE
  8
AM_VIS
 10
46.327202
 20
45.647834
 30
0.0
 11
46.408391
 21
45.600959
 31
0.0
  0
POLYLINE
  8
AM_VIS
  6
CONTINUOUS
 66
     1
 10
0.0
 20
0.0
 30
0.0
 70
     8
  0
VERTEX
  8
AM_VIS
  6
CONTINUOUS
 10
46.915661
 20
45.893832
 30
0.0
 70
    32
1001
ACAD
1000
R13OBJECT
1002
{
1005
503
1002
}
  0
VERTEX
  8
AM_VIS
  6
CONTINUOUS
 10
46.960751
 20
45.878802
 30
0.0
 70
    32
1001
ACAD
1000
R13OBJECT
1002
{
1005
503
1002
}
  0
VERTEX
  8
AM_VIS
  6
CONTINUOUS
 10
47.012816
 20
45.878802
 30
0.0
 70
    32
1001
ACAD
1000
R13OBJECT
1002
{
1005
503
1002
}
  0
VERTEX
  8
AM_VIS
  6
CONTINUOUS
 10
47.057905
 20
45.893832
 30
0.0
 70
    32
1001
ACAD
1000
R13OBJECT
1002
{
1005
503
1002
}
  0
VERTEX
  8
AM_VIS
  6
CONTINUOUS
 10
47.083937
 20
45.919864
 30
0.0
 70
    32
1001
ACAD
1000
R13OBJECT
1002
{
1005
503
1002
}
  0
VERTEX
  8
AM_VIS
  6
CONTINUOUS
 10
47.083937
 20
45.949924
 30
0.0
 70
    32
1001
ACAD
1000
R13OBJECT
1002
{
1005
503
1002
}
  0
VERTEX
  8
AM_VIS
  6
CONTINUOUS
 10
47.057905
 20
45.975956
 30
0.0
 70
    32
1001
ACAD
1000
R13OBJECT
1002
{
1005
503
1002
}
  0
SEQEND
  8
AM_VIS
  6
CONTINUOUS
1001
ACAD
1000
R13OBJECT
1002
{
1005
503
1002
}
  0
LINE
  8
AM_VIS
 10
46.915661
 20
45.893832
 30
0.0
 11
46.834472
 21
45.940707
 31
0.0
  0
POLYLINE
  8
AM_VIS
  6
CONTINUOUS
 66
     1
 10
0.0
 20
0.0
 30
0.0
 70
     8
  0
VERTEX
  8
AM_VIS
  6
CONTINUOUS
 10
46.976716
 20
46.022831
 30
0.0
 70
    32
1001
ACAD
1000
R13OBJECT
1002
{
1005
505
1002
}
  0
VERTEX
  8
AM_VIS
  6
CONTINUOUS
 10
46.931626
 20
46.037861
 30
0.0
 70
    32
1001
ACAD
1000
R13OBJECT
1002
{
1005
505
1002
}
  0
VERTEX
  8
AM_VIS
  6
CONTINUOUS
 10
46.879562
 20
46.037861
 30
0.0
 70
    32
1001
ACAD
1000
R13OBJECT
1002
{
1005
505
1002
}
  0
VERTEX
  8
AM_VIS
  6
CONTINUOUS
 10
46.834472
 20
46.022831
 30
0.0
 70
    32
1001
ACAD
1000
R13OBJECT
1002
{
1005
505
1002
}
  0
VERTEX
  8
AM_VIS
  6
CONTINUOUS
 10
46.80844
 20
45.996799
 30
0.0
 70
    32
1001
ACAD
1000
R13OBJECT
1002
{
1005
505
1002
}
  0
VERTEX
  8
AM_VIS
  6
CONTINUOUS
 10
46.80844
 20
45.966739
 30
0.0
 70
    32
1001
ACAD
1000
R13OBJECT
1002
{
1005
505
1002
}
  0
VERTEX
  8
AM_VIS
  6
CONTINUOUS
 10
46.834472
 20
45.940707
 30
0.0
 70
    32
1001
ACAD
1000
R13OBJECT
1002
{
1005
505
1002
}
  0
SEQEND
  8
AM_VIS
  6
CONTINUOUS
1001
ACAD
1000
R13OBJECT
1002
{
1005
505
1002
}
  0
LINE
  8
AM_VIS
 10
46.976716
 20
46.022831
 30
0.0
 11
47.057905
 21
45.975956
 31
0.0
  0
POLYLINE
  8
AM_VIS
  6
CONTINUOUS
 66
     1
 10
0.0
 20
0.0
 30
0.0
 70
     8
  0
VERTEX
  8
AM_VIS
  6
CONTINUOUS
 10
47.565175
 20
46.268829
 30
0.0
 70
    32
1001
ACAD
1000
R13OBJECT
1002
{
1005
507
1002
}
  0
VERTEX
  8
AM_VIS
  6
CONTINUOUS
 10
47.610265
 20
46.253799
 30
0.0
 70
    32
1001
ACAD
1000
R13OBJECT
1002
{
1005
507
1002
}
  0
VERTEX
  8
AM_VIS
  6
CONTINUOUS
 10
47.662329
 20
46.253799
 30
0.0
 70
    32
1001
ACAD
1000
R13OBJECT
1002
{
1005
507
1002
}
  0
VERTEX
  8
AM_VIS
  6
CONTINUOUS
 10
47.707419
 20
46.268829
 30
0.0
 70
    32
1001
ACAD
1000
R13OBJECT
1002
{
1005
507
1002
}
  0
VERTEX
  8
AM_VIS
  6
CONTINUOUS
 10
47.733451
 20
46.294861
 30
0.0
 70
    32
1001
ACAD
1000
R13OBJECT
1002
{
1005
507
1002
}
  0
VERTEX
  8
AM_VIS
  6
CONTINUOUS
 10
47.733451
 20
46.324921
 30
0.0
 70
    32
1001
ACAD
1000
R13OBJECT
1002
{
1005
507
1002
}
  0
VERTEX
  8
AM_VIS
  6
CONTINUOUS
 10
47.707419
 20
46.350953
 30
0.0
 70
    32
1001
ACAD
1000
R13OBJECT
1002
{
1005
507
1002
}
  0
SEQEND
  8
AM_VIS
  6
CONTINUOUS
1001
ACAD
1000
R13OBJECT
1002
{
1005
507
1002
}
  0
LINE
  8
AM_VIS
 10
47.565175
 20
46.268829
 30
0.0
 11
47.483986
 21
46.315704
 31
0.0
  0
POLYLINE
  8
AM_VIS
  6
CONTINUOUS
 66
     1
 10
0.0
 20
0.0
 30
0.0
 70
     8
  0
VERTEX
  8
AM_VIS
  6
CONTINUOUS
 10
47.62623
 20
46.397828
 30
0.0
 70
    32
1001
ACAD
1000
R13OBJECT
1002
{
1005
509
1002
}
  0
VERTEX
  8
AM_VIS
  6
CONTINUOUS
 10
47.58114
 20
46.412858
 30
0.0
 70
    32
1001
ACAD
1000
R13OBJECT
1002
{
1005
509
1002
}
  0
VERTEX
  8
AM_VIS
  6
CONTINUOUS
 10
47.529075
 20
46.412858
 30
0.0
 70
    32
1001
ACAD
1000
R13OBJECT
1002
{
1005
509
1002
}
  0
VERTEX
  8
AM_VIS
  6
CONTINUOUS
 10
47.483986
 20
46.397828
 30
0.0
 70
    32
1001
ACAD
1000
R13OBJECT
1002
{
1005
509
1002
}
  0
VERTEX
  8
AM_VIS
  6
CONTINUOUS
 10
47.457954
 20
46.371796
 30
0.0
 70
    32
1001
ACAD
1000
R13OBJECT
1002
{
1005
509
1002
}
  0
VERTEX
  8
AM_VIS
  6
CONTINUOUS
 10
47.457954
 20
46.341736
 30
0.0
 70
    32
1001
ACAD
1000
R13OBJECT
1002
{
1005
509
1002
}
  0
VERTEX
  8
AM_VIS
  6
CONTINUOUS
 10
47.483986
 20
46.315704
 30
0.0
 70
    32
1001
ACAD
1000
R13OBJECT
1002
{
1005
509
1002
}
  0
SEQEND
  8
AM_VIS
  6
CONTINUOUS
1001
ACAD
1000
R13OBJECT
1002
{
1005
509
1002
}
  0
LINE
  8
AM_VIS
 10
47.62623
 20
46.397828
 30
0.0
 11
47.707419
 21
46.350953
 31
0.0
  0
POLYLINE
  8
AM_VIS
  6
CONTINUOUS
 66
     1
 10
0.0
 20
0.0
 30
0.0
 70
     8
  0
VERTEX
  8
AM_VIS
  6
CONTINUOUS
 10
48.214689
 20
46.643826
 30
0.0
 70
    32
1001
ACAD
1000
R13OBJECT
1002
{
1005
50B
1002
}
  0
VERTEX
  8
AM_VIS
  6
CONTINUOUS
 10
48.259778
 20
46.628796
 30
0.0
 70
    32
1001
ACAD
1000
R13OBJECT
1002
{
1005
50B
1002
}
  0
VERTEX
  8
AM_VIS
  6
CONTINUOUS
 10
48.311843
 20
46.628796
 30
0.0
 70
    32
1001
ACAD
1000
R13OBJECT
1002
{
1005
50B
1002
}
  0
VERTEX
  8
AM_VIS
  6
CONTINUOUS
 10
48.356933
 20
46.643826
 30
0.0
 70
    32
1001
ACAD
1000
R13OBJECT
1002
{
1005
50B
1002
}
  0
VERTEX
  8
AM_VIS
  6
CONTINUOUS
 10
48.382965
 20
46.669858
 30
0.0
 70
    32
1001
ACAD
1000
R13OBJECT
1002
{
1005
50B
1002
}
  0
VERTEX
  8
AM_VIS
  6
CONTINUOUS
 10
48.382965
 20
46.699918
 30
0.0
 70
    32
1001
ACAD
1000
R13OBJECT
1002
{
1005
50B
1002
}
  0
VERTEX
  8
AM_VIS
  6
CONTINUOUS
 10
48.356933
 20
46.72595
 30
0.0
 70
    32
1001
ACAD
1000
R13OBJECT
1002
{
1005
50B
1002
}
  0
SEQEND
  8
AM_VIS
  6
CONTINUOUS
1001
ACAD
1000
R13OBJECT
1002
{
1005
50B
1002
}
  0
LINE
  8
AM_VIS
 10
48.214689
 20
46.643826
 30
0.0
 11
48.1335
 21
46.690701
 31
0.0
  0
POLYLINE
  8
AM_VIS
  6
CONTINUOUS
 66
     1
 10
0.0
 20
0.0
 30
0.0
 70
     8
  0
VERTEX
  8
AM_VIS
  6
CONTINUOUS
 10
48.275743
 20
46.772825
 30
0.0
 70
    32
1001
ACAD
1000
R13OBJECT
1002
{
1005
50D
1002
}
  0
VERTEX
  8
AM_VIS
  6
CONTINUOUS
 10
48.230654
 20
46.787855
 30
0.0
 70
    32
1001
ACAD
1000
R13OBJECT
1002
{
1005
50D
1002
}
  0
VERTEX
  8
AM_VIS
  6
CONTINUOUS
 10
48.178589
 20
46.787855
 30
0.0
 70
    32
1001
ACAD
1000
R13OBJECT
1002
{
1005
50D
1002
}
  0
VERTEX
  8
AM_VIS
  6
CONTINUOUS
 10
48.1335
 20
46.772825
 30
0.0
 70
    32
1001
ACAD
1000
R13OBJECT
1002
{
1005
50D
1002
}
  0
VERTEX
  8
AM_VIS
  6
CONTINUOUS
 10
48.107467
 20
46.746793
 30
0.0
 70
    32
1001
ACAD
1000
R13OBJECT
1002
{
1005
50D
1002
}
  0
VERTEX
  8
AM_VIS
  6
CONTINUOUS
 10
48.107467
 20
46.716733
 30
0.0
 70
    32
1001
ACAD
1000
R13OBJECT
1002
{
1005
50D
1002
}
  0
VERTEX
  8
AM_VIS
  6
CONTINUOUS
 10
48.1335
 20
46.690701
 30
0.0
 70
    32
1001
ACAD
1000
R13OBJECT
1002
{
1005
50D
1002
}
  0
SEQEND
  8
AM_VIS
  6
CONTINUOUS
1001
ACAD
1000
R13OBJECT
1002
{
1005
50D
1002
}
  0
LINE
  8
AM_VIS
 10
48.275743
 20
46.772825
 30
0.0
 11
48.356933
 21
46.72595
 31
0.0
  0
LINE
  8
AM_VIS
 10
47.718136
 20
47.387632
 30
0.0
 11
48.732676
 21
46.801887
 31
0.0
  0
LINE
  8
AM_VIS
 10
48.732676
 20
46.801887
 30
0.0
 11
43.739864
 21
43.919285
 31
0.0
  0
LINE
  8
AM_VIS
 10
48.083162
 20
48.301125
 30
0.0
 11
48.083162
 21
48.253875
 31
0.0
  0
LINE
  8
AM_VIS
 10
37.041428
 20
41.926176
 30
0.0
 11
48.083162
 21
48.301125
 31
0.0
  0
LINE
  8
AM_VIS
 10
37.041428
 20
41.878927
 30
0.0
 11
37.041428
 21
41.926176
 31
0.0
  0
LINE
  8
AM_VIS
 10
37.041428
 20
41.878927
 30
0.0
 11
48.083162
 21
48.253875
 31
0.0
  0
LINE
  8
AM_VIS
 10
36.676401
 20
42.089675
 30
0.0
 11
37.041428
 21
41.878927
 31
0.0
  0
LINE
  8
AM_VIS
 10
48.732676
 20
46.754638
 30
0.0
 11
48.732676
 21
46.801887
 31
0.0
  0
LINE
  8
AM_VIS
 10
47.677216
 20
48.535498
 30
0.0
 11
48.083162
 21
48.301125
 31
0.0
  0
LINE
  8
AM_VIS
 10
43.739864
 20
43.872036
 30
0.0
 11
48.732676
 21
46.754638
 31
0.0
  0
POLYLINE
  8
AM_VIS
  6
CONTINUOUS
 66
     1
 10
0.0
 20
0.0
 30
0.0
 70
     8
  0
VERTEX
  8
AM_VIS
  6
CONTINUOUS
 10
46.182649
 20
46.942792
 30
0.0
 70
    32
1001
ACAD
1000
R13OBJECT
1002
{
1005
51A
1002
}
  0
VERTEX
  8
AM_VIS
  6
CONTINUOUS
 10
46.198856
 20
46.946039
 30
0.0
 70
    32
1001
ACAD
1000
R13OBJECT
1002
{
1005
51A
1002
}
  0
VERTEX
  8
AM_VIS
  6
CONTINUOUS
 10
46.21581
 20
46.953761
 30
0.0
 70
    32
1001
ACAD
1000
R13OBJECT
1002
{
1005
51A
1002
}
  0
SEQEND
  8
AM_VIS
  6
CONTINUOUS
1001
ACAD
1000
R13OBJECT
1002
{
1005
51A
1002
}
  0
POLYLINE
  8
AM_VIS
  6
CONTINUOUS
 66
     1
 10
0.0
 20
0.0
 30
0.0
 70
     8
  0
VERTEX
  8
AM_VIS
  6
CONTINUOUS
 10
46.865324
 20
47.328758
 30
0.0
 70
    32
1001
ACAD
1000
R13OBJECT
1002
{
1005
51B
1002
}
  0
VERTEX
  8
AM_VIS
  6
CONTINUOUS
 10
46.904097
 20
47.362525
 30
0.0
 70
    32
1001
ACAD
1000
R13OBJECT
1002
{
1005
51B
1002
}
  0
VERTEX
  8
AM_VIS
  6
CONTINUOUS
 10
46.933456
 20
47.410857
 30
0.0
 70
    32
1001
ACAD
1000
R13OBJECT
1002
{
1005
51B
1002
}
  0
VERTEX
  8
AM_VIS
  6
CONTINUOUS
 10
46.946272
 20
47.462017
 30
0.0
 70
    32
1001
ACAD
1000
R13OBJECT
1002
{
1005
51B
1002
}
  0
VERTEX
  8
AM_VIS
  6
CONTINUOUS
 10
46.939433
 20
47.503584
 30
0.0
 70
    32
1001
ACAD
1000
R13OBJECT
1002
{
1005
51B
1002
}
  0
SEQEND
  8
AM_VIS
  6
CONTINUOUS
1001
ACAD
1000
R13OBJECT
1002
{
1005
51B
1002
}
  0
LINE
  8
AM_VIS
 10
46.21581
 20
46.953761
 30
0.0
 11
46.865324
 21
47.328758
 31
0.0
  0
POLYLINE
  8
AM_VIS
  6
CONTINUOUS
 66
     1
 10
0.0
 20
0.0
 30
0.0
 70
     8
  0
VERTEX
  8
AM_VIS
  6
CONTINUOUS
 10
47.075731
 20
47.458413
 30
0.0
 70
    32
1001
ACAD
1000
R13OBJECT
1002
{
1005
51F
1002
}
  0
VERTEX
  8
AM_VIS
  6
CONTINUOUS
 10
47.091938
 20
47.46166
 30
0.0
 70
    32
1001
ACAD
1000
R13OBJECT
1002
{
1005
51F
1002
}
  0
VERTEX
  8
AM_VIS
  6
CONTINUOUS
 10
47.108892
 20
47.469382
 30
0.0
 70
    32
1001
ACAD
1000
R13OBJECT
1002
{
1005
51F
1002
}
  0
SEQEND
  8
AM_VIS
  6
CONTINUOUS
1001
ACAD
1000
R13OBJECT
1002
{
1005
51F
1002
}
  0
POLYLINE
  8
AM_VIS
  6
CONTINUOUS
 66
     1
 10
0.0
 20
0.0
 30
0.0
 70
     8
  0
VERTEX
  8
AM_VIS
  6
CONTINUOUS
 10
47.433649
 20
47.65688
 30
0.0
 70
    32
1001
ACAD
1000
R13OBJECT
1002
{
1005
520
1002
}
  0
VERTEX
  8
AM_VIS
  6
CONTINUOUS
 10
47.472422
 20
47.690648
 30
0.0
 70
    32
1001
ACAD
1000
R13OBJECT
1002
{
1005
520
1002
}
  0
VERTEX
  8
AM_VIS
  6
CONTINUOUS
 10
47.501781
 20
47.738979
 30
0.0
 70
    32
1001
ACAD
1000
R13OBJECT
1002
{
1005
520
1002
}
  0
VERTEX
  8
AM_VIS
  6
CONTINUOUS
 10
47.514596
 20
47.790139
 30
0.0
 70
    32
1001
ACAD
1000
R13OBJECT
1002
{
1005
520
1002
}
  0
VERTEX
  8
AM_VIS
  6
CONTINUOUS
 10
47.507757
 20
47.831706
 30
0.0
 70
    32
1001
ACAD
1000
R13OBJECT
1002
{
1005
520
1002
}
  0
SEQEND
  8
AM_VIS
  6
CONTINUOUS
1001
ACAD
1000
R13OBJECT
1002
{
1005
520
1002
}
  0
LINE
  8
AM_VIS
 10
47.108892
 20
47.469382
 30
0.0
 11
47.433649
 21
47.65688
 31
0.0
  0
LINE
  8
AM_VIS
 10
42.024173
 20
43.04692
 30
0.0
 11
42.024173
 21
43.057066
 31
0.0
  0
POLYLINE
  8
AM_VIS
  6
CONTINUOUS
 66
     1
 10
0.0
 20
0.0
 30
0.0
 70
     8
  0
VERTEX
  8
AM_VIS
  6
CONTINUOUS
 10
41.942984
 20
43.069355
 30
0.0
 70
    32
1001
ACAD
1000
R13OBJECT
1002
{
1005
524
1002
}
  0
VERTEX
  8
AM_VIS
  6
CONTINUOUS
 10
41.936259
 20
43.072901
 30
0.0
 70
    32
1001
ACAD
1000
R13OBJECT
1002
{
1005
524
1002
}
  0
VERTEX
  8
AM_VIS
  6
CONTINUOUS
 10
41.929006
 20
43.076081
 30
0.0
 70
    32
1001
ACAD
1000
R13OBJECT
1002
{
1005
524
1002
}
  0
SEQEND
  8
AM_VIS
  6
CONTINUOUS
1001
ACAD
1000
R13OBJECT
1002
{
1005
524
1002
}
  0
LINE
  8
AM_VIS
 10
41.942984
 20
43.069355
 30
0.0
 11
41.942984
 21
43.077754
 31
0.0
  0
LINE
  8
AM_VIS
 10
42.003228
 20
43.034573
 30
0.0
 11
41.942984
 21
43.069355
 31
0.0
  0
LINE
  8
AM_VIS
 10
44.297471
 20
44.33497
 30
0.0
 11
44.297471
 21
44.382219
 31
0.0
  0
POLYLINE
  8
AM_VIS
  6
CONTINUOUS
 66
     1
 10
0.0
 20
0.0
 30
0.0
 70
     8
  0
VERTEX
  8
AM_VIS
  6
CONTINUOUS
 10
44.318179
 20
44.317599
 30
0.0
 70
    32
1001
ACAD
1000
R13OBJECT
1002
{
1005
528
1002
}
  0
VERTEX
  8
AM_VIS
  6
CONTINUOUS
 10
44.309202
 20
44.326831
 30
0.0
 70
    32
1001
ACAD
1000
R13OBJECT
1002
{
1005
528
1002
}
  0
VERTEX
  8
AM_VIS
  6
CONTINUOUS
 10
44.297471
 20
44.33497
 30
0.0
 70
    32
1001
ACAD
1000
R13OBJECT
1002
{
1005
528
1002
}
  0
SEQEND
  8
AM_VIS
  6
CONTINUOUS
1001
ACAD
1000
R13OBJECT
1002
{
1005
528
1002
}
  0
POLYLINE
  8
AM_VIS
  6
CONTINUOUS
 66
     1
 10
0.0
 20
0.0
 30
0.0
 70
     8
  0
VERTEX
  8
AM_VIS
  6
CONTINUOUS
 10
44.216282
 20
44.381844
 30
0.0
 70
    32
1001
ACAD
1000
R13OBJECT
1002
{
1005
529
1002
}
  0
VERTEX
  8
AM_VIS
  6
CONTINUOUS
 10
44.175019
 20
44.396235
 30
0.0
 70
    32
1001
ACAD
1000
R13OBJECT
1002
{
1005
529
1002
}
  0
VERTEX
  8
AM_VIS
  6
CONTINUOUS
 10
44.126898
 20
44.397887
 30
0.0
 70
    32
1001
ACAD
1000
R13OBJECT
1002
{
1005
529
1002
}
  0
VERTEX
  8
AM_VIS
  6
CONTINUOUS
 10
44.082972
 20
44.386423
 30
0.0
 70
    32
1001
ACAD
1000
R13OBJECT
1002
{
1005
529
1002
}
  0
VERTEX
  8
AM_VIS
  6
CONTINUOUS
 10
44.05333
 20
44.364474
 30
0.0
 70
    32
1001
ACAD
1000
R13OBJECT
1002
{
1005
529
1002
}
  0
SEQEND
  8
AM_VIS
  6
CONTINUOUS
1001
ACAD
1000
R13OBJECT
1002
{
1005
529
1002
}
  0
LINE
  8
AM_VIS
 10
44.216282
 20
44.381844
 30
0.0
 11
44.216282
 21
44.429094
 31
0.0
  0
LINE
  8
AM_VIS
 10
44.297471
 20
44.33497
 30
0.0
 11
44.216282
 21
44.381844
 31
0.0
  0
LINE
  8
AM_VIS
 10
45.758877
 20
45.178713
 30
0.0
 11
45.758877
 21
45.225962
 31
0.0
  0
POLYLINE
  8
AM_VIS
  6
CONTINUOUS
 66
     1
 10
0.0
 20
0.0
 30
0.0
 70
     8
  0
VERTEX
  8
AM_VIS
  6
CONTINUOUS
 10
45.779586
 20
45.161342
 30
0.0
 70
    32
1001
ACAD
1000
R13OBJECT
1002
{
1005
52D
1002
}
  0
VERTEX
  8
AM_VIS
  6
CONTINUOUS
 10
45.770609
 20
45.170575
 30
0.0
 70
    32
1001
ACAD
1000
R13OBJECT
1002
{
1005
52D
1002
}
  0
VERTEX
  8
AM_VIS
  6
CONTINUOUS
 10
45.758877
 20
45.178713
 30
0.0
 70
    32
1001
ACAD
1000
R13OBJECT
1002
{
1005
52D
1002
}
  0
SEQEND
  8
AM_VIS
  6
CONTINUOUS
1001
ACAD
1000
R13OBJECT
1002
{
1005
52D
1002
}
  0
POLYLINE
  8
AM_VIS
  6
CONTINUOUS
 66
     1
 10
0.0
 20
0.0
 30
0.0
 70
     8
  0
VERTEX
  8
AM_VIS
  6
CONTINUOUS
 10
45.677688
 20
45.225587
 30
0.0
 70
    32
1001
ACAD
1000
R13OBJECT
1002
{
1005
52E
1002
}
  0
VERTEX
  8
AM_VIS
  6
CONTINUOUS
 10
45.636426
 20
45.239978
 30
0.0
 70
    32
1001
ACAD
1000
R13OBJECT
1002
{
1005
52E
1002
}
  0
VERTEX
  8
AM_VIS
  6
CONTINUOUS
 10
45.588304
 20
45.241631
 30
0.0
 70
    32
1001
ACAD
1000
R13OBJECT
1002
{
1005
52E
1002
}
  0
VERTEX
  8
AM_VIS
  6
CONTINUOUS
 10
45.544378
 20
45.230166
 30
0.0
 70
    32
1001
ACAD
1000
R13OBJECT
1002
{
1005
52E
1002
}
  0
VERTEX
  8
AM_VIS
  6
CONTINUOUS
 10
45.514736
 20
45.208217
 30
0.0
 70
    32
1001
ACAD
1000
R13OBJECT
1002
{
1005
52E
1002
}
  0
SEQEND
  8
AM_VIS
  6
CONTINUOUS
1001
ACAD
1000
R13OBJECT
1002
{
1005
52E
1002
}
  0
LINE
  8
AM_VIS
 10
45.677688
 20
45.225587
 30
0.0
 11
45.677688
 21
45.272837
 31
0.0
  0
LINE
  8
AM_VIS
 10
45.758877
 20
45.178713
 30
0.0
 11
45.677688
 21
45.225587
 31
0.0
  0
LINE
  8
AM_VIS
 10
46.408391
 20
45.55371
 30
0.0
 11
46.408391
 21
45.600959
 31
0.0
  0
POLYLINE
  8
AM_VIS
  6
CONTINUOUS
 66
     1
 10
0.0
 20
0.0
 30
0.0
 70
     8
  0
VERTEX
  8
AM_VIS
  6
CONTINUOUS
 10
46.429099
 20
45.536339
 30
0.0
 70
    32
1001
ACAD
1000
R13OBJECT
1002
{
1005
532
1002
}
  0
VERTEX
  8
AM_VIS
  6
CONTINUOUS
 10
46.420122
 20
45.545572
 30
0.0
 70
    32
1001
ACAD
1000
R13OBJECT
1002
{
1005
532
1002
}
  0
VERTEX
  8
AM_VIS
  6
CONTINUOUS
 10
46.408391
 20
45.55371
 30
0.0
 70
    32
1001
ACAD
1000
R13OBJECT
1002
{
1005
532
1002
}
  0
SEQEND
  8
AM_VIS
  6
CONTINUOUS
1001
ACAD
1000
R13OBJECT
1002
{
1005
532
1002
}
  0
POLYLINE
  8
AM_VIS
  6
CONTINUOUS
 66
     1
 10
0.0
 20
0.0
 30
0.0
 70
     8
  0
VERTEX
  8
AM_VIS
  6
CONTINUOUS
 10
46.327202
 20
45.600584
 30
0.0
 70
    32
1001
ACAD
1000
R13OBJECT
1002
{
1005
533
1002
}
  0
VERTEX
  8
AM_VIS
  6
CONTINUOUS
 10
46.285939
 20
45.614975
 30
0.0
 70
    32
1001
ACAD
1000
R13OBJECT
1002
{
1005
533
1002
}
  0
VERTEX
  8
AM_VIS
  6
CONTINUOUS
 10
46.237818
 20
45.616628
 30
0.0
 70
    32
1001
ACAD
1000
R13OBJECT
1002
{
1005
533
1002
}
  0
VERTEX
  8
AM_VIS
  6
CONTINUOUS
 10
46.193892
 20
45.605163
 30
0.0
 70
    32
1001
ACAD
1000
R13OBJECT
1002
{
1005
533
1002
}
  0
VERTEX
  8
AM_VIS
  6
CONTINUOUS
 10
46.16425
 20
45.583214
 30
0.0
 70
    32
1001
ACAD
1000
R13OBJECT
1002
{
1005
533
1002
}
  0
SEQEND
  8
AM_VIS
  6
CONTINUOUS
1001
ACAD
1000
R13OBJECT
1002
{
1005
533
1002
}
  0
LINE
  8
AM_VIS
 10
46.327202
 20
45.600584
 30
0.0
 11
46.327202
 21
45.647834
 31
0.0
  0
LINE
  8
AM_VIS
 10
46.408391
 20
45.55371
 30
0.0
 11
46.327202
 21
45.600584
 31
0.0
  0
POLYLINE
  8
AM_VIS
  6
CONTINUOUS
 66
     1
 10
0.0
 20
0.0
 30
0.0
 70
     8
  0
VERTEX
  8
AM_VIS
  6
CONTINUOUS
 10
47.078613
 20
45.911336
 30
0.0
 70
    32
1001
ACAD
1000
R13OBJECT
1002
{
1005
537
1002
}
  0
VERTEX
  8
AM_VIS
  6
CONTINUOUS
 10
47.069636
 20
45.920569
 30
0.0
 70
    32
1001
ACAD
1000
R13OBJECT
1002
{
1005
537
1002
}
  0
VERTEX
  8
AM_VIS
  6
CONTINUOUS
 10
47.057905
 20
45.928707
 30
0.0
 70
    32
1001
ACAD
1000
R13OBJECT
1002
{
1005
537
1002
}
  0
SEQEND
  8
AM_VIS
  6
CONTINUOUS
1001
ACAD
1000
R13OBJECT
1002
{
1005
537
1002
}
  0
POLYLINE
  8
AM_VIS
  6
CONTINUOUS
 66
     1
 10
0.0
 20
0.0
 30
0.0
 70
     8
  0
VERTEX
  8
AM_VIS
  6
CONTINUOUS
 10
46.976716
 20
45.975581
 30
0.0
 70
    32
1001
ACAD
1000
R13OBJECT
1002
{
1005
538
1002
}
  0
VERTEX
  8
AM_VIS
  6
CONTINUOUS
 10
46.935453
 20
45.989972
 30
0.0
 70
    32
1001
ACAD
1000
R13OBJECT
1002
{
1005
538
1002
}
  0
VERTEX
  8
AM_VIS
  6
CONTINUOUS
 10
46.887332
 20
45.991625
 30
0.0
 70
    32
1001
ACAD
1000
R13OBJECT
1002
{
1005
538
1002
}
  0
VERTEX
  8
AM_VIS
  6
CONTINUOUS
 10
46.843405
 20
45.98016
 30
0.0
 70
    32
1001
ACAD
1000
R13OBJECT
1002
{
1005
538
1002
}
  0
VERTEX
  8
AM_VIS
  6
CONTINUOUS
 10
46.813764
 20
45.958211
 30
0.0
 70
    32
1001
ACAD
1000
R13OBJECT
1002
{
1005
538
1002
}
  0
SEQEND
  8
AM_VIS
  6
CONTINUOUS
1001
ACAD
1000
R13OBJECT
1002
{
1005
538
1002
}
  0
LINE
  8
AM_VIS
 10
47.057905
 20
45.928707
 30
0.0
 11
46.976716
 21
45.975581
 31
0.0
  0
POLYLINE
  8
AM_VIS
  6
CONTINUOUS
 66
     1
 10
0.0
 20
0.0
 30
0.0
 70
     8
  0
VERTEX
  8
AM_VIS
  6
CONTINUOUS
 10
47.728127
 20
46.286333
 30
0.0
 70
    32
1001
ACAD
1000
R13OBJECT
1002
{
1005
53C
1002
}
  0
VERTEX
  8
AM_VIS
  6
CONTINUOUS
 10
47.71915
 20
46.295566
 30
0.0
 70
    32
1001
ACAD
1000
R13OBJECT
1002
{
1005
53C
1002
}
  0
VERTEX
  8
AM_VIS
  6
CONTINUOUS
 10
47.707419
 20
46.303704
 30
0.0
 70
    32
1001
ACAD
1000
R13OBJECT
1002
{
1005
53C
1002
}
  0
SEQEND
  8
AM_VIS
  6
CONTINUOUS
1001
ACAD
1000
R13OBJECT
1002
{
1005
53C
1002
}
  0
POLYLINE
  8
AM_VIS
  6
CONTINUOUS
 66
     1
 10
0.0
 20
0.0
 30
0.0
 70
     8
  0
VERTEX
  8
AM_VIS
  6
CONTINUOUS
 10
47.62623
 20
46.350578
 30
0.0
 70
    32
1001
ACAD
1000
R13OBJECT
1002
{
1005
53D
1002
}
  0
VERTEX
  8
AM_VIS
  6
CONTINUOUS
 10
47.584967
 20
46.364969
 30
0.0
 70
    32
1001
ACAD
1000
R13OBJECT
1002
{
1005
53D
1002
}
  0
VERTEX
  8
AM_VIS
  6
CONTINUOUS
 10
47.536846
 20
46.366622
 30
0.0
 70
    32
1001
ACAD
1000
R13OBJECT
1002
{
1005
53D
1002
}
  0
VERTEX
  8
AM_VIS
  6
CONTINUOUS
 10
47.492919
 20
46.355157
 30
0.0
 70
    32
1001
ACAD
1000
R13OBJECT
1002
{
1005
53D
1002
}
  0
VERTEX
  8
AM_VIS
  6
CONTINUOUS
 10
47.463278
 20
46.333208
 30
0.0
 70
    32
1001
ACAD
1000
R13OBJECT
1002
{
1005
53D
1002
}
  0
SEQEND
  8
AM_VIS
  6
CONTINUOUS
1001
ACAD
1000
R13OBJECT
1002
{
1005
53D
1002
}
  0
LINE
  8
AM_VIS
 10
47.707419
 20
46.303704
 30
0.0
 11
47.62623
 21
46.350578
 31
0.0
  0
POLYLINE
  8
AM_VIS
  6
CONTINUOUS
 66
     1
 10
0.0
 20
0.0
 30
0.0
 70
     8
  0
VERTEX
  8
AM_VIS
  6
CONTINUOUS
 10
48.377641
 20
46.66133
 30
0.0
 70
    32
1001
ACAD
1000
R13OBJECT
1002
{
1005
541
1002
}
  0
VERTEX
  8
AM_VIS
  6
CONTINUOUS
 10
48.368664
 20
46.670563
 30
0.0
 70
    32
1001
ACAD
1000
R13OBJECT
1002
{
1005
541
1002
}
  0
VERTEX
  8
AM_VIS
  6
CONTINUOUS
 10
48.356933
 20
46.678701
 30
0.0
 70
    32
1001
ACAD
1000
R13OBJECT
1002
{
1005
541
1002
}
  0
SEQEND
  8
AM_VIS
  6
CONTINUOUS
1001
ACAD
1000
R13OBJECT
1002
{
1005
541
1002
}
  0
POLYLINE
  8
AM_VIS
  6
CONTINUOUS
 66
     1
 10
0.0
 20
0.0
 30
0.0
 70
     8
  0
VERTEX
  8
AM_VIS
  6
CONTINUOUS
 10
48.275743
 20
46.725575
 30
0.0
 70
    32
1001
ACAD
1000
R13OBJECT
1002
{
1005
542
1002
}
  0
VERTEX
  8
AM_VIS
  6
CONTINUOUS
 10
48.234481
 20
46.739966
 30
0.0
 70
    32
1001
ACAD
1000
R13OBJECT
1002
{
1005
542
1002
}
  0
VERTEX
  8
AM_VIS
  6
CONTINUOUS
 10
48.186359
 20
46.741619
 30
0.0
 70
    32
1001
ACAD
1000
R13OBJECT
1002
{
1005
542
1002
}
  0
VERTEX
  8
AM_VIS
  6
CONTINUOUS
 10
48.142433
 20
46.730154
 30
0.0
 70
    32
1001
ACAD
1000
R13OBJECT
1002
{
1005
542
1002
}
  0
VERTEX
  8
AM_VIS
  6
CONTINUOUS
 10
48.112792
 20
46.708205
 30
0.0
 70
    32
1001
ACAD
1000
R13OBJECT
1002
{
1005
542
1002
}
  0
SEQEND
  8
AM_VIS
  6
CONTINUOUS
1001
ACAD
1000
R13OBJECT
1002
{
1005
542
1002
}
  0
LINE
  8
AM_VIS
 10
48.356933
 20
46.678701
 30
0.0
 11
48.275743
 21
46.725575
 31
0.0
  0
LINE
  8
AM_VIS
 10
40.562767
 20
42.203177
 30
0.0
 11
40.562767
 21
42.213323
 31
0.0
  0
POLYLINE
  8
AM_VIS
  6
CONTINUOUS
 66
     1
 10
0.0
 20
0.0
 30
0.0
 70
     8
  0
VERTEX
  8
AM_VIS
  6
CONTINUOUS
 10
40.481578
 20
42.225612
 30
0.0
 70
    32
1001
ACAD
1000
R13OBJECT
1002
{
1005
546
1002
}
  0
VERTEX
  8
AM_VIS
  6
CONTINUOUS
 10
40.474853
 20
42.229157
 30
0.0
 70
    32
1001
ACAD
1000
R13OBJECT
1002
{
1005
546
1002
}
  0
VERTEX
  8
AM_VIS
  6
CONTINUOUS
 10
40.4676
 20
42.232338
 30
0.0
 70
    32
1001
ACAD
1000
R13OBJECT
1002
{
1005
546
1002
}
  0
SEQEND
  8
AM_VIS
  6
CONTINUOUS
1001
ACAD
1000
R13OBJECT
1002
{
1005
546
1002
}
  0
LINE
  8
AM_VIS
 10
40.481578
 20
42.225612
 30
0.0
 11
40.481578
 21
42.23401
 31
0.0
  0
LINE
  8
AM_VIS
 10
40.541822
 20
42.190829
 30
0.0
 11
40.481578
 21
42.225612
 31
0.0
  0
LINE
  8
AM_VIS
 10
36.635481
 20
42.16055
 30
0.0
 11
47.677216
 21
48.535498
 31
0.0
  0
LINE
  8
AM_VIS
 10
36.635481
 20
41.83203
 30
0.0
 11
36.635481
 21
42.16055
 31
0.0
  0
LINE
  8
AM_VIS
 10
37.041428
 20
41.926176
 30
0.0
 11
36.635481
 21
42.16055
 31
0.0
  0
POLYLINE
  8
AM_VIS
  6
CONTINUOUS
 66
     1
 10
0.0
 20
0.0
 30
0.0
 70
     8
  0
VERTEX
  8
AM_VIS
  6
CONTINUOUS
 10
39.558943
 20
42.67617
 30
0.0
 70
    32
1001
ACAD
1000
R13OBJECT
1002
{
1005
54C
1002
}
  0
VERTEX
  8
AM_VIS
  6
CONTINUOUS
 10
39.591821
 20
42.706247
 30
0.0
 70
    32
1001
ACAD
1000
R13OBJECT
1002
{
1005
54C
1002
}
  0
VERTEX
  8
AM_VIS
  6
CONTINUOUS
 10
39.614351
 20
42.749048
 30
0.0
 70
    32
1001
ACAD
1000
R13OBJECT
1002
{
1005
54C
1002
}
  0
VERTEX
  8
AM_VIS
  6
CONTINUOUS
 10
39.61944
 20
42.791099
 30
0.0
 70
    32
1001
ACAD
1000
R13OBJECT
1002
{
1005
54C
1002
}
  0
SEQEND
  8
AM_VIS
  6
CONTINUOUS
1001
ACAD
1000
R13OBJECT
1002
{
1005
54C
1002
}
  0
POLYLINE
  8
AM_VIS
  6
CONTINUOUS
 66
     1
 10
0.0
 20
0.0
 30
0.0
 70
     8
  0
VERTEX
  8
AM_VIS
  6
CONTINUOUS
 10
39.551373
 20
42.672344
 30
0.0
 70
    32
1001
ACAD
1000
R13OBJECT
1002
{
1005
54D
1002
}
  0
VERTEX
  8
AM_VIS
  6
CONTINUOUS
 10
39.555151
 20
42.674117
 30
0.0
 70
    32
1001
ACAD
1000
R13OBJECT
1002
{
1005
54D
1002
}
  0
VERTEX
  8
AM_VIS
  6
CONTINUOUS
 10
39.558943
 20
42.67617
 30
0.0
 70
    32
1001
ACAD
1000
R13OBJECT
1002
{
1005
54D
1002
}
  0
SEQEND
  8
AM_VIS
  6
CONTINUOUS
1001
ACAD
1000
R13OBJECT
1002
{
1005
54D
1002
}
  0
POLYLINE
  8
AM_VIS
  6
CONTINUOUS
 66
     1
 10
0.0
 20
0.0
 30
0.0
 70
     8
  0
VERTEX
  8
AM_VIS
  6
CONTINUOUS
 10
42.389445
 20
44.366578
 30
0.0
 70
    32
1001
ACAD
1000
R13OBJECT
1002
{
1005
54E
1002
}
  0
VERTEX
  8
AM_VIS
  6
CONTINUOUS
 10
42.402819
 20
44.385983
 30
0.0
 70
    32
1001
ACAD
1000
R13OBJECT
1002
{
1005
54E
1002
}
  0
VERTEX
  8
AM_VIS
  6
CONTINUOUS
 10
42.412937
 20
44.407268
 30
0.0
 70
    32
1001
ACAD
1000
R13OBJECT
1002
{
1005
54E
1002
}
  0
SEQEND
  8
AM_VIS
  6
CONTINUOUS
1001
ACAD
1000
R13OBJECT
1002
{
1005
54E
1002
}
  0
POLYLINE
  8
AM_VIS
  6
CONTINUOUS
 66
     1
 10
0.0
 20
0.0
 30
0.0
 70
     8
  0
VERTEX
  8
AM_VIS
  6
CONTINUOUS
 10
42.400566
 20
44.316782
 30
0.0
 70
    32
1001
ACAD
1000
R13OBJECT
1002
{
1005
54F
1002
}
  0
VERTEX
  8
AM_VIS
  6
CONTINUOUS
 10
42.437009
 20
44.351759
 30
0.0
 70
    32
1001
ACAD
1000
R13OBJECT
1002
{
1005
54F
1002
}
  0
VERTEX
  8
AM_VIS
  6
CONTINUOUS
 10
42.459044
 20
44.400781
 30
0.0
 70
    32
1001
ACAD
1000
R13OBJECT
1002
{
1005
54F
1002
}
  0
SEQEND
  8
AM_VIS
  6
CONTINUOUS
1001
ACAD
1000
R13OBJECT
1002
{
1005
54F
1002
}
  0
POLYLINE
  8
AM_VIS
  6
CONTINUOUS
 66
     1
 10
0.0
 20
0.0
 30
0.0
 70
     8
  0
VERTEX
  8
AM_VIS
  6
CONTINUOUS
 10
42.382377
 20
44.309482
 30
0.0
 70
    32
1001
ACAD
1000
R13OBJECT
1002
{
1005
550
1002
}
  0
VERTEX
  8
AM_VIS
  6
CONTINUOUS
 10
42.391366
 20
44.312276
 30
0.0
 70
    32
1001
ACAD
1000
R13OBJECT
1002
{
1005
550
1002
}
  0
VERTEX
  8
AM_VIS
  6
CONTINUOUS
 10
42.400566
 20
44.316782
 30
0.0
 70
    32
1001
ACAD
1000
R13OBJECT
1002
{
1005
550
1002
}
  0
SEQEND
  8
AM_VIS
  6
CONTINUOUS
1001
ACAD
1000
R13OBJECT
1002
{
1005
550
1002
}
  0
POLYLINE
  8
AM_VIS
  6
CONTINUOUS
 66
     1
 10
0.0
 20
0.0
 30
0.0
 70
     8
  0
VERTEX
  8
AM_VIS
  6
CONTINUOUS
 10
42.714211
 20
44.554087
 30
0.0
 70
    32
1001
ACAD
1000
R13OBJECT
1002
{
1005
551
1002
}
  0
VERTEX
  8
AM_VIS
  6
CONTINUOUS
 10
42.727573
 20
44.573476
 30
0.0
 70
    32
1001
ACAD
1000
R13OBJECT
1002
{
1005
551
1002
}
  0
VERTEX
  8
AM_VIS
  6
CONTINUOUS
 10
42.737684
 20
44.594742
 30
0.0
 70
    32
1001
ACAD
1000
R13OBJECT
1002
{
1005
551
1002
}
  0
SEQEND
  8
AM_VIS
  6
CONTINUOUS
1001
ACAD
1000
R13OBJECT
1002
{
1005
551
1002
}
  0
POLYLINE
  8
AM_VIS
  6
CONTINUOUS
 66
     1
 10
0.0
 20
0.0
 30
0.0
 70
     8
  0
VERTEX
  8
AM_VIS
  6
CONTINUOUS
 10
42.725323
 20
44.504281
 30
0.0
 70
    32
1001
ACAD
1000
R13OBJECT
1002
{
1005
552
1002
}
  0
VERTEX
  8
AM_VIS
  6
CONTINUOUS
 10
42.761766
 20
44.539258
 30
0.0
 70
    32
1001
ACAD
1000
R13OBJECT
1002
{
1005
552
1002
}
  0
VERTEX
  8
AM_VIS
  6
CONTINUOUS
 10
42.783801
 20
44.58828
 30
0.0
 70
    32
1001
ACAD
1000
R13OBJECT
1002
{
1005
552
1002
}
  0
SEQEND
  8
AM_VIS
  6
CONTINUOUS
1001
ACAD
1000
R13OBJECT
1002
{
1005
552
1002
}
  0
POLYLINE
  8
AM_VIS
  6
CONTINUOUS
 66
     1
 10
0.0
 20
0.0
 30
0.0
 70
     8
  0
VERTEX
  8
AM_VIS
  6
CONTINUOUS
 10
42.707134
 20
44.49698
 30
0.0
 70
    32
1001
ACAD
1000
R13OBJECT
1002
{
1005
553
1002
}
  0
VERTEX
  8
AM_VIS
  6
CONTINUOUS
 10
42.716123
 20
44.499774
 30
0.0
 70
    32
1001
ACAD
1000
R13OBJECT
1002
{
1005
553
1002
}
  0
VERTEX
  8
AM_VIS
  6
CONTINUOUS
 10
42.725323
 20
44.504281
 30
0.0
 70
    32
1001
ACAD
1000
R13OBJECT
1002
{
1005
553
1002
}
  0
SEQEND
  8
AM_VIS
  6
CONTINUOUS
1001
ACAD
1000
R13OBJECT
1002
{
1005
553
1002
}
  0
POLYLINE
  8
AM_VIS
  6
CONTINUOUS
 66
     1
 10
0.0
 20
0.0
 30
0.0
 70
     8
  0
VERTEX
  8
AM_VIS
  6
CONTINUOUS
 10
40.43124
 20
42.267049
 30
0.0
 70
    32
1001
ACAD
1000
R13OBJECT
1002
{
1005
554
1002
}
  0
VERTEX
  8
AM_VIS
  6
CONTINUOUS
 10
40.408893
 20
42.244701
 30
0.0
 70
    32
1001
ACAD
1000
R13OBJECT
1002
{
1005
554
1002
}
  0
VERTEX
  8
AM_VIS
  6
CONTINUOUS
 10
40.408893
 20
42.218897
 30
0.0
 70
    32
1001
ACAD
1000
R13OBJECT
1002
{
1005
554
1002
}
  0
VERTEX
  8
AM_VIS
  6
CONTINUOUS
 10
40.43124
 20
42.196549
 30
0.0
 70
    32
1001
ACAD
1000
R13OBJECT
1002
{
1005
554
1002
}
  0
VERTEX
  8
AM_VIS
  6
CONTINUOUS
 10
40.469947
 20
42.183647
 30
0.0
 70
    32
1001
ACAD
1000
R13OBJECT
1002
{
1005
554
1002
}
  0
VERTEX
  8
AM_VIS
  6
CONTINUOUS
 10
40.514642
 20
42.183647
 30
0.0
 70
    32
1001
ACAD
1000
R13OBJECT
1002
{
1005
554
1002
}
  0
VERTEX
  8
AM_VIS
  6
CONTINUOUS
 10
40.553349
 20
42.196549
 30
0.0
 70
    32
1001
ACAD
1000
R13OBJECT
1002
{
1005
554
1002
}
  0
VERTEX
  8
AM_VIS
  6
CONTINUOUS
 10
40.575696
 20
42.218897
 30
0.0
 70
    32
1001
ACAD
1000
R13OBJECT
1002
{
1005
554
1002
}
  0
VERTEX
  8
AM_VIS
  6
CONTINUOUS
 10
40.575696
 20
42.244701
 30
0.0
 70
    32
1001
ACAD
1000
R13OBJECT
1002
{
1005
554
1002
}
  0
VERTEX
  8
AM_VIS
  6
CONTINUOUS
 10
40.553349
 20
42.267049
 30
0.0
 70
    32
1001
ACAD
1000
R13OBJECT
1002
{
1005
554
1002
}
  0
VERTEX
  8
AM_VIS
  6
CONTINUOUS
 10
40.514642
 20
42.279951
 30
0.0
 70
    32
1001
ACAD
1000
R13OBJECT
1002
{
1005
554
1002
}
  0
VERTEX
  8
AM_VIS
  6
CONTINUOUS
 10
40.469947
 20
42.279951
 30
0.0
 70
    32
1001
ACAD
1000
R13OBJECT
1002
{
1005
554
1002
}
  0
VERTEX
  8
AM_VIS
  6
CONTINUOUS
 10
40.43124
 20
42.267049
 30
0.0
 70
    32
1001
ACAD
1000
R13OBJECT
1002
{
1005
554
1002
}
  0
SEQEND
  8
AM_VIS
  6
CONTINUOUS
1001
ACAD
1000
R13OBJECT
1002
{
1005
554
1002
}
  0
POLYLINE
  8
AM_VIS
  6
CONTINUOUS
 66
     1
 10
0.0
 20
0.0
 30
0.0
 70
     8
  0
VERTEX
  8
AM_VIS
  6
CONTINUOUS
 10
40.568319
 20
42.208182
 30
0.0
 70
    32
1001
ACAD
1000
R13OBJECT
1002
{
1005
555
1002
}
  0
VERTEX
  8
AM_VIS
  6
CONTINUOUS
 10
40.530327
 20
42.229303
 30
0.0
 70
    32
1001
ACAD
1000
R13OBJECT
1002
{
1005
555
1002
}
  0
VERTEX
  8
AM_VIS
  6
CONTINUOUS
 10
40.478144
 20
42.233726
 30
0.0
 70
    32
1001
ACAD
1000
R13OBJECT
1002
{
1005
555
1002
}
  0
VERTEX
  8
AM_VIS
  6
CONTINUOUS
 10
40.43124
 20
42.219799
 30
0.0
 70
    32
1001
ACAD
1000
R13OBJECT
1002
{
1005
555
1002
}
  0
SEQEND
  8
AM_VIS
  6
CONTINUOUS
1001
ACAD
1000
R13OBJECT
1002
{
1005
555
1002
}
  0
POLYLINE
  8
AM_VIS
  6
CONTINUOUS
 66
     1
 10
0.0
 20
0.0
 30
0.0
 70
     8
  0
VERTEX
  8
AM_VIS
  6
CONTINUOUS
 10
40.43124
 20
42.219799
 30
0.0
 70
    32
1001
ACAD
1000
R13OBJECT
1002
{
1005
556
1002
}
  0
VERTEX
  8
AM_VIS
  6
CONTINUOUS
 10
40.42302
 20
42.214306
 30
0.0
 70
    32
1001
ACAD
1000
R13OBJECT
1002
{
1005
556
1002
}
  0
VERTEX
  8
AM_VIS
  6
CONTINUOUS
 10
40.41627
 20
42.208182
 30
0.0
 70
    32
1001
ACAD
1000
R13OBJECT
1002
{
1005
556
1002
}
  0
SEQEND
  8
AM_VIS
  6
CONTINUOUS
1001
ACAD
1000
R13OBJECT
1002
{
1005
556
1002
}
  0
POLYLINE
  8
AM_VIS
  6
CONTINUOUS
 66
     1
 10
0.0
 20
0.0
 30
0.0
 70
     8
  0
VERTEX
  8
AM_VIS
  6
CONTINUOUS
 10
41.892646
 20
43.110792
 30
0.0
 70
    32
1001
ACAD
1000
R13OBJECT
1002
{
1005
557
1002
}
  0
VERTEX
  8
AM_VIS
  6
CONTINUOUS
 10
41.870299
 20
43.088444
 30
0.0
 70
    32
1001
ACAD
1000
R13OBJECT
1002
{
1005
557
1002
}
  0
VERTEX
  8
AM_VIS
  6
CONTINUOUS
 10
41.870299
 20
43.06264
 30
0.0
 70
    32
1001
ACAD
1000
R13OBJECT
1002
{
1005
557
1002
}
  0
VERTEX
  8
AM_VIS
  6
CONTINUOUS
 10
41.892646
 20
43.040292
 30
0.0
 70
    32
1001
ACAD
1000
R13OBJECT
1002
{
1005
557
1002
}
  0
VERTEX
  8
AM_VIS
  6
CONTINUOUS
 10
41.931353
 20
43.02739
 30
0.0
 70
    32
1001
ACAD
1000
R13OBJECT
1002
{
1005
557
1002
}
  0
VERTEX
  8
AM_VIS
  6
CONTINUOUS
 10
41.976048
 20
43.02739
 30
0.0
 70
    32
1001
ACAD
1000
R13OBJECT
1002
{
1005
557
1002
}
  0
VERTEX
  8
AM_VIS
  6
CONTINUOUS
 10
42.014755
 20
43.040292
 30
0.0
 70
    32
1001
ACAD
1000
R13OBJECT
1002
{
1005
557
1002
}
  0
VERTEX
  8
AM_VIS
  6
CONTINUOUS
 10
42.037102
 20
43.06264
 30
0.0
 70
    32
1001
ACAD
1000
R13OBJECT
1002
{
1005
557
1002
}
  0
VERTEX
  8
AM_VIS
  6
CONTINUOUS
 10
42.037102
 20
43.088444
 30
0.0
 70
    32
1001
ACAD
1000
R13OBJECT
1002
{
1005
557
1002
}
  0
VERTEX
  8
AM_VIS
  6
CONTINUOUS
 10
42.014755
 20
43.110792
 30
0.0
 70
    32
1001
ACAD
1000
R13OBJECT
1002
{
1005
557
1002
}
  0
VERTEX
  8
AM_VIS
  6
CONTINUOUS
 10
41.976048
 20
43.123694
 30
0.0
 70
    32
1001
ACAD
1000
R13OBJECT
1002
{
1005
557
1002
}
  0
VERTEX
  8
AM_VIS
  6
CONTINUOUS
 10
41.931353
 20
43.123694
 30
0.0
 70
    32
1001
ACAD
1000
R13OBJECT
1002
{
1005
557
1002
}
  0
VERTEX
  8
AM_VIS
  6
CONTINUOUS
 10
41.892646
 20
43.110792
 30
0.0
 70
    32
1001
ACAD
1000
R13OBJECT
1002
{
1005
557
1002
}
  0
SEQEND
  8
AM_VIS
  6
CONTINUOUS
1001
ACAD
1000
R13OBJECT
1002
{
1005
557
1002
}
  0
POLYLINE
  8
AM_VIS
  6
CONTINUOUS
 66
     1
 10
0.0
 20
0.0
 30
0.0
 70
     8
  0
VERTEX
  8
AM_VIS
  6
CONTINUOUS
 10
42.029725
 20
43.051925
 30
0.0
 70
    32
1001
ACAD
1000
R13OBJECT
1002
{
1005
558
1002
}
  0
VERTEX
  8
AM_VIS
  6
CONTINUOUS
 10
41.991733
 20
43.073047
 30
0.0
 70
    32
1001
ACAD
1000
R13OBJECT
1002
{
1005
558
1002
}
  0
VERTEX
  8
AM_VIS
  6
CONTINUOUS
 10
41.93955
 20
43.077469
 30
0.0
 70
    32
1001
ACAD
1000
R13OBJECT
1002
{
1005
558
1002
}
  0
VERTEX
  8
AM_VIS
  6
CONTINUOUS
 10
41.892646
 20
43.063542
 30
0.0
 70
    32
1001
ACAD
1000
R13OBJECT
1002
{
1005
558
1002
}
  0
SEQEND
  8
AM_VIS
  6
CONTINUOUS
1001
ACAD
1000
R13OBJECT
1002
{
1005
558
1002
}
  0
POLYLINE
  8
AM_VIS
  6
CONTINUOUS
 66
     1
 10
0.0
 20
0.0
 30
0.0
 70
     8
  0
VERTEX
  8
AM_VIS
  6
CONTINUOUS
 10
41.892646
 20
43.063542
 30
0.0
 70
    32
1001
ACAD
1000
R13OBJECT
1002
{
1005
559
1002
}
  0
VERTEX
  8
AM_VIS
  6
CONTINUOUS
 10
41.884427
 20
43.058049
 30
0.0
 70
    32
1001
ACAD
1000
R13OBJECT
1002
{
1005
559
1002
}
  0
VERTEX
  8
AM_VIS
  6
CONTINUOUS
 10
41.877676
 20
43.051925
 30
0.0
 70
    32
1001
ACAD
1000
R13OBJECT
1002
{
1005
559
1002
}
  0
SEQEND
  8
AM_VIS
  6
CONTINUOUS
1001
ACAD
1000
R13OBJECT
1002
{
1005
559
1002
}
  0
POLYLINE
  8
AM_VIS
  6
CONTINUOUS
 66
     1
 10
0.0
 20
0.0
 30
0.0
 70
     8
  0
VERTEX
  8
AM_VIS
  6
CONTINUOUS
 10
43.191674
 20
43.860786
 30
0.0
 70
    32
1001
ACAD
1000
R13OBJECT
1002
{
1005
55A
1002
}
  0
VERTEX
  8
AM_VIS
  6
CONTINUOUS
 10
43.169327
 20
43.838438
 30
0.0
 70
    32
1001
ACAD
1000
R13OBJECT
1002
{
1005
55A
1002
}
  0
VERTEX
  8
AM_VIS
  6
CONTINUOUS
 10
43.169327
 20
43.812634
 30
0.0
 70
    32
1001
ACAD
1000
R13OBJECT
1002
{
1005
55A
1002
}
  0
VERTEX
  8
AM_VIS
  6
CONTINUOUS
 10
43.191674
 20
43.790286
 30
0.0
 70
    32
1001
ACAD
1000
R13OBJECT
1002
{
1005
55A
1002
}
  0
VERTEX
  8
AM_VIS
  6
CONTINUOUS
 10
43.230381
 20
43.777384
 30
0.0
 70
    32
1001
ACAD
1000
R13OBJECT
1002
{
1005
55A
1002
}
  0
VERTEX
  8
AM_VIS
  6
CONTINUOUS
 10
43.275076
 20
43.777384
 30
0.0
 70
    32
1001
ACAD
1000
R13OBJECT
1002
{
1005
55A
1002
}
  0
VERTEX
  8
AM_VIS
  6
CONTINUOUS
 10
43.313783
 20
43.790286
 30
0.0
 70
    32
1001
ACAD
1000
R13OBJECT
1002
{
1005
55A
1002
}
  0
VERTEX
  8
AM_VIS
  6
CONTINUOUS
 10
43.33613
 20
43.812634
 30
0.0
 70
    32
1001
ACAD
1000
R13OBJECT
1002
{
1005
55A
1002
}
  0
VERTEX
  8
AM_VIS
  6
CONTINUOUS
 10
43.33613
 20
43.838438
 30
0.0
 70
    32
1001
ACAD
1000
R13OBJECT
1002
{
1005
55A
1002
}
  0
VERTEX
  8
AM_VIS
  6
CONTINUOUS
 10
43.313783
 20
43.860786
 30
0.0
 70
    32
1001
ACAD
1000
R13OBJECT
1002
{
1005
55A
1002
}
  0
VERTEX
  8
AM_VIS
  6
CONTINUOUS
 10
43.275076
 20
43.873688
 30
0.0
 70
    32
1001
ACAD
1000
R13OBJECT
1002
{
1005
55A
1002
}
  0
VERTEX
  8
AM_VIS
  6
CONTINUOUS
 10
43.230381
 20
43.873688
 30
0.0
 70
    32
1001
ACAD
1000
R13OBJECT
1002
{
1005
55A
1002
}
  0
VERTEX
  8
AM_VIS
  6
CONTINUOUS
 10
43.191674
 20
43.860786
 30
0.0
 70
    32
1001
ACAD
1000
R13OBJECT
1002
{
1005
55A
1002
}
  0
SEQEND
  8
AM_VIS
  6
CONTINUOUS
1001
ACAD
1000
R13OBJECT
1002
{
1005
55A
1002
}
  0
POLYLINE
  8
AM_VIS
  6
CONTINUOUS
 66
     1
 10
0.0
 20
0.0
 30
0.0
 70
     8
  0
VERTEX
  8
AM_VIS
  6
CONTINUOUS
 10
43.328753
 20
43.801919
 30
0.0
 70
    32
1001
ACAD
1000
R13OBJECT
1002
{
1005
55B
1002
}
  0
VERTEX
  8
AM_VIS
  6
CONTINUOUS
 10
43.290761
 20
43.823041
 30
0.0
 70
    32
1001
ACAD
1000
R13OBJECT
1002
{
1005
55B
1002
}
  0
VERTEX
  8
AM_VIS
  6
CONTINUOUS
 10
43.238577
 20
43.827463
 30
0.0
 70
    32
1001
ACAD
1000
R13OBJECT
1002
{
1005
55B
1002
}
  0
VERTEX
  8
AM_VIS
  6
CONTINUOUS
 10
43.191674
 20
43.813536
 30
0.0
 70
    32
1001
ACAD
1000
R13OBJECT
1002
{
1005
55B
1002
}
  0
SEQEND
  8
AM_VIS
  6
CONTINUOUS
1001
ACAD
1000
R13OBJECT
1002
{
1005
55B
1002
}
  0
POLYLINE
  8
AM_VIS
  6
CONTINUOUS
 66
     1
 10
0.0
 20
0.0
 30
0.0
 70
     8
  0
VERTEX
  8
AM_VIS
  6
CONTINUOUS
 10
43.191674
 20
43.813536
 30
0.0
 70
    32
1001
ACAD
1000
R13OBJECT
1002
{
1005
55C
1002
}
  0
VERTEX
  8
AM_VIS
  6
CONTINUOUS
 10
43.183454
 20
43.808043
 30
0.0
 70
    32
1001
ACAD
1000
R13OBJECT
1002
{
1005
55C
1002
}
  0
VERTEX
  8
AM_VIS
  6
CONTINUOUS
 10
43.176703
 20
43.801919
 30
0.0
 70
    32
1001
ACAD
1000
R13OBJECT
1002
{
1005
55C
1002
}
  0
SEQEND
  8
AM_VIS
  6
CONTINUOUS
1001
ACAD
1000
R13OBJECT
1002
{
1005
55C
1002
}
  0
LINE
  8
AM_VIS
 10
43.131269
 20
44.421386
 30
0.0
 11
43.131269
 21
44.340305
 31
0.0
  0
LINE
  8
AM_VIS
 10
32.739048
 20
39.207448
 30
0.0
 11
32.740117
 21
39.208065
 31
0.0
  0
LINE
  8
AM_VIS
 10
32.739048
 20
39.030267
 30
0.0
 11
32.739048
 21
39.207448
 31
0.0
  0
LINE
  8
AM_VIS
 10
43.285055
 20
44.181869
 30
0.0
 11
43.739864
 21
43.919285
 31
0.0
  0
LINE
  8
AM_VIS
 10
43.739864
 20
43.919285
 30
0.0
 11
40.459748
 21
42.02551
 31
0.0
  0
LINE
  8
AM_VIS
 10
40.500663
 20
42.001882
 30
0.0
 11
43.739864
 21
43.872036
 31
0.0
  0
LINE
  8
AM_VIS
 10
43.739864
 20
43.872036
 30
0.0
 11
43.739864
 21
43.919285
 31
0.0
  0
LINE
  8
AM_VIS
 10
32.739048
 20
39.207448
 30
0.0
 11
32.414291
 21
39.394947
 31
0.0
  0
LINE
  8
AM_VIS
 10
32.414291
 20
39.347697
 30
0.0
 11
32.414291
 21
39.394947
 31
0.0
  0
LINE
  8
AM_VIS
 10
32.414291
 20
39.347697
 30
0.0
 11
32.698129
 21
39.183824
 31
0.0
  0
LINE
  8
AM_VIS
 10
32.698129
 20
39.183824
 30
0.0
 11
32.698129
 21
39.00664
 31
0.0
  0
LINE
  8
AM_VIS
 10
42.9689
 20
45.301144
 30
0.0
 11
43.099628
 21
45.225668
 31
0.0
  0
LINE
  8
AM_VIS
 10
34.484279
 20
40.590055
 30
0.0
 11
36.879041
 21
41.972671
 31
0.0
  0
LINE
  8
AM_VIS
 10
32.414291
 20
39.394947
 30
0.0
 11
32.494823
 21
39.441442
 31
0.0
  0
POLYLINE
  8
AM_VIS
  6
CONTINUOUS
 66
     1
 10
0.0
 20
0.0
 30
0.0
 70
     8
  0
VERTEX
  8
AM_VIS
  6
CONTINUOUS
 10
42.382379
 20
44.307797
 30
0.0
 70
    32
1001
ACAD
1000
R13OBJECT
1002
{
1005
56B
1002
}
  0
VERTEX
  8
AM_VIS
  6
CONTINUOUS
 10
42.39021
 20
44.278568
 30
0.0
 70
    32
1001
ACAD
1000
R13OBJECT
1002
{
1005
56B
1002
}
  0
VERTEX
  8
AM_VIS
  6
CONTINUOUS
 10
42.411605
 20
44.266214
 30
0.0
 70
    32
1001
ACAD
1000
R13OBJECT
1002
{
1005
56B
1002
}
  0
VERTEX
  8
AM_VIS
  6
CONTINUOUS
 10
42.440833
 20
44.274044
 30
0.0
 70
    32
1001
ACAD
1000
R13OBJECT
1002
{
1005
56B
1002
}
  0
VERTEX
  8
AM_VIS
  6
CONTINUOUS
 10
42.470062
 20
44.299961
 30
0.0
 70
    32
1001
ACAD
1000
R13OBJECT
1002
{
1005
56B
1002
}
  0
VERTEX
  8
AM_VIS
  6
CONTINUOUS
 10
42.491459
 20
44.33702
 30
0.0
 70
    32
1001
ACAD
1000
R13OBJECT
1002
{
1005
56B
1002
}
  0
VERTEX
  8
AM_VIS
  6
CONTINUOUS
 10
42.499292
 20
44.375292
 30
0.0
 70
    32
1001
ACAD
1000
R13OBJECT
1002
{
1005
56B
1002
}
  0
SEQEND
  8
AM_VIS
  6
CONTINUOUS
1001
ACAD
1000
R13OBJECT
1002
{
1005
56B
1002
}
  0
LINE
  8
AM_VIS
 10
42.459022
 20
44.398542
 30
0.0
 11
42.499292
 21
44.375292
 31
0.0
  0
POLYLINE
  8
AM_VIS
  6
CONTINUOUS
 66
     1
 10
0.0
 20
0.0
 30
0.0
 70
     8
  0
VERTEX
  8
AM_VIS
  6
CONTINUOUS
 10
42.384533
 20
44.290627
 30
0.0
 70
    32
1001
ACAD
1000
R13OBJECT
1002
{
1005
56D
1002
}
  0
VERTEX
  8
AM_VIS
  6
CONTINUOUS
 10
42.41997
 20
44.312326
 30
0.0
 70
    32
1001
ACAD
1000
R13OBJECT
1002
{
1005
56D
1002
}
  0
VERTEX
  8
AM_VIS
  6
CONTINUOUS
 10
42.448269
 20
44.353324
 30
0.0
 70
    32
1001
ACAD
1000
R13OBJECT
1002
{
1005
56D
1002
}
  0
VERTEX
  8
AM_VIS
  6
CONTINUOUS
 10
42.459022
 20
44.398542
 30
0.0
 70
    32
1001
ACAD
1000
R13OBJECT
1002
{
1005
56D
1002
}
  0
SEQEND
  8
AM_VIS
  6
CONTINUOUS
1001
ACAD
1000
R13OBJECT
1002
{
1005
56D
1002
}
  0
LINE
  8
AM_VIS
 10
42.382379
 20
44.307797
 30
0.0
 11
42.38238
 21
44.330298
 31
0.0
  0
POLYLINE
  8
AM_VIS
  6
CONTINUOUS
 66
     1
 10
0.0
 20
0.0
 30
0.0
 70
     8
  0
VERTEX
  8
AM_VIS
  6
CONTINUOUS
 10
42.499292
 20
44.397792
 30
0.0
 70
    32
1001
ACAD
1000
R13OBJECT
1002
{
1005
56F
1002
}
  0
VERTEX
  8
AM_VIS
  6
CONTINUOUS
 10
42.491462
 20
44.427021
 30
0.0
 70
    32
1001
ACAD
1000
R13OBJECT
1002
{
1005
56F
1002
}
  0
VERTEX
  8
AM_VIS
  6
CONTINUOUS
 10
42.470066
 20
44.439376
 30
0.0
 70
    32
1001
ACAD
1000
R13OBJECT
1002
{
1005
56F
1002
}
  0
VERTEX
  8
AM_VIS
  6
CONTINUOUS
 10
42.440838
 20
44.431546
 30
0.0
 70
    32
1001
ACAD
1000
R13OBJECT
1002
{
1005
56F
1002
}
  0
VERTEX
  8
AM_VIS
  6
CONTINUOUS
 10
42.41161
 20
44.405629
 30
0.0
 70
    32
1001
ACAD
1000
R13OBJECT
1002
{
1005
56F
1002
}
  0
VERTEX
  8
AM_VIS
  6
CONTINUOUS
 10
42.390212
 20
44.368569
 30
0.0
 70
    32
1001
ACAD
1000
R13OBJECT
1002
{
1005
56F
1002
}
  0
VERTEX
  8
AM_VIS
  6
CONTINUOUS
 10
42.38238
 20
44.330298
 30
0.0
 70
    32
1001
ACAD
1000
R13OBJECT
1002
{
1005
56F
1002
}
  0
SEQEND
  8
AM_VIS
  6
CONTINUOUS
1001
ACAD
1000
R13OBJECT
1002
{
1005
56F
1002
}
  0
POLYLINE
  8
AM_VIS
  6
CONTINUOUS
 66
     1
 10
0.0
 20
0.0
 30
0.0
 70
     8
  0
VERTEX
  8
AM_VIS
  6
CONTINUOUS
 10
42.459022
 20
44.421042
 30
0.0
 70
    32
1001
ACAD
1000
R13OBJECT
1002
{
1005
570
1002
}
  0
VERTEX
  8
AM_VIS
  6
CONTINUOUS
 10
42.45846
 20
44.430061
 30
0.0
 70
    32
1001
ACAD
1000
R13OBJECT
1002
{
1005
570
1002
}
  0
VERTEX
  8
AM_VIS
  6
CONTINUOUS
 10
42.456782
 20
44.438257
 30
0.0
 70
    32
1001
ACAD
1000
R13OBJECT
1002
{
1005
570
1002
}
  0
SEQEND
  8
AM_VIS
  6
CONTINUOUS
1001
ACAD
1000
R13OBJECT
1002
{
1005
570
1002
}
  0
LINE
  8
AM_VIS
 10
42.459022
 20
44.421042
 30
0.0
 11
42.499292
 21
44.397792
 31
0.0
  0
LINE
  8
AM_VIS
 10
42.499292
 20
44.397792
 30
0.0
 11
42.499292
 21
44.375292
 31
0.0
  0
LINE
  8
AM_VIS
 10
42.459022
 20
44.398542
 30
0.0
 11
42.459022
 21
44.421042
 31
0.0
  0
POLYLINE
  8
AM_VIS
  6
CONTINUOUS
 66
     1
 10
0.0
 20
0.0
 30
0.0
 70
     8
  0
VERTEX
  8
AM_VIS
  6
CONTINUOUS
 10
42.707136
 20
44.495283
 30
0.0
 70
    32
1001
ACAD
1000
R13OBJECT
1002
{
1005
574
1002
}
  0
VERTEX
  8
AM_VIS
  6
CONTINUOUS
 10
42.714967
 20
44.466054
 30
0.0
 70
    32
1001
ACAD
1000
R13OBJECT
1002
{
1005
574
1002
}
  0
VERTEX
  8
AM_VIS
  6
CONTINUOUS
 10
42.736362
 20
44.453699
 30
0.0
 70
    32
1001
ACAD
1000
R13OBJECT
1002
{
1005
574
1002
}
  0
VERTEX
  8
AM_VIS
  6
CONTINUOUS
 10
42.76559
 20
44.461529
 30
0.0
 70
    32
1001
ACAD
1000
R13OBJECT
1002
{
1005
574
1002
}
  0
VERTEX
  8
AM_VIS
  6
CONTINUOUS
 10
42.794819
 20
44.487446
 30
0.0
 70
    32
1001
ACAD
1000
R13OBJECT
1002
{
1005
574
1002
}
  0
VERTEX
  8
AM_VIS
  6
CONTINUOUS
 10
42.816216
 20
44.524506
 30
0.0
 70
    32
1001
ACAD
1000
R13OBJECT
1002
{
1005
574
1002
}
  0
VERTEX
  8
AM_VIS
  6
CONTINUOUS
 10
42.824048
 20
44.562777
 30
0.0
 70
    32
1001
ACAD
1000
R13OBJECT
1002
{
1005
574
1002
}
  0
SEQEND
  8
AM_VIS
  6
CONTINUOUS
1001
ACAD
1000
R13OBJECT
1002
{
1005
574
1002
}
  0
LINE
  8
AM_VIS
 10
42.783779
 20
44.586027
 30
0.0
 11
42.824048
 21
44.562777
 31
0.0
  0
POLYLINE
  8
AM_VIS
  6
CONTINUOUS
 66
     1
 10
0.0
 20
0.0
 30
0.0
 70
     8
  0
VERTEX
  8
AM_VIS
  6
CONTINUOUS
 10
42.70929
 20
44.478112
 30
0.0
 70
    32
1001
ACAD
1000
R13OBJECT
1002
{
1005
576
1002
}
  0
VERTEX
  8
AM_VIS
  6
CONTINUOUS
 10
42.744727
 20
44.499811
 30
0.0
 70
    32
1001
ACAD
1000
R13OBJECT
1002
{
1005
576
1002
}
  0
VERTEX
  8
AM_VIS
  6
CONTINUOUS
 10
42.773026
 20
44.54081
 30
0.0
 70
    32
1001
ACAD
1000
R13OBJECT
1002
{
1005
576
1002
}
  0
VERTEX
  8
AM_VIS
  6
CONTINUOUS
 10
42.783779
 20
44.586027
 30
0.0
 70
    32
1001
ACAD
1000
R13OBJECT
1002
{
1005
576
1002
}
  0
SEQEND
  8
AM_VIS
  6
CONTINUOUS
1001
ACAD
1000
R13OBJECT
1002
{
1005
576
1002
}
  0
LINE
  8
AM_VIS
 10
42.707136
 20
44.495283
 30
0.0
 11
42.707137
 21
44.517783
 31
0.0
  0
POLYLINE
  8
AM_VIS
  6
CONTINUOUS
 66
     1
 10
0.0
 20
0.0
 30
0.0
 70
     8
  0
VERTEX
  8
AM_VIS
  6
CONTINUOUS
 10
42.824049
 20
44.585278
 30
0.0
 70
    32
1001
ACAD
1000
R13OBJECT
1002
{
1005
578
1002
}
  0
VERTEX
  8
AM_VIS
  6
CONTINUOUS
 10
42.816218
 20
44.614507
 30
0.0
 70
    32
1001
ACAD
1000
R13OBJECT
1002
{
1005
578
1002
}
  0
VERTEX
  8
AM_VIS
  6
CONTINUOUS
 10
42.794823
 20
44.626861
 30
0.0
 70
    32
1001
ACAD
1000
R13OBJECT
1002
{
1005
578
1002
}
  0
VERTEX
  8
AM_VIS
  6
CONTINUOUS
 10
42.765595
 20
44.619031
 30
0.0
 70
    32
1001
ACAD
1000
R13OBJECT
1002
{
1005
578
1002
}
  0
VERTEX
  8
AM_VIS
  6
CONTINUOUS
 10
42.736367
 20
44.593114
 30
0.0
 70
    32
1001
ACAD
1000
R13OBJECT
1002
{
1005
578
1002
}
  0
VERTEX
  8
AM_VIS
  6
CONTINUOUS
 10
42.714969
 20
44.556055
 30
0.0
 70
    32
1001
ACAD
1000
R13OBJECT
1002
{
1005
578
1002
}
  0
VERTEX
  8
AM_VIS
  6
CONTINUOUS
 10
42.707137
 20
44.517783
 30
0.0
 70
    32
1001
ACAD
1000
R13OBJECT
1002
{
1005
578
1002
}
  0
SEQEND
  8
AM_VIS
  6
CONTINUOUS
1001
ACAD
1000
R13OBJECT
1002
{
1005
578
1002
}
  0
POLYLINE
  8
AM_VIS
  6
CONTINUOUS
 66
     1
 10
0.0
 20
0.0
 30
0.0
 70
     8
  0
VERTEX
  8
AM_VIS
  6
CONTINUOUS
 10
42.783779
 20
44.608527
 30
0.0
 70
    32
1001
ACAD
1000
R13OBJECT
1002
{
1005
579
1002
}
  0
VERTEX
  8
AM_VIS
  6
CONTINUOUS
 10
42.783217
 20
44.617547
 30
0.0
 70
    32
1001
ACAD
1000
R13OBJECT
1002
{
1005
579
1002
}
  0
VERTEX
  8
AM_VIS
  6
CONTINUOUS
 10
42.781539
 20
44.625742
 30
0.0
 70
    32
1001
ACAD
1000
R13OBJECT
1002
{
1005
579
1002
}
  0
SEQEND
  8
AM_VIS
  6
CONTINUOUS
1001
ACAD
1000
R13OBJECT
1002
{
1005
579
1002
}
  0
LINE
  8
AM_VIS
 10
42.783779
 20
44.608527
 30
0.0
 11
42.824049
 21
44.585278
 31
0.0
  0
LINE
  8
AM_VIS
 10
42.824049
 20
44.585278
 30
0.0
 11
42.824048
 21
44.562777
 31
0.0
  0
LINE
  8
AM_VIS
 10
42.783779
 20
44.586027
 30
0.0
 11
42.783779
 21
44.608527
 31
0.0
  0
POLYLINE
  8
AM_VIS
  6
CONTINUOUS
 66
     1
 10
0.0
 20
0.0
 30
0.0
 70
     8
  0
VERTEX
  8
AM_VIS
  6
CONTINUOUS
 10
39.628439
 20
42.661296
 30
0.0
 70
    32
1001
ACAD
1000
R13OBJECT
1002
{
1005
57D
1002
}
  0
VERTEX
  8
AM_VIS
  6
CONTINUOUS
 10
39.657667
 20
42.687213
 30
0.0
 70
    32
1001
ACAD
1000
R13OBJECT
1002
{
1005
57D
1002
}
  0
VERTEX
  8
AM_VIS
  6
CONTINUOUS
 10
39.679064
 20
42.724273
 30
0.0
 70
    32
1001
ACAD
1000
R13OBJECT
1002
{
1005
57D
1002
}
  0
VERTEX
  8
AM_VIS
  6
CONTINUOUS
 10
39.686897
 20
42.762544
 30
0.0
 70
    32
1001
ACAD
1000
R13OBJECT
1002
{
1005
57D
1002
}
  0
VERTEX
  8
AM_VIS
  6
CONTINUOUS
 10
39.679066
 20
42.791773
 30
0.0
 70
    32
1001
ACAD
1000
R13OBJECT
1002
{
1005
57D
1002
}
  0
VERTEX
  8
AM_VIS
  6
CONTINUOUS
 10
39.657671
 20
42.804128
 30
0.0
 70
    32
1001
ACAD
1000
R13OBJECT
1002
{
1005
57D
1002
}
  0
VERTEX
  8
AM_VIS
  6
CONTINUOUS
 10
39.628443
 20
42.796298
 30
0.0
 70
    32
1001
ACAD
1000
R13OBJECT
1002
{
1005
57D
1002
}
  0
SEQEND
  8
AM_VIS
  6
CONTINUOUS
1001
ACAD
1000
R13OBJECT
1002
{
1005
57D
1002
}
  0
POLYLINE
  8
AM_VIS
  6
CONTINUOUS
 66
     1
 10
0.0
 20
0.0
 30
0.0
 70
     8
  0
VERTEX
  8
AM_VIS
  6
CONTINUOUS
 10
39.588169
 20
42.684546
 30
0.0
 70
    32
1001
ACAD
1000
R13OBJECT
1002
{
1005
57E
1002
}
  0
VERTEX
  8
AM_VIS
  6
CONTINUOUS
 10
39.621953
 20
42.716464
 30
0.0
 70
    32
1001
ACAD
1000
R13OBJECT
1002
{
1005
57E
1002
}
  0
VERTEX
  8
AM_VIS
  6
CONTINUOUS
 10
39.643311
 20
42.761469
 30
0.0
 70
    32
1001
ACAD
1000
R13OBJECT
1002
{
1005
57E
1002
}
  0
VERTEX
  8
AM_VIS
  6
CONTINUOUS
 10
39.644387
 20
42.803009
 30
0.0
 70
    32
1001
ACAD
1000
R13OBJECT
1002
{
1005
57E
1002
}
  0
SEQEND
  8
AM_VIS
  6
CONTINUOUS
1001
ACAD
1000
R13OBJECT
1002
{
1005
57E
1002
}
  0
LINE
  8
AM_VIS
 10
39.588169
 20
42.684546
 30
0.0
 11
39.628439
 21
42.661296
 31
0.0
  0
LINE
  8
AM_VIS
 10
39.628439
 20
42.661296
 30
0.0
 11
39.608953
 21
42.650047
 31
0.0
  0
LINE
  8
AM_VIS
 10
39.568683
 20
42.673297
 30
0.0
 11
39.588169
 21
42.684546
 31
0.0
  0
LINE
  8
AM_VIS
 10
39.568683
 20
42.673297
 30
0.0
 11
39.608953
 21
42.650047
 31
0.0
  0
POLYLINE
  8
AM_VIS
  6
CONTINUOUS
 66
     1
 10
0.0
 20
0.0
 30
0.0
 70
     8
  0
VERTEX
  8
AM_VIS
  6
CONTINUOUS
 10
39.608957
 20
42.785048
 30
0.0
 70
    32
1001
ACAD
1000
R13OBJECT
1002
{
1005
583
1002
}
  0
VERTEX
  8
AM_VIS
  6
CONTINUOUS
 10
39.579729
 20
42.759131
 30
0.0
 70
    32
1001
ACAD
1000
R13OBJECT
1002
{
1005
583
1002
}
  0
VERTEX
  8
AM_VIS
  6
CONTINUOUS
 10
39.558332
 20
42.722072
 30
0.0
 70
    32
1001
ACAD
1000
R13OBJECT
1002
{
1005
583
1002
}
  0
VERTEX
  8
AM_VIS
  6
CONTINUOUS
 10
39.550499
 20
42.6838
 30
0.0
 70
    32
1001
ACAD
1000
R13OBJECT
1002
{
1005
583
1002
}
  0
VERTEX
  8
AM_VIS
  6
CONTINUOUS
 10
39.55833
 20
42.654571
 30
0.0
 70
    32
1001
ACAD
1000
R13OBJECT
1002
{
1005
583
1002
}
  0
VERTEX
  8
AM_VIS
  6
CONTINUOUS
 10
39.579725
 20
42.642217
 30
0.0
 70
    32
1001
ACAD
1000
R13OBJECT
1002
{
1005
583
1002
}
  0
VERTEX
  8
AM_VIS
  6
CONTINUOUS
 10
39.608953
 20
42.650047
 30
0.0
 70
    32
1001
ACAD
1000
R13OBJECT
1002
{
1005
583
1002
}
  0
SEQEND
  8
AM_VIS
  6
CONTINUOUS
1001
ACAD
1000
R13OBJECT
1002
{
1005
583
1002
}
  0
POLYLINE
  8
AM_VIS
  6
CONTINUOUS
 66
     1
 10
0.0
 20
0.0
 30
0.0
 70
     8
  0
VERTEX
  8
AM_VIS
  6
CONTINUOUS
 10
39.552653
 20
42.66663
 30
0.0
 70
    32
1001
ACAD
1000
R13OBJECT
1002
{
1005
584
1002
}
  0
VERTEX
  8
AM_VIS
  6
CONTINUOUS
 10
39.56059
 20
42.669275
 30
0.0
 70
    32
1001
ACAD
1000
R13OBJECT
1002
{
1005
584
1002
}
  0
VERTEX
  8
AM_VIS
  6
CONTINUOUS
 10
39.568683
 20
42.673297
 30
0.0
 70
    32
1001
ACAD
1000
R13OBJECT
1002
{
1005
584
1002
}
  0
SEQEND
  8
AM_VIS
  6
CONTINUOUS
1001
ACAD
1000
R13OBJECT
1002
{
1005
584
1002
}
  0
LINE
  8
AM_VIS
 10
39.608957
 20
42.785048
 30
0.0
 11
39.628443
 21
42.796298
 31
0.0
  0
LINE
  8
AM_VIS
 10
43.124184
 20
44.336216
 30
0.0
 11
43.141071
 21
44.345965
 31
0.0
  0
LINE
  8
AM_VIS
 10
43.124184
 20
44.336216
 30
0.0
 11
43.171241
 21
44.309048
 31
0.0
  0
LINE
  8
AM_VIS
 10
43.188128
 20
44.318797
 30
0.0
 11
43.171241
 21
44.309048
 31
0.0
  0
LINE
  8
AM_VIS
 10
43.141071
 20
44.345965
 30
0.0
 11
43.188128
 21
44.318797
 31
0.0
  0
POLYLINE
  8
AM_VIS
 66
     1
 10
0.0
 20
0.0
 30
0.0
  0
VERTEX
  8
AM_VIS
 10
43.098213
 20
44.329153
 30
0.0
  0
VERTEX
  8
AM_VIS
 10
43.098475
 20
44.329152
 30
0.0
  0
VERTEX
  8
AM_VIS
 10
43.105114
 20
44.329625
 30
0.0
  0
VERTEX
  8
AM_VIS
 10
43.1117
 20
44.330992
 30
0.0
  0
VERTEX
  8
AM_VIS
 10
43.1181
 20
44.333205
 30
0.0
  0
VERTEX
  8
AM_VIS
 10
43.124184
 20
44.336216
 30
0.0
  0
SEQEND
  8
AM_VIS
  0
POLYLINE
  8
AM_VIS
  6
CONTINUOUS
 66
     1
 10
0.0
 20
0.0
 30
0.0
 70
     8
  0
VERTEX
  8
AM_VIS
  6
CONTINUOUS
 10
43.106802
 20
44.407266
 30
0.0
 70
    32
1001
ACAD
1000
R13OBJECT
1002
{
1005
592
1002
}
  0
VERTEX
  8
AM_VIS
  6
CONTINUOUS
 10
43.09431
 20
44.370003
 30
0.0
 70
    32
1001
ACAD
1000
R13OBJECT
1002
{
1005
592
1002
}
  0
VERTEX
  8
AM_VIS
  6
CONTINUOUS
 10
43.095023
 20
44.337092
 30
0.0
 70
    32
1001
ACAD
1000
R13OBJECT
1002
{
1005
592
1002
}
  0
SEQEND
  8
AM_VIS
  6
CONTINUOUS
1001
ACAD
1000
R13OBJECT
1002
{
1005
592
1002
}
  0
POLYLINE
  8
AM_VIS
 66
     1
 10
0.0
 20
0.0
 30
0.0
  0
VERTEX
  8
AM_VIS
 10
43.171241
 20
44.309048
 30
0.0
  0
VERTEX
  8
AM_VIS
 10
43.165874
 20
44.30643
 30
0.0
  0
VERTEX
  8
AM_VIS
 10
43.160097
 20
44.304508
 30
0.0
  0
VERTEX
  8
AM_VIS
 10
43.154028
 20
44.303304
 30
0.0
  0
VERTEX
  8
AM_VIS
 10
43.147786
 20
44.302842
 30
0.0
  0
VERTEX
  8
AM_VIS
 10
43.141504
 20
44.303116
 30
0.0
  0
VERTEX
  8
AM_VIS
 10
43.135323
 20
44.304047
 30
0.0
  0
VERTEX
  8
AM_VIS
 10
43.129375
 20
44.305552
 30
0.0
  0
VERTEX
  8
AM_VIS
 10
43.123791
 20
44.307548
 30
0.0
  0
VERTEX
  8
AM_VIS
 10
43.118548
 20
44.310018
 30
0.0
  0
VERTEX
  8
AM_VIS
 10
43.113507
 20
44.313022
 30
0.0
  0
VERTEX
  8
AM_VIS
 10
43.108808
 20
44.316517
 30
0.0
  0
VERTEX
  8
AM_VIS
 10
43.104594
 20
44.32046
 30
0.0
  0
VERTEX
  8
AM_VIS
 10
43.101349
 20
44.324315
 30
0.0
  0
VERTEX
  8
AM_VIS
 10
43.098646
 20
44.328419
 30
0.0
  0
VERTEX
  8
AM_VIS
 10
43.096525
 20
44.332701
 30
0.0
  0
VERTEX
  8
AM_VIS
 10
43.095023
 20
44.337092
 30
0.0
  0
SEQEND
  8
AM_VIS
  0
POLYLINE
  8
AM_VIS
 66
     1
 10
0.0
 20
0.0
 30
0.0
  0
VERTEX
  8
AM_VIS
 10
43.287134
 20
44.242137
 30
0.0
  0
VERTEX
  8
AM_VIS
 10
43.28006
 20
44.239022
 30
0.0
  0
VERTEX
  8
AM_VIS
 10
43.272091
 20
44.237321
 30
0.0
  0
SEQEND
  8
AM_VIS
  0
LINE
  8
AM_VIS
 10
43.284151
 20
44.243859
 30
0.0
 11
43.287134
 21
44.242137
 31
0.0
  0
POLYLINE
  8
AM_VIS
 66
     1
 10
0.0
 20
0.0
 30
0.0
  0
VERTEX
  8
AM_VIS
 10
43.272091
 20
44.237321
 30
0.0
  0
VERTEX
  8
AM_VIS
 10
43.277914
 20
44.240354
 30
0.0
  0
VERTEX
  8
AM_VIS
 10
43.284151
 20
44.243859
 30
0.0
  0
SEQEND
  8
AM_VIS
  0
LINE
  8
AM_VIS
 10
43.106802
 20
44.407266
 30
0.0
 11
43.171529
 21
44.444634
 31
0.0
  0
LINE
  8
AM_VIS
 10
43.304021
 20
44.251886
 30
0.0
 11
43.287134
 21
44.242137
 31
0.0
  0
LINE
  8
AM_VIS
 10
43.301038
 20
44.253608
 30
0.0
 11
43.304021
 21
44.251886
 31
0.0
  0
LINE
  8
AM_VIS
 10
43.284151
 20
44.243859
 30
0.0
 11
43.301038
 21
44.253608
 31
0.0
  0
POLYLINE
  8
AM_VIS
  6
CONTINUOUS
 66
     1
 10
0.0
 20
0.0
 30
0.0
 70
     8
  0
VERTEX
  8
AM_VIS
  6
CONTINUOUS
 10
43.249311
 20
44.253847
 30
0.0
 70
    32
1001
ACAD
1000
R13OBJECT
1002
{
1005
5B5
1002
}
  0
VERTEX
  8
AM_VIS
  6
CONTINUOUS
 10
43.270055
 20
44.245797
 30
0.0
 70
    32
1001
ACAD
1000
R13OBJECT
1002
{
1005
5B5
1002
}
  0
VERTEX
  8
AM_VIS
  6
CONTINUOUS
 10
43.288628
 20
44.246443
 30
0.0
 70
    32
1001
ACAD
1000
R13OBJECT
1002
{
1005
5B5
1002
}
  0
SEQEND
  8
AM_VIS
  6
CONTINUOUS
1001
ACAD
1000
R13OBJECT
1002
{
1005
5B5
1002
}
  0
LINE
  8
AM_VIS
 10
39.92462
 20
42.334471
 30
0.0
 11
43.249311
 21
44.253847
 31
0.0
  0
LINE
  8
AM_VIS
 10
39.950325
 20
42.319633
 30
0.0
 11
43.272091
 21
44.237321
 31
0.0
  0
LINE
  8
AM_VIS
 10
39.775392
 20
42.420636
 30
0.0
 11
43.095023
 21
44.337092
 31
0.0
  0
LINE
  8
AM_VIS
 10
39.91828
 20
42.338131
 30
0.0
 11
43.242971
 21
44.257508
 31
0.0
  0
POLYLINE
  8
AM_VIS
  6
CONTINUOUS
 66
     1
 10
0.0
 20
0.0
 30
0.0
 70
     8
  0
VERTEX
  8
AM_VIS
  6
CONTINUOUS
 10
43.188128
 20
44.318797
 30
0.0
 70
    32
1001
ACAD
1000
R13OBJECT
1002
{
1005
5BA
1002
}
  0
VERTEX
  8
AM_VIS
  6
CONTINUOUS
 10
43.212697
 20
44.282759
 30
0.0
 70
    32
1001
ACAD
1000
R13OBJECT
1002
{
1005
5BA
1002
}
  0
VERTEX
  8
AM_VIS
  6
CONTINUOUS
 10
43.242971
 20
44.257508
 30
0.0
 70
    32
1001
ACAD
1000
R13OBJECT
1002
{
1005
5BA
1002
}
  0
SEQEND
  8
AM_VIS
  6
CONTINUOUS
1001
ACAD
1000
R13OBJECT
1002
{
1005
5BA
1002
}
  0
LINE
  8
AM_VIS
 10
43.171547
 20
45.055248
 30
0.0
 11
43.171529
 21
44.444634
 31
0.0
  0
LINE
  8
AM_VIS
 10
32.779329
 20
39.165485
 30
0.0
 11
32.850774
 21
39.20673
 31
0.0
  0
LINE
  8
AM_VIS
 10
32.779326
 20
39.053524
 30
0.0
 11
32.779329
 21
39.165485
 31
0.0
  0
POLYLINE
  8
AM_VIS
  6
CONTINUOUS
 66
     1
 10
0.0
 20
0.0
 30
0.0
 70
     8
  0
VERTEX
  8
AM_VIS
  6
CONTINUOUS
 10
32.850778
 20
39.206736
 30
0.0
 70
    32
1001
ACAD
1000
R13OBJECT
1002
{
1005
5BE
1002
}
  0
VERTEX
  8
AM_VIS
  6
CONTINUOUS
 10
32.815055
 20
39.216308
 30
0.0
 70
    32
1001
ACAD
1000
R13OBJECT
1002
{
1005
5BE
1002
}
  0
VERTEX
  8
AM_VIS
  6
CONTINUOUS
 10
32.788903
 20
39.201209
 30
0.0
 70
    32
1001
ACAD
1000
R13OBJECT
1002
{
1005
5BE
1002
}
  0
VERTEX
  8
AM_VIS
  6
CONTINUOUS
 10
32.779329
 20
39.165485
 30
0.0
 70
    32
1001
ACAD
1000
R13OBJECT
1002
{
1005
5BE
1002
}
  0
SEQEND
  8
AM_VIS
  6
CONTINUOUS
1001
ACAD
1000
R13OBJECT
1002
{
1005
5BE
1002
}
  0
POLYLINE
  8
AM_VIS
  6
CONTINUOUS
 66
     1
 10
0.0
 20
0.0
 30
0.0
 70
     8
  0
VERTEX
  8
AM_VIS
  6
CONTINUOUS
 10
43.333282
 20
45.149872
 30
0.0
 70
    32
1001
ACAD
1000
R13OBJECT
1002
{
1005
5BF
1002
}
  0
VERTEX
  8
AM_VIS
  6
CONTINUOUS
 10
43.297479
 20
45.207186
 30
0.0
 70
    32
1001
ACAD
1000
R13OBJECT
1002
{
1005
5BF
1002
}
  0
VERTEX
  8
AM_VIS
  6
CONTINUOUS
 10
43.251683
 20
45.249614
 30
0.0
 70
    32
1001
ACAD
1000
R13OBJECT
1002
{
1005
5BF
1002
}
  0
VERTEX
  8
AM_VIS
  6
CONTINUOUS
 10
43.204295
 20
45.269374
 30
0.0
 70
    32
1001
ACAD
1000
R13OBJECT
1002
{
1005
5BF
1002
}
  0
VERTEX
  8
AM_VIS
  6
CONTINUOUS
 10
43.164005
 20
45.262842
 30
0.0
 70
    32
1001
ACAD
1000
R13OBJECT
1002
{
1005
5BF
1002
}
  0
SEQEND
  8
AM_VIS
  6
CONTINUOUS
1001
ACAD
1000
R13OBJECT
1002
{
1005
5BF
1002
}
  0
LINE
  8
AM_VIS
 10
43.333282
 20
45.149872
 30
0.0
 11
43.333282
 21
45.148641
 31
0.0
  0
LINE
  8
AM_VIS
 10
43.333282
 20
45.148641
 30
0.0
 11
32.941061
 21
39.14911
 31
0.0
  0
LINE
  8
AM_VIS
 10
32.941061
 20
39.150341
 30
0.0
 11
43.333282
 21
45.149872
 31
0.0
  0
LINE
  8
AM_VIS
 10
32.941061
 20
39.14911
 30
0.0
 11
32.941061
 21
39.150341
 31
0.0
  0
LINE
  8
AM_VIS
 10
32.940411
 20
39.149485
 30
0.0
 11
32.941061
 21
39.14911
 31
0.0
  0
POLYLINE
  8
AM_VIS
  6
CONTINUOUS
 66
     1
 10
0.0
 20
0.0
 30
0.0
 70
     8
  0
VERTEX
  8
AM_VIS
  6
CONTINUOUS
 10
32.941061
 20
39.150341
 30
0.0
 70
    32
1001
ACAD
1000
R13OBJECT
1002
{
1005
5C5
1002
}
  0
VERTEX
  8
AM_VIS
  6
CONTINUOUS
 10
32.906517
 20
39.206103
 30
0.0
 70
    32
1001
ACAD
1000
R13OBJECT
1002
{
1005
5C5
1002
}
  0
VERTEX
  8
AM_VIS
  6
CONTINUOUS
 10
32.862347
 20
39.248115
 30
0.0
 70
    32
1001
ACAD
1000
R13OBJECT
1002
{
1005
5C5
1002
}
  0
VERTEX
  8
AM_VIS
  6
CONTINUOUS
 10
32.816178
 20
39.26912
 30
0.0
 70
    32
1001
ACAD
1000
R13OBJECT
1002
{
1005
5C5
1002
}
  0
VERTEX
  8
AM_VIS
  6
CONTINUOUS
 10
32.775985
 20
39.265491
 30
0.0
 70
    32
1001
ACAD
1000
R13OBJECT
1002
{
1005
5C5
1002
}
  0
VERTEX
  8
AM_VIS
  6
CONTINUOUS
 10
32.748708
 20
39.237855
 30
0.0
 70
    32
1001
ACAD
1000
R13OBJECT
1002
{
1005
5C5
1002
}
  0
VERTEX
  8
AM_VIS
  6
CONTINUOUS
 10
32.73906
 20
39.190985
 30
0.0
 70
    32
1001
ACAD
1000
R13OBJECT
1002
{
1005
5C5
1002
}
  0
SEQEND
  8
AM_VIS
  6
CONTINUOUS
1001
ACAD
1000
R13OBJECT
1002
{
1005
5C5
1002
}
  0
LINE
  8
AM_VIS
 10
32.73906
 20
39.190985
 30
0.0
 11
32.739055
 21
39.030271
 31
0.0
  0
LINE
  8
AM_VIS
 10
32.850778
 20
39.206736
 30
0.0
 11
32.857274
 21
39.202986
 31
0.0
  0
POLYLINE
  8
AM_VIS
  6
CONTINUOUS
 66
     1
 10
0.0
 20
0.0
 30
0.0
 70
     8
  0
VERTEX
  8
AM_VIS
  6
CONTINUOUS
 10
32.909883
 20
39.14161
 30
0.0
 70
    32
1001
ACAD
1000
R13OBJECT
1002
{
1005
5C8
1002
}
  0
VERTEX
  8
AM_VIS
  6
CONTINUOUS
 10
32.886806
 20
39.177737
 30
0.0
 70
    32
1001
ACAD
1000
R13OBJECT
1002
{
1005
5C8
1002
}
  0
VERTEX
  8
AM_VIS
  6
CONTINUOUS
 10
32.857274
 20
39.202986
 30
0.0
 70
    32
1001
ACAD
1000
R13OBJECT
1002
{
1005
5C8
1002
}
  0
SEQEND
  8
AM_VIS
  6
CONTINUOUS
1001
ACAD
1000
R13OBJECT
1002
{
1005
5C8
1002
}
  0
LINE
  8
AM_VIS
 10
32.909883
 20
39.14161
 30
0.0
 11
32.940411
 21
39.149485
 31
0.0
  0
LINE
  8
AM_VIS
 10
43.304021
 20
44.251886
 30
0.0
 11
43.332604
 21
44.211507
 31
0.0
  0
LINE
  8
AM_VIS
 10
43.332604
 20
44.211507
 30
0.0
 11
43.332763
 21
44.211415
 31
0.0
  0
POLYLINE
  8
AM_VIS
  6
CONTINUOUS
 66
     1
 10
0.0
 20
0.0
 30
0.0
 70
     8
  0
VERTEX
  8
AM_VIS
  6
CONTINUOUS
 10
43.321972
 20
44.203187
 30
0.0
 70
    32
1001
ACAD
1000
R13OBJECT
1002
{
1005
5CC
1002
}
  0
VERTEX
  8
AM_VIS
  6
CONTINUOUS
 10
43.327599
 20
44.206936
 30
0.0
 70
    32
1001
ACAD
1000
R13OBJECT
1002
{
1005
5CC
1002
}
  0
VERTEX
  8
AM_VIS
  6
CONTINUOUS
 10
43.332763
 20
44.211415
 30
0.0
 70
    32
1001
ACAD
1000
R13OBJECT
1002
{
1005
5CC
1002
}
  0
SEQEND
  8
AM_VIS
  6
CONTINUOUS
1001
ACAD
1000
R13OBJECT
1002
{
1005
5CC
1002
}
  0
LINE
  8
AM_VIS
 10
43.242971
 20
44.257508
 30
0.0
 11
43.249311
 21
44.253847
 31
0.0
  0
LINE
  8
AM_VIS
 10
43.332763
 20
44.211415
 30
0.0
 11
40.003093
 21
42.289165
 31
0.0
  0
LINE
  8
AM_VIS
 10
40.002935
 20
42.289257
 30
0.0
 11
43.332604
 21
44.211507
 31
0.0
  0
POLYLINE
  8
AM_VIS
 66
     1
 10
0.0
 20
0.0
 30
0.0
  0
VERTEX
  8
AM_VIS
 10
39.270286
 20
42.660187
 30
0.0
  0
VERTEX
  8
AM_VIS
 10
39.248821
 20
42.66206
 30
0.0
  0
VERTEX
  8
AM_VIS
 10
39.227406
 20
42.663191
 30
0.0
  0
VERTEX
  8
AM_VIS
 10
39.213842
 20
42.663943
 30
0.0
  0
VERTEX
  8
AM_VIS
 10
39.210579
 20
42.664297
 30
0.0
  0
VERTEX
  8
AM_VIS
 10
39.207498
 20
42.6648
 30
0.0
  0
VERTEX
  8
AM_VIS
 10
39.206039
 20
42.66513
 30
0.0
  0
VERTEX
  8
AM_VIS
 10
39.204643
 20
42.665532
 30
0.0
  0
VERTEX
  8
AM_VIS
 10
39.203319
 20
42.666025
 30
0.0
  0
VERTEX
  8
AM_VIS
 10
39.202689
 20
42.666315
 30
0.0
  0
VERTEX
  8
AM_VIS
 10
39.202084
 20
42.666638
 30
0.0
  0
VERTEX
  8
AM_VIS
 10
39.201243
 20
42.667186
 30
0.0
  0
VERTEX
  8
AM_VIS
 10
39.200557
 20
42.667759
 30
0.0
  0
VERTEX
  8
AM_VIS
 10
39.200005
 20
42.668354
 30
0.0
  0
VERTEX
  8
AM_VIS
 10
39.199568
 20
42.668967
 30
0.0
  0
VERTEX
  8
AM_VIS
 10
39.198966
 20
42.670237
 30
0.0
  0
VERTEX
  8
AM_VIS
 10
39.198658
 20
42.671546
 30
0.0
  0
VERTEX
  8
AM_VIS
 10
39.198648
 20
42.674182
 30
0.0
  0
VERTEX
  8
AM_VIS
 10
39.19914
 20
42.676675
 30
0.0
  0
VERTEX
  8
AM_VIS
 10
39.204327
 20
42.687516
 30
0.0
  0
VERTEX
  8
AM_VIS
 10
39.21157
 20
42.695675
 30
0.0
  0
VERTEX
  8
AM_VIS
 10
39.21742
 20
42.699687
 30
0.0
  0
SEQEND
  8
AM_VIS
  0
POLYLINE
  8
AM_VIS
 66
     1
 10
0.0
 20
0.0
 30
0.0
  0
VERTEX
  8
AM_VIS
 10
39.286502
 20
42.673312
 30
0.0
  0
VERTEX
  8
AM_VIS
 10
39.286493
 20
42.673276
 30
0.0
  0
VERTEX
  8
AM_VIS
 10
39.286581
 20
42.673189
 30
0.0
  0
VERTEX
  8
AM_VIS
 10
39.286767
 20
42.673042
 30
0.0
  0
VERTEX
  8
AM_VIS
 10
39.28706
 20
42.672834
 30
0.0
  0
VERTEX
  8
AM_VIS
 10
39.287471
 20
42.672559
 30
0.0
  0
VERTEX
  8
AM_VIS
 10
39.288004
 20
42.672219
 30
0.0
  0
VERTEX
  8
AM_VIS
 10
39.288657
 20
42.671817
 30
0.0
  0
VERTEX
  8
AM_VIS
 10
39.289426
 20
42.671357
 30
0.0
  0
SEQEND
  8
AM_VIS
  0
POLYLINE
  8
AM_VIS
 66
     1
 10
0.0
 20
0.0
 30
0.0
  0
VERTEX
  8
AM_VIS
 10
39.286625
 20
42.673312
 30
0.0
  0
VERTEX
  8
AM_VIS
 10
39.286502
 20
42.673312
 30
0.0
  0
SEQEND
  8
AM_VIS
  0
POLYLINE
  8
AM_VIS
 66
     1
 10
0.0
 20
0.0
 30
0.0
  0
VERTEX
  8
AM_VIS
 10
39.164679
 20
42.739597
 30
0.0
  0
VERTEX
  8
AM_VIS
 10
39.171339
 20
42.738839
 30
0.0
  0
VERTEX
  8
AM_VIS
 10
39.176665
 20
42.736797
 30
0.0
  0
SEQEND
  8
AM_VIS
  0
POLYLINE
  8
AM_VIS
 66
     1
 10
0.0
 20
0.0
 30
0.0
  0
VERTEX
  8
AM_VIS
 10
39.21742
 20
42.699687
 30
0.0
  0
VERTEX
  8
AM_VIS
 10
39.220283
 20
42.701425
 30
0.0
  0
VERTEX
  8
AM_VIS
 10
39.221967
 20
42.703127
 30
0.0
  0
VERTEX
  8
AM_VIS
 10
39.222413
 20
42.704482
 30
0.0
  0
VERTEX
  8
AM_VIS
 10
39.222111
 20
42.706004
 30
0.0
  0
VERTEX
  8
AM_VIS
 10
39.220995
 20
42.70773
 30
0.0
  0
VERTEX
  8
AM_VIS
 10
39.219001
 20
42.709699
 30
0.0
  0
VERTEX
  8
AM_VIS
 10
39.216106
 20
42.711946
 30
0.0
  0
VERTEX
  8
AM_VIS
 10
39.21237
 20
42.71448
 30
0.0
  0
VERTEX
  8
AM_VIS
 10
39.207863
 20
42.717293
 30
0.0
  0
VERTEX
  8
AM_VIS
 10
39.202692
 20
42.720344
 30
0.0
  0
VERTEX
  8
AM_VIS
 10
39.196913
 20
42.723615
 30
0.0
  0
VERTEX
  8
AM_VIS
 10
39.190574
 20
42.727063
 30
0.0
  0
VERTEX
  8
AM_VIS
 10
39.183791
 20
42.730603
 30
0.0
  0
VERTEX
  8
AM_VIS
 10
39.17669
 20
42.734128
 30
0.0
  0
VERTEX
  8
AM_VIS
 10
39.170716
 20
42.736932
 30
0.0
  0
VERTEX
  8
AM_VIS
 10
39.164679
 20
42.739597
 30
0.0
  0
SEQEND
  8
AM_VIS
  0
LINE
  8
AM_VIS
 10
39.286481
 20
42.6733
 30
0.0
 11
39.286502
 21
42.673312
 31
0.0
  0
LINE
  8
AM_VIS
 10
29.105551
 20
36.932772
 30
0.0
 11
39.164679
 21
42.739597
 31
0.0
  0
POLYLINE
  8
AM_VIS
  6
CONTINUOUS
 66
     1
 10
0.0
 20
0.0
 30
0.0
 70
     8
  0
VERTEX
  8
AM_VIS
  6
CONTINUOUS
 10
42.562932
 20
32.332645
 30
0.0
 70
    32
1001
ACAD
1000
R13OBJECT
1002
{
1005
611
1002
}
  0
VERTEX
  8
AM_VIS
  6
CONTINUOUS
 10
42.582929
 20
32.351258
 30
0.0
 70
    32
1001
ACAD
1000
R13OBJECT
1002
{
1005
611
1002
}
  0
VERTEX
  8
AM_VIS
  6
CONTINUOUS
 10
42.596073
 20
32.377629
 30
0.0
 70
    32
1001
ACAD
1000
R13OBJECT
1002
{
1005
611
1002
}
  0
VERTEX
  8
AM_VIS
  6
CONTINUOUS
 10
42.597859
 20
32.402719
 30
0.0
 70
    32
1001
ACAD
1000
R13OBJECT
1002
{
1005
611
1002
}
  0
SEQEND
  8
AM_VIS
  6
CONTINUOUS
1001
ACAD
1000
R13OBJECT
1002
{
1005
611
1002
}
  0
POLYLINE
  8
AM_VIS
  6
CONTINUOUS
 66
     1
 10
0.0
 20
0.0
 30
0.0
 70
     8
  0
VERTEX
  8
AM_VIS
  6
CONTINUOUS
 10
42.540539
 20
32.328827
 30
0.0
 70
    32
1001
ACAD
1000
R13OBJECT
1002
{
1005
612
1002
}
  0
VERTEX
  8
AM_VIS
  6
CONTINUOUS
 10
42.551061
 20
32.328136
 30
0.0
 70
    32
1001
ACAD
1000
R13OBJECT
1002
{
1005
612
1002
}
  0
VERTEX
  8
AM_VIS
  6
CONTINUOUS
 10
42.562932
 20
32.332645
 30
0.0
 70
    32
1001
ACAD
1000
R13OBJECT
1002
{
1005
612
1002
}
  0
SEQEND
  8
AM_VIS
  6
CONTINUOUS
1001
ACAD
1000
R13OBJECT
1002
{
1005
612
1002
}
  0
POLYLINE
  8
AM_VIS
  6
CONTINUOUS
 66
     1
 10
0.0
 20
0.0
 30
0.0
 70
     8
  0
VERTEX
  8
AM_VIS
  6
CONTINUOUS
 10
39.964877
 20
30.832657
 30
0.0
 70
    32
1001
ACAD
1000
R13OBJECT
1002
{
1005
613
1002
}
  0
VERTEX
  8
AM_VIS
  6
CONTINUOUS
 10
39.987494
 20
30.855035
 30
0.0
 70
    32
1001
ACAD
1000
R13OBJECT
1002
{
1005
613
1002
}
  0
VERTEX
  8
AM_VIS
  6
CONTINUOUS
 10
39.99989
 20
30.885941
 30
0.0
 70
    32
1001
ACAD
1000
R13OBJECT
1002
{
1005
613
1002
}
  0
VERTEX
  8
AM_VIS
  6
CONTINUOUS
 10
39.996465
 20
30.911408
 30
0.0
 70
    32
1001
ACAD
1000
R13OBJECT
1002
{
1005
613
1002
}
  0
SEQEND
  8
AM_VIS
  6
CONTINUOUS
1001
ACAD
1000
R13OBJECT
1002
{
1005
613
1002
}
  0
POLYLINE
  8
AM_VIS
  6
CONTINUOUS
 66
     1
 10
0.0
 20
0.0
 30
0.0
 70
     8
  0
VERTEX
  8
AM_VIS
  6
CONTINUOUS
 10
39.948195
 20
30.8278
 30
0.0
 70
    32
1001
ACAD
1000
R13OBJECT
1002
{
1005
614
1002
}
  0
VERTEX
  8
AM_VIS
  6
CONTINUOUS
 10
39.956284
 20
30.828907
 30
0.0
 70
    32
1001
ACAD
1000
R13OBJECT
1002
{
1005
614
1002
}
  0
VERTEX
  8
AM_VIS
  6
CONTINUOUS
 10
39.964877
 20
30.832657
 30
0.0
 70
    32
1001
ACAD
1000
R13OBJECT
1002
{
1005
614
1002
}
  0
SEQEND
  8
AM_VIS
  6
CONTINUOUS
1001
ACAD
1000
R13OBJECT
1002
{
1005
614
1002
}
  0
LINE
  8
AM_VIS
 10
29.22775
 20
36.862225
 30
0.0
 11
39.315363
 21
42.686312
 31
0.0
  0
LINE
  8
AM_VIS
 10
39.315363
 20
42.686312
 30
0.0
 11
49.525684
 21
36.79138
 31
0.0
  0
LINE
  8
AM_VIS
 10
43.265179
 20
33.154334
 30
0.0
 11
39.457592
 21
30.956023
 31
0.0
  0
POLYLINE
  8
AM_VIS
  6
CONTINUOUS
 66
     1
 10
0.0
 20
0.0
 30
0.0
 70
     8
  0
VERTEX
  8
AM_VIS
  6
CONTINUOUS
 10
35.092874
 20
32.186772
 30
0.0
 70
    32
1001
ACAD
1000
R13OBJECT
1002
{
1005
618
1002
}
  0
VERTEX
  8
AM_VIS
  6
CONTINUOUS
 10
35.103751
 20
32.133617
 30
0.0
 70
    32
1001
ACAD
1000
R13OBJECT
1002
{
1005
618
1002
}
  0
VERTEX
  8
AM_VIS
  6
CONTINUOUS
 10
35.133468
 20
32.082145
 30
0.0
 70
    32
1001
ACAD
1000
R13OBJECT
1002
{
1005
618
1002
}
  0
VERTEX
  8
AM_VIS
  6
CONTINUOUS
 10
35.174063
 20
32.046148
 30
0.0
 70
    32
1001
ACAD
1000
R13OBJECT
1002
{
1005
618
1002
}
  0
SEQEND
  8
AM_VIS
  6
CONTINUOUS
1001
ACAD
1000
R13OBJECT
1002
{
1005
618
1002
}
  0
LINE
  8
AM_VIS
 10
40.268849
 20
29.104671
 30
0.0
 11
40.309769
 21
29.128296
 31
0.0
  0
LINE
  8
AM_VIS
 10
35.174063
 20
32.046148
 30
0.0
 11
40.268849
 21
29.104671
 31
0.0
  0
POLYLINE
  8
AM_VIS
  6
CONTINUOUS
 66
     1
 10
0.0
 20
0.0
 30
0.0
 70
     8
  0
VERTEX
  8
AM_VIS
  6
CONTINUOUS
 10
33.192332
 20
33.557088
 30
0.0
 70
    32
1001
ACAD
1000
R13OBJECT
1002
{
1005
61B
1002
}
  0
VERTEX
  8
AM_VIS
  6
CONTINUOUS
 10
33.187042
 20
33.541429
 30
0.0
 70
    32
1001
ACAD
1000
R13OBJECT
1002
{
1005
61B
1002
}
  0
VERTEX
  8
AM_VIS
  6
CONTINUOUS
 10
33.185252
 20
33.522886
 30
0.0
 70
    32
1001
ACAD
1000
R13OBJECT
1002
{
1005
61B
1002
}
  0
SEQEND
  8
AM_VIS
  6
CONTINUOUS
1001
ACAD
1000
R13OBJECT
1002
{
1005
61B
1002
}
  0
LINE
  8
AM_VIS
 10
33.185252
 20
33.522886
 30
0.0
 11
33.185252
 21
33.335387
 31
0.0
  0
POLYLINE
  8
AM_VIS
  6
CONTINUOUS
 66
     1
 10
0.0
 20
0.0
 30
0.0
 70
     8
  0
VERTEX
  8
AM_VIS
  6
CONTINUOUS
 10
33.161472
 20
33.282826
 30
0.0
 70
    32
1001
ACAD
1000
R13OBJECT
1002
{
1005
61D
1002
}
  0
VERTEX
  8
AM_VIS
  6
CONTINUOUS
 10
33.179072
 20
33.303079
 30
0.0
 70
    32
1001
ACAD
1000
R13OBJECT
1002
{
1005
61D
1002
}
  0
VERTEX
  8
AM_VIS
  6
CONTINUOUS
 10
33.185252
 20
33.335387
 30
0.0
 70
    32
1001
ACAD
1000
R13OBJECT
1002
{
1005
61D
1002
}
  0
SEQEND
  8
AM_VIS
  6
CONTINUOUS
1001
ACAD
1000
R13OBJECT
1002
{
1005
61D
1002
}
  0
LINE
  8
AM_VIS
 10
40.309769
 20
29.128296
 30
0.0
 11
40.309769
 21
29.596292
 31
0.0
  0
POLYLINE
  8
AM_VIS
  6
CONTINUOUS
 66
     1
 10
0.0
 20
0.0
 30
0.0
 70
     8
  0
VERTEX
  8
AM_VIS
  6
CONTINUOUS
 10
35.092874
 20
32.37427
 30
0.0
 70
    32
1001
ACAD
1000
R13OBJECT
1002
{
1005
61F
1002
}
  0
VERTEX
  8
AM_VIS
  6
CONTINUOUS
 10
35.081996
 20
32.427425
 30
0.0
 70
    32
1001
ACAD
1000
R13OBJECT
1002
{
1005
61F
1002
}
  0
VERTEX
  8
AM_VIS
  6
CONTINUOUS
 10
35.052279
 20
32.478897
 30
0.0
 70
    32
1001
ACAD
1000
R13OBJECT
1002
{
1005
61F
1002
}
  0
VERTEX
  8
AM_VIS
  6
CONTINUOUS
 10
35.011685
 20
32.514894
 30
0.0
 70
    32
1001
ACAD
1000
R13OBJECT
1002
{
1005
61F
1002
}
  0
SEQEND
  8
AM_VIS
  6
CONTINUOUS
1001
ACAD
1000
R13OBJECT
1002
{
1005
61F
1002
}
  0
LINE
  8
AM_VIS
 10
33.225522
 20
33.546136
 30
0.0
 11
35.011685
 21
32.514894
 31
0.0
  0
POLYLINE
  8
AM_VIS
  6
CONTINUOUS
 66
     1
 10
0.0
 20
0.0
 30
0.0
 70
     8
  0
VERTEX
  8
AM_VIS
  6
CONTINUOUS
 10
33.063143
 20
33.264888
 30
0.0
 70
    32
1001
ACAD
1000
R13OBJECT
1002
{
1005
622
1002
}
  0
VERTEX
  8
AM_VIS
  6
CONTINUOUS
 10
33.103738
 20
33.254011
 30
0.0
 70
    32
1001
ACAD
1000
R13OBJECT
1002
{
1005
622
1002
}
  0
VERTEX
  8
AM_VIS
  6
CONTINUOUS
 10
33.133455
 20
33.271168
 30
0.0
 70
    32
1001
ACAD
1000
R13OBJECT
1002
{
1005
622
1002
}
  0
VERTEX
  8
AM_VIS
  6
CONTINUOUS
 10
33.144332
 20
33.311762
 30
0.0
 70
    32
1001
ACAD
1000
R13OBJECT
1002
{
1005
622
1002
}
  0
SEQEND
  8
AM_VIS
  6
CONTINUOUS
1001
ACAD
1000
R13OBJECT
1002
{
1005
622
1002
}
  0
LINE
  8
AM_VIS
 10
27.968357
 20
36.206364
 30
0.0
 11
33.063143
 21
33.264888
 31
0.0
  0
POLYLINE
  8
AM_VIS
  6
CONTINUOUS
 66
     1
 10
0.0
 20
0.0
 30
0.0
 70
     8
  0
VERTEX
  8
AM_VIS
  6
CONTINUOUS
 10
33.225522
 20
33.546136
 30
0.0
 70
    32
1001
ACAD
1000
R13OBJECT
1002
{
1005
624
1002
}
  0
VERTEX
  8
AM_VIS
  6
CONTINUOUS
 10
33.184927
 20
33.557013
 30
0.0
 70
    32
1001
ACAD
1000
R13OBJECT
1002
{
1005
624
1002
}
  0
VERTEX
  8
AM_VIS
  6
CONTINUOUS
 10
33.15521
 20
33.539856
 30
0.0
 70
    32
1001
ACAD
1000
R13OBJECT
1002
{
1005
624
1002
}
  0
VERTEX
  8
AM_VIS
  6
CONTINUOUS
 10
33.144332
 20
33.499261
 30
0.0
 70
    32
1001
ACAD
1000
R13OBJECT
1002
{
1005
624
1002
}
  0
SEQEND
  8
AM_VIS
  6
CONTINUOUS
1001
ACAD
1000
R13OBJECT
1002
{
1005
624
1002
}
  0
LINE
  8
AM_VIS
 10
33.144332
 20
33.311762
 30
0.0
 11
33.144332
 21
33.499261
 31
0.0
  0
LINE
  8
AM_VIS
 10
35.092874
 20
32.37427
 30
0.0
 11
35.092874
 21
32.186772
 31
0.0
  0
LINE
  8
AM_VIS
 10
40.350688
 20
30.440411
 30
0.0
 11
28.050195
 21
37.542103
 31
0.0
  0
LINE
  8
AM_VIS
 10
40.350688
 20
29.619917
 30
0.0
 11
40.350688
 21
30.440411
 31
0.0
  0
LINE
  8
AM_VIS
 10
27.968357
 20
37.494854
 30
0.0
 11
28.050195
 21
37.542103
 31
0.0
  0
LINE
  8
AM_VIS
 10
40.268849
 20
30.393161
 30
0.0
 11
27.968357
 21
37.494854
 31
0.0
  0
LINE
  8
AM_VIS
 10
40.350688
 20
30.440411
 30
0.0
 11
40.268849
 21
30.393161
 31
0.0
  0
LINE
  8
AM_VIS
 10
27.968357
 20
36.206364
 30
0.0
 11
27.968357
 21
37.494854
 31
0.0
  0
LINE
  8
AM_VIS
 10
40.309769
 20
29.596292
 30
0.0
 11
40.350688
 21
29.619917
 31
0.0
  0
LINE
  8
AM_VIS
 10
40.268849
 20
29.104671
 30
0.0
 11
40.268849
 21
30.393161
 31
0.0
  0
POLYLINE
  8
AM_VIS
  6
CONTINUOUS
 66
     1
 10
0.0
 20
0.0
 30
0.0
 70
     8
  0
VERTEX
  8
AM_VIS
  6
CONTINUOUS
 10
42.6137
 20
32.276868
 30
0.0
 70
    32
1001
ACAD
1000
R13OBJECT
1002
{
1005
630
1002
}
  0
VERTEX
  8
AM_VIS
  6
CONTINUOUS
 10
42.642929
 20
32.302784
 30
0.0
 70
    32
1001
ACAD
1000
R13OBJECT
1002
{
1005
630
1002
}
  0
VERTEX
  8
AM_VIS
  6
CONTINUOUS
 10
42.664327
 20
32.339843
 30
0.0
 70
    32
1001
ACAD
1000
R13OBJECT
1002
{
1005
630
1002
}
  0
VERTEX
  8
AM_VIS
  6
CONTINUOUS
 10
42.67216
 20
32.378115
 30
0.0
 70
    32
1001
ACAD
1000
R13OBJECT
1002
{
1005
630
1002
}
  0
VERTEX
  8
AM_VIS
  6
CONTINUOUS
 10
42.664331
 20
32.407345
 30
0.0
 70
    32
1001
ACAD
1000
R13OBJECT
1002
{
1005
630
1002
}
  0
VERTEX
  8
AM_VIS
  6
CONTINUOUS
 10
42.642936
 20
32.419701
 30
0.0
 70
    32
1001
ACAD
1000
R13OBJECT
1002
{
1005
630
1002
}
  0
VERTEX
  8
AM_VIS
  6
CONTINUOUS
 10
42.613708
 20
32.411872
 30
0.0
 70
    32
1001
ACAD
1000
R13OBJECT
1002
{
1005
630
1002
}
  0
SEQEND
  8
AM_VIS
  6
CONTINUOUS
1001
ACAD
1000
R13OBJECT
1002
{
1005
630
1002
}
  0
POLYLINE
  8
AM_VIS
  6
CONTINUOUS
 66
     1
 10
0.0
 20
0.0
 30
0.0
 70
     8
  0
VERTEX
  8
AM_VIS
  6
CONTINUOUS
 10
42.57267
 20
32.300557
 30
0.0
 70
    32
1001
ACAD
1000
R13OBJECT
1002
{
1005
631
1002
}
  0
VERTEX
  8
AM_VIS
  6
CONTINUOUS
 10
42.606273
 20
32.332221
 30
0.0
 70
    32
1001
ACAD
1000
R13OBJECT
1002
{
1005
631
1002
}
  0
VERTEX
  8
AM_VIS
  6
CONTINUOUS
 10
42.627665
 20
32.376911
 30
0.0
 70
    32
1001
ACAD
1000
R13OBJECT
1002
{
1005
631
1002
}
  0
VERTEX
  8
AM_VIS
  6
CONTINUOUS
 10
42.62907
 20
32.418383
 30
0.0
 70
    32
1001
ACAD
1000
R13OBJECT
1002
{
1005
631
1002
}
  0
SEQEND
  8
AM_VIS
  6
CONTINUOUS
1001
ACAD
1000
R13OBJECT
1002
{
1005
631
1002
}
  0
LINE
  8
AM_VIS
 10
42.57267
 20
32.300557
 30
0.0
 11
42.6137
 21
32.276868
 31
0.0
  0
LINE
  8
AM_VIS
 10
42.6137
 20
32.276868
 30
0.0
 11
42.594215
 21
32.26562
 31
0.0
  0
LINE
  8
AM_VIS
 10
42.553185
 20
32.289308
 30
0.0
 11
42.57267
 21
32.300557
 31
0.0
  0
LINE
  8
AM_VIS
 10
42.553185
 20
32.289308
 30
0.0
 11
42.594215
 21
32.26562
 31
0.0
  0
POLYLINE
  8
AM_VIS
  6
CONTINUOUS
 66
     1
 10
0.0
 20
0.0
 30
0.0
 70
     8
  0
VERTEX
  8
AM_VIS
  6
CONTINUOUS
 10
42.594223
 20
32.400623
 30
0.0
 70
    32
1001
ACAD
1000
R13OBJECT
1002
{
1005
636
1002
}
  0
VERTEX
  8
AM_VIS
  6
CONTINUOUS
 10
42.564994
 20
32.374707
 30
0.0
 70
    32
1001
ACAD
1000
R13OBJECT
1002
{
1005
636
1002
}
  0
VERTEX
  8
AM_VIS
  6
CONTINUOUS
 10
42.543596
 20
32.337648
 30
0.0
 70
    32
1001
ACAD
1000
R13OBJECT
1002
{
1005
636
1002
}
  0
VERTEX
  8
AM_VIS
  6
CONTINUOUS
 10
42.535762
 20
32.299376
 30
0.0
 70
    32
1001
ACAD
1000
R13OBJECT
1002
{
1005
636
1002
}
  0
VERTEX
  8
AM_VIS
  6
CONTINUOUS
 10
42.543592
 20
32.270146
 30
0.0
 70
    32
1001
ACAD
1000
R13OBJECT
1002
{
1005
636
1002
}
  0
VERTEX
  8
AM_VIS
  6
CONTINUOUS
 10
42.564987
 20
32.257791
 30
0.0
 70
    32
1001
ACAD
1000
R13OBJECT
1002
{
1005
636
1002
}
  0
VERTEX
  8
AM_VIS
  6
CONTINUOUS
 10
42.594215
 20
32.26562
 30
0.0
 70
    32
1001
ACAD
1000
R13OBJECT
1002
{
1005
636
1002
}
  0
SEQEND
  8
AM_VIS
  6
CONTINUOUS
1001
ACAD
1000
R13OBJECT
1002
{
1005
636
1002
}
  0
POLYLINE
  8
AM_VIS
  6
CONTINUOUS
 66
     1
 10
0.0
 20
0.0
 30
0.0
 70
     8
  0
VERTEX
  8
AM_VIS
  6
CONTINUOUS
 10
42.537798
 20
32.282806
 30
0.0
 70
    32
1001
ACAD
1000
R13OBJECT
1002
{
1005
637
1002
}
  0
VERTEX
  8
AM_VIS
  6
CONTINUOUS
 10
42.545423
 20
32.285425
 30
0.0
 70
    32
1001
ACAD
1000
R13OBJECT
1002
{
1005
637
1002
}
  0
VERTEX
  8
AM_VIS
  6
CONTINUOUS
 10
42.553185
 20
32.289308
 30
0.0
 70
    32
1001
ACAD
1000
R13OBJECT
1002
{
1005
637
1002
}
  0
SEQEND
  8
AM_VIS
  6
CONTINUOUS
1001
ACAD
1000
R13OBJECT
1002
{
1005
637
1002
}
  0
LINE
  8
AM_VIS
 10
42.594223
 20
32.400623
 30
0.0
 11
42.613708
 21
32.411872
 31
0.0
  0
POLYLINE
  8
AM_VIS
  6
CONTINUOUS
 66
     1
 10
0.0
 20
0.0
 30
0.0
 70
     8
  0
VERTEX
  8
AM_VIS
  6
CONTINUOUS
 10
40.064363
 20
30.883963
 30
0.0
 70
    32
1001
ACAD
1000
R13OBJECT
1002
{
1005
639
1002
}
  0
VERTEX
  8
AM_VIS
  6
CONTINUOUS
 10
40.056533
 20
30.913193
 30
0.0
 70
    32
1001
ACAD
1000
R13OBJECT
1002
{
1005
639
1002
}
  0
VERTEX
  8
AM_VIS
  6
CONTINUOUS
 10
40.035138
 20
30.925549
 30
0.0
 70
    32
1001
ACAD
1000
R13OBJECT
1002
{
1005
639
1002
}
  0
VERTEX
  8
AM_VIS
  6
CONTINUOUS
 10
40.005911
 20
30.91772
 30
0.0
 70
    32
1001
ACAD
1000
R13OBJECT
1002
{
1005
639
1002
}
  0
VERTEX
  8
AM_VIS
  6
CONTINUOUS
 10
39.976682
 20
30.891804
 30
0.0
 70
    32
1001
ACAD
1000
R13OBJECT
1002
{
1005
639
1002
}
  0
VERTEX
  8
AM_VIS
  6
CONTINUOUS
 10
39.955284
 20
30.854745
 30
0.0
 70
    32
1001
ACAD
1000
R13OBJECT
1002
{
1005
639
1002
}
  0
VERTEX
  8
AM_VIS
  6
CONTINUOUS
 10
39.947451
 20
30.816473
 30
0.0
 70
    32
1001
ACAD
1000
R13OBJECT
1002
{
1005
639
1002
}
  0
SEQEND
  8
AM_VIS
  6
CONTINUOUS
1001
ACAD
1000
R13OBJECT
1002
{
1005
639
1002
}
  0
POLYLINE
  8
AM_VIS
  6
CONTINUOUS
 66
     1
 10
0.0
 20
0.0
 30
0.0
 70
     8
  0
VERTEX
  8
AM_VIS
  6
CONTINUOUS
 10
40.023333
 20
30.907652
 30
0.0
 70
    32
1001
ACAD
1000
R13OBJECT
1002
{
1005
63A
1002
}
  0
VERTEX
  8
AM_VIS
  6
CONTINUOUS
 10
40.022816
 20
30.916318
 30
0.0
 70
    32
1001
ACAD
1000
R13OBJECT
1002
{
1005
63A
1002
}
  0
VERTEX
  8
AM_VIS
  6
CONTINUOUS
 10
40.021272
 20
30.924232
 30
0.0
 70
    32
1001
ACAD
1000
R13OBJECT
1002
{
1005
63A
1002
}
  0
SEQEND
  8
AM_VIS
  6
CONTINUOUS
1001
ACAD
1000
R13OBJECT
1002
{
1005
63A
1002
}
  0
LINE
  8
AM_VIS
 10
40.023333
 20
30.907652
 30
0.0
 11
40.064363
 21
30.883963
 31
0.0
  0
LINE
  8
AM_VIS
 10
40.064363
 20
30.883963
 30
0.0
 11
40.064362
 21
30.861463
 31
0.0
  0
LINE
  8
AM_VIS
 10
40.023332
 20
30.885151
 30
0.0
 11
40.023333
 21
30.907652
 31
0.0
  0
LINE
  8
AM_VIS
 10
40.023332
 20
30.885151
 30
0.0
 11
40.064362
 21
30.861463
 31
0.0
  0
POLYLINE
  8
AM_VIS
  6
CONTINUOUS
 66
     1
 10
0.0
 20
0.0
 30
0.0
 70
     8
  0
VERTEX
  8
AM_VIS
  6
CONTINUOUS
 10
39.947449
 20
30.793973
 30
0.0
 70
    32
1001
ACAD
1000
R13OBJECT
1002
{
1005
63F
1002
}
  0
VERTEX
  8
AM_VIS
  6
CONTINUOUS
 10
39.955279
 20
30.764743
 30
0.0
 70
    32
1001
ACAD
1000
R13OBJECT
1002
{
1005
63F
1002
}
  0
VERTEX
  8
AM_VIS
  6
CONTINUOUS
 10
39.976674
 20
30.752387
 30
0.0
 70
    32
1001
ACAD
1000
R13OBJECT
1002
{
1005
63F
1002
}
  0
VERTEX
  8
AM_VIS
  6
CONTINUOUS
 10
40.005901
 20
30.760216
 30
0.0
 70
    32
1001
ACAD
1000
R13OBJECT
1002
{
1005
63F
1002
}
  0
VERTEX
  8
AM_VIS
  6
CONTINUOUS
 10
40.03513
 20
30.786132
 30
0.0
 70
    32
1001
ACAD
1000
R13OBJECT
1002
{
1005
63F
1002
}
  0
VERTEX
  8
AM_VIS
  6
CONTINUOUS
 10
40.056528
 20
30.823191
 30
0.0
 70
    32
1001
ACAD
1000
R13OBJECT
1002
{
1005
63F
1002
}
  0
VERTEX
  8
AM_VIS
  6
CONTINUOUS
 10
40.064362
 20
30.861463
 30
0.0
 70
    32
1001
ACAD
1000
R13OBJECT
1002
{
1005
63F
1002
}
  0
SEQEND
  8
AM_VIS
  6
CONTINUOUS
1001
ACAD
1000
R13OBJECT
1002
{
1005
63F
1002
}
  0
POLYLINE
  8
AM_VIS
  6
CONTINUOUS
 66
     1
 10
0.0
 20
0.0
 30
0.0
 70
     8
  0
VERTEX
  8
AM_VIS
  6
CONTINUOUS
 10
39.949485
 20
30.777403
 30
0.0
 70
    32
1001
ACAD
1000
R13OBJECT
1002
{
1005
640
1002
}
  0
VERTEX
  8
AM_VIS
  6
CONTINUOUS
 10
39.984698
 20
30.799351
 30
0.0
 70
    32
1001
ACAD
1000
R13OBJECT
1002
{
1005
640
1002
}
  0
VERTEX
  8
AM_VIS
  6
CONTINUOUS
 10
40.012707
 20
30.840218
 30
0.0
 70
    32
1001
ACAD
1000
R13OBJECT
1002
{
1005
640
1002
}
  0
VERTEX
  8
AM_VIS
  6
CONTINUOUS
 10
40.023332
 20
30.885151
 30
0.0
 70
    32
1001
ACAD
1000
R13OBJECT
1002
{
1005
640
1002
}
  0
SEQEND
  8
AM_VIS
  6
CONTINUOUS
1001
ACAD
1000
R13OBJECT
1002
{
1005
640
1002
}
  0
LINE
  8
AM_VIS
 10
39.947449
 20
30.793973
 30
0.0
 11
39.947451
 21
30.816473
 31
0.0
  0
POLYLINE
  8
AM_VIS
  6
CONTINUOUS
 66
     1
 10
0.0
 20
0.0
 30
0.0
 70
     8
  0
VERTEX
  8
AM_VIS
  6
CONTINUOUS
 10
39.876314
 20
30.714624
 30
0.0
 70
    32
1001
ACAD
1000
R13OBJECT
1002
{
1005
642
1002
}
  0
VERTEX
  8
AM_VIS
  6
CONTINUOUS
 10
39.884093
 20
30.771718
 30
0.0
 70
    32
1001
ACAD
1000
R13OBJECT
1002
{
1005
642
1002
}
  0
VERTEX
  8
AM_VIS
  6
CONTINUOUS
 10
39.87434
 20
30.818249
 30
0.0
 70
    32
1001
ACAD
1000
R13OBJECT
1002
{
1005
642
1002
}
  0
VERTEX
  8
AM_VIS
  6
CONTINUOUS
 10
39.848457
 20
30.847516
 30
0.0
 70
    32
1001
ACAD
1000
R13OBJECT
1002
{
1005
642
1002
}
  0
VERTEX
  8
AM_VIS
  6
CONTINUOUS
 10
39.810173
 20
30.855303
 30
0.0
 70
    32
1001
ACAD
1000
R13OBJECT
1002
{
1005
642
1002
}
  0
VERTEX
  8
AM_VIS
  6
CONTINUOUS
 10
39.765
 20
30.840491
 30
0.0
 70
    32
1001
ACAD
1000
R13OBJECT
1002
{
1005
642
1002
}
  0
VERTEX
  8
AM_VIS
  6
CONTINUOUS
 10
39.719444
 20
30.805211
 30
0.0
 70
    32
1001
ACAD
1000
R13OBJECT
1002
{
1005
642
1002
}
  0
SEQEND
  8
AM_VIS
  6
CONTINUOUS
1001
ACAD
1000
R13OBJECT
1002
{
1005
642
1002
}
  0
POLYLINE
  8
AM_VIS
  6
CONTINUOUS
 66
     1
 10
0.0
 20
0.0
 30
0.0
 70
     8
  0
VERTEX
  8
AM_VIS
  6
CONTINUOUS
 10
39.835284
 20
30.738313
 30
0.0
 70
    32
1001
ACAD
1000
R13OBJECT
1002
{
1005
643
1002
}
  0
VERTEX
  8
AM_VIS
  6
CONTINUOUS
 10
39.841124
 20
30.766044
 30
0.0
 70
    32
1001
ACAD
1000
R13OBJECT
1002
{
1005
643
1002
}
  0
VERTEX
  8
AM_VIS
  6
CONTINUOUS
 10
39.843092
 20
30.792355
 30
0.0
 70
    32
1001
ACAD
1000
R13OBJECT
1002
{
1005
643
1002
}
  0
SEQEND
  8
AM_VIS
  6
CONTINUOUS
1001
ACAD
1000
R13OBJECT
1002
{
1005
643
1002
}
  0
POLYLINE
  8
AM_VIS
  6
CONTINUOUS
 66
     1
 10
0.0
 20
0.0
 30
0.0
 70
     8
  0
VERTEX
  8
AM_VIS
  6
CONTINUOUS
 10
39.843092
 20
30.792355
 30
0.0
 70
    32
1001
ACAD
1000
R13OBJECT
1002
{
1005
644
1002
}
  0
VERTEX
  8
AM_VIS
  6
CONTINUOUS
 10
39.838612
 20
30.827569
 30
0.0
 70
    32
1001
ACAD
1000
R13OBJECT
1002
{
1005
644
1002
}
  0
VERTEX
  8
AM_VIS
  6
CONTINUOUS
 10
39.825497
 20
30.855016
 30
0.0
 70
    32
1001
ACAD
1000
R13OBJECT
1002
{
1005
644
1002
}
  0
SEQEND
  8
AM_VIS
  6
CONTINUOUS
1001
ACAD
1000
R13OBJECT
1002
{
1005
644
1002
}
  0
LINE
  8
AM_VIS
 10
39.654591
 20
30.842281
 30
0.0
 11
43.414768
 21
33.012915
 31
0.0
  0
LINE
  8
AM_VIS
 10
39.709668
 20
30.810479
 30
0.0
 11
43.415764
 21
32.949894
 31
0.0
  0
LINE
  8
AM_VIS
 10
39.570833
 20
30.89064
 30
0.0
 11
43.381074
 21
33.090175
 31
0.0
  0
LINE
  8
AM_VIS
 10
40.231743
 20
30.508997
 30
0.0
 11
43.415727
 21
32.347013
 31
0.0
  0
LINE
  8
AM_VIS
 10
43.415727
 20
32.345956
 30
0.0
 11
40.232658
 21
30.508468
 31
0.0
  0
LINE
  8
AM_VIS
 10
40.106868
 20
30.581092
 30
0.0
 11
43.415738
 21
32.491201
 31
0.0
  0
LINE
  8
AM_VIS
 10
39.710708
 20
30.809878
 30
0.0
 11
43.415763
 21
32.948692
 31
0.0
  0
LINE
  8
AM_VIS
 10
40.248698
 20
30.499204
 30
0.0
 11
43.415726
 21
32.327432
 31
0.0
  0
LINE
  8
AM_VIS
 10
46.706108
 20
34.400151
 30
0.0
 11
46.683511
 21
34.413197
 31
0.0
  0
POLYLINE
  8
AM_VIS
  6
CONTINUOUS
 66
     1
 10
0.0
 20
0.0
 30
0.0
 70
     8
  0
VERTEX
  8
AM_VIS
  6
CONTINUOUS
 10
46.684985
 20
34.427549
 30
0.0
 70
    32
1001
ACAD
1000
R13OBJECT
1002
{
1005
64E
1002
}
  0
VERTEX
  8
AM_VIS
  6
CONTINUOUS
 10
46.693205
 20
34.435011
 30
0.0
 70
    32
1001
ACAD
1000
R13OBJECT
1002
{
1005
64E
1002
}
  0
VERTEX
  8
AM_VIS
  6
CONTINUOUS
 10
46.700994
 20
34.44358
 30
0.0
 70
    32
1001
ACAD
1000
R13OBJECT
1002
{
1005
64E
1002
}
  0
SEQEND
  8
AM_VIS
  6
CONTINUOUS
1001
ACAD
1000
R13OBJECT
1002
{
1005
64E
1002
}
  0
POLYLINE
  8
AM_VIS
  6
CONTINUOUS
 66
     1
 10
0.0
 20
0.0
 30
0.0
 70
     8
  0
VERTEX
  8
AM_VIS
  6
CONTINUOUS
 10
43.842116
 20
32.778033
 30
0.0
 70
    32
1001
ACAD
1000
R13OBJECT
1002
{
1005
64F
1002
}
  0
VERTEX
  8
AM_VIS
  6
CONTINUOUS
 10
43.853138
 20
32.790744
 30
0.0
 70
    32
1001
ACAD
1000
R13OBJECT
1002
{
1005
64F
1002
}
  0
VERTEX
  8
AM_VIS
  6
CONTINUOUS
 10
43.862765
 20
32.805174
 30
0.0
 70
    32
1001
ACAD
1000
R13OBJECT
1002
{
1005
64F
1002
}
  0
SEQEND
  8
AM_VIS
  6
CONTINUOUS
1001
ACAD
1000
R13OBJECT
1002
{
1005
64F
1002
}
  0
LINE
  8
AM_VIS
 10
53.821557
 20
39.024058
 30
0.0
 11
53.838445
 21
39.033807
 31
0.0
  0
POLYLINE
  8
AM_VIS
 66
     1
 10
0.0
 20
0.0
 30
0.0
  0
VERTEX
  8
AM_VIS
 10
53.812462
 20
39.017564
 30
0.0
  0
VERTEX
  8
AM_VIS
 10
53.816953
 20
39.021087
 30
0.0
  0
VERTEX
  8
AM_VIS
 10
53.821557
 20
39.024058
 30
0.0
  0
SEQEND
  8
AM_VIS
  0
POLYLINE
  8
AM_VIS
  6
CONTINUOUS
 66
     1
 10
0.0
 20
0.0
 30
0.0
 70
     8
  0
VERTEX
  8
AM_VIS
  6
CONTINUOUS
 10
43.337984
 20
33.126816
 30
0.0
 70
    32
1001
ACAD
1000
R13OBJECT
1002
{
1005
656
1002
}
  0
VERTEX
  8
AM_VIS
  6
CONTINUOUS
 10
43.308334
 20
33.135667
 30
0.0
 70
    32
1001
ACAD
1000
R13OBJECT
1002
{
1005
656
1002
}
  0
VERTEX
  8
AM_VIS
  6
CONTINUOUS
 10
43.285217
 20
33.12603
 30
0.0
 70
    32
1001
ACAD
1000
R13OBJECT
1002
{
1005
656
1002
}
  0
SEQEND
  8
AM_VIS
  6
CONTINUOUS
1001
ACAD
1000
R13OBJECT
1002
{
1005
656
1002
}
  0
LINE
  8
AM_VIS
 10
43.285217
 20
33.12603
 30
0.0
 11
43.299989
 21
33.134558
 31
0.0
  0
POLYLINE
  8
AM_VIS
  6
CONTINUOUS
 66
     1
 10
0.0
 20
0.0
 30
0.0
 70
     8
  0
VERTEX
  8
AM_VIS
  6
CONTINUOUS
 10
43.415766
 20
32.999404
 30
0.0
 70
    32
1001
ACAD
1000
R13OBJECT
1002
{
1005
658
1002
}
  0
VERTEX
  8
AM_VIS
  6
CONTINUOUS
 10
43.406197
 20
33.046181
 30
0.0
 70
    32
1001
ACAD
1000
R13OBJECT
1002
{
1005
658
1002
}
  0
VERTEX
  8
AM_VIS
  6
CONTINUOUS
 10
43.380047
 20
33.091477
 30
0.0
 70
    32
1001
ACAD
1000
R13OBJECT
1002
{
1005
658
1002
}
  0
VERTEX
  8
AM_VIS
  6
CONTINUOUS
 10
43.344325
 20
33.123155
 30
0.0
 70
    32
1001
ACAD
1000
R13OBJECT
1002
{
1005
658
1002
}
  0
SEQEND
  8
AM_VIS
  6
CONTINUOUS
1001
ACAD
1000
R13OBJECT
1002
{
1005
658
1002
}
  0
LINE
  8
AM_VIS
 10
43.415766
 20
32.999404
 30
0.0
 11
43.415719
 21
32.215632
 31
0.0
  0
LINE
  8
AM_VIS
 10
43.344267
 20
32.17438
 30
0.0
 11
43.41572
 21
32.215627
 31
0.0
  0
POLYLINE
  8
AM_VIS
  6
CONTINUOUS
 66
     1
 10
0.0
 20
0.0
 30
0.0
 70
     8
  0
VERTEX
  8
AM_VIS
  6
CONTINUOUS
 10
43.344267
 20
32.17438
 30
0.0
 70
    32
1001
ACAD
1000
R13OBJECT
1002
{
1005
65B
1002
}
  0
VERTEX
  8
AM_VIS
  6
CONTINUOUS
 10
43.379991
 20
32.164808
 30
0.0
 70
    32
1001
ACAD
1000
R13OBJECT
1002
{
1005
65B
1002
}
  0
VERTEX
  8
AM_VIS
  6
CONTINUOUS
 10
43.406144
 20
32.179908
 30
0.0
 70
    32
1001
ACAD
1000
R13OBJECT
1002
{
1005
65B
1002
}
  0
VERTEX
  8
AM_VIS
  6
CONTINUOUS
 10
43.415719
 20
32.215632
 30
0.0
 70
    32
1001
ACAD
1000
R13OBJECT
1002
{
1005
65B
1002
}
  0
SEQEND
  8
AM_VIS
  6
CONTINUOUS
1001
ACAD
1000
R13OBJECT
1002
{
1005
65B
1002
}
  0
LINE
  8
AM_VIS
 10
43.415728
 20
32.325375
 30
0.0
 11
43.253985
 21
32.232006
 31
0.0
  0
LINE
  8
AM_VIS
 10
43.253985
 20
32.232006
 30
0.0
 11
43.253985
 21
32.230775
 31
0.0
  0
LINE
  8
AM_VIS
 10
43.254634
 20
32.231631
 30
0.0
 11
43.253985
 21
32.232006
 31
0.0
  0
LINE
  8
AM_VIS
 10
43.254634
 20
32.231631
 30
0.0
 11
43.415728
 21
32.324625
 31
0.0
  0
POLYLINE
  8
AM_VIS
  6
CONTINUOUS
 66
     1
 10
0.0
 20
0.0
 30
0.0
 70
     8
  0
VERTEX
  8
AM_VIS
  6
CONTINUOUS
 10
43.253985
 20
32.230775
 30
0.0
 70
    32
1001
ACAD
1000
R13OBJECT
1002
{
1005
660
1002
}
  0
VERTEX
  8
AM_VIS
  6
CONTINUOUS
 10
43.288527
 20
32.175012
 30
0.0
 70
    32
1001
ACAD
1000
R13OBJECT
1002
{
1005
660
1002
}
  0
VERTEX
  8
AM_VIS
  6
CONTINUOUS
 10
43.332697
 20
32.133
 30
0.0
 70
    32
1001
ACAD
1000
R13OBJECT
1002
{
1005
660
1002
}
  0
VERTEX
  8
AM_VIS
  6
CONTINUOUS
 10
43.378866
 20
32.111995
 30
0.0
 70
    32
1001
ACAD
1000
R13OBJECT
1002
{
1005
660
1002
}
  0
VERTEX
  8
AM_VIS
  6
CONTINUOUS
 10
43.41906
 20
32.115624
 30
0.0
 70
    32
1001
ACAD
1000
R13OBJECT
1002
{
1005
660
1002
}
  0
VERTEX
  8
AM_VIS
  6
CONTINUOUS
 10
43.446338
 20
32.143261
 30
0.0
 70
    32
1001
ACAD
1000
R13OBJECT
1002
{
1005
660
1002
}
  0
VERTEX
  8
AM_VIS
  6
CONTINUOUS
 10
43.455988
 20
32.190133
 30
0.0
 70
    32
1001
ACAD
1000
R13OBJECT
1002
{
1005
660
1002
}
  0
SEQEND
  8
AM_VIS
  6
CONTINUOUS
1001
ACAD
1000
R13OBJECT
1002
{
1005
660
1002
}
  0
POLYLINE
  8
AM_VIS
  6
CONTINUOUS
 66
     1
 10
0.0
 20
0.0
 30
0.0
 70
     8
  0
VERTEX
  8
AM_VIS
  6
CONTINUOUS
 10
43.456036
 20
32.976154
 30
0.0
 70
    32
1001
ACAD
1000
R13OBJECT
1002
{
1005
661
1002
}
  0
VERTEX
  8
AM_VIS
  6
CONTINUOUS
 10
43.443788
 20
33.041963
 30
0.0
 70
    32
1001
ACAD
1000
R13OBJECT
1002
{
1005
661
1002
}
  0
VERTEX
  8
AM_VIS
  6
CONTINUOUS
 10
43.409724
 20
33.107485
 30
0.0
 70
    32
1001
ACAD
1000
R13OBJECT
1002
{
1005
661
1002
}
  0
VERTEX
  8
AM_VIS
  6
CONTINUOUS
 10
43.361314
 20
33.158349
 30
0.0
 70
    32
1001
ACAD
1000
R13OBJECT
1002
{
1005
661
1002
}
  0
SEQEND
  8
AM_VIS
  6
CONTINUOUS
1001
ACAD
1000
R13OBJECT
1002
{
1005
661
1002
}
  0
LINE
  8
AM_VIS
 10
43.361314
 20
33.158349
 30
0.0
 11
43.32734
 21
33.177964
 31
0.0
  0
POLYLINE
  8
AM_VIS
  6
CONTINUOUS
 66
     1
 10
0.0
 20
0.0
 30
0.0
 70
     8
  0
VERTEX
  8
AM_VIS
  6
CONTINUOUS
 10
43.32734
 20
33.177964
 30
0.0
 70
    32
1001
ACAD
1000
R13OBJECT
1002
{
1005
663
1002
}
  0
VERTEX
  8
AM_VIS
  6
CONTINUOUS
 10
43.286591
 20
33.184427
 30
0.0
 70
    32
1001
ACAD
1000
R13OBJECT
1002
{
1005
663
1002
}
  0
VERTEX
  8
AM_VIS
  6
CONTINUOUS
 10
43.254533
 20
33.169248
 30
0.0
 70
    32
1001
ACAD
1000
R13OBJECT
1002
{
1005
663
1002
}
  0
SEQEND
  8
AM_VIS
  6
CONTINUOUS
1001
ACAD
1000
R13OBJECT
1002
{
1005
663
1002
}
  0
LINE
  8
AM_VIS
 10
43.254533
 20
33.169248
 30
0.0
 11
43.254691
 21
33.169156
 31
0.0
  0
LINE
  8
AM_VIS
 10
43.254691
 20
33.169156
 30
0.0
 11
43.285217
 21
33.12603
 31
0.0
  0
LINE
  8
AM_VIS
 10
43.337984
 20
33.126816
 30
0.0
 11
43.344325
 21
33.123155
 31
0.0
  0
LINE
  8
AM_VIS
 10
43.344267
 20
32.17438
 30
0.0
 11
43.337772
 21
32.17813
 31
0.0
  0
POLYLINE
  8
AM_VIS
  6
CONTINUOUS
 66
     1
 10
0.0
 20
0.0
 30
0.0
 70
     8
  0
VERTEX
  8
AM_VIS
  6
CONTINUOUS
 10
43.285163
 20
32.239506
 30
0.0
 70
    32
1001
ACAD
1000
R13OBJECT
1002
{
1005
668
1002
}
  0
VERTEX
  8
AM_VIS
  6
CONTINUOUS
 10
43.30824
 20
32.203379
 30
0.0
 70
    32
1001
ACAD
1000
R13OBJECT
1002
{
1005
668
1002
}
  0
VERTEX
  8
AM_VIS
  6
CONTINUOUS
 10
43.337772
 20
32.17813
 30
0.0
 70
    32
1001
ACAD
1000
R13OBJECT
1002
{
1005
668
1002
}
  0
SEQEND
  8
AM_VIS
  6
CONTINUOUS
1001
ACAD
1000
R13OBJECT
1002
{
1005
668
1002
}
  0
LINE
  8
AM_VIS
 10
43.285163
 20
32.239506
 30
0.0
 11
43.254634
 21
32.231631
 31
0.0
  0
POLYLINE
  8
AM_VIS
  6
CONTINUOUS
 66
     1
 10
0.0
 20
0.0
 30
0.0
 70
     8
  0
VERTEX
  8
AM_VIS
  6
CONTINUOUS
 10
53.719561
 20
39.177074
 30
0.0
 70
    32
1001
ACAD
1000
R13OBJECT
1002
{
1005
66A
1002
}
  0
VERTEX
  8
AM_VIS
  6
CONTINUOUS
 10
53.686047
 20
39.18399
 30
0.0
 70
    32
1001
ACAD
1000
R13OBJECT
1002
{
1005
66A
1002
}
  0
VERTEX
  8
AM_VIS
  6
CONTINUOUS
 10
53.657546
 20
39.176587
 30
0.0
 70
    32
1001
ACAD
1000
R13OBJECT
1002
{
1005
66A
1002
}
  0
SEQEND
  8
AM_VIS
  6
CONTINUOUS
1001
ACAD
1000
R13OBJECT
1002
{
1005
66A
1002
}
  0
LINE
  8
AM_VIS
 10
53.719561
 20
39.177074
 30
0.0
 11
53.753535
 21
39.157459
 31
0.0
  0
POLYLINE
  8
AM_VIS
  6
CONTINUOUS
 66
     1
 10
0.0
 20
0.0
 30
0.0
 70
     8
  0
VERTEX
  8
AM_VIS
  6
CONTINUOUS
 10
53.838445
 20
39.033807
 30
0.0
 70
    32
1001
ACAD
1000
R13OBJECT
1002
{
1005
66C
1002
}
  0
VERTEX
  8
AM_VIS
  6
CONTINUOUS
 10
53.804206
 20
39.103354
 30
0.0
 70
    32
1001
ACAD
1000
R13OBJECT
1002
{
1005
66C
1002
}
  0
VERTEX
  8
AM_VIS
  6
CONTINUOUS
 10
53.753535
 20
39.157459
 30
0.0
 70
    32
1001
ACAD
1000
R13OBJECT
1002
{
1005
66C
1002
}
  0
SEQEND
  8
AM_VIS
  6
CONTINUOUS
1001
ACAD
1000
R13OBJECT
1002
{
1005
66C
1002
}
  0
LINE
  8
AM_VIS
 10
53.719561
 20
39.177074
 30
0.0
 11
43.32734
 21
33.177964
 31
0.0
  0
LINE
  8
AM_VIS
 10
43.361314
 20
33.158349
 30
0.0
 11
53.753535
 21
39.157459
 31
0.0
  0
LINE
  8
AM_VIS
 10
43.337772
 20
32.17813
 30
0.0
 11
43.41572
 21
32.223127
 31
0.0
  0
LINE
  8
AM_VIS
 10
43.285163
 20
32.239506
 30
0.0
 11
43.415727
 21
32.314877
 31
0.0
  0
POLYLINE
  8
AM_VIS
  6
CONTINUOUS
 66
     1
 10
0.0
 20
0.0
 30
0.0
 70
     8
  0
VERTEX
  8
AM_VIS
  6
CONTINUOUS
 10
47.069254
 20
34.562461
 30
0.0
 70
    32
1001
ACAD
1000
R13OBJECT
1002
{
1005
671
1002
}
  0
VERTEX
  8
AM_VIS
  6
CONTINUOUS
 10
47.105562
 20
34.59724
 30
0.0
 70
    32
1001
ACAD
1000
R13OBJECT
1002
{
1005
671
1002
}
  0
VERTEX
  8
AM_VIS
  6
CONTINUOUS
 10
47.127637
 20
34.646025
 30
0.0
 70
    32
1001
ACAD
1000
R13OBJECT
1002
{
1005
671
1002
}
  0
VERTEX
  8
AM_VIS
  6
CONTINUOUS
 10
47.126823
 20
34.689689
 30
0.0
 70
    32
1001
ACAD
1000
R13OBJECT
1002
{
1005
671
1002
}
  0
SEQEND
  8
AM_VIS
  6
CONTINUOUS
1001
ACAD
1000
R13OBJECT
1002
{
1005
671
1002
}
  0
POLYLINE
  8
AM_VIS
  6
CONTINUOUS
 66
     1
 10
0.0
 20
0.0
 30
0.0
 70
     8
  0
VERTEX
  8
AM_VIS
  6
CONTINUOUS
 10
47.01158
 20
34.622779
 30
0.0
 70
    32
1001
ACAD
1000
R13OBJECT
1002
{
1005
672
1002
}
  0
VERTEX
  8
AM_VIS
  6
CONTINUOUS
 10
47.010946
 20
34.578405
 30
0.0
 70
    32
1001
ACAD
1000
R13OBJECT
1002
{
1005
672
1002
}
  0
VERTEX
  8
AM_VIS
  6
CONTINUOUS
 10
47.033042
 20
34.555296
 30
0.0
 70
    32
1001
ACAD
1000
R13OBJECT
1002
{
1005
672
1002
}
  0
VERTEX
  8
AM_VIS
  6
CONTINUOUS
 10
47.069254
 20
34.562461
 30
0.0
 70
    32
1001
ACAD
1000
R13OBJECT
1002
{
1005
672
1002
}
  0
SEQEND
  8
AM_VIS
  6
CONTINUOUS
1001
ACAD
1000
R13OBJECT
1002
{
1005
672
1002
}
  0
POLYLINE
  8
AM_VIS
  6
CONTINUOUS
 66
     1
 10
0.0
 20
0.0
 30
0.0
 70
     8
  0
VERTEX
  8
AM_VIS
  6
CONTINUOUS
 10
47.010792
 20
34.578931
 30
0.0
 70
    32
1001
ACAD
1000
R13OBJECT
1002
{
1005
673
1002
}
  0
VERTEX
  8
AM_VIS
  6
CONTINUOUS
 10
47.019469
 20
34.581715
 30
0.0
 70
    32
1001
ACAD
1000
R13OBJECT
1002
{
1005
673
1002
}
  0
VERTEX
  8
AM_VIS
  6
CONTINUOUS
 10
47.028335
 20
34.586085
 30
0.0
 70
    32
1001
ACAD
1000
R13OBJECT
1002
{
1005
673
1002
}
  0
SEQEND
  8
AM_VIS
  6
CONTINUOUS
1001
ACAD
1000
R13OBJECT
1002
{
1005
673
1002
}
  0
POLYLINE
  8
AM_VIS
  6
CONTINUOUS
 66
     1
 10
0.0
 20
0.0
 30
0.0
 70
     8
  0
VERTEX
  8
AM_VIS
  6
CONTINUOUS
 10
47.028335
 20
34.586085
 30
0.0
 70
    32
1001
ACAD
1000
R13OBJECT
1002
{
1005
674
1002
}
  0
VERTEX
  8
AM_VIS
  6
CONTINUOUS
 10
47.06344
 20
34.619169
 30
0.0
 70
    32
1001
ACAD
1000
R13OBJECT
1002
{
1005
674
1002
}
  0
VERTEX
  8
AM_VIS
  6
CONTINUOUS
 10
47.085781
 20
34.66586
 30
0.0
 70
    32
1001
ACAD
1000
R13OBJECT
1002
{
1005
674
1002
}
  0
SEQEND
  8
AM_VIS
  6
CONTINUOUS
1001
ACAD
1000
R13OBJECT
1002
{
1005
674
1002
}
  0
POLYLINE
  8
AM_VIS
  6
CONTINUOUS
 66
     1
 10
0.0
 20
0.0
 30
0.0
 70
     8
  0
VERTEX
  8
AM_VIS
  6
CONTINUOUS
 10
46.744497
 20
34.374988
 30
0.0
 70
    32
1001
ACAD
1000
R13OBJECT
1002
{
1005
675
1002
}
  0
VERTEX
  8
AM_VIS
  6
CONTINUOUS
 10
46.780805
 20
34.409768
 30
0.0
 70
    32
1001
ACAD
1000
R13OBJECT
1002
{
1005
675
1002
}
  0
VERTEX
  8
AM_VIS
  6
CONTINUOUS
 10
46.80288
 20
34.458553
 30
0.0
 70
    32
1001
ACAD
1000
R13OBJECT
1002
{
1005
675
1002
}
  0
VERTEX
  8
AM_VIS
  6
CONTINUOUS
 10
46.802067
 20
34.502217
 30
0.0
 70
    32
1001
ACAD
1000
R13OBJECT
1002
{
1005
675
1002
}
  0
SEQEND
  8
AM_VIS
  6
CONTINUOUS
1001
ACAD
1000
R13OBJECT
1002
{
1005
675
1002
}
  0
POLYLINE
  8
AM_VIS
  6
CONTINUOUS
 66
     1
 10
0.0
 20
0.0
 30
0.0
 70
     8
  0
VERTEX
  8
AM_VIS
  6
CONTINUOUS
 10
46.686823
 20
34.435307
 30
0.0
 70
    32
1001
ACAD
1000
R13OBJECT
1002
{
1005
676
1002
}
  0
VERTEX
  8
AM_VIS
  6
CONTINUOUS
 10
46.686189
 20
34.390933
 30
0.0
 70
    32
1001
ACAD
1000
R13OBJECT
1002
{
1005
676
1002
}
  0
VERTEX
  8
AM_VIS
  6
CONTINUOUS
 10
46.708285
 20
34.367824
 30
0.0
 70
    32
1001
ACAD
1000
R13OBJECT
1002
{
1005
676
1002
}
  0
VERTEX
  8
AM_VIS
  6
CONTINUOUS
 10
46.744497
 20
34.374988
 30
0.0
 70
    32
1001
ACAD
1000
R13OBJECT
1002
{
1005
676
1002
}
  0
SEQEND
  8
AM_VIS
  6
CONTINUOUS
1001
ACAD
1000
R13OBJECT
1002
{
1005
676
1002
}
  0
POLYLINE
  8
AM_VIS
  6
CONTINUOUS
 66
     1
 10
0.0
 20
0.0
 30
0.0
 70
     8
  0
VERTEX
  8
AM_VIS
  6
CONTINUOUS
 10
46.686035
 20
34.391459
 30
0.0
 70
    32
1001
ACAD
1000
R13OBJECT
1002
{
1005
677
1002
}
  0
VERTEX
  8
AM_VIS
  6
CONTINUOUS
 10
46.694712
 20
34.394243
 30
0.0
 70
    32
1001
ACAD
1000
R13OBJECT
1002
{
1005
677
1002
}
  0
VERTEX
  8
AM_VIS
  6
CONTINUOUS
 10
46.703578
 20
34.398613
 30
0.0
 70
    32
1001
ACAD
1000
R13OBJECT
1002
{
1005
677
1002
}
  0
SEQEND
  8
AM_VIS
  6
CONTINUOUS
1001
ACAD
1000
R13OBJECT
1002
{
1005
677
1002
}
  0
POLYLINE
  8
AM_VIS
  6
CONTINUOUS
 66
     1
 10
0.0
 20
0.0
 30
0.0
 70
     8
  0
VERTEX
  8
AM_VIS
  6
CONTINUOUS
 10
46.703578
 20
34.398613
 30
0.0
 70
    32
1001
ACAD
1000
R13OBJECT
1002
{
1005
678
1002
}
  0
VERTEX
  8
AM_VIS
  6
CONTINUOUS
 10
46.738683
 20
34.431697
 30
0.0
 70
    32
1001
ACAD
1000
R13OBJECT
1002
{
1005
678
1002
}
  0
VERTEX
  8
AM_VIS
  6
CONTINUOUS
 10
46.761024
 20
34.478388
 30
0.0
 70
    32
1001
ACAD
1000
R13OBJECT
1002
{
1005
678
1002
}
  0
SEQEND
  8
AM_VIS
  6
CONTINUOUS
1001
ACAD
1000
R13OBJECT
1002
{
1005
678
1002
}
  0
POLYLINE
  8
AM_VIS
  6
CONTINUOUS
 66
     1
 10
0.0
 20
0.0
 30
0.0
 70
     8
  0
VERTEX
  8
AM_VIS
  6
CONTINUOUS
 10
43.902874
 20
32.734607
 30
0.0
 70
    32
1001
ACAD
1000
R13OBJECT
1002
{
1005
679
1002
}
  0
VERTEX
  8
AM_VIS
  6
CONTINUOUS
 10
43.902891
 20
32.734616
 30
0.0
 70
    32
1001
ACAD
1000
R13OBJECT
1002
{
1005
679
1002
}
  0
VERTEX
  8
AM_VIS
  6
CONTINUOUS
 10
43.902907
 20
32.734626
 30
0.0
 70
    32
1001
ACAD
1000
R13OBJECT
1002
{
1005
679
1002
}
  0
SEQEND
  8
AM_VIS
  6
CONTINUOUS
1001
ACAD
1000
R13OBJECT
1002
{
1005
679
1002
}
  0
POLYLINE
  8
AM_VIS
  6
CONTINUOUS
 66
     1
 10
0.0
 20
0.0
 30
0.0
 70
     8
  0
VERTEX
  8
AM_VIS
  6
CONTINUOUS
 10
43.8452
 20
32.794925
 30
0.0
 70
    32
1001
ACAD
1000
R13OBJECT
1002
{
1005
67A
1002
}
  0
VERTEX
  8
AM_VIS
  6
CONTINUOUS
 10
43.844566
 20
32.750551
 30
0.0
 70
    32
1001
ACAD
1000
R13OBJECT
1002
{
1005
67A
1002
}
  0
VERTEX
  8
AM_VIS
  6
CONTINUOUS
 10
43.866662
 20
32.727443
 30
0.0
 70
    32
1001
ACAD
1000
R13OBJECT
1002
{
1005
67A
1002
}
  0
VERTEX
  8
AM_VIS
  6
CONTINUOUS
 10
43.902874
 20
32.734607
 30
0.0
 70
    32
1001
ACAD
1000
R13OBJECT
1002
{
1005
67A
1002
}
  0
SEQEND
  8
AM_VIS
  6
CONTINUOUS
1001
ACAD
1000
R13OBJECT
1002
{
1005
67A
1002
}
  0
POLYLINE
  8
AM_VIS
  6
CONTINUOUS
 66
     1
 10
0.0
 20
0.0
 30
0.0
 70
     8
  0
VERTEX
  8
AM_VIS
  6
CONTINUOUS
 10
43.844412
 20
32.751078
 30
0.0
 70
    32
1001
ACAD
1000
R13OBJECT
1002
{
1005
67B
1002
}
  0
VERTEX
  8
AM_VIS
  6
CONTINUOUS
 10
43.853089
 20
32.753861
 30
0.0
 70
    32
1001
ACAD
1000
R13OBJECT
1002
{
1005
67B
1002
}
  0
VERTEX
  8
AM_VIS
  6
CONTINUOUS
 10
43.861955
 20
32.758232
 30
0.0
 70
    32
1001
ACAD
1000
R13OBJECT
1002
{
1005
67B
1002
}
  0
SEQEND
  8
AM_VIS
  6
CONTINUOUS
1001
ACAD
1000
R13OBJECT
1002
{
1005
67B
1002
}
  0
POLYLINE
  8
AM_VIS
  6
CONTINUOUS
 66
     1
 10
0.0
 20
0.0
 30
0.0
 70
     8
  0
VERTEX
  8
AM_VIS
  6
CONTINUOUS
 10
43.861955
 20
32.758232
 30
0.0
 70
    32
1001
ACAD
1000
R13OBJECT
1002
{
1005
67C
1002
}
  0
VERTEX
  8
AM_VIS
  6
CONTINUOUS
 10
43.883889
 20
32.775601
 30
0.0
 70
    32
1001
ACAD
1000
R13OBJECT
1002
{
1005
67C
1002
}
  0
VERTEX
  8
AM_VIS
  6
CONTINUOUS
 10
43.902896
 20
32.800064
 30
0.0
 70
    32
1001
ACAD
1000
R13OBJECT
1002
{
1005
67C
1002
}
  0
SEQEND
  8
AM_VIS
  6
CONTINUOUS
1001
ACAD
1000
R13OBJECT
1002
{
1005
67C
1002
}
  0
LINE
  8
AM_VIS
 10
43.456037
 20
32.992654
 30
0.0
 11
43.45598
 21
32.055879
 31
0.0
  0
LINE
  8
AM_VIS
 10
43.537883
 20
33.039901
 30
0.0
 11
43.456037
 21
32.992654
 31
0.0
  0
LINE
  8
AM_VIS
 10
47.921452
 20
35.570401
 30
0.0
 11
45.526042
 21
34.187605
 31
0.0
  0
LINE
  8
AM_VIS
 10
43.45598
 20
32.055879
 30
0.0
 11
43.200686
 21
32.203273
 31
0.0
  0
LINE
  8
AM_VIS
 10
43.496897
 20
31.985003
 30
0.0
 11
43.496954
 21
32.921778
 31
0.0
  0
LINE
  8
AM_VIS
 10
43.902878
 20
32.219363
 30
0.0
 11
43.496897
 21
31.985003
 31
0.0
  0
LINE
  8
AM_VIS
 10
44.795372
 20
32.734572
 30
0.0
 11
44.193601
 21
32.387189
 31
0.0
  0
LINE
  8
AM_VIS
 10
45.607264
 20
33.203253
 30
0.0
 11
45.005494
 21
32.855869
 31
0.0
  0
LINE
  8
AM_VIS
 10
48.286446
 20
34.749863
 30
0.0
 11
45.892342
 21
33.36782
 31
0.0
  0
LINE
  8
AM_VIS
 10
48.935294
 20
35.124422
 30
0.0
 11
48.495715
 21
34.870667
 31
0.0
  0
LINE
  8
AM_VIS
 10
49.828375
 20
35.639971
 30
0.0
 11
49.06404
 21
35.198743
 31
0.0
  0
LINE
  8
AM_VIS
 10
43.496954
 20
32.921778
 30
0.0
 11
43.780791
 21
32.757904
 31
0.0
  0
LINE
  8
AM_VIS
 10
45.891717
 20
33.976477
 30
0.0
 11
48.286473
 21
35.358896
 31
0.0
  0
LINE
  8
AM_VIS
 10
43.780791
 20
32.757904
 30
0.0
 11
43.902255
 21
32.828022
 31
0.0
  0
LINE
  8
AM_VIS
 10
43.159766
 20
32.179645
 30
0.0
 11
43.496897
 21
31.985003
 31
0.0
  0
LINE
  8
AM_VIS
 10
43.780791
 20
32.757904
 30
0.0
 11
43.780794
 21
32.805156
 31
0.0
  0
LINE
  8
AM_VIS
 10
43.780794
 20
32.805156
 30
0.0
 11
43.456037
 21
32.992654
 31
0.0
  0
LINE
  8
AM_VIS
 10
43.861337
 20
32.851651
 30
0.0
 11
43.780794
 21
32.805156
 31
0.0
  0
LINE
  8
AM_VIS
 10
48.245555
 20
35.382525
 30
0.0
 11
45.850799
 21
34.000106
 31
0.0
  0
POLYLINE
  8
AM_VIS
  6
CONTINUOUS
 66
     1
 10
0.0
 20
0.0
 30
0.0
 70
     8
  0
VERTEX
  8
AM_VIS
  6
CONTINUOUS
 10
45.526651
 20
33.074251
 30
0.0
 70
    32
1001
ACAD
1000
R13OBJECT
1002
{
1005
690
1002
}
  0
VERTEX
  8
AM_VIS
  6
CONTINUOUS
 10
45.565426
 20
33.108017
 30
0.0
 70
    32
1001
ACAD
1000
R13OBJECT
1002
{
1005
690
1002
}
  0
VERTEX
  8
AM_VIS
  6
CONTINUOUS
 10
45.594787
 20
33.156349
 30
0.0
 70
    32
1001
ACAD
1000
R13OBJECT
1002
{
1005
690
1002
}
  0
VERTEX
  8
AM_VIS
  6
CONTINUOUS
 10
45.607604
 20
33.207512
 30
0.0
 70
    32
1001
ACAD
1000
R13OBJECT
1002
{
1005
690
1002
}
  0
VERTEX
  8
AM_VIS
  6
CONTINUOUS
 10
45.600765
 20
33.24908
 30
0.0
 70
    32
1001
ACAD
1000
R13OBJECT
1002
{
1005
690
1002
}
  0
SEQEND
  8
AM_VIS
  6
CONTINUOUS
1001
ACAD
1000
R13OBJECT
1002
{
1005
690
1002
}
  0
LINE
  8
AM_VIS
 10
45.56757
 20
33.050626
 30
0.0
 11
45.526651
 21
33.074251
 31
0.0
  0
POLYLINE
  8
AM_VIS
  6
CONTINUOUS
 66
     1
 10
0.0
 20
0.0
 30
0.0
 70
     8
  0
VERTEX
  8
AM_VIS
  6
CONTINUOUS
 10
45.56757
 20
33.050626
 30
0.0
 70
    32
1001
ACAD
1000
R13OBJECT
1002
{
1005
692
1002
}
  0
VERTEX
  8
AM_VIS
  6
CONTINUOUS
 10
45.602797
 20
33.080246
 30
0.0
 70
    32
1001
ACAD
1000
R13OBJECT
1002
{
1005
692
1002
}
  0
VERTEX
  8
AM_VIS
  6
CONTINUOUS
 10
45.631049
 20
33.122568
 30
0.0
 70
    32
1001
ACAD
1000
R13OBJECT
1002
{
1005
692
1002
}
  0
VERTEX
  8
AM_VIS
  6
CONTINUOUS
 10
45.646728
 20
33.16921
 30
0.0
 70
    32
1001
ACAD
1000
R13OBJECT
1002
{
1005
692
1002
}
  0
VERTEX
  8
AM_VIS
  6
CONTINUOUS
 10
45.646731
 20
33.210934
 30
0.0
 70
    32
1001
ACAD
1000
R13OBJECT
1002
{
1005
692
1002
}
  0
VERTEX
  8
AM_VIS
  6
CONTINUOUS
 10
45.631056
 20
33.239475
 30
0.0
 70
    32
1001
ACAD
1000
R13OBJECT
1002
{
1005
692
1002
}
  0
VERTEX
  8
AM_VIS
  6
CONTINUOUS
 10
45.602808
 20
33.249182
 30
0.0
 70
    32
1001
ACAD
1000
R13OBJECT
1002
{
1005
692
1002
}
  0
VERTEX
  8
AM_VIS
  6
CONTINUOUS
 10
45.567582
 20
33.238131
 30
0.0
 70
    32
1001
ACAD
1000
R13OBJECT
1002
{
1005
692
1002
}
  0
SEQEND
  8
AM_VIS
  6
CONTINUOUS
1001
ACAD
1000
R13OBJECT
1002
{
1005
692
1002
}
  0
LINE
  8
AM_VIS
 10
45.080446
 20
32.956923
 30
0.0
 11
45.567582
 21
33.238131
 31
0.0
  0
POLYLINE
  8
AM_VIS
  6
CONTINUOUS
 66
     1
 10
0.0
 20
0.0
 30
0.0
 70
     8
  0
VERTEX
  8
AM_VIS
  6
CONTINUOUS
 10
45.00636
 20
32.782077
 30
0.0
 70
    32
1001
ACAD
1000
R13OBJECT
1002
{
1005
694
1002
}
  0
VERTEX
  8
AM_VIS
  6
CONTINUOUS
 10
45.022564
 20
32.785323
 30
0.0
 70
    32
1001
ACAD
1000
R13OBJECT
1002
{
1005
694
1002
}
  0
VERTEX
  8
AM_VIS
  6
CONTINUOUS
 10
45.039515
 20
32.793043
 30
0.0
 70
    32
1001
ACAD
1000
R13OBJECT
1002
{
1005
694
1002
}
  0
SEQEND
  8
AM_VIS
  6
CONTINUOUS
1001
ACAD
1000
R13OBJECT
1002
{
1005
694
1002
}
  0
POLYLINE
  8
AM_VIS
  6
CONTINUOUS
 66
     1
 10
0.0
 20
0.0
 30
0.0
 70
     8
  0
VERTEX
  8
AM_VIS
  6
CONTINUOUS
 10
45.080446
 20
32.956923
 30
0.0
 70
    32
1001
ACAD
1000
R13OBJECT
1002
{
1005
695
1002
}
  0
VERTEX
  8
AM_VIS
  6
CONTINUOUS
 10
45.045219
 20
32.927303
 30
0.0
 70
    32
1001
ACAD
1000
R13OBJECT
1002
{
1005
695
1002
}
  0
VERTEX
  8
AM_VIS
  6
CONTINUOUS
 10
45.016968
 20
32.884981
 30
0.0
 70
    32
1001
ACAD
1000
R13OBJECT
1002
{
1005
695
1002
}
  0
VERTEX
  8
AM_VIS
  6
CONTINUOUS
 10
45.001288
 20
32.838339
 30
0.0
 70
    32
1001
ACAD
1000
R13OBJECT
1002
{
1005
695
1002
}
  0
VERTEX
  8
AM_VIS
  6
CONTINUOUS
 10
45.001286
 20
32.796616
 30
0.0
 70
    32
1001
ACAD
1000
R13OBJECT
1002
{
1005
695
1002
}
  0
VERTEX
  8
AM_VIS
  6
CONTINUOUS
 10
45.016961
 20
32.768074
 30
0.0
 70
    32
1001
ACAD
1000
R13OBJECT
1002
{
1005
695
1002
}
  0
VERTEX
  8
AM_VIS
  6
CONTINUOUS
 10
45.045209
 20
32.758367
 30
0.0
 70
    32
1001
ACAD
1000
R13OBJECT
1002
{
1005
695
1002
}
  0
VERTEX
  8
AM_VIS
  6
CONTINUOUS
 10
45.080435
 20
32.769418
 30
0.0
 70
    32
1001
ACAD
1000
R13OBJECT
1002
{
1005
695
1002
}
  0
SEQEND
  8
AM_VIS
  6
CONTINUOUS
1001
ACAD
1000
R13OBJECT
1002
{
1005
695
1002
}
  0
LINE
  8
AM_VIS
 10
45.080435
 20
32.769418
 30
0.0
 11
45.039515
 21
32.793043
 31
0.0
  0
LINE
  8
AM_VIS
 10
45.039515
 20
32.793043
 30
0.0
 11
45.526651
 21
33.074251
 31
0.0
  0
LINE
  8
AM_VIS
 10
45.56757
 20
33.050626
 30
0.0
 11
45.080435
 21
32.769418
 31
0.0
  0
POLYLINE
  8
AM_VIS
  6
CONTINUOUS
 66
     1
 10
0.0
 20
0.0
 30
0.0
 70
     8
  0
VERTEX
  8
AM_VIS
  6
CONTINUOUS
 10
44.714759
 20
32.605571
 30
0.0
 70
    32
1001
ACAD
1000
R13OBJECT
1002
{
1005
699
1002
}
  0
VERTEX
  8
AM_VIS
  6
CONTINUOUS
 10
44.753534
 20
32.639337
 30
0.0
 70
    32
1001
ACAD
1000
R13OBJECT
1002
{
1005
699
1002
}
  0
VERTEX
  8
AM_VIS
  6
CONTINUOUS
 10
44.782895
 20
32.687669
 30
0.0
 70
    32
1001
ACAD
1000
R13OBJECT
1002
{
1005
699
1002
}
  0
VERTEX
  8
AM_VIS
  6
CONTINUOUS
 10
44.795712
 20
32.738831
 30
0.0
 70
    32
1001
ACAD
1000
R13OBJECT
1002
{
1005
699
1002
}
  0
VERTEX
  8
AM_VIS
  6
CONTINUOUS
 10
44.788873
 20
32.7804
 30
0.0
 70
    32
1001
ACAD
1000
R13OBJECT
1002
{
1005
699
1002
}
  0
SEQEND
  8
AM_VIS
  6
CONTINUOUS
1001
ACAD
1000
R13OBJECT
1002
{
1005
699
1002
}
  0
LINE
  8
AM_VIS
 10
44.755678
 20
32.581946
 30
0.0
 11
44.714759
 21
32.605571
 31
0.0
  0
POLYLINE
  8
AM_VIS
  6
CONTINUOUS
 66
     1
 10
0.0
 20
0.0
 30
0.0
 70
     8
  0
VERTEX
  8
AM_VIS
  6
CONTINUOUS
 10
44.755678
 20
32.581946
 30
0.0
 70
    32
1001
ACAD
1000
R13OBJECT
1002
{
1005
69B
1002
}
  0
VERTEX
  8
AM_VIS
  6
CONTINUOUS
 10
44.790905
 20
32.611565
 30
0.0
 70
    32
1001
ACAD
1000
R13OBJECT
1002
{
1005
69B
1002
}
  0
VERTEX
  8
AM_VIS
  6
CONTINUOUS
 10
44.819156
 20
32.653887
 30
0.0
 70
    32
1001
ACAD
1000
R13OBJECT
1002
{
1005
69B
1002
}
  0
VERTEX
  8
AM_VIS
  6
CONTINUOUS
 10
44.834836
 20
32.700529
 30
0.0
 70
    32
1001
ACAD
1000
R13OBJECT
1002
{
1005
69B
1002
}
  0
VERTEX
  8
AM_VIS
  6
CONTINUOUS
 10
44.834838
 20
32.742253
 30
0.0
 70
    32
1001
ACAD
1000
R13OBJECT
1002
{
1005
69B
1002
}
  0
VERTEX
  8
AM_VIS
  6
CONTINUOUS
 10
44.819163
 20
32.770795
 30
0.0
 70
    32
1001
ACAD
1000
R13OBJECT
1002
{
1005
69B
1002
}
  0
VERTEX
  8
AM_VIS
  6
CONTINUOUS
 10
44.790915
 20
32.780502
 30
0.0
 70
    32
1001
ACAD
1000
R13OBJECT
1002
{
1005
69B
1002
}
  0
VERTEX
  8
AM_VIS
  6
CONTINUOUS
 10
44.755689
 20
32.769451
 30
0.0
 70
    32
1001
ACAD
1000
R13OBJECT
1002
{
1005
69B
1002
}
  0
SEQEND
  8
AM_VIS
  6
CONTINUOUS
1001
ACAD
1000
R13OBJECT
1002
{
1005
69B
1002
}
  0
LINE
  8
AM_VIS
 10
44.268554
 20
32.488243
 30
0.0
 11
44.755689
 21
32.769451
 31
0.0
  0
POLYLINE
  8
AM_VIS
  6
CONTINUOUS
 66
     1
 10
0.0
 20
0.0
 30
0.0
 70
     8
  0
VERTEX
  8
AM_VIS
  6
CONTINUOUS
 10
44.194468
 20
32.313396
 30
0.0
 70
    32
1001
ACAD
1000
R13OBJECT
1002
{
1005
69D
1002
}
  0
VERTEX
  8
AM_VIS
  6
CONTINUOUS
 10
44.210672
 20
32.316643
 30
0.0
 70
    32
1001
ACAD
1000
R13OBJECT
1002
{
1005
69D
1002
}
  0
VERTEX
  8
AM_VIS
  6
CONTINUOUS
 10
44.227623
 20
32.324362
 30
0.0
 70
    32
1001
ACAD
1000
R13OBJECT
1002
{
1005
69D
1002
}
  0
SEQEND
  8
AM_VIS
  6
CONTINUOUS
1001
ACAD
1000
R13OBJECT
1002
{
1005
69D
1002
}
  0
POLYLINE
  8
AM_VIS
  6
CONTINUOUS
 66
     1
 10
0.0
 20
0.0
 30
0.0
 70
     8
  0
VERTEX
  8
AM_VIS
  6
CONTINUOUS
 10
44.268554
 20
32.488243
 30
0.0
 70
    32
1001
ACAD
1000
R13OBJECT
1002
{
1005
69E
1002
}
  0
VERTEX
  8
AM_VIS
  6
CONTINUOUS
 10
44.233327
 20
32.458623
 30
0.0
 70
    32
1001
ACAD
1000
R13OBJECT
1002
{
1005
69E
1002
}
  0
VERTEX
  8
AM_VIS
  6
CONTINUOUS
 10
44.205075
 20
32.416301
 30
0.0
 70
    32
1001
ACAD
1000
R13OBJECT
1002
{
1005
69E
1002
}
  0
VERTEX
  8
AM_VIS
  6
CONTINUOUS
 10
44.189396
 20
32.369659
 30
0.0
 70
    32
1001
ACAD
1000
R13OBJECT
1002
{
1005
69E
1002
}
  0
VERTEX
  8
AM_VIS
  6
CONTINUOUS
 10
44.189393
 20
32.327935
 30
0.0
 70
    32
1001
ACAD
1000
R13OBJECT
1002
{
1005
69E
1002
}
  0
VERTEX
  8
AM_VIS
  6
CONTINUOUS
 10
44.205068
 20
32.299393
 30
0.0
 70
    32
1001
ACAD
1000
R13OBJECT
1002
{
1005
69E
1002
}
  0
VERTEX
  8
AM_VIS
  6
CONTINUOUS
 10
44.233316
 20
32.289687
 30
0.0
 70
    32
1001
ACAD
1000
R13OBJECT
1002
{
1005
69E
1002
}
  0
VERTEX
  8
AM_VIS
  6
CONTINUOUS
 10
44.268543
 20
32.300737
 30
0.0
 70
    32
1001
ACAD
1000
R13OBJECT
1002
{
1005
69E
1002
}
  0
SEQEND
  8
AM_VIS
  6
CONTINUOUS
1001
ACAD
1000
R13OBJECT
1002
{
1005
69E
1002
}
  0
LINE
  8
AM_VIS
 10
44.268543
 20
32.300737
 30
0.0
 11
44.227623
 21
32.324362
 31
0.0
  0
LINE
  8
AM_VIS
 10
44.227623
 20
32.324362
 30
0.0
 11
44.714759
 21
32.605571
 31
0.0
  0
LINE
  8
AM_VIS
 10
44.755678
 20
32.581946
 30
0.0
 11
44.268543
 21
32.300737
 31
0.0
  0
LINE
  8
AM_VIS
 10
43.902843
 20
31.75063
 30
0.0
 11
43.496897
 21
31.985003
 31
0.0
  0
LINE
  8
AM_VIS
 10
45.445438
 20
33.109836
 30
0.0
 11
45.5169
 21
33.068577
 31
0.0
  0
LINE
  8
AM_VIS
 10
43.537884
 20
33.085658
 30
0.0
 11
43.537881
 21
33.038407
 31
0.0
  0
LINE
  8
AM_VIS
 10
45.486426
 20
34.210491
 30
0.0
 11
43.537884
 21
33.085658
 31
0.0
  0
LINE
  8
AM_VIS
 10
43.537881
 20
33.038407
 30
0.0
 11
43.902908
 21
32.827659
 31
0.0
  0
LINE
  8
AM_VIS
 10
43.902908
 20
32.827659
 30
0.0
 11
43.902843
 21
31.75063
 31
0.0
  0
LINE
  8
AM_VIS
 10
43.94383
 20
32.851285
 30
0.0
 11
43.537884
 21
33.085658
 31
0.0
  0
LINE
  8
AM_VIS
 10
45.892372
 20
33.976118
 30
0.0
 11
43.94383
 21
32.851285
 31
0.0
  0
LINE
  8
AM_VIS
 10
45.486426
 20
34.210491
 30
0.0
 11
45.892372
 21
33.976118
 31
0.0
  0
LINE
  8
AM_VIS
 10
43.118846
 20
32.156018
 30
0.0
 11
43.943759
 21
31.679754
 31
0.0
  0
LINE
  8
AM_VIS
 10
43.943759
 20
31.679754
 30
0.0
 11
43.94383
 21
32.851285
 31
0.0
  0
LINE
  8
AM_VIS
 10
43.943759
 20
31.679754
 30
0.0
 11
45.892301
 21
32.804587
 31
0.0
  0
LINE
  8
AM_VIS
 10
45.892301
 20
32.804587
 30
0.0
 11
45.892372
 21
33.976118
 31
0.0
  0
POLYLINE
  8
AM_VIS
  6
CONTINUOUS
 66
     1
 10
0.0
 20
0.0
 30
0.0
 70
     8
  0
VERTEX
  8
AM_VIS
  6
CONTINUOUS
 10
58.516278
 20
40.573513
 30
0.0
 70
    32
1001
ACAD
1000
R13OBJECT
1002
{
1005
6AF
1002
}
  0
VERTEX
  8
AM_VIS
  6
CONTINUOUS
 10
58.555053
 20
40.607279
 30
0.0
 70
    32
1001
ACAD
1000
R13OBJECT
1002
{
1005
6AF
1002
}
  0
VERTEX
  8
AM_VIS
  6
CONTINUOUS
 10
58.584414
 20
40.655611
 30
0.0
 70
    32
1001
ACAD
1000
R13OBJECT
1002
{
1005
6AF
1002
}
  0
VERTEX
  8
AM_VIS
  6
CONTINUOUS
 10
58.597231
 20
40.706774
 30
0.0
 70
    32
1001
ACAD
1000
R13OBJECT
1002
{
1005
6AF
1002
}
  0
VERTEX
  8
AM_VIS
  6
CONTINUOUS
 10
58.590392
 20
40.748342
 30
0.0
 70
    32
1001
ACAD
1000
R13OBJECT
1002
{
1005
6AF
1002
}
  0
SEQEND
  8
AM_VIS
  6
CONTINUOUS
1001
ACAD
1000
R13OBJECT
1002
{
1005
6AF
1002
}
  0
POLYLINE
  8
AM_VIS
  6
CONTINUOUS
 66
     1
 10
0.0
 20
0.0
 30
0.0
 70
     8
  0
VERTEX
  8
AM_VIS
  6
CONTINUOUS
 10
57.833609
 20
40.187603
 30
0.0
 70
    32
1001
ACAD
1000
R13OBJECT
1002
{
1005
6B0
1002
}
  0
VERTEX
  8
AM_VIS
  6
CONTINUOUS
 10
57.849812
 20
40.190849
 30
0.0
 70
    32
1001
ACAD
1000
R13OBJECT
1002
{
1005
6B0
1002
}
  0
VERTEX
  8
AM_VIS
  6
CONTINUOUS
 10
57.866764
 20
40.198569
 30
0.0
 70
    32
1001
ACAD
1000
R13OBJECT
1002
{
1005
6B0
1002
}
  0
SEQEND
  8
AM_VIS
  6
CONTINUOUS
1001
ACAD
1000
R13OBJECT
1002
{
1005
6B0
1002
}
  0
LINE
  8
AM_VIS
 10
57.866764
 20
40.198569
 30
0.0
 11
58.516278
 21
40.573513
 31
0.0
  0
POLYLINE
  8
AM_VIS
  6
CONTINUOUS
 66
     1
 10
0.0
 20
0.0
 30
0.0
 70
     8
  0
VERTEX
  8
AM_VIS
  6
CONTINUOUS
 10
49.747841
 20
35.511764
 30
0.0
 70
    32
1001
ACAD
1000
R13OBJECT
1002
{
1005
6B2
1002
}
  0
VERTEX
  8
AM_VIS
  6
CONTINUOUS
 10
49.786616
 20
35.54553
 30
0.0
 70
    32
1001
ACAD
1000
R13OBJECT
1002
{
1005
6B2
1002
}
  0
VERTEX
  8
AM_VIS
  6
CONTINUOUS
 10
49.815977
 20
35.593863
 30
0.0
 70
    32
1001
ACAD
1000
R13OBJECT
1002
{
1005
6B2
1002
}
  0
VERTEX
  8
AM_VIS
  6
CONTINUOUS
 10
49.828794
 20
35.645025
 30
0.0
 70
    32
1001
ACAD
1000
R13OBJECT
1002
{
1005
6B2
1002
}
  0
VERTEX
  8
AM_VIS
  6
CONTINUOUS
 10
49.821955
 20
35.686594
 30
0.0
 70
    32
1001
ACAD
1000
R13OBJECT
1002
{
1005
6B2
1002
}
  0
SEQEND
  8
AM_VIS
  6
CONTINUOUS
1001
ACAD
1000
R13OBJECT
1002
{
1005
6B2
1002
}
  0
POLYLINE
  8
AM_VIS
  6
CONTINUOUS
 66
     1
 10
0.0
 20
0.0
 30
0.0
 70
     8
  0
VERTEX
  8
AM_VIS
  6
CONTINUOUS
 10
49.065172
 20
35.125854
 30
0.0
 70
    32
1001
ACAD
1000
R13OBJECT
1002
{
1005
6B3
1002
}
  0
VERTEX
  8
AM_VIS
  6
CONTINUOUS
 10
49.081376
 20
35.129101
 30
0.0
 70
    32
1001
ACAD
1000
R13OBJECT
1002
{
1005
6B3
1002
}
  0
VERTEX
  8
AM_VIS
  6
CONTINUOUS
 10
49.098327
 20
35.13682
 30
0.0
 70
    32
1001
ACAD
1000
R13OBJECT
1002
{
1005
6B3
1002
}
  0
SEQEND
  8
AM_VIS
  6
CONTINUOUS
1001
ACAD
1000
R13OBJECT
1002
{
1005
6B3
1002
}
  0
LINE
  8
AM_VIS
 10
49.098327
 20
35.13682
 30
0.0
 11
49.747841
 21
35.511764
 31
0.0
  0
POLYLINE
  8
AM_VIS
  6
CONTINUOUS
 66
     1
 10
0.0
 20
0.0
 30
0.0
 70
     8
  0
VERTEX
  8
AM_VIS
  6
CONTINUOUS
 10
48.85476
 20
34.996216
 30
0.0
 70
    32
1001
ACAD
1000
R13OBJECT
1002
{
1005
6B5
1002
}
  0
VERTEX
  8
AM_VIS
  6
CONTINUOUS
 10
48.893535
 20
35.029982
 30
0.0
 70
    32
1001
ACAD
1000
R13OBJECT
1002
{
1005
6B5
1002
}
  0
VERTEX
  8
AM_VIS
  6
CONTINUOUS
 10
48.922896
 20
35.078314
 30
0.0
 70
    32
1001
ACAD
1000
R13OBJECT
1002
{
1005
6B5
1002
}
  0
VERTEX
  8
AM_VIS
  6
CONTINUOUS
 10
48.935713
 20
35.129477
 30
0.0
 70
    32
1001
ACAD
1000
R13OBJECT
1002
{
1005
6B5
1002
}
  0
VERTEX
  8
AM_VIS
  6
CONTINUOUS
 10
48.928874
 20
35.171045
 30
0.0
 70
    32
1001
ACAD
1000
R13OBJECT
1002
{
1005
6B5
1002
}
  0
SEQEND
  8
AM_VIS
  6
CONTINUOUS
1001
ACAD
1000
R13OBJECT
1002
{
1005
6B5
1002
}
  0
POLYLINE
  8
AM_VIS
  6
CONTINUOUS
 66
     1
 10
0.0
 20
0.0
 30
0.0
 70
     8
  0
VERTEX
  8
AM_VIS
  6
CONTINUOUS
 10
48.496848
 20
34.797778
 30
0.0
 70
    32
1001
ACAD
1000
R13OBJECT
1002
{
1005
6B6
1002
}
  0
VERTEX
  8
AM_VIS
  6
CONTINUOUS
 10
48.513051
 20
34.801024
 30
0.0
 70
    32
1001
ACAD
1000
R13OBJECT
1002
{
1005
6B6
1002
}
  0
VERTEX
  8
AM_VIS
  6
CONTINUOUS
 10
48.530003
 20
34.808744
 30
0.0
 70
    32
1001
ACAD
1000
R13OBJECT
1002
{
1005
6B6
1002
}
  0
SEQEND
  8
AM_VIS
  6
CONTINUOUS
1001
ACAD
1000
R13OBJECT
1002
{
1005
6B6
1002
}
  0
LINE
  8
AM_VIS
 10
48.530003
 20
34.808744
 30
0.0
 11
48.85476
 21
34.996216
 31
0.0
  0
POLYLINE
  8
AM_VIS
  6
CONTINUOUS
 66
     1
 10
0.0
 20
0.0
 30
0.0
 70
     8
  0
VERTEX
  8
AM_VIS
  6
CONTINUOUS
 10
59.084602
 20
40.901589
 30
0.0
 70
    32
1001
ACAD
1000
R13OBJECT
1002
{
1005
6B8
1002
}
  0
VERTEX
  8
AM_VIS
  6
CONTINUOUS
 10
59.123377
 20
40.935355
 30
0.0
 70
    32
1001
ACAD
1000
R13OBJECT
1002
{
1005
6B8
1002
}
  0
VERTEX
  8
AM_VIS
  6
CONTINUOUS
 10
59.152738
 20
40.983688
 30
0.0
 70
    32
1001
ACAD
1000
R13OBJECT
1002
{
1005
6B8
1002
}
  0
VERTEX
  8
AM_VIS
  6
CONTINUOUS
 10
59.165556
 20
41.03485
 30
0.0
 70
    32
1001
ACAD
1000
R13OBJECT
1002
{
1005
6B8
1002
}
  0
VERTEX
  8
AM_VIS
  6
CONTINUOUS
 10
59.158716
 20
41.076419
 30
0.0
 70
    32
1001
ACAD
1000
R13OBJECT
1002
{
1005
6B8
1002
}
  0
SEQEND
  8
AM_VIS
  6
CONTINUOUS
1001
ACAD
1000
R13OBJECT
1002
{
1005
6B8
1002
}
  0
POLYLINE
  8
AM_VIS
  6
CONTINUOUS
 66
     1
 10
0.0
 20
0.0
 30
0.0
 70
     8
  0
VERTEX
  8
AM_VIS
  6
CONTINUOUS
 10
58.72669
 20
40.703151
 30
0.0
 70
    32
1001
ACAD
1000
R13OBJECT
1002
{
1005
6B9
1002
}
  0
VERTEX
  8
AM_VIS
  6
CONTINUOUS
 10
58.742894
 20
40.706398
 30
0.0
 70
    32
1001
ACAD
1000
R13OBJECT
1002
{
1005
6B9
1002
}
  0
VERTEX
  8
AM_VIS
  6
CONTINUOUS
 10
58.759845
 20
40.714117
 30
0.0
 70
    32
1001
ACAD
1000
R13OBJECT
1002
{
1005
6B9
1002
}
  0
SEQEND
  8
AM_VIS
  6
CONTINUOUS
1001
ACAD
1000
R13OBJECT
1002
{
1005
6B9
1002
}
  0
LINE
  8
AM_VIS
 10
58.759845
 20
40.714117
 30
0.0
 11
59.084602
 21
40.901589
 31
0.0
  0
LINE
  8
AM_VIS
 10
48.286477
 20
35.358908
 30
0.0
 11
48.286412
 21
34.281879
 31
0.0
  0
LINE
  8
AM_VIS
 10
48.286412
 20
34.281879
 30
0.0
 11
47.881115
 21
34.515877
 31
0.0
  0
LINE
  8
AM_VIS
 10
58.872211
 20
40.919167
 30
0.0
 11
58.993663
 21
40.849047
 31
0.0
  0
LINE
  8
AM_VIS
 10
47.921453
 20
35.616908
 30
0.0
 11
47.92145
 21
35.569656
 31
0.0
  0
LINE
  8
AM_VIS
 10
58.963188
 20
41.990962
 30
0.0
 11
47.921453
 21
35.616908
 31
0.0
  0
LINE
  8
AM_VIS
 10
47.92145
 20
35.569656
 30
0.0
 11
48.286477
 21
35.358908
 31
0.0
  0
LINE
  8
AM_VIS
 10
47.840195
 20
34.49225
 30
0.0
 11
48.327328
 21
34.211003
 31
0.0
  0
LINE
  8
AM_VIS
 10
48.327328
 20
34.211003
 30
0.0
 11
48.327399
 21
35.382535
 31
0.0
  0
LINE
  8
AM_VIS
 10
48.327399
 20
35.382535
 30
0.0
 11
47.921453
 21
35.616908
 31
0.0
  0
LINE
  8
AM_VIS
 10
58.557197
 20
40.549888
 30
0.0
 11
58.516278
 21
40.573513
 31
0.0
  0
POLYLINE
  8
AM_VIS
  6
CONTINUOUS
 66
     1
 10
0.0
 20
0.0
 30
0.0
 70
     8
  0
VERTEX
  8
AM_VIS
  6
CONTINUOUS
 10
58.557197
 20
40.549888
 30
0.0
 70
    32
1001
ACAD
1000
R13OBJECT
1002
{
1005
6C5
1002
}
  0
VERTEX
  8
AM_VIS
  6
CONTINUOUS
 10
58.592424
 20
40.579508
 30
0.0
 70
    32
1001
ACAD
1000
R13OBJECT
1002
{
1005
6C5
1002
}
  0
VERTEX
  8
AM_VIS
  6
CONTINUOUS
 10
58.620675
 20
40.62183
 30
0.0
 70
    32
1001
ACAD
1000
R13OBJECT
1002
{
1005
6C5
1002
}
  0
VERTEX
  8
AM_VIS
  6
CONTINUOUS
 10
58.636355
 20
40.668472
 30
0.0
 70
    32
1001
ACAD
1000
R13OBJECT
1002
{
1005
6C5
1002
}
  0
VERTEX
  8
AM_VIS
  6
CONTINUOUS
 10
58.636358
 20
40.710195
 30
0.0
 70
    32
1001
ACAD
1000
R13OBJECT
1002
{
1005
6C5
1002
}
  0
VERTEX
  8
AM_VIS
  6
CONTINUOUS
 10
58.620683
 20
40.738737
 30
0.0
 70
    32
1001
ACAD
1000
R13OBJECT
1002
{
1005
6C5
1002
}
  0
VERTEX
  8
AM_VIS
  6
CONTINUOUS
 10
58.592434
 20
40.748444
 30
0.0
 70
    32
1001
ACAD
1000
R13OBJECT
1002
{
1005
6C5
1002
}
  0
VERTEX
  8
AM_VIS
  6
CONTINUOUS
 10
58.557208
 20
40.737393
 30
0.0
 70
    32
1001
ACAD
1000
R13OBJECT
1002
{
1005
6C5
1002
}
  0
SEQEND
  8
AM_VIS
  6
CONTINUOUS
1001
ACAD
1000
R13OBJECT
1002
{
1005
6C5
1002
}
  0
LINE
  8
AM_VIS
 10
57.907695
 20
40.362449
 30
0.0
 11
58.557208
 21
40.737393
 31
0.0
  0
POLYLINE
  8
AM_VIS
  6
CONTINUOUS
 66
     1
 10
0.0
 20
0.0
 30
0.0
 70
     8
  0
VERTEX
  8
AM_VIS
  6
CONTINUOUS
 10
57.907695
 20
40.362449
 30
0.0
 70
    32
1001
ACAD
1000
R13OBJECT
1002
{
1005
6C7
1002
}
  0
VERTEX
  8
AM_VIS
  6
CONTINUOUS
 10
57.872467
 20
40.332829
 30
0.0
 70
    32
1001
ACAD
1000
R13OBJECT
1002
{
1005
6C7
1002
}
  0
VERTEX
  8
AM_VIS
  6
CONTINUOUS
 10
57.844216
 20
40.290507
 30
0.0
 70
    32
1001
ACAD
1000
R13OBJECT
1002
{
1005
6C7
1002
}
  0
VERTEX
  8
AM_VIS
  6
CONTINUOUS
 10
57.828536
 20
40.243865
 30
0.0
 70
    32
1001
ACAD
1000
R13OBJECT
1002
{
1005
6C7
1002
}
  0
VERTEX
  8
AM_VIS
  6
CONTINUOUS
 10
57.828534
 20
40.202141
 30
0.0
 70
    32
1001
ACAD
1000
R13OBJECT
1002
{
1005
6C7
1002
}
  0
VERTEX
  8
AM_VIS
  6
CONTINUOUS
 10
57.844209
 20
40.1736
 30
0.0
 70
    32
1001
ACAD
1000
R13OBJECT
1002
{
1005
6C7
1002
}
  0
VERTEX
  8
AM_VIS
  6
CONTINUOUS
 10
57.872457
 20
40.163893
 30
0.0
 70
    32
1001
ACAD
1000
R13OBJECT
1002
{
1005
6C7
1002
}
  0
VERTEX
  8
AM_VIS
  6
CONTINUOUS
 10
57.907683
 20
40.174944
 30
0.0
 70
    32
1001
ACAD
1000
R13OBJECT
1002
{
1005
6C7
1002
}
  0
SEQEND
  8
AM_VIS
  6
CONTINUOUS
1001
ACAD
1000
R13OBJECT
1002
{
1005
6C7
1002
}
  0
LINE
  8
AM_VIS
 10
57.907683
 20
40.174944
 30
0.0
 11
57.866764
 21
40.198569
 31
0.0
  0
LINE
  8
AM_VIS
 10
58.557197
 20
40.549888
 30
0.0
 11
57.907683
 21
40.174944
 31
0.0
  0
LINE
  8
AM_VIS
 10
49.78876
 20
35.488139
 30
0.0
 11
49.747841
 21
35.511764
 31
0.0
  0
POLYLINE
  8
AM_VIS
  6
CONTINUOUS
 66
     1
 10
0.0
 20
0.0
 30
0.0
 70
     8
  0
VERTEX
  8
AM_VIS
  6
CONTINUOUS
 10
49.78876
 20
35.488139
 30
0.0
 70
    32
1001
ACAD
1000
R13OBJECT
1002
{
1005
6CB
1002
}
  0
VERTEX
  8
AM_VIS
  6
CONTINUOUS
 10
49.823988
 20
35.517759
 30
0.0
 70
    32
1001
ACAD
1000
R13OBJECT
1002
{
1005
6CB
1002
}
  0
VERTEX
  8
AM_VIS
  6
CONTINUOUS
 10
49.852239
 20
35.560081
 30
0.0
 70
    32
1001
ACAD
1000
R13OBJECT
1002
{
1005
6CB
1002
}
  0
VERTEX
  8
AM_VIS
  6
CONTINUOUS
 10
49.867919
 20
35.606723
 30
0.0
 70
    32
1001
ACAD
1000
R13OBJECT
1002
{
1005
6CB
1002
}
  0
VERTEX
  8
AM_VIS
  6
CONTINUOUS
 10
49.867921
 20
35.648447
 30
0.0
 70
    32
1001
ACAD
1000
R13OBJECT
1002
{
1005
6CB
1002
}
  0
VERTEX
  8
AM_VIS
  6
CONTINUOUS
 10
49.852246
 20
35.676989
 30
0.0
 70
    32
1001
ACAD
1000
R13OBJECT
1002
{
1005
6CB
1002
}
  0
VERTEX
  8
AM_VIS
  6
CONTINUOUS
 10
49.823998
 20
35.686695
 30
0.0
 70
    32
1001
ACAD
1000
R13OBJECT
1002
{
1005
6CB
1002
}
  0
VERTEX
  8
AM_VIS
  6
CONTINUOUS
 10
49.788772
 20
35.675644
 30
0.0
 70
    32
1001
ACAD
1000
R13OBJECT
1002
{
1005
6CB
1002
}
  0
SEQEND
  8
AM_VIS
  6
CONTINUOUS
1001
ACAD
1000
R13OBJECT
1002
{
1005
6CB
1002
}
  0
LINE
  8
AM_VIS
 10
49.139258
 20
35.3007
 30
0.0
 11
49.788772
 21
35.675644
 31
0.0
  0
POLYLINE
  8
AM_VIS
  6
CONTINUOUS
 66
     1
 10
0.0
 20
0.0
 30
0.0
 70
     8
  0
VERTEX
  8
AM_VIS
  6
CONTINUOUS
 10
49.139258
 20
35.3007
 30
0.0
 70
    32
1001
ACAD
1000
R13OBJECT
1002
{
1005
6CD
1002
}
  0
VERTEX
  8
AM_VIS
  6
CONTINUOUS
 10
49.104031
 20
35.27108
 30
0.0
 70
    32
1001
ACAD
1000
R13OBJECT
1002
{
1005
6CD
1002
}
  0
VERTEX
  8
AM_VIS
  6
CONTINUOUS
 10
49.07578
 20
35.228758
 30
0.0
 70
    32
1001
ACAD
1000
R13OBJECT
1002
{
1005
6CD
1002
}
  0
VERTEX
  8
AM_VIS
  6
CONTINUOUS
 10
49.0601
 20
35.182117
 30
0.0
 70
    32
1001
ACAD
1000
R13OBJECT
1002
{
1005
6CD
1002
}
  0
VERTEX
  8
AM_VIS
  6
CONTINUOUS
 10
49.060097
 20
35.140393
 30
0.0
 70
    32
1001
ACAD
1000
R13OBJECT
1002
{
1005
6CD
1002
}
  0
VERTEX
  8
AM_VIS
  6
CONTINUOUS
 10
49.075772
 20
35.111851
 30
0.0
 70
    32
1001
ACAD
1000
R13OBJECT
1002
{
1005
6CD
1002
}
  0
VERTEX
  8
AM_VIS
  6
CONTINUOUS
 10
49.104021
 20
35.102144
 30
0.0
 70
    32
1001
ACAD
1000
R13OBJECT
1002
{
1005
6CD
1002
}
  0
VERTEX
  8
AM_VIS
  6
CONTINUOUS
 10
49.139247
 20
35.113195
 30
0.0
 70
    32
1001
ACAD
1000
R13OBJECT
1002
{
1005
6CD
1002
}
  0
SEQEND
  8
AM_VIS
  6
CONTINUOUS
1001
ACAD
1000
R13OBJECT
1002
{
1005
6CD
1002
}
  0
LINE
  8
AM_VIS
 10
49.139247
 20
35.113195
 30
0.0
 11
49.098327
 21
35.13682
 31
0.0
  0
LINE
  8
AM_VIS
 10
49.78876
 20
35.488139
 30
0.0
 11
49.139247
 21
35.113195
 31
0.0
  0
LINE
  8
AM_VIS
 10
48.895679
 20
34.972591
 30
0.0
 11
48.85476
 21
34.996216
 31
0.0
  0
POLYLINE
  8
AM_VIS
  6
CONTINUOUS
 66
     1
 10
0.0
 20
0.0
 30
0.0
 70
     8
  0
VERTEX
  8
AM_VIS
  6
CONTINUOUS
 10
48.895679
 20
34.972591
 30
0.0
 70
    32
1001
ACAD
1000
R13OBJECT
1002
{
1005
6D1
1002
}
  0
VERTEX
  8
AM_VIS
  6
CONTINUOUS
 10
48.930906
 20
35.002211
 30
0.0
 70
    32
1001
ACAD
1000
R13OBJECT
1002
{
1005
6D1
1002
}
  0
VERTEX
  8
AM_VIS
  6
CONTINUOUS
 10
48.959157
 20
35.044533
 30
0.0
 70
    32
1001
ACAD
1000
R13OBJECT
1002
{
1005
6D1
1002
}
  0
VERTEX
  8
AM_VIS
  6
CONTINUOUS
 10
48.974837
 20
35.091175
 30
0.0
 70
    32
1001
ACAD
1000
R13OBJECT
1002
{
1005
6D1
1002
}
  0
VERTEX
  8
AM_VIS
  6
CONTINUOUS
 10
48.97484
 20
35.132898
 30
0.0
 70
    32
1001
ACAD
1000
R13OBJECT
1002
{
1005
6D1
1002
}
  0
VERTEX
  8
AM_VIS
  6
CONTINUOUS
 10
48.959164
 20
35.16144
 30
0.0
 70
    32
1001
ACAD
1000
R13OBJECT
1002
{
1005
6D1
1002
}
  0
VERTEX
  8
AM_VIS
  6
CONTINUOUS
 10
48.930916
 20
35.171147
 30
0.0
 70
    32
1001
ACAD
1000
R13OBJECT
1002
{
1005
6D1
1002
}
  0
VERTEX
  8
AM_VIS
  6
CONTINUOUS
 10
48.89569
 20
35.160096
 30
0.0
 70
    32
1001
ACAD
1000
R13OBJECT
1002
{
1005
6D1
1002
}
  0
SEQEND
  8
AM_VIS
  6
CONTINUOUS
1001
ACAD
1000
R13OBJECT
1002
{
1005
6D1
1002
}
  0
LINE
  8
AM_VIS
 10
48.570933
 20
34.972624
 30
0.0
 11
48.89569
 21
35.160096
 31
0.0
  0
POLYLINE
  8
AM_VIS
  6
CONTINUOUS
 66
     1
 10
0.0
 20
0.0
 30
0.0
 70
     8
  0
VERTEX
  8
AM_VIS
  6
CONTINUOUS
 10
48.570933
 20
34.972624
 30
0.0
 70
    32
1001
ACAD
1000
R13OBJECT
1002
{
1005
6D3
1002
}
  0
VERTEX
  8
AM_VIS
  6
CONTINUOUS
 10
48.535706
 20
34.943004
 30
0.0
 70
    32
1001
ACAD
1000
R13OBJECT
1002
{
1005
6D3
1002
}
  0
VERTEX
  8
AM_VIS
  6
CONTINUOUS
 10
48.507455
 20
34.900682
 30
0.0
 70
    32
1001
ACAD
1000
R13OBJECT
1002
{
1005
6D3
1002
}
  0
VERTEX
  8
AM_VIS
  6
CONTINUOUS
 10
48.491775
 20
34.85404
 30
0.0
 70
    32
1001
ACAD
1000
R13OBJECT
1002
{
1005
6D3
1002
}
  0
VERTEX
  8
AM_VIS
  6
CONTINUOUS
 10
48.491773
 20
34.812316
 30
0.0
 70
    32
1001
ACAD
1000
R13OBJECT
1002
{
1005
6D3
1002
}
  0
VERTEX
  8
AM_VIS
  6
CONTINUOUS
 10
48.507448
 20
34.783775
 30
0.0
 70
    32
1001
ACAD
1000
R13OBJECT
1002
{
1005
6D3
1002
}
  0
VERTEX
  8
AM_VIS
  6
CONTINUOUS
 10
48.535696
 20
34.774068
 30
0.0
 70
    32
1001
ACAD
1000
R13OBJECT
1002
{
1005
6D3
1002
}
  0
VERTEX
  8
AM_VIS
  6
CONTINUOUS
 10
48.570922
 20
34.785119
 30
0.0
 70
    32
1001
ACAD
1000
R13OBJECT
1002
{
1005
6D3
1002
}
  0
SEQEND
  8
AM_VIS
  6
CONTINUOUS
1001
ACAD
1000
R13OBJECT
1002
{
1005
6D3
1002
}
  0
LINE
  8
AM_VIS
 10
48.570922
 20
34.785119
 30
0.0
 11
48.530003
 21
34.808744
 31
0.0
  0
LINE
  8
AM_VIS
 10
48.895679
 20
34.972591
 30
0.0
 11
48.570922
 21
34.785119
 31
0.0
  0
LINE
  8
AM_VIS
 10
59.125522
 20
40.877964
 30
0.0
 11
59.084602
 21
40.901589
 31
0.0
  0
POLYLINE
  8
AM_VIS
  6
CONTINUOUS
 66
     1
 10
0.0
 20
0.0
 30
0.0
 70
     8
  0
VERTEX
  8
AM_VIS
  6
CONTINUOUS
 10
59.125522
 20
40.877964
 30
0.0
 70
    32
1001
ACAD
1000
R13OBJECT
1002
{
1005
6D7
1002
}
  0
VERTEX
  8
AM_VIS
  6
CONTINUOUS
 10
59.160749
 20
40.907584
 30
0.0
 70
    32
1001
ACAD
1000
R13OBJECT
1002
{
1005
6D7
1002
}
  0
VERTEX
  8
AM_VIS
  6
CONTINUOUS
 10
59.189
 20
40.949906
 30
0.0
 70
    32
1001
ACAD
1000
R13OBJECT
1002
{
1005
6D7
1002
}
  0
VERTEX
  8
AM_VIS
  6
CONTINUOUS
 10
59.20468
 20
40.996548
 30
0.0
 70
    32
1001
ACAD
1000
R13OBJECT
1002
{
1005
6D7
1002
}
  0
VERTEX
  8
AM_VIS
  6
CONTINUOUS
 10
59.204682
 20
41.038272
 30
0.0
 70
    32
1001
ACAD
1000
R13OBJECT
1002
{
1005
6D7
1002
}
  0
VERTEX
  8
AM_VIS
  6
CONTINUOUS
 10
59.189007
 20
41.066814
 30
0.0
 70
    32
1001
ACAD
1000
R13OBJECT
1002
{
1005
6D7
1002
}
  0
VERTEX
  8
AM_VIS
  6
CONTINUOUS
 10
59.160759
 20
41.07652
 30
0.0
 70
    32
1001
ACAD
1000
R13OBJECT
1002
{
1005
6D7
1002
}
  0
VERTEX
  8
AM_VIS
  6
CONTINUOUS
 10
59.125533
 20
41.065469
 30
0.0
 70
    32
1001
ACAD
1000
R13OBJECT
1002
{
1005
6D7
1002
}
  0
SEQEND
  8
AM_VIS
  6
CONTINUOUS
1001
ACAD
1000
R13OBJECT
1002
{
1005
6D7
1002
}
  0
LINE
  8
AM_VIS
 10
58.800776
 20
40.877997
 30
0.0
 11
59.125533
 21
41.065469
 31
0.0
  0
POLYLINE
  8
AM_VIS
  6
CONTINUOUS
 66
     1
 10
0.0
 20
0.0
 30
0.0
 70
     8
  0
VERTEX
  8
AM_VIS
  6
CONTINUOUS
 10
58.800776
 20
40.877997
 30
0.0
 70
    32
1001
ACAD
1000
R13OBJECT
1002
{
1005
6D9
1002
}
  0
VERTEX
  8
AM_VIS
  6
CONTINUOUS
 10
58.765549
 20
40.848378
 30
0.0
 70
    32
1001
ACAD
1000
R13OBJECT
1002
{
1005
6D9
1002
}
  0
VERTEX
  8
AM_VIS
  6
CONTINUOUS
 10
58.737298
 20
40.806056
 30
0.0
 70
    32
1001
ACAD
1000
R13OBJECT
1002
{
1005
6D9
1002
}
  0
VERTEX
  8
AM_VIS
  6
CONTINUOUS
 10
58.721618
 20
40.759414
 30
0.0
 70
    32
1001
ACAD
1000
R13OBJECT
1002
{
1005
6D9
1002
}
  0
VERTEX
  8
AM_VIS
  6
CONTINUOUS
 10
58.721615
 20
40.71769
 30
0.0
 70
    32
1001
ACAD
1000
R13OBJECT
1002
{
1005
6D9
1002
}
  0
VERTEX
  8
AM_VIS
  6
CONTINUOUS
 10
58.73729
 20
40.689148
 30
0.0
 70
    32
1001
ACAD
1000
R13OBJECT
1002
{
1005
6D9
1002
}
  0
VERTEX
  8
AM_VIS
  6
CONTINUOUS
 10
58.765539
 20
40.679441
 30
0.0
 70
    32
1001
ACAD
1000
R13OBJECT
1002
{
1005
6D9
1002
}
  0
VERTEX
  8
AM_VIS
  6
CONTINUOUS
 10
58.800765
 20
40.690492
 30
0.0
 70
    32
1001
ACAD
1000
R13OBJECT
1002
{
1005
6D9
1002
}
  0
SEQEND
  8
AM_VIS
  6
CONTINUOUS
1001
ACAD
1000
R13OBJECT
1002
{
1005
6D9
1002
}
  0
LINE
  8
AM_VIS
 10
58.800765
 20
40.690492
 30
0.0
 11
58.759845
 21
40.714117
 31
0.0
  0
LINE
  8
AM_VIS
 10
59.125522
 20
40.877964
 30
0.0
 11
58.800765
 21
40.690492
 31
0.0
  0
LINE
  8
AM_VIS
 10
59.369134
 20
41.756588
 30
0.0
 11
48.327399
 21
35.382535
 31
0.0
  0
LINE
  8
AM_VIS
 10
48.327328
 20
34.211003
 30
0.0
 11
59.369063
 21
40.585057
 31
0.0
  0
LINE
  8
AM_VIS
 10
59.369063
 20
40.585057
 30
0.0
 11
59.369134
 21
41.756588
 31
0.0
  0
LINE
  8
AM_VIS
 10
58.963188
 20
41.990962
 30
0.0
 11
59.369134
 21
41.756588
 31
0.0
  0
LINE
  8
AM_VIS
 10
43.164006
 20
45.262842
 30
0.0
 11
32.771785
 21
39.263312
 31
0.0
  0
LINE
  8
AM_VIS
 10
40.004824
 20
42.288164
 30
0.0
 11
43.321964
 21
44.203182
 31
0.0
  0
LINE
  8
AM_VIS
 10
39.286625
 20
42.673312
 30
0.0
 11
39.176674
 21
42.736792
 31
0.0
  0
LINE
  8
AM_VIS
 10
39.286519
 20
42.673248
 30
0.0
 11
39.286626
 21
42.673309
 31
0.0
  0
LINE
  8
AM_VIS
 10
39.216331
 20
42.699091
 30
0.0
 11
29.166458
 21
36.897609
 31
0.0
  0
LINE
  8
AM_VIS
 10
33.120553
 20
33.259201
 30
0.0
 11
33.161472
 21
33.282826
 31
0.0
  0
LINE
  8
AM_VIS
 10
43.312093
 20
33.13541
 30
0.0
 11
39.497168
 21
30.933171
 31
0.0
  0
LINE
  8
AM_VIS
 10
43.415736
 20
32.464122
 30
0.0
 11
40.130319
 21
30.567552
 31
0.0
  0
LINE
  8
AM_VIS
 10
43.423259
 20
32.117803
 30
0.0
 11
43.455986
 21
32.136695
 31
0.0
  0
LINE
  8
AM_VIS
 10
53.657554
 20
39.176592
 30
0.0
 11
43.265333
 21
33.177482
 31
0.0
  0
TEXT
  8
TEXT
 10
16.852389
 20
60.640527
 30
0.0
 40
0.75
  1
METALLIC GRAY
 41
0.75
 72
     2
 11
23.789889
 21
60.640527
 31
0.0
  0
DIMENSION
  8
DIM
  2
*D14
 10
33.833022
 20
67.22362
 30
0.0
 11
36.864086
 21
65.473634
 31
0.0
 12
9.360806
 22
7.93605
 32
0.0
 70
     1
 13
42.93172
 23
65.476812
 33
-0.881197
 14
36.869591
 24
68.976784
 34
-0.881197
 52
60.0
  3
23NSTD
  0
DIMENSION
  8
DIM
  2
*D20
 10
33.833022
 20
67.22362
 30
0.0
 11
25.118711
 21
72.254829
 31
0.0
 12
9.360806
 22
7.93605
 32
0.0
 70
     1
  1
A
 13
19.075511
 23
78.828205
 33
-0.881197
 14
36.504131
 24
68.765786
 34
-0.881197
 52
60.0
  3
23NSTD
  0
DIMENSION
  8
DIM
  2
*D15
 10
53.802896
 20
68.200263
 30
0.0
 11
49.905813
 21
65.950281
 31
0.0
 12
9.360806
 22
7.93605
 32
0.0
 70
     1
 13
42.93172
 23
65.476812
 33
-0.881197
 14
50.725886
 24
69.976776
 34
-0.881197
 52
300.0
  3
23NSTD
  0
DIMENSION
  8
DIM
  2
*D17
 10
27.668145
 20
87.4934
 30
0.0
 11
23.338053
 21
84.99342
 31
0.0
 12
9.360806
 22
7.93605
 32
0.0
 70
     1
 13
19.007961
 23
78.852204
 33
-0.881197
 14
27.668145
 24
83.852164
 34
-0.881197
 52
60.0
  3
23NSTD
  0
DIMENSION
  8
DIM
  2
*D21
 10
37.505977
 20
62.344258
 30
0.0
 11
25.760602
 21
69.125453
 31
0.0
 12
9.360806
 22
7.93605
 32
0.0
 70
     1
  1
B
 13
16.404401
 23
77.286039
 33
0.0
 14
39.895151
 24
63.723648
 34
0.0
 52
60.0
  3
23NSTD
  0
DIMENSION
  8
DIM
  2
*D16
 10
54.309858
 20
72.795977
 30
0.0
 11
56.961108
 21
74.955977
 31
0.0
 12
9.360806
 22
7.93605
 32
0.0
 70
     1
 13
50.725886
 23
69.976776
 33
-0.881197
 14
50.725886
 24
70.72677
 34
-0.881197
 52
300.0
  3
23NSTD
  0
DIMENSION
  8
DIM
  2
*D19
 10
15.522114
 20
80.488762
 30
0.0
 11
12.823989
 21
78.328762
 31
0.0
 12
9.360806
 22
7.93605
 32
0.0
 70
     1
 13
19.170773
 23
78.757208
 33
-0.881197
 14
19.170773
 24
78.382208
 34
-0.881197
 52
240.0
  3
23NSTD
  0
DIMENSION
  8
DIM
  2
*D18
 10
48.263274
 20
77.429915
 30
0.0
 11
50.914524
 21
79.589915
 31
0.0
 12
9.360806
 22
7.93605
 32
0.0
 70
     1
 13
45.096766
 23
73.726731
 33
-0.881197
 14
45.096766
 24
75.601731
 34
-0.881197
 52
300.0
  3
23NSTD
  0
TEXT
  8
TEXT
 10
39.785138
 20
14.037068
 30
0.0
 40
0.9375
  1
INSIDE DEPTH RACK
 41
0.75
 72
     1
 11
45.410138
 21
14.037068
 31
0.0
  0
TEXT
  8
TEXT
 10
37.736495
 20
4.461933
 30
0.0
 40
0.9375
  1
CLEAR INSIDE DEPTH RACK
 41
0.75
 72
     1
 11
45.47087
 21
4.461933
 31
0.0
  0
TEXT
  8
TEXT
 10
15.133694
 20
5.540494
 30
0.0
 40
0.75
  1
BLACK TEXTURE
 41
0.75
  0
LINE
  8
TEXT
 10
5.624127
 20
6.775717
 30
0.0
 11
14.750416
 21
6.775717
 31
0.0
  0
LINE
  8
TEXT
 10
5.624127
 20
5.561467
 30
0.0
 11
14.750416
 21
5.561467
 31
0.0
  0
TEXT
  8
TEXT
 10
44.575186
 20
27.756424
 30
0.0
 40
0.75
  1
LOAD RATING:  50 LBS. MAX.
 41
0.75
  0
TEXT
  8
TEXT
 10
1.768416
 20
58.094031
 30
0.0
 40
0.75
  1
LOAD RATING:  25 LBS. MAX.
 41
0.75
  0
ENDSEC
  0
EOF
