  0
SECTION
  2
HEADER
  9
$ACADVER
  1
AC1009
  9
$INSBASE
 10
0.0
 20
0.0
 30
0.0
  9
$EXTMIN
 10
0.0
 20
0.0
 30
0.0
  9
$EXTMAX
 10
80.96
 20
124.0
 30
0.0
  9
$LIMMIN
 10
0.0
 20
0.0
  9
$LIMMAX
 10
80.96
 20
124.0
  9
$ORTHOMODE
 70
     1
  9
$REGENMODE
 70
     1
  9
$FILLMODE
 70
     1
  9
$QTEXTMODE
 70
     0
  9
$MIRRTEXT
 70
     1
  9
$DRAGMODE
 70
     2
  9
$LTSCALE
 40
3.0
  9
$OSMODE
 70
     1
  9
$ATTMODE
 70
     1
  9
$TEXTSIZE
 40
1.0
  9
$TRACEWID
 40
0.05
  9
$TEXTSTYLE
  7
TXT
  9
$CLAYER
  8
DIM
  9
$CELTYPE
  6
BYLAYER
  9
$CECOLOR
 62
   256
  9
$DIMSCALE
 40
8.0
  9
$DIMASZ
 40
0.18
  9
$DIMEXO
 40
0.063
  9
$DIMDLI
 40
0.437
  9
$DIMRND
 40
0.0
  9
$DIMDLE
 40
0.0
  9
$DIMEXE
 40
0.093
  9
$DIMTP
 40
0.0
  9
$DIMTM
 40
0.0
  9
$DIMTXT
 40
0.125
  9
$DIMCEN
 40
0.09
  9
$DIMTSZ
 40
0.0
  9
$DIMTOL
 70
     0
  9
$DIMLIM
 70
     0
  9
$DIMTIH
 70
     1
  9
$DIMTOH
 70
     1
  9
$DIMSE1
 70
     0
  9
$DIMSE2
 70
     0
  9
$DIMTAD
 70
     0
  9
$DIMZIN
 70
     0
  9
$DIMBLK
  1

  9
$DIMASO
 70
     1
  9
$DIMSHO
 70
     1
  9
$DIMPOST
  1

  9
$DIMAPOST
  1

  9
$DIMALT
 70
     0
  9
$DIMALTD
 70
     2
  9
$DIMALTF
 40
25.4
  9
$DIMLFAC
 40
1.0
  9
$DIMTOFL
 70
     0
  9
$DIMTVP
 40
0.0
  9
$DIMTIX
 70
     0
  9
$DIMSOXD
 70
     0
  9
$DIMSAH
 70
     0
  9
$DIMBLK1
  1

  9
$DIMBLK2
  1

  9
$DIMSTYLE
  2
23NSTD
  9
$DIMCLRD
 70
     0
  9
$DIMCLRE
 70
     0
  9
$DIMCLRT
 70
     0
  9
$DIMTFAC
 40
1.0
  9
$DIMGAP
 40
0.09
  9
$LUNITS
 70
     2
  9
$LUPREC
 70
     3
  9
$SKETCHINC
 40
0.1
  9
$FILLETRAD
 40
0.0
  9
$AUNITS
 70
     0
  9
$AUPREC
 70
     0
  9
$MENU
  1
acad
  9
$ELEVATION
 40
0.0
  9
$PELEVATION
 40
0.0
  9
$THICKNESS
 40
0.0
  9
$LIMCHECK
 70
     0
  9
$BLIPMODE
 70
     1
  9
$CHAMFERA
 40
0.0
  9
$CHAMFERB
 40
0.0
  9
$SKPOLY
 70
     0
  9
$TDCREATE
 40
2450695.299781828
  9
$TDUPDATE
 40
2450695.306781018
  9
$TDINDWG
 40
0.0065332176
  9
$TDUSRTIMER
 40
0.0065332176
  9
$USRTIMER
 70
     1
  9
$ANGBASE
 50
0.0
  9
$ANGDIR
 70
     0
  9
$PDMODE
 70
     0
  9
$PDSIZE
 40
0.0
  9
$PLINEWID
 40
0.0
  9
$COORDS
 70
     0
  9
$SPLFRAME
 70
     0
  9
$SPLINETYPE
 70
     6
  9
$SPLINESEGS
 70
     8
  9
$ATTDIA
 70
     0
  9
$ATTREQ
 70
     1
  9
$HANDLING
 70
     0
  9
$HANDSEED
  5
0
  9
$SURFTAB1
 70
     6
  9
$SURFTAB2
 70
     6
  9
$SURFTYPE
 70
     6
  9
$SURFU
 70
     6
  9
$SURFV
 70
     6
  9
$UCSNAME
  2

  9
$UCSORG
 10
0.0
 20
0.0
 30
0.0
  9
$UCSXDIR
 10
1.0
 20
0.0
 30
0.0
  9
$UCSYDIR
 10
0.0
 20
1.0
 30
0.0
  9
$PUCSNAME
  2

  9
$PUCSORG
 10
0.0
 20
0.0
 30
0.0
  9
$PUCSXDIR
 10
1.0
 20
0.0
 30
0.0
  9
$PUCSYDIR
 10
0.0
 20
1.0
 30
0.0
  9
$USERI1
 70
     0
  9
$USERI2
 70
     0
  9
$USERI3
 70
     0
  9
$USERI4
 70
     0
  9
$USERI5
 70
     0
  9
$USERR1
 40
0.0
  9
$USERR2
 40
0.0
  9
$USERR3
 40
0.0
  9
$USERR4
 40
0.0
  9
$USERR5
 40
0.0
  9
$WORLDVIEW
 70
     1
  9
$SHADEDGE
 70
     3
  9
$SHADEDIF
 70
    70
  9
$TILEMODE
 70
     1
  9
$MAXACTVP
 70
    16
  9
$PINSBASE
 10
4.368977
 20
50.0
 30
-16.689951
  9
$PLIMCHECK
 70
     0
  9
$PEXTMIN
 10
1.000000E+20
 20
1.000000E+20
 30
1.000000E+20
  9
$PEXTMAX
 10
-1.000000E+20
 20
-1.000000E+20
 30
-1.000000E+20
  9
$PLIMMIN
 10
0.0
 20
0.0
  9
$PLIMMAX
 10
12.0
 20
9.0
  9
$UNITMODE
 70
     0
  9
$VISRETAIN
 70
     0
  9
$PLINEGEN
 70
     0
  9
$PSLTSCALE
 70
     1
  9
$TREEDEPTH
 70
  3020
  9
$DWGCODEPAGE
  3
ascii
  0
ENDSEC
  0
SECTION
  2
TABLES
  0
TABLE
  2
VPORT
 70
     2
  0
VPORT
  2
*ACTIVE
 70
     0
 10
0.0
 20
0.0
 11
1.0
 21
1.0
 12
84.46505
 22
62.0
 13
0.0
 23
0.0
 14
1.0
 24
1.0
 15
0.0
 25
0.0
 16
0.0
 26
0.0
 36
1.0
 17
0.0
 27
0.0
 37
0.0
 40
124.0
 41
1.36234
 42
50.0
 43
0.0
 44
0.0
 50
0.0
 51
0.0
 71
     0
 72
   100
 73
     1
 74
     0
 75
     0
 76
     0
 77
     0
 78
     0
  0
ENDTAB
  0
TABLE
  2
LTYPE
 70
     4
  0
LTYPE
  2
CONTINUOUS
 70
    64
  3
Solid line
 72
    65
 73
     0
 40
0.0
  0
LTYPE
  2
HIDDEN
 70
    64
  3
_ _ _ _ _ _ _ _ _ _ _ _ _ _ _ _ _ _ _ _ _ _ _
 72
    65
 73
     2
 40
0.375
 49
0.25
 49
-0.125
  0
LTYPE
  2
PHANTOM
 70
    64
  3
_____ _ _ _____ _ _ _____ _ _ _____ _ _ ____
 72
    65
 73
     6
 40
2.5
 49
1.25
 49
-0.25
 49
0.25
 49
-0.25
 49
0.25
 49
-0.25
  0
LTYPE
  2
PHANTOM2
 70
    64
  3
___ _ _ ___ _ _ ___ _ _ ___ _ _ ___ _ _ ___ _ _
 72
    65
 73
     6
 40
1.25
 49
0.625
 49
-0.125
 49
0.125
 49
-0.125
 49
0.125
 49
-0.125
  0
ENDTAB
  0
TABLE
  2
LAYER
 70
    17
  0
LAYER
  2
0
 70
    64
 62
     7
  6
CONTINUOUS
  0
LAYER
  2
TITLE
 70
    64
 62
     7
  6
CONTINUOUS
  0
LAYER
  2
TEXT
 70
    64
 62
     7
  6
CONTINUOUS
  0
LAYER
  2
OBJECT
 70
    64
 62
     7
  6
CONTINUOUS
  0
LAYER
  2
DIM
 70
    64
 62
     7
  6
CONTINUOUS
  0
LAYER
  2
HIDDEN
 70
    64
 62
     7
  6
HIDDEN
  0
LAYER
  2
BEND
 70
    64
 62
     7
  6
PHANTOM
  0
LAYER
  2
CENTER
 70
    64
 62
     7
  6
PHANTOM2
  0
LAYER
  2
DEFPOINTS
 70
    64
 62
     7
  6
CONTINUOUS
  0
LAYER
  2
SHELF
 70
    64
 62
     7
  6
CONTINUOUS
  0
LAYER
  2
SHELF-HID
 70
    64
 62
     7
  6
HIDDEN
  0
LAYER
  2
CHAN
 70
    64
 62
     7
  6
CONTINUOUS
  0
LAYER
  2
CHAN-HID
 70
    64
 62
     7
  6
HIDDEN
  0
LAYER
  2
MOUSE
 70
    64
 62
     7
  6
CONTINUOUS
  0
LAYER
  2
MOUSE-HID
 70
    64
 62
     7
  6
HIDDEN
  0
LAYER
  2
HOUSE
 70
    64
 62
     7
  6
CONTINUOUS
  0
LAYER
  2
HOUSE-HID
 70
    64
 62
     7
  6
HIDDEN
  0
ENDTAB
  0
TABLE
  2
STYLE
 70
     1
  0
STYLE
  2
TXT
 70
    64
 40
0.0
 41
0.75
 50
0.0
 71
     0
 42
1.0
  3
TXT.shx
  4

  0
ENDTAB
  0
TABLE
  2
VIEW
 70
     0
  0
ENDTAB
  0
TABLE
  2
UCS
 70
     0
  0
ENDTAB
  0
TABLE
  2
APPID
 70
     1
  0
APPID
  2
ACAD
 70
    64
  0
ENDTAB
  0
TABLE
  2
DIMSTYLE
 70
     2
  0
DIMSTYLE
  2
23NSTD
 70
    64
  3

  4

  5

  6

  7

 40
8.0
 41
0.18
 42
0.063
 43
0.437
 44
0.093
 45
0.0
 46
0.0
 47
0.0
 48
0.0
140
0.125
141
0.09
142
0.0
143
25.4
144
1.0
145
0.0
146
1.0
147
0.09
 71
     0
 72
     0
 73
     1
 74
     1
 75
     0
 76
     0
 77
     0
 78
     0
170
     0
171
     2
172
     0
173
     0
174
     0
175
     0
176
     0
177
     0
178
     0
  0
DIMSTYLE
  2
23NSTDI
 70
    64
  3

  4

  5

  6

  7

 40
8.0
 41
0.18
 42
0.063
 43
0.437
 44
0.093
 45
0.0
 46
0.0
 47
0.0
 48
0.0
140
0.125
141
0.09
142
0.0
143
25.4
144
1.0
145
0.0
146
1.0
147
0.09
 71
     0
 72
     0
 73
     1
 74
     1
 75
     0
 76
     0
 77
     0
 78
     0
170
     0
171
     2
172
     0
173
     0
174
     1
175
     0
176
     0
177
     0
178
     0
  0
ENDTAB
  0
ENDSEC
  0
SECTION
  2
BLOCKS
  0
BLOCK
  8
0
  2
FR-SLIDE
 70
    64
 10
0.0
 20
0.0
 30
0.0
  3
FR-SLIDE
  0
POLYLINE
  8
OBJECT
 66
     1
 10
0.0
 20
0.0
 30
0.0
 70
     1
 75
     6
  0
VERTEX
  8
OBJECT
 10
-0.096267
 20
0.5175
 30
0.0
 42
0.414214
  0
VERTEX
  8
OBJECT
 10
-0.118267
 20
0.5395
 30
0.0
  0
VERTEX
  8
OBJECT
 10
-0.310492
 20
0.5395
 30
0.0
  0
VERTEX
  8
OBJECT
 10
-0.310492
 20
0.5645
 30
0.0
  0
VERTEX
  8
OBJECT
 10
-0.118267
 20
0.5645
 30
0.0
 42
-0.414214
  0
VERTEX
  8
OBJECT
 10
-0.071267
 20
0.5175
 30
0.0
  0
VERTEX
  8
OBJECT
 10
-0.071267
 20
0.221422
 30
0.0
 42
-0.414214
  0
VERTEX
  8
OBJECT
 10
-0.118267
 20
0.174422
 30
0.0
  0
VERTEX
  8
OBJECT
 10
-0.164784
 20
0.174422
 30
0.0
 42
0.414214
  0
VERTEX
  8
OBJECT
 10
-0.186784
 20
0.152422
 30
0.0
  0
VERTEX
  8
OBJECT
 10
-0.186784
 20
-0.152422
 30
0.0
 42
0.414214
  0
VERTEX
  8
OBJECT
 10
-0.164784
 20
-0.174422
 30
0.0
  0
VERTEX
  8
OBJECT
 10
-0.118267
 20
-0.174422
 30
0.0
 42
-0.414214
  0
VERTEX
  8
OBJECT
 10
-0.071267
 20
-0.221422
 30
0.0
  0
VERTEX
  8
OBJECT
 10
-0.071267
 20
-0.5175
 30
0.0
 42
-0.414214
  0
VERTEX
  8
OBJECT
 10
-0.118267
 20
-0.5645
 30
0.0
  0
VERTEX
  8
OBJECT
 10
-0.310492
 20
-0.5645
 30
0.0
  0
VERTEX
  8
OBJECT
 10
-0.310492
 20
-0.5395
 30
0.0
  0
VERTEX
  8
OBJECT
 10
-0.118267
 20
-0.5395
 30
0.0
 42
0.414214
  0
VERTEX
  8
OBJECT
 10
-0.096267
 20
-0.5175
 30
0.0
  0
VERTEX
  8
OBJECT
 10
-0.096267
 20
-0.221422
 30
0.0
 42
0.414214
  0
VERTEX
  8
OBJECT
 10
-0.118267
 20
-0.199422
 30
0.0
  0
VERTEX
  8
OBJECT
 10
-0.164784
 20
-0.199422
 30
0.0
 42
-0.414214
  0
VERTEX
  8
OBJECT
 10
-0.211784
 20
-0.152422
 30
0.0
  0
VERTEX
  8
OBJECT
 10
-0.211784
 20
0.152422
 30
0.0
 42
-0.414214
  0
VERTEX
  8
OBJECT
 10
-0.164784
 20
0.199422
 30
0.0
  0
VERTEX
  8
OBJECT
 10
-0.118267
 20
0.199422
 30
0.0
 42
0.414214
  0
VERTEX
  8
OBJECT
 10
-0.096267
 20
0.221422
 30
0.0
  0
SEQEND
  8
OBJECT
  0
POLYLINE
  8
OBJECT
 66
     1
 10
0.0
 20
0.0
 30
0.0
 75
     6
  0
VERTEX
  8
OBJECT
 10
-0.128166
 20
0.456912
 30
0.0
  0
VERTEX
  8
OBJECT
 10
-0.098631
 20
0.401264
 30
0.0
 42
-0.33823
  0
VERTEX
  8
OBJECT
 10
-0.286067
 20
0.432351
 30
0.0
 42
0.679543
  0
VERTEX
  8
OBJECT
 10
-0.312
 20
0.422081
 30
0.0
  0
VERTEX
  8
OBJECT
 10
-0.312
 20
-0.422081
 30
0.0
 42
0.679543
  0
VERTEX
  8
OBJECT
 10
-0.286067
 20
-0.432351
 30
0.0
 42
-0.33823
  0
VERTEX
  8
OBJECT
 10
-0.098631
 20
-0.401264
 30
0.0
  0
VERTEX
  8
OBJECT
 10
-0.128169
 20
-0.456917
 30
0.0
 42
0.340971
  0
VERTEX
  8
OBJECT
 10
-0.240782
 20
-0.47615
 30
0.0
 42
-0.675247
  0
VERTEX
  8
OBJECT
 10
-0.375
 20
-0.422081
 30
0.0
  0
VERTEX
  8
OBJECT
 10
-0.375
 20
0.422081
 30
0.0
 42
-0.675247
  0
VERTEX
  8
OBJECT
 10
-0.240782
 20
0.47615
 30
0.0
 42
0.340971
  0
VERTEX
  8
OBJECT
 10
-0.128169
 20
0.456917
 30
0.0
  0
SEQEND
  8
OBJECT
  0
POLYLINE
  8
OBJECT
 66
     1
 10
0.0
 20
0.0
 30
0.0
 70
     1
 75
     6
  0
VERTEX
  8
OBJECT
 10
-0.310492
 20
-0.625
 30
0.0
 42
0.238363
  0
VERTEX
  8
OBJECT
 10
-0.172
 20
-0.695
 30
0.0
 42
0.414214
  0
VERTEX
  8
OBJECT
 10
0.0
 20
-0.523
 30
0.0
  0
VERTEX
  8
OBJECT
 10
0.0
 20
0.523
 30
0.0
 42
0.414214
  0
VERTEX
  8
OBJECT
 10
-0.172
 20
0.695
 30
0.0
 42
0.238363
  0
VERTEX
  8
OBJECT
 10
-0.310492
 20
0.625
 30
0.0
  0
VERTEX
  8
OBJECT
 10
-0.263307
 20
0.591216
 30
0.0
 42
-0.241913
  0
VERTEX
  8
OBJECT
 10
-0.182
 20
0.633
 30
0.0
  0
VERTEX
  8
OBJECT
 10
-0.172
 20
0.633
 30
0.0
 42
-0.414214
  0
VERTEX
  8
OBJECT
 10
-0.062
 20
0.523
 30
0.0
  0
VERTEX
  8
OBJECT
 10
-0.062
 20
-0.523
 30
0.0
 42
-0.414214
  0
VERTEX
  8
OBJECT
 10
-0.172
 20
-0.633
 30
0.0
  0
VERTEX
  8
OBJECT
 10
-0.182
 20
-0.633
 30
0.0
 42
-0.241913
  0
VERTEX
  8
OBJECT
 10
-0.263307
 20
-0.591216
 30
0.0
  0
SEQEND
  8
OBJECT
  0
ARC
  8
OBJECT
 10
-0.172
 20
-0.5395
 30
0.0
 40
0.0935
 50
35.905824
 51
180.0
  0
ARC
  8
OBJECT
 10
-0.172
 20
-0.5395
 30
0.0
 40
0.0935
 50
195.508402
 51
358.078271
  0
ARC
  8
OBJECT
 10
-0.172
 20
0.5395
 30
0.0
 40
0.0935
 50
180.0
 51
324.094176
  0
ARC
  8
OBJECT
 10
-0.172
 20
0.5395
 30
0.0
 40
0.0935
 50
1.921729
 51
164.491598
  0
ENDBLK
  8
0
  0
BLOCK
  8
0
  2
*D1
 70
    65
 10
0.0
 20
0.0
 30
0.0
  3
*D
  0
LINE
  8
0
  6
BYBLOCK
 62
     0
 10
31.693018
 20
28.447845
 30
0.0
 11
31.693018
 21
27.890496
 31
0.0
  0
LINE
  8
0
  6
BYBLOCK
 62
     0
 10
52.349018
 20
28.447845
 30
0.0
 11
52.349018
 21
27.890496
 31
0.0
  0
LINE
  8
0
  6
BYBLOCK
 62
     0
 10
33.133018
 20
28.634496
 30
0.0
 11
39.488518
 21
28.634496
 31
0.0
  0
LINE
  8
0
  6
BYBLOCK
 62
     0
 10
50.909018
 20
28.634496
 30
0.0
 11
44.553518
 21
28.634496
 31
0.0
  0
SOLID
  8
0
  6
BYBLOCK
 62
     0
 10
33.133018
 20
28.874496
 30
0.0
 11
33.133018
 21
28.394496
 31
0.0
 12
31.693018
 22
28.634496
 32
0.0
 13
31.693018
 23
28.634496
 33
0.0
  0
SOLID
  8
0
  6
BYBLOCK
 62
     0
 10
50.909018
 20
28.874496
 30
0.0
 11
50.909018
 21
28.394496
 31
0.0
 12
52.349018
 22
28.634496
 32
0.0
 13
52.349018
 23
28.634496
 33
0.0
  0
TEXT
  8
0
  6
BYBLOCK
 62
     0
 10
40.208518
 20
28.134496
 30
0.0
 40
1.0
  1
20.656
 41
0.75
 72
     1
 11
42.021018
 21
28.634496
 31
0.0
 73
     2
  0
POINT
  8
DEFPOINTS
  6
BYBLOCK
 62
     0
 10
31.693018
 20
28.951845
 30
0.0
  0
POINT
  8
DEFPOINTS
  6
BYBLOCK
 62
     0
 10
52.349018
 20
28.951845
 30
0.0
  0
POINT
  8
DEFPOINTS
  6
BYBLOCK
 62
     0
 10
52.349018
 20
28.634496
 30
0.0
  0
ENDBLK
  8
0
  0
BLOCK
  8
0
  2
*D2
 70
    65
 10
0.0
 20
0.0
 30
0.0
  3
*D
  0
LINE
  8
0
  6
BYBLOCK
 62
     0
 10
30.521018
 20
26.040845
 30
0.0
 11
30.521018
 21
18.658845
 31
0.0
  0
LINE
  8
0
  6
BYBLOCK
 62
     0
 10
53.521018
 20
26.040845
 30
0.0
 11
53.521018
 21
18.658845
 31
0.0
  0
LINE
  8
0
  6
BYBLOCK
 62
     0
 10
31.961018
 20
19.402845
 30
0.0
 11
37.988518
 21
19.402845
 31
0.0
  0
LINE
  8
0
  6
BYBLOCK
 62
     0
 10
52.081018
 20
19.402845
 30
0.0
 11
46.053518
 21
19.402845
 31
0.0
  0
SOLID
  8
0
  6
BYBLOCK
 62
     0
 10
31.961018
 20
19.642845
 30
0.0
 11
31.961018
 21
19.162845
 31
0.0
 12
30.521018
 22
19.402845
 32
0.0
 13
30.521018
 23
19.402845
 33
0.0
  0
SOLID
  8
0
  6
BYBLOCK
 62
     0
 10
52.081018
 20
19.642845
 30
0.0
 11
52.081018
 21
19.162845
 31
0.0
 12
53.521018
 22
19.402845
 32
0.0
 13
53.521018
 23
19.402845
 33
0.0
  0
TEXT
  8
0
  6
BYBLOCK
 62
     0
 10
42.333518
 20
18.902845
 30
0.0
 40
1.0
  1
 REF.
 41
0.75
 72
     1
 11
43.833518
 21
19.402845
 31
0.0
 73
     2
  0
TEXT
  8
0
  6
BYBLOCK
 62
     0
 10
38.708518
 20
18.902845
 30
0.0
 40
1.0
  1
23.000
 41
0.75
 72
     1
 11
40.396018
 21
19.402845
 31
0.0
 73
     2
  0
POINT
  8
DEFPOINTS
  6
BYBLOCK
 62
     0
 10
30.521018
 20
26.544845
 30
0.0
  0
POINT
  8
DEFPOINTS
  6
BYBLOCK
 62
     0
 10
53.521018
 20
26.544845
 30
0.0
  0
POINT
  8
DEFPOINTS
  6
BYBLOCK
 62
     0
 10
53.521018
 20
19.402845
 30
0.0
  0
ENDBLK
  8
0
  0
BLOCK
  8
0
  2
*D3
 70
    65
 10
0.0
 20
0.0
 30
0.0
  3
*D
  0
LINE
  8
0
  6
BYBLOCK
 62
     0
 10
53.177018
 20
25.959845
 30
0.0
 11
53.177018
 21
20.906845
 31
0.0
  0
LINE
  8
0
  6
BYBLOCK
 62
     0
 10
30.865018
 20
25.959845
 30
0.0
 11
30.865018
 21
20.906845
 31
0.0
  0
LINE
  8
0
  6
BYBLOCK
 62
     0
 10
51.737018
 20
21.650845
 30
0.0
 11
44.491018
 21
21.650845
 31
0.0
  0
LINE
  8
0
  6
BYBLOCK
 62
     0
 10
32.305018
 20
21.650845
 30
0.0
 11
39.551018
 21
21.650845
 31
0.0
  0
SOLID
  8
0
  6
BYBLOCK
 62
     0
 10
51.737018
 20
21.890845
 30
0.0
 11
51.737018
 21
21.410845
 31
0.0
 12
53.177018
 22
21.650845
 32
0.0
 13
53.177018
 23
21.650845
 33
0.0
  0
SOLID
  8
0
  6
BYBLOCK
 62
     0
 10
32.305018
 20
21.890845
 30
0.0
 11
32.305018
 21
21.410845
 31
0.0
 12
30.865018
 22
21.650845
 32
0.0
 13
30.865018
 23
21.650845
 33
0.0
  0
TEXT
  8
0
  6
BYBLOCK
 62
     0
 10
40.271018
 20
21.150845
 30
0.0
 40
1.0
  1
22.312
 41
0.75
 72
     1
 11
42.021018
 21
21.650845
 31
0.0
 73
     2
  0
POINT
  8
DEFPOINTS
  6
BYBLOCK
 62
     0
 10
53.177018
 20
26.463845
 30
0.0
  0
POINT
  8
DEFPOINTS
  6
BYBLOCK
 62
     0
 10
30.865018
 20
26.463845
 30
0.0
  0
POINT
  8
DEFPOINTS
  6
BYBLOCK
 62
     0
 10
30.865018
 20
21.650845
 30
0.0
  0
ENDBLK
  8
0
  0
BLOCK
  8
0
  2
*D4
 70
    65
 10
0.0
 20
0.0
 30
0.0
  3
*D
  0
LINE
  8
0
  6
BYBLOCK
 62
     0
 10
33.021018
 20
26.134845
 30
0.0
 11
33.021018
 21
23.154845
 31
0.0
  0
LINE
  8
0
  6
BYBLOCK
 62
     0
 10
51.021018
 20
26.134845
 30
0.0
 11
51.021018
 21
23.154845
 31
0.0
  0
LINE
  8
0
  6
BYBLOCK
 62
     0
 10
34.461018
 20
23.898845
 30
0.0
 11
38.113518
 21
23.898845
 31
0.0
  0
LINE
  8
0
  6
BYBLOCK
 62
     0
 10
49.581018
 20
23.898845
 30
0.0
 11
45.928518
 21
23.898845
 31
0.0
  0
SOLID
  8
0
  6
BYBLOCK
 62
     0
 10
34.461018
 20
24.138845
 30
0.0
 11
34.461018
 21
23.658845
 31
0.0
 12
33.021018
 22
23.898845
 32
0.0
 13
33.021018
 23
23.898845
 33
0.0
  0
SOLID
  8
0
  6
BYBLOCK
 62
     0
 10
49.581018
 20
24.138845
 30
0.0
 11
49.581018
 21
23.658845
 31
0.0
 12
51.021018
 22
23.898845
 32
0.0
 13
51.021018
 23
23.898845
 33
0.0
  0
TEXT
  8
0
  6
BYBLOCK
 62
     0
 10
42.208518
 20
23.398845
 30
0.0
 40
1.0
  1
 REF.
 41
0.75
 72
     1
 11
43.708518
 21
23.898845
 31
0.0
 73
     2
  0
TEXT
  8
0
  6
BYBLOCK
 62
     0
 10
38.833518
 20
23.398845
 30
0.0
 40
1.0
  1
18.000
 41
0.75
 72
     1
 11
40.396018
 21
23.898845
 31
0.0
 73
     2
  0
POINT
  8
DEFPOINTS
  6
BYBLOCK
 62
     0
 10
33.021018
 20
26.638845
 30
0.0
  0
POINT
  8
DEFPOINTS
  6
BYBLOCK
 62
     0
 10
51.021018
 20
26.638845
 30
0.0
  0
POINT
  8
DEFPOINTS
  6
BYBLOCK
 62
     0
 10
51.021018
 20
23.898845
 30
0.0
  0
ENDBLK
  8
0
  0
BLOCK
  8
0
  2
*D5
 70
    65
 10
0.0
 20
0.0
 30
0.0
  3
*D
  0
LINE
  8
0
  6
BYBLOCK
 62
     0
 10
33.312967
 20
90.198381
 30
0.0
 11
33.312967
 21
89.641032
 31
0.0
  0
LINE
  8
0
  6
BYBLOCK
 62
     0
 10
49.968967
 20
90.198381
 30
0.0
 11
49.968967
 21
89.641032
 31
0.0
  0
LINE
  8
0
  6
BYBLOCK
 62
     0
 10
34.752967
 20
90.385032
 30
0.0
 11
39.170967
 21
90.385032
 31
0.0
  0
LINE
  8
0
  6
BYBLOCK
 62
     0
 10
48.528967
 20
90.385032
 30
0.0
 11
44.110967
 21
90.385032
 31
0.0
  0
SOLID
  8
0
  6
BYBLOCK
 62
     0
 10
34.752967
 20
90.625032
 30
0.0
 11
34.752967
 21
90.145032
 31
0.0
 12
33.312967
 22
90.385032
 32
0.0
 13
33.312967
 23
90.385032
 33
0.0
  0
SOLID
  8
0
  6
BYBLOCK
 62
     0
 10
48.528967
 20
90.625032
 30
0.0
 11
48.528967
 21
90.145032
 31
0.0
 12
49.968967
 22
90.385032
 32
0.0
 13
49.968967
 23
90.385032
 33
0.0
  0
TEXT
  8
0
  6
BYBLOCK
 62
     0
 10
39.890967
 20
89.885032
 30
0.0
 40
1.0
  1
16.656
 41
0.75
 72
     1
 11
41.640967
 21
90.385032
 31
0.0
 73
     2
  0
POINT
  8
DEFPOINTS
  6
BYBLOCK
 62
     0
 10
33.312967
 20
90.702381
 30
0.0
  0
POINT
  8
DEFPOINTS
  6
BYBLOCK
 62
     0
 10
49.968967
 20
90.702381
 30
0.0
  0
POINT
  8
DEFPOINTS
  6
BYBLOCK
 62
     0
 10
49.968967
 20
90.385032
 30
0.0
  0
ENDBLK
  8
0
  0
BLOCK
  8
0
  2
*D6
 70
    65
 10
0.0
 20
0.0
 30
0.0
  3
*D
  0
LINE
  8
0
  6
BYBLOCK
 62
     0
 10
32.140967
 20
87.791381
 30
0.0
 11
32.140967
 21
80.409381
 31
0.0
  0
LINE
  8
0
  6
BYBLOCK
 62
     0
 10
51.140967
 20
87.791381
 30
0.0
 11
51.140967
 21
80.409381
 31
0.0
  0
LINE
  8
0
  6
BYBLOCK
 62
     0
 10
33.580967
 20
81.153381
 30
0.0
 11
37.733467
 21
81.153381
 31
0.0
  0
LINE
  8
0
  6
BYBLOCK
 62
     0
 10
49.700967
 20
81.153381
 30
0.0
 11
45.548467
 21
81.153381
 31
0.0
  0
SOLID
  8
0
  6
BYBLOCK
 62
     0
 10
33.580967
 20
81.393381
 30
0.0
 11
33.580967
 21
80.913381
 31
0.0
 12
32.140967
 22
81.153381
 32
0.0
 13
32.140967
 23
81.153381
 33
0.0
  0
SOLID
  8
0
  6
BYBLOCK
 62
     0
 10
49.700967
 20
81.393381
 30
0.0
 11
49.700967
 21
80.913381
 31
0.0
 12
51.140967
 22
81.153381
 32
0.0
 13
51.140967
 23
81.153381
 33
0.0
  0
TEXT
  8
0
  6
BYBLOCK
 62
     0
 10
41.828467
 20
80.653381
 30
0.0
 40
1.0
  1
 REF.
 41
0.75
 72
     1
 11
43.328467
 21
81.153381
 31
0.0
 73
     2
  0
TEXT
  8
0
  6
BYBLOCK
 62
     0
 10
38.453467
 20
80.653381
 30
0.0
 40
1.0
  1
19.000
 41
0.75
 72
     1
 11
40.015967
 21
81.153381
 31
0.0
 73
     2
  0
POINT
  8
DEFPOINTS
  6
BYBLOCK
 62
     0
 10
32.140967
 20
88.295381
 30
0.0
  0
POINT
  8
DEFPOINTS
  6
BYBLOCK
 62
     0
 10
51.140967
 20
88.295381
 30
0.0
  0
POINT
  8
DEFPOINTS
  6
BYBLOCK
 62
     0
 10
51.140967
 20
81.153381
 30
0.0
  0
ENDBLK
  8
0
  0
BLOCK
  8
0
  2
*D7
 70
    65
 10
0.0
 20
0.0
 30
0.0
  3
*D
  0
LINE
  8
0
  6
BYBLOCK
 62
     0
 10
50.796967
 20
87.710381
 30
0.0
 11
50.796967
 21
82.657381
 31
0.0
  0
LINE
  8
0
  6
BYBLOCK
 62
     0
 10
32.484967
 20
87.710381
 30
0.0
 11
32.484967
 21
82.657381
 31
0.0
  0
LINE
  8
0
  6
BYBLOCK
 62
     0
 10
49.356967
 20
83.401381
 30
0.0
 11
43.985967
 21
83.401381
 31
0.0
  0
LINE
  8
0
  6
BYBLOCK
 62
     0
 10
33.924967
 20
83.401381
 30
0.0
 11
39.295967
 21
83.401381
 31
0.0
  0
SOLID
  8
0
  6
BYBLOCK
 62
     0
 10
49.356967
 20
83.641381
 30
0.0
 11
49.356967
 21
83.161381
 31
0.0
 12
50.796967
 22
83.401381
 32
0.0
 13
50.796967
 23
83.401381
 33
0.0
  0
SOLID
  8
0
  6
BYBLOCK
 62
     0
 10
33.924967
 20
83.641381
 30
0.0
 11
33.924967
 21
83.161381
 31
0.0
 12
32.484967
 22
83.401381
 32
0.0
 13
32.484967
 23
83.401381
 33
0.0
  0
TEXT
  8
0
  6
BYBLOCK
 62
     0
 10
40.015967
 20
82.901381
 30
0.0
 40
1.0
  1
18.312
 41
0.75
 72
     1
 11
41.640967
 21
83.401381
 31
0.0
 73
     2
  0
POINT
  8
DEFPOINTS
  6
BYBLOCK
 62
     0
 10
50.796967
 20
88.214381
 30
0.0
  0
POINT
  8
DEFPOINTS
  6
BYBLOCK
 62
     0
 10
32.484967
 20
88.214381
 30
0.0
  0
POINT
  8
DEFPOINTS
  6
BYBLOCK
 62
     0
 10
32.484967
 20
83.401381
 30
0.0
  0
ENDBLK
  8
0
  0
BLOCK
  8
0
  2
*D8
 70
    65
 10
0.0
 20
0.0
 30
0.0
  3
*D
  0
LINE
  8
0
  6
BYBLOCK
 62
     0
 10
33.640967
 20
87.885381
 30
0.0
 11
33.640967
 21
84.905381
 31
0.0
  0
LINE
  8
0
  6
BYBLOCK
 62
     0
 10
49.640967
 20
87.885381
 30
0.0
 11
49.640967
 21
84.905381
 31
0.0
  0
LINE
  8
0
  6
BYBLOCK
 62
     0
 10
35.080967
 20
85.649381
 30
0.0
 11
37.733467
 21
85.649381
 31
0.0
  0
LINE
  8
0
  6
BYBLOCK
 62
     0
 10
48.200967
 20
85.649381
 30
0.0
 11
45.548467
 21
85.649381
 31
0.0
  0
SOLID
  8
0
  6
BYBLOCK
 62
     0
 10
35.080967
 20
85.889381
 30
0.0
 11
35.080967
 21
85.409381
 31
0.0
 12
33.640967
 22
85.649381
 32
0.0
 13
33.640967
 23
85.649381
 33
0.0
  0
SOLID
  8
0
  6
BYBLOCK
 62
     0
 10
48.200967
 20
85.889381
 30
0.0
 11
48.200967
 21
85.409381
 31
0.0
 12
49.640967
 22
85.649381
 32
0.0
 13
49.640967
 23
85.649381
 33
0.0
  0
TEXT
  8
0
  6
BYBLOCK
 62
     0
 10
41.828467
 20
85.149381
 30
0.0
 40
1.0
  1
 REF.
 41
0.75
 72
     1
 11
43.328467
 21
85.649381
 31
0.0
 73
     2
  0
TEXT
  8
0
  6
BYBLOCK
 62
     0
 10
38.453467
 20
85.149381
 30
0.0
 40
1.0
  1
16.000
 41
0.75
 72
     1
 11
40.015967
 21
85.649381
 31
0.0
 73
     2
  0
POINT
  8
DEFPOINTS
  6
BYBLOCK
 62
     0
 10
33.640967
 20
88.389381
 30
0.0
  0
POINT
  8
DEFPOINTS
  6
BYBLOCK
 62
     0
 10
49.640967
 20
88.389381
 30
0.0
  0
POINT
  8
DEFPOINTS
  6
BYBLOCK
 62
     0
 10
49.640967
 20
85.649381
 30
0.0
  0
ENDBLK
  8
0
  0
BLOCK
  8
0
  2
*D9
 70
    65
 10
0.0
 20
0.0
 30
0.0
  3
*D
  0
LINE
  8
0
  6
BYBLOCK
 62
     0
 10
30.689018
 20
56.469805
 30
0.0
 11
23.401018
 21
56.469805
 31
0.0
  0
LINE
  8
0
  6
BYBLOCK
 62
     0
 10
30.017018
 20
43.969805
 30
0.0
 11
23.401018
 21
43.969805
 31
0.0
  0
LINE
  8
0
  6
BYBLOCK
 62
     0
 10
24.145018
 20
55.029805
 30
0.0
 11
24.145018
 21
51.439805
 31
0.0
  0
LINE
  8
0
  6
BYBLOCK
 62
     0
 10
24.145018
 20
45.409805
 30
0.0
 11
24.145018
 21
48.999805
 31
0.0
  0
SOLID
  8
0
  6
BYBLOCK
 62
     0
 10
23.905018
 20
55.029805
 30
0.0
 11
24.385018
 21
55.029805
 31
0.0
 12
24.145018
 22
56.469805
 32
0.0
 13
24.145018
 23
56.469805
 33
0.0
  0
SOLID
  8
0
  6
BYBLOCK
 62
     0
 10
23.905018
 20
45.409805
 30
0.0
 11
24.385018
 21
45.409805
 31
0.0
 12
24.145018
 22
43.969805
 32
0.0
 13
24.145018
 23
43.969805
 33
0.0
  0
TEXT
  8
0
  6
BYBLOCK
 62
     0
 10
24.395018
 20
49.719805
 30
0.0
 40
1.0
  1
 REF.
 41
0.75
 72
     1
 11
25.895018
 21
50.219805
 31
0.0
 73
     2
  0
TEXT
  8
0
  6
BYBLOCK
 62
     0
 10
20.895018
 20
49.719805
 30
0.0
 40
1.0
  1
12.500
 41
0.75
 72
     1
 11
22.520018
 21
50.219805
 31
0.0
 73
     2
  0
POINT
  8
DEFPOINTS
  6
BYBLOCK
 62
     0
 10
31.193018
 20
56.469805
 30
0.0
  0
POINT
  8
DEFPOINTS
  6
BYBLOCK
 62
     0
 10
30.521018
 20
43.969805
 30
0.0
  0
POINT
  8
DEFPOINTS
  6
BYBLOCK
 62
     0
 10
24.145018
 20
43.969805
 30
0.0
  0
ENDBLK
  8
0
  0
BLOCK
  8
0
  2
*D10
 70
    65
 10
0.0
 20
0.0
 30
0.0
  3
*D
  0
LINE
  8
0
  6
BYBLOCK
 62
     0
 10
30.017018
 20
43.969805
 30
0.0
 11
23.401018
 21
43.969805
 31
0.0
  0
LINE
  8
0
  6
BYBLOCK
 62
     0
 10
30.851518
 20
35.969805
 30
0.0
 11
23.401018
 21
35.969805
 31
0.0
  0
LINE
  8
0
  6
BYBLOCK
 62
     0
 10
24.145018
 20
42.529805
 30
0.0
 11
24.145018
 21
41.189805
 31
0.0
  0
LINE
  8
0
  6
BYBLOCK
 62
     0
 10
24.145018
 20
37.409805
 30
0.0
 11
24.145018
 21
38.749805
 31
0.0
  0
SOLID
  8
0
  6
BYBLOCK
 62
     0
 10
23.905018
 20
42.529805
 30
0.0
 11
24.385018
 21
42.529805
 31
0.0
 12
24.145018
 22
43.969805
 32
0.0
 13
24.145018
 23
43.969805
 33
0.0
  0
SOLID
  8
0
  6
BYBLOCK
 62
     0
 10
23.905018
 20
37.409805
 30
0.0
 11
24.385018
 21
37.409805
 31
0.0
 12
24.145018
 22
35.969805
 32
0.0
 13
24.145018
 23
35.969805
 33
0.0
  0
TEXT
  8
0
  6
BYBLOCK
 62
     0
 10
22.832518
 20
39.469805
 30
0.0
 40
1.0
  1
8.000
 41
0.75
 72
     1
 11
24.145018
 21
39.969805
 31
0.0
 73
     2
  0
POINT
  8
DEFPOINTS
  6
BYBLOCK
 62
     0
 10
30.521018
 20
43.969805
 30
0.0
  0
POINT
  8
DEFPOINTS
  6
BYBLOCK
 62
     0
 10
31.355518
 20
35.969805
 30
0.0
  0
POINT
  8
DEFPOINTS
  6
BYBLOCK
 62
     0
 10
24.145018
 20
35.969805
 30
0.0
  0
ENDBLK
  8
0
  0
BLOCK
  8
0
  2
*D13
 70
    65
 10
0.0
 20
0.0
 30
0.0
  3
*D
  0
LINE
  8
0
  6
BYBLOCK
 62
     0
 10
30.046018
 20
29.778845
 30
0.0
 11
26.897018
 21
29.778845
 31
0.0
  0
LINE
  8
0
  6
BYBLOCK
 62
     0
 10
30.017018
 20
30.012845
 30
0.0
 11
26.897018
 21
30.012845
 31
0.0
  0
LINE
  8
0
  6
BYBLOCK
 62
     0
 10
27.641018
 20
28.338845
 30
0.0
 11
27.641018
 21
26.898845
 31
0.0
  0
LINE
  8
0
  6
BYBLOCK
 62
     0
 10
27.641018
 20
31.452845
 30
0.0
 11
27.641018
 21
32.892845
 31
0.0
  0
LINE
  8
0
  6
BYBLOCK
 62
     0
 10
27.641018
 20
32.892845
 30
0.0
 11
29.081018
 21
32.892845
 31
0.0
  0
SOLID
  8
0
  6
BYBLOCK
 62
     0
 10
27.401018
 20
28.338845
 30
0.0
 11
27.881018
 21
28.338845
 31
0.0
 12
27.641018
 22
29.778845
 32
0.0
 13
27.641018
 23
29.778845
 33
0.0
  0
SOLID
  8
0
  6
BYBLOCK
 62
     0
 10
27.401018
 20
31.452845
 30
0.0
 11
27.881018
 21
31.452845
 31
0.0
 12
27.641018
 22
30.012845
 32
0.0
 13
27.641018
 23
30.012845
 33
0.0
  0
TEXT
  8
0
  6
BYBLOCK
 62
     0
 10
29.801018
 20
32.392845
 30
0.0
 40
1.0
  1
0.234
 41
0.75
 72
     1
 11
31.238518
 21
32.892845
 31
0.0
 73
     2
  0
POINT
  8
DEFPOINTS
  6
BYBLOCK
 62
     0
 10
30.550018
 20
29.778845
 30
0.0
  0
POINT
  8
DEFPOINTS
  6
BYBLOCK
 62
     0
 10
30.521018
 20
30.012845
 30
0.0
  0
POINT
  8
DEFPOINTS
  6
BYBLOCK
 62
     0
 10
27.641018
 20
30.012845
 30
0.0
  0
ENDBLK
  8
0
  0
BLOCK
  8
0
  2
*D14
 70
    65
 10
0.0
 20
0.0
 30
0.0
  3
*D
  0
LINE
  8
0
  6
BYBLOCK
 62
     0
 10
31.636967
 20
106.560479
 30
0.0
 11
25.020967
 21
106.560479
 31
0.0
  0
LINE
  8
0
  6
BYBLOCK
 62
     0
 10
32.471467
 20
98.560479
 30
0.0
 11
25.020967
 21
98.560479
 31
0.0
  0
LINE
  8
0
  6
BYBLOCK
 62
     0
 10
25.764967
 20
105.120479
 30
0.0
 11
25.764967
 21
103.780479
 31
0.0
  0
LINE
  8
0
  6
BYBLOCK
 62
     0
 10
25.764967
 20
100.000479
 30
0.0
 11
25.764967
 21
101.340479
 31
0.0
  0
SOLID
  8
0
  6
BYBLOCK
 62
     0
 10
25.524967
 20
105.120479
 30
0.0
 11
26.004967
 21
105.120479
 31
0.0
 12
25.764967
 22
106.560479
 32
0.0
 13
25.764967
 23
106.560479
 33
0.0
  0
SOLID
  8
0
  6
BYBLOCK
 62
     0
 10
25.524967
 20
100.000479
 30
0.0
 11
26.004967
 21
100.000479
 31
0.0
 12
25.764967
 22
98.560479
 32
0.0
 13
25.764967
 23
98.560479
 33
0.0
  0
TEXT
  8
0
  6
BYBLOCK
 62
     0
 10
24.452467
 20
102.060479
 30
0.0
 40
1.0
  1
8.000
 41
0.75
 72
     1
 11
25.764967
 21
102.560479
 31
0.0
 73
     2
  0
POINT
  8
DEFPOINTS
  6
BYBLOCK
 62
     0
 10
32.140967
 20
106.560479
 30
0.0
  0
POINT
  8
DEFPOINTS
  6
BYBLOCK
 62
     0
 10
32.975467
 20
98.560479
 30
0.0
  0
POINT
  8
DEFPOINTS
  6
BYBLOCK
 62
     0
 10
25.764967
 20
98.560479
 30
0.0
  0
ENDBLK
  8
0
  0
BLOCK
  8
0
  2
*D17
 70
    65
 10
0.0
 20
0.0
 30
0.0
  3
*D
  0
LINE
  8
0
  6
BYBLOCK
 62
     0
 10
31.665967
 20
91.529381
 30
0.0
 11
28.516967
 21
91.529381
 31
0.0
  0
LINE
  8
0
  6
BYBLOCK
 62
     0
 10
31.636967
 20
91.763381
 30
0.0
 11
28.516967
 21
91.763381
 31
0.0
  0
LINE
  8
0
  6
BYBLOCK
 62
     0
 10
29.260967
 20
90.089381
 30
0.0
 11
29.260967
 21
88.649381
 31
0.0
  0
LINE
  8
0
  6
BYBLOCK
 62
     0
 10
29.260967
 20
93.203381
 30
0.0
 11
29.260967
 21
94.643381
 31
0.0
  0
LINE
  8
0
  6
BYBLOCK
 62
     0
 10
29.260967
 20
94.643381
 30
0.0
 11
30.700967
 21
94.643381
 31
0.0
  0
SOLID
  8
0
  6
BYBLOCK
 62
     0
 10
29.020967
 20
90.089381
 30
0.0
 11
29.500967
 21
90.089381
 31
0.0
 12
29.260967
 22
91.529381
 32
0.0
 13
29.260967
 23
91.529381
 33
0.0
  0
SOLID
  8
0
  6
BYBLOCK
 62
     0
 10
29.020967
 20
93.203381
 30
0.0
 11
29.500967
 21
93.203381
 31
0.0
 12
29.260967
 22
91.763381
 32
0.0
 13
29.260967
 23
91.763381
 33
0.0
  0
TEXT
  8
0
  6
BYBLOCK
 62
     0
 10
31.420967
 20
94.143381
 30
0.0
 40
1.0
  1
0.234
 41
0.75
 72
     1
 11
32.858467
 21
94.643381
 31
0.0
 73
     2
  0
POINT
  8
DEFPOINTS
  6
BYBLOCK
 62
     0
 10
32.169967
 20
91.529381
 30
0.0
  0
POINT
  8
DEFPOINTS
  6
BYBLOCK
 62
     0
 10
32.140967
 20
91.763381
 30
0.0
  0
POINT
  8
DEFPOINTS
  6
BYBLOCK
 62
     0
 10
29.260967
 20
91.763381
 30
0.0
  0
ENDBLK
  8
0
  0
BLOCK
  8
0
  2
*D18
 70
    65
 10
0.0
 20
0.0
 30
0.0
  3
*D
  0
LINE
  8
0
  6
BYBLOCK
 62
     0
 10
32.308967
 20
119.060479
 30
0.0
 11
25.020967
 21
119.060479
 31
0.0
  0
LINE
  8
0
  6
BYBLOCK
 62
     0
 10
31.636967
 20
106.560479
 30
0.0
 11
25.020967
 21
106.560479
 31
0.0
  0
LINE
  8
0
  6
BYBLOCK
 62
     0
 10
25.764967
 20
117.620479
 30
0.0
 11
25.764967
 21
114.030479
 31
0.0
  0
LINE
  8
0
  6
BYBLOCK
 62
     0
 10
25.764967
 20
108.000479
 30
0.0
 11
25.764967
 21
111.590479
 31
0.0
  0
SOLID
  8
0
  6
BYBLOCK
 62
     0
 10
25.524967
 20
117.620479
 30
0.0
 11
26.004967
 21
117.620479
 31
0.0
 12
25.764967
 22
119.060479
 32
0.0
 13
25.764967
 23
119.060479
 33
0.0
  0
SOLID
  8
0
  6
BYBLOCK
 62
     0
 10
25.524967
 20
108.000479
 30
0.0
 11
26.004967
 21
108.000479
 31
0.0
 12
25.764967
 22
106.560479
 32
0.0
 13
25.764967
 23
106.560479
 33
0.0
  0
TEXT
  8
0
  6
BYBLOCK
 62
     0
 10
26.014967
 20
112.310479
 30
0.0
 40
1.0
  1
 REF.
 41
0.75
 72
     1
 11
27.514967
 21
112.810479
 31
0.0
 73
     2
  0
TEXT
  8
0
  6
BYBLOCK
 62
     0
 10
22.514967
 20
112.310479
 30
0.0
 40
1.0
  1
12.500
 41
0.75
 72
     1
 11
24.139967
 21
112.810479
 31
0.0
 73
     2
  0
POINT
  8
DEFPOINTS
  6
BYBLOCK
 62
     0
 10
32.812967
 20
119.060479
 30
0.0
  0
POINT
  8
DEFPOINTS
  6
BYBLOCK
 62
     0
 10
32.140967
 20
106.560479
 30
0.0
  0
POINT
  8
DEFPOINTS
  6
BYBLOCK
 62
     0
 10
25.764967
 20
106.560479
 30
0.0
  0
ENDBLK
  8
0
  0
BLOCK
  8
0
  2
*D32
 70
    65
 10
0.0
 20
0.0
 30
0.0
  3
*D
  0
LINE
  8
0
  6
BYBLOCK
 62
     0
 10
52.724018
 20
35.590805
 30
0.0
 11
52.724018
 21
32.938805
 31
0.0
  0
LINE
  8
0
  6
BYBLOCK
 62
     0
 10
59.439018
 20
36.058805
 30
0.0
 11
59.439018
 21
32.938805
 31
0.0
  0
LINE
  8
0
  6
BYBLOCK
 62
     0
 10
51.284018
 20
33.682805
 30
0.0
 11
49.844018
 21
33.682805
 31
0.0
  0
LINE
  8
0
  6
BYBLOCK
 62
     0
 10
60.879018
 20
33.682805
 30
0.0
 11
62.319018
 21
33.682805
 31
0.0
  0
SOLID
  8
0
  6
BYBLOCK
 62
     0
 10
51.284018
 20
33.922805
 30
0.0
 11
51.284018
 21
33.442805
 31
0.0
 12
52.724018
 22
33.682805
 32
0.0
 13
52.724018
 23
33.682805
 33
0.0
  0
SOLID
  8
0
  6
BYBLOCK
 62
     0
 10
60.879018
 20
33.922805
 30
0.0
 11
60.879018
 21
33.442805
 31
0.0
 12
59.439018
 22
33.682805
 32
0.0
 13
59.439018
 23
33.682805
 33
0.0
  0
TEXT
  8
0
  6
BYBLOCK
 62
     0
 10
54.706518
 20
33.182805
 30
0.0
 40
1.0
  1
6.715
 41
0.75
 72
     1
 11
56.081518
 21
33.682805
 31
0.0
 73
     2
  0
POINT
  8
DEFPOINTS
  6
BYBLOCK
 62
     0
 10
52.724018
 20
36.094805
 30
0.0
  0
POINT
  8
DEFPOINTS
  6
BYBLOCK
 62
     0
 10
59.439018
 20
36.562805
 30
0.0
  0
POINT
  8
DEFPOINTS
  6
BYBLOCK
 62
     0
 10
59.439018
 20
33.682805
 30
0.0
  0
ENDBLK
  8
0
  0
BLOCK
  8
0
  2
*D33
 70
    65
 10
0.0
 20
0.0
 30
0.0
  3
*D
  0
LINE
  8
0
  6
BYBLOCK
 62
     0
 10
30.046018
 20
26.778845
 30
0.0
 11
23.401018
 21
26.778845
 31
0.0
  0
LINE
  8
0
  6
BYBLOCK
 62
     0
 10
30.046018
 20
29.778845
 30
0.0
 11
23.401018
 21
29.778845
 31
0.0
  0
LINE
  8
0
  6
BYBLOCK
 62
     0
 10
24.145018
 20
25.338845
 30
0.0
 11
24.145018
 21
23.898845
 31
0.0
  0
LINE
  8
0
  6
BYBLOCK
 62
     0
 10
24.145018
 20
31.218845
 30
0.0
 11
24.145018
 21
32.658845
 31
0.0
  0
SOLID
  8
0
  6
BYBLOCK
 62
     0
 10
23.905018
 20
25.338845
 30
0.0
 11
24.385018
 21
25.338845
 31
0.0
 12
24.145018
 22
26.778845
 32
0.0
 13
24.145018
 23
26.778845
 33
0.0
  0
SOLID
  8
0
  6
BYBLOCK
 62
     0
 10
23.905018
 20
31.218845
 30
0.0
 11
24.385018
 21
31.218845
 31
0.0
 12
24.145018
 22
29.778845
 32
0.0
 13
24.145018
 23
29.778845
 33
0.0
  0
TEXT
  8
0
  6
BYBLOCK
 62
     0
 10
22.832518
 20
27.778845
 30
0.0
 40
1.0
  1
3.000
 41
0.75
 72
     1
 11
24.145018
 21
28.278845
 31
0.0
 73
     2
  0
POINT
  8
DEFPOINTS
  6
BYBLOCK
 62
     0
 10
30.550018
 20
26.778845
 30
0.0
  0
POINT
  8
DEFPOINTS
  6
BYBLOCK
 62
     0
 10
30.550018
 20
29.778845
 30
0.0
  0
POINT
  8
DEFPOINTS
  6
BYBLOCK
 62
     0
 10
24.145018
 20
29.778845
 30
0.0
  0
ENDBLK
  8
0
  0
BLOCK
  8
0
  2
*D34
 70
    65
 10
0.0
 20
0.0
 30
0.0
  3
*D
  0
LINE
  8
0
  6
BYBLOCK
 62
     0
 10
30.017018
 20
26.544845
 30
0.0
 11
19.905018
 21
26.544845
 31
0.0
  0
LINE
  8
0
  6
BYBLOCK
 62
     0
 10
30.017018
 20
30.012845
 30
0.0
 11
19.905018
 21
30.012845
 31
0.0
  0
LINE
  8
0
  6
BYBLOCK
 62
     0
 10
20.649018
 20
25.104845
 30
0.0
 11
20.649018
 21
23.664845
 31
0.0
  0
LINE
  8
0
  6
BYBLOCK
 62
     0
 10
20.649018
 20
31.452845
 30
0.0
 11
20.649018
 21
32.892845
 31
0.0
  0
SOLID
  8
0
  6
BYBLOCK
 62
     0
 10
20.409018
 20
25.104845
 30
0.0
 11
20.889018
 21
25.104845
 31
0.0
 12
20.649018
 22
26.544845
 32
0.0
 13
20.649018
 23
26.544845
 33
0.0
  0
SOLID
  8
0
  6
BYBLOCK
 62
     0
 10
20.409018
 20
31.452845
 30
0.0
 11
20.889018
 21
31.452845
 31
0.0
 12
20.649018
 22
30.012845
 32
0.0
 13
20.649018
 23
30.012845
 33
0.0
  0
TEXT
  8
0
  6
BYBLOCK
 62
     0
 10
19.149018
 20
27.778845
 30
0.0
 40
1.0
  1
3.468
 41
0.75
 72
     1
 11
20.649018
 21
28.278845
 31
0.0
 73
     2
  0
POINT
  8
DEFPOINTS
  6
BYBLOCK
 62
     0
 10
30.521018
 20
26.544845
 30
0.0
  0
POINT
  8
DEFPOINTS
  6
BYBLOCK
 62
     0
 10
30.521018
 20
30.012845
 30
0.0
  0
POINT
  8
DEFPOINTS
  6
BYBLOCK
 62
     0
 10
20.649018
 20
30.012845
 30
0.0
  0
ENDBLK
  8
0
  0
BLOCK
  8
0
  2
*D36
 70
    65
 10
0.0
 20
0.0
 30
0.0
  3
*D
  0
LINE
  8
0
  6
BYBLOCK
 62
     0
 10
50.343967
 20
98.181479
 30
0.0
 11
50.343967
 21
94.936479
 31
0.0
  0
LINE
  8
0
  6
BYBLOCK
 62
     0
 10
57.058967
 20
98.649479
 30
0.0
 11
57.058967
 21
94.936479
 31
0.0
  0
LINE
  8
0
  6
BYBLOCK
 62
     0
 10
48.903967
 20
95.680479
 30
0.0
 11
47.463967
 21
95.680479
 31
0.0
  0
LINE
  8
0
  6
BYBLOCK
 62
     0
 10
58.498967
 20
95.680479
 30
0.0
 11
59.938967
 21
95.680479
 31
0.0
  0
SOLID
  8
0
  6
BYBLOCK
 62
     0
 10
48.903967
 20
95.920479
 30
0.0
 11
48.903967
 21
95.440479
 31
0.0
 12
50.343967
 22
95.680479
 32
0.0
 13
50.343967
 23
95.680479
 33
0.0
  0
SOLID
  8
0
  6
BYBLOCK
 62
     0
 10
58.498967
 20
95.920479
 30
0.0
 11
58.498967
 21
95.440479
 31
0.0
 12
57.058967
 22
95.680479
 32
0.0
 13
57.058967
 23
95.680479
 33
0.0
  0
TEXT
  8
0
  6
BYBLOCK
 62
     0
 10
52.326467
 20
95.180479
 30
0.0
 40
1.0
  1
6.715
 41
0.75
 72
     1
 11
53.701467
 21
95.680479
 31
0.0
 73
     2
  0
POINT
  8
DEFPOINTS
  6
BYBLOCK
 62
     0
 10
50.343967
 20
98.685479
 30
0.0
  0
POINT
  8
DEFPOINTS
  6
BYBLOCK
 62
     0
 10
57.058967
 20
99.153479
 30
0.0
  0
POINT
  8
DEFPOINTS
  6
BYBLOCK
 62
     0
 10
57.058967
 20
95.680479
 30
0.0
  0
ENDBLK
  8
0
  0
BLOCK
  8
0
  2
*D37
 70
    65
 10
0.0
 20
0.0
 30
0.0
  3
*D
  0
LINE
  8
0
  6
BYBLOCK
 62
     0
 10
31.665967
 20
88.529381
 30
0.0
 11
25.020967
 21
88.529381
 31
0.0
  0
LINE
  8
0
  6
BYBLOCK
 62
     0
 10
31.665967
 20
91.529381
 30
0.0
 11
25.020967
 21
91.529381
 31
0.0
  0
LINE
  8
0
  6
BYBLOCK
 62
     0
 10
25.764967
 20
87.089381
 30
0.0
 11
25.764967
 21
85.649381
 31
0.0
  0
LINE
  8
0
  6
BYBLOCK
 62
     0
 10
25.764967
 20
92.969381
 30
0.0
 11
25.764967
 21
94.409381
 31
0.0
  0
SOLID
  8
0
  6
BYBLOCK
 62
     0
 10
25.524967
 20
87.089381
 30
0.0
 11
26.004967
 21
87.089381
 31
0.0
 12
25.764967
 22
88.529381
 32
0.0
 13
25.764967
 23
88.529381
 33
0.0
  0
SOLID
  8
0
  6
BYBLOCK
 62
     0
 10
25.524967
 20
92.969381
 30
0.0
 11
26.004967
 21
92.969381
 31
0.0
 12
25.764967
 22
91.529381
 32
0.0
 13
25.764967
 23
91.529381
 33
0.0
  0
TEXT
  8
0
  6
BYBLOCK
 62
     0
 10
24.452467
 20
89.529381
 30
0.0
 40
1.0
  1
3.000
 41
0.75
 72
     1
 11
25.764967
 21
90.029381
 31
0.0
 73
     2
  0
POINT
  8
DEFPOINTS
  6
BYBLOCK
 62
     0
 10
32.169967
 20
88.529381
 30
0.0
  0
POINT
  8
DEFPOINTS
  6
BYBLOCK
 62
     0
 10
32.169967
 20
91.529381
 30
0.0
  0
POINT
  8
DEFPOINTS
  6
BYBLOCK
 62
     0
 10
25.764967
 20
91.529381
 30
0.0
  0
ENDBLK
  8
0
  0
BLOCK
  8
0
  2
*D38
 70
    65
 10
0.0
 20
0.0
 30
0.0
  3
*D
  0
LINE
  8
0
  6
BYBLOCK
 62
     0
 10
31.636967
 20
88.295381
 30
0.0
 11
21.524967
 21
88.295381
 31
0.0
  0
LINE
  8
0
  6
BYBLOCK
 62
     0
 10
31.636967
 20
91.763381
 30
0.0
 11
21.524967
 21
91.763381
 31
0.0
  0
LINE
  8
0
  6
BYBLOCK
 62
     0
 10
22.268967
 20
86.855381
 30
0.0
 11
22.268967
 21
85.415381
 31
0.0
  0
LINE
  8
0
  6
BYBLOCK
 62
     0
 10
22.268967
 20
93.203381
 30
0.0
 11
22.268967
 21
94.643381
 31
0.0
  0
SOLID
  8
0
  6
BYBLOCK
 62
     0
 10
22.028967
 20
86.855381
 30
0.0
 11
22.508967
 21
86.855381
 31
0.0
 12
22.268967
 22
88.295381
 32
0.0
 13
22.268967
 23
88.295381
 33
0.0
  0
SOLID
  8
0
  6
BYBLOCK
 62
     0
 10
22.028967
 20
93.203381
 30
0.0
 11
22.508967
 21
93.203381
 31
0.0
 12
22.268967
 22
91.763381
 32
0.0
 13
22.268967
 23
91.763381
 33
0.0
  0
TEXT
  8
0
  6
BYBLOCK
 62
     0
 10
20.768967
 20
89.529381
 30
0.0
 40
1.0
  1
3.468
 41
0.75
 72
     1
 11
22.268967
 21
90.029381
 31
0.0
 73
     2
  0
POINT
  8
DEFPOINTS
  6
BYBLOCK
 62
     0
 10
32.140967
 20
88.295381
 30
0.0
  0
POINT
  8
DEFPOINTS
  6
BYBLOCK
 62
     0
 10
32.140967
 20
91.763381
 30
0.0
  0
POINT
  8
DEFPOINTS
  6
BYBLOCK
 62
     0
 10
22.268967
 20
91.763381
 30
0.0
  0
ENDBLK
  8
0
  0
BLOCK
  8
0
  2
*D50
 70
    65
 10
0.0
 20
0.0
 30
0.0
  3
*D
  0
LINE
  8
0
  6
BYBLOCK
 62
     0
 10
50.456967
 20
98.607479
 30
0.0
 11
69.682967
 21
98.607479
 31
0.0
  0
LINE
  8
0
  6
BYBLOCK
 62
     0
 10
50.456967
 20
110.513479
 30
0.0
 11
69.682967
 21
110.513479
 31
0.0
  0
LINE
  8
0
  6
BYBLOCK
 62
     0
 10
68.938967
 20
100.047479
 30
0.0
 11
68.938967
 21
103.340479
 31
0.0
  0
LINE
  8
0
  6
BYBLOCK
 62
     0
 10
68.938967
 20
109.073479
 30
0.0
 11
68.938967
 21
105.780479
 31
0.0
  0
SOLID
  8
0
  6
BYBLOCK
 62
     0
 10
68.698967
 20
100.047479
 30
0.0
 11
69.178967
 21
100.047479
 31
0.0
 12
68.938967
 22
98.607479
 32
0.0
 13
68.938967
 23
98.607479
 33
0.0
  0
SOLID
  8
0
  6
BYBLOCK
 62
     0
 10
68.698967
 20
109.073479
 30
0.0
 11
69.178967
 21
109.073479
 31
0.0
 12
68.938967
 22
110.513479
 32
0.0
 13
68.938967
 23
110.513479
 33
0.0
  0
TEXT
  8
0
  6
BYBLOCK
 62
     0
 10
68.376467
 20
104.060479
 30
0.0
 40
1.0
  1
 INSIDE
 41
0.75
 72
     1
 11
70.626467
 21
104.560479
 31
0.0
 73
     2
  0
TEXT
  8
0
  6
BYBLOCK
 62
     0
 10
65.001467
 20
104.060479
 30
0.0
 40
1.0
  1
11.906
 41
0.75
 72
     1
 11
66.563967
 21
104.560479
 31
0.0
 73
     2
  0
POINT
  8
DEFPOINTS
  6
BYBLOCK
 62
     0
 10
49.952967
 20
98.607479
 30
0.0
  0
POINT
  8
DEFPOINTS
  6
BYBLOCK
 62
     0
 10
49.952967
 20
110.513479
 30
0.0
  0
POINT
  8
DEFPOINTS
  6
BYBLOCK
 62
     0
 10
68.938967
 20
110.513479
 30
0.0
  0
ENDBLK
  8
0
  0
BLOCK
  8
0
  2
*D51
 70
    65
 10
0.0
 20
0.0
 30
0.0
  3
*D
  0
LINE
  8
0
  6
BYBLOCK
 62
     0
 10
57.562967
 20
105.653479
 30
0.0
 11
62.690967
 21
105.653479
 31
0.0
  0
LINE
  8
0
  6
BYBLOCK
 62
     0
 10
57.562967
 20
99.153479
 30
0.0
 11
62.690967
 21
99.153479
 31
0.0
  0
LINE
  8
0
  6
BYBLOCK
 62
     0
 10
61.946967
 20
107.093479
 30
0.0
 11
61.946967
 21
108.533479
 31
0.0
  0
LINE
  8
0
  6
BYBLOCK
 62
     0
 10
61.946967
 20
97.713479
 30
0.0
 11
61.946967
 21
96.273479
 31
0.0
  0
SOLID
  8
0
  6
BYBLOCK
 62
     0
 10
61.706967
 20
107.093479
 30
0.0
 11
62.186967
 21
107.093479
 31
0.0
 12
61.946967
 22
105.653479
 32
0.0
 13
61.946967
 23
105.653479
 33
0.0
  0
SOLID
  8
0
  6
BYBLOCK
 62
     0
 10
61.706967
 20
97.713479
 30
0.0
 11
62.186967
 21
97.713479
 31
0.0
 12
61.946967
 22
99.153479
 32
0.0
 13
61.946967
 23
99.153479
 33
0.0
  0
TEXT
  8
0
  6
BYBLOCK
 62
     0
 10
61.946967
 20
101.903479
 30
0.0
 40
1.0
  1
 REF.
 41
0.75
 72
     1
 11
63.446967
 21
102.403479
 31
0.0
 73
     2
  0
TEXT
  8
0
  6
BYBLOCK
 62
     0
 10
58.946967
 20
101.903479
 30
0.0
 40
1.0
  1
6.500
 41
0.75
 72
     1
 11
60.321967
 21
102.403479
 31
0.0
 73
     2
  0
POINT
  8
DEFPOINTS
  6
BYBLOCK
 62
     0
 10
57.058967
 20
105.653479
 30
0.0
  0
POINT
  8
DEFPOINTS
  6
BYBLOCK
 62
     0
 10
57.058967
 20
99.153479
 30
0.0
  0
POINT
  8
DEFPOINTS
  6
BYBLOCK
 62
     0
 10
61.946967
 20
99.153479
 30
0.0
  0
ENDBLK
  8
0
  0
ENDSEC
  0
SECTION
  2
ENTITIES
  0
TEXT
  8
TEXT
 62
     7
 10
38.628467
 20
96.513479
 30
0.0
 40
1.0
  1
%%UTOP VIEW
 41
0.75
 72
     1
 11
41.640967
 21
96.513479
 31
0.0
  0
TEXT
  8
TEXT
 62
     7
 10
37.878467
 20
78.990983
 30
0.0
 40
1.0
  1
%%UFRONT VIEW
 41
0.75
 72
     1
 11
41.640967
 21
78.990983
 31
0.0
  0
TEXT
  8
TEXT
 62
     7
 10
37.503467
 20
63.358754
 30
0.0
 40
1.0
  1
%%UBOTTOM VIEW
 41
0.75
 72
     1
 11
41.640967
 21
63.358754
 31
0.0
  0
TEXT
  8
TEXT
 62
     7
 10
38.258518
 20
17.027956
 30
0.0
 40
1.0
  1
%%UFRONT VIEW
 41
0.75
 72
     1
 11
42.021018
 21
17.027956
 31
0.0
  0
TEXT
  8
TEXT
 62
     7
 10
37.883518
 20
1.358447
 30
0.0
 40
1.0
  1
%%UBOTTOM VIEW
 41
0.75
 72
     1
 11
42.021018
 21
1.358447
 31
0.0
  0
TEXT
  8
TEXT
 62
     7
 10
39.008518
 20
33.922805
 30
0.0
 40
1.0
  1
%%UTOP VIEW
 41
0.75
 72
     1
 11
42.021018
 21
33.922805
 31
0.0
  0
LINE
  8
TITLE
 62
     7
 10
0.496
 20
62.248
 30
0.0
 11
80.464
 21
62.248
 31
0.0
  0
LINE
  8
TITLE
 62
     7
 10
0.496
 20
61.752
 30
0.0
 11
80.464
 21
61.752
 31
0.0
  0
LINE
  8
TITLE
 62
     7
 10
0.496
 20
58.418667
 30
0.0
 11
80.464
 21
58.418667
 31
0.0
  0
DIMENSION
  8
DIM
 62
     7
  2
*D1
 10
52.349018
 20
28.634496
 30
0.0
 11
42.021018
 21
28.634496
 31
0.0
 13
31.693018
 23
28.951845
 33
0.0
 14
52.349018
 24
28.951845
 34
0.0
  3
23NSTD
  0
LINE
  8
SHELF-HID
 62
     7
 10
52.599018
 20
3.858447
 30
0.0
 11
31.443018
 21
3.858447
 31
0.0
  0
LINE
  8
SHELF-HID
 62
     7
 10
52.333018
 20
3.905447
 30
0.0
 11
31.709018
 21
3.905447
 31
0.0
  0
LINE
  8
MOUSE
 62
     7
 10
51.021018
 20
8.765447
 30
0.0
 11
33.021018
 21
8.765447
 31
0.0
  0
LINE
  8
MOUSE
 62
     7
 10
51.021018
 20
15.265447
 30
0.0
 11
33.021018
 21
15.265447
 31
0.0
  0
LINE
  8
MOUSE-HID
 62
     7
 10
50.958018
 20
15.218447
 30
0.0
 11
33.084018
 21
15.218447
 31
0.0
  0
LINE
  8
MOUSE-HID
 62
     7
 10
50.958018
 20
8.812447
 30
0.0
 11
33.084018
 21
8.812447
 31
0.0
  0
LINE
  8
CHAN
 62
     7
 10
51.021018
 20
14.843447
 30
0.0
 11
33.021018
 21
14.843447
 31
0.0
  0
LINE
  8
CHAN-HID
 62
     7
 10
51.021018
 20
15.296447
 30
0.0
 11
33.021018
 21
15.296447
 31
0.0
  0
LINE
  8
CHAN
 62
     7
 10
51.021018
 20
9.187447
 30
0.0
 11
33.021018
 21
9.187447
 31
0.0
  0
LINE
  8
CHAN-HID
 62
     7
 10
51.021018
 20
8.734447
 30
0.0
 11
33.021018
 21
8.734447
 31
0.0
  0
LINE
  8
CHAN
 62
     7
 10
51.021018
 20
8.234447
 30
0.0
 11
33.021018
 21
8.234447
 31
0.0
  0
LINE
  8
CHAN
 62
     7
 10
51.021018
 20
15.343447
 30
0.0
 11
33.021018
 21
15.343447
 31
0.0
  0
LINE
  8
CHAN
 62
     7
 10
51.021018
 20
8.687447
 30
0.0
 11
33.021018
 21
8.687447
 31
0.0
  0
LINE
  8
SHELF
 62
     7
 10
52.599018
 20
15.858447
 30
0.0
 11
31.443018
 21
15.858447
 31
0.0
  0
LINE
  8
SHELF-HID
 62
     7
 10
52.333018
 20
15.811447
 30
0.0
 11
31.709018
 21
15.811447
 31
0.0
  0
LINE
  8
CHAN
 62
     7
 10
51.021018
 20
15.796447
 30
0.0
 11
33.021018
 21
15.796447
 31
0.0
  0
LINE
  8
CHAN-HID
 62
     7
 10
51.021018
 20
36.031805
 30
0.0
 11
33.021018
 21
36.031805
 31
0.0
  0
LINE
  8
CHAN-HID
 62
     7
 10
51.021018
 20
36.484805
 30
0.0
 11
33.021018
 21
36.484805
 31
0.0
  0
LINE
  8
CHAN-HID
 62
     7
 10
51.021018
 20
36.531805
 30
0.0
 11
33.021018
 21
36.531805
 31
0.0
  0
LINE
  8
CHAN-HID
 62
     7
 10
51.021018
 20
36.984805
 30
0.0
 11
33.021018
 21
36.984805
 31
0.0
  0
LINE
  8
CHAN-HID
 62
     7
 10
51.021018
 20
43.140805
 30
0.0
 11
33.021018
 21
43.140805
 31
0.0
  0
LINE
  8
CHAN-HID
 62
     7
 10
51.021018
 20
42.640805
 30
0.0
 11
33.021018
 21
42.640805
 31
0.0
  0
LINE
  8
CHAN-HID
 62
     7
 10
51.021018
 20
43.093805
 30
0.0
 11
33.021018
 21
43.093805
 31
0.0
  0
LINE
  8
CHAN-HID
 62
     7
 10
51.021018
 20
43.593805
 30
0.0
 11
33.021018
 21
43.593805
 31
0.0
  0
LINE
  8
MOUSE-HID
 62
     7
 10
50.958018
 20
26.638845
 30
0.0
 11
33.084018
 21
26.638845
 31
0.0
  0
LINE
  8
SHELF-HID
 62
     7
 10
52.333018
 20
47.922805
 30
0.0
 11
31.709018
 21
47.922805
 31
0.0
  0
LINE
  8
SHELF
 62
     7
 10
52.333018
 20
36.016805
 30
0.0
 11
31.709018
 21
36.016805
 31
0.0
  0
LINE
  8
SHELF
 62
     7
 10
52.599018
 20
35.969805
 30
0.0
 11
31.443018
 21
35.969805
 31
0.0
  0
LINE
  8
SHELF-HID
 62
     7
 10
52.599018
 20
47.969805
 30
0.0
 11
31.443018
 21
47.969805
 31
0.0
  0
LINE
  8
HOUSE
 62
     7
 10
31.193018
 20
3.358447
 30
0.0
 11
52.849018
 21
3.358447
 31
0.0
  0
LINE
  8
HOUSE-HID
 62
     7
 10
31.271018
 20
3.405447
 30
0.0
 11
52.771018
 21
3.405447
 31
0.0
  0
LINE
  8
HOUSE
 62
     7
 10
30.521018
 20
15.858447
 30
0.0
 11
53.521018
 21
15.858447
 31
0.0
  0
LINE
  8
HOUSE
 62
     7
 10
31.271018
 20
3.858447
 30
0.0
 11
52.771018
 21
3.858447
 31
0.0
  0
LINE
  8
HOUSE-HID
 62
     7
 10
31.271018
 20
55.969805
 30
0.0
 11
52.771018
 21
55.969805
 31
0.0
  0
LINE
  8
HOUSE-HID
 62
     7
 10
31.271018
 20
56.422805
 30
0.0
 11
52.771018
 21
56.422805
 31
0.0
  0
LINE
  8
HOUSE
 62
     7
 10
31.193018
 20
56.469805
 30
0.0
 11
52.849018
 21
56.469805
 31
0.0
  0
DIMENSION
  8
DIM
 62
     7
  2
*D2
 10
53.521018
 20
19.402845
 30
0.0
 11
42.021018
 21
19.402845
 31
0.0
  1
<> REF.
 13
30.521018
 23
26.544845
 33
0.0
 14
53.521018
 24
26.544845
 34
0.0
 50
180.0
  3
23NSTD
  0
DIMENSION
  8
DIM
 62
     7
  2
*D3
 10
30.865018
 20
21.650845
 30
0.0
 11
42.021018
 21
21.650845
 31
0.0
 13
53.177018
 23
26.463845
 33
0.0
 14
30.865018
 24
26.463845
 34
0.0
 50
180.0
  3
23NSTD
  0
LINE
  8
HOUSE
 62
     7
 10
31.240018
 20
26.591845
 30
0.0
 11
52.802018
 21
26.591845
 31
0.0
  0
LINE
  8
HOUSE
 62
     7
 10
30.521018
 20
26.544845
 30
0.0
 11
53.521018
 21
26.544845
 31
0.0
  0
LINE
  8
HOUSE
 62
     7
 10
52.802018
 20
29.965845
 30
0.0
 11
31.240018
 21
29.965845
 31
0.0
  0
LINE
  8
HOUSE
 62
     7
 10
53.521018
 20
30.012845
 30
0.0
 11
30.521018
 21
30.012845
 31
0.0
  0
LINE
  8
MOUSE-HID
 62
     7
 10
33.083018
 20
27.153845
 30
0.0
 11
50.959018
 21
27.153845
 31
0.0
  0
LINE
  8
MOUSE-HID
 62
     7
 10
50.959018
 20
27.200845
 30
0.0
 11
33.083018
 21
27.200845
 31
0.0
  0
LINE
  8
CHAN
 62
     7
 10
33.021018
 20
26.591845
 30
0.0
 11
51.021018
 21
26.591845
 31
0.0
  0
LINE
  8
CHAN-HID
 62
     7
 10
33.021018
 20
26.638845
 30
0.0
 11
51.021018
 21
26.638845
 31
0.0
  0
LINE
  8
CHAN
 62
     7
 10
33.021018
 20
27.216845
 30
0.0
 11
51.021018
 21
27.216845
 31
0.0
  0
LINE
  8
HOUSE
 62
     7
 10
30.521018
 20
43.969805
 30
0.0
 11
53.521018
 21
43.969805
 31
0.0
  0
POLYLINE
  8
MOUSE-HID
 62
     7
 66
     1
 10
0.0
 20
0.0
 30
0.0
 70
     1
  0
VERTEX
  8
MOUSE-HID
 62
     7
 10
33.646018
 20
26.794845
 30
0.0
 42
-1.0
  0
VERTEX
  8
MOUSE-HID
 62
     7
 10
33.646018
 20
27.044845
 30
0.0
  0
VERTEX
  8
MOUSE-HID
 62
     7
 10
50.396018
 20
27.044845
 30
0.0
 42
-1.0
  0
VERTEX
  8
MOUSE-HID
 62
     7
 10
50.396018
 20
26.794845
 30
0.0
  0
SEQEND
  8
MOUSE-HID
 62
     7
  0
LINE
  8
SHELF
 62
     7
 10
31.834018
 20
27.638845
 30
0.0
 11
52.208018
 21
27.638845
 31
0.0
  0
LINE
  8
SHELF-HID
 62
     7
 10
31.708018
 20
27.310845
 30
0.0
 11
52.334018
 21
27.310845
 31
0.0
  0
DIMENSION
  8
DIM
 62
     7
  2
*D4
 10
51.021018
 20
23.898845
 30
0.0
 11
42.021018
 21
23.898845
 31
0.0
  1
<> REF.
 13
33.021018
 23
26.638845
 33
0.0
 14
51.021018
 24
26.638845
 34
0.0
  3
23NSTD
  0
LINE
  8
SHELF
 62
     7
 10
31.708018
 20
27.263845
 30
0.0
 11
52.334018
 21
27.263845
 31
0.0
  0
DIMENSION
  8
DIM
 62
     7
  2
*D5
 10
49.968967
 20
90.385032
 30
0.0
 11
41.640967
 21
90.385032
 31
0.0
 13
33.312967
 23
90.702381
 33
0.0
 14
49.968967
 24
90.702381
 34
0.0
  3
23NSTD
  0
LINE
  8
SHELF-HID
 62
     7
 10
50.218967
 20
65.858754
 30
0.0
 11
33.062967
 21
65.858754
 31
0.0
  0
LINE
  8
SHELF-HID
 62
     7
 10
49.952967
 20
65.905754
 30
0.0
 11
33.328967
 21
65.905754
 31
0.0
  0
LINE
  8
MOUSE
 62
     7
 10
49.640967
 20
70.765754
 30
0.0
 11
33.640967
 21
70.765754
 31
0.0
  0
LINE
  8
MOUSE
 62
     7
 10
49.640967
 20
77.265754
 30
0.0
 11
33.640967
 21
77.265754
 31
0.0
  0
LINE
  8
MOUSE-HID
 62
     7
 10
49.577967
 20
77.218754
 30
0.0
 11
33.703967
 21
77.218754
 31
0.0
  0
LINE
  8
MOUSE-HID
 62
     7
 10
49.577967
 20
70.812754
 30
0.0
 11
33.703967
 21
70.812754
 31
0.0
  0
LINE
  8
CHAN
 62
     7
 10
49.640967
 20
76.843754
 30
0.0
 11
33.640967
 21
76.843754
 31
0.0
  0
LINE
  8
CHAN-HID
 62
     7
 10
49.640967
 20
77.296754
 30
0.0
 11
33.640967
 21
77.296754
 31
0.0
  0
LINE
  8
CHAN
 62
     7
 10
49.640967
 20
71.187754
 30
0.0
 11
33.640967
 21
71.187754
 31
0.0
  0
LINE
  8
CHAN-HID
 62
     7
 10
49.640967
 20
70.734754
 30
0.0
 11
33.640967
 21
70.734754
 31
0.0
  0
LINE
  8
CHAN
 62
     7
 10
49.640967
 20
70.234754
 30
0.0
 11
33.640967
 21
70.234754
 31
0.0
  0
LINE
  8
CHAN
 62
     7
 10
49.640967
 20
77.343754
 30
0.0
 11
33.640967
 21
77.343754
 31
0.0
  0
LINE
  8
CHAN
 62
     7
 10
49.640967
 20
70.687754
 30
0.0
 11
33.640967
 21
70.687754
 31
0.0
  0
LINE
  8
SHELF
 62
     7
 10
50.218967
 20
77.858754
 30
0.0
 11
33.062967
 21
77.858754
 31
0.0
  0
LINE
  8
SHELF-HID
 62
     7
 10
49.952967
 20
77.811754
 30
0.0
 11
33.328967
 21
77.811754
 31
0.0
  0
LINE
  8
CHAN
 62
     7
 10
49.640967
 20
77.796754
 30
0.0
 11
33.640967
 21
77.796754
 31
0.0
  0
LINE
  8
CHAN-HID
 62
     7
 10
49.640967
 20
98.622479
 30
0.0
 11
33.640967
 21
98.622479
 31
0.0
  0
LINE
  8
CHAN-HID
 62
     7
 10
49.640967
 20
99.075479
 30
0.0
 11
33.640967
 21
99.075479
 31
0.0
  0
LINE
  8
CHAN-HID
 62
     7
 10
49.640967
 20
99.122479
 30
0.0
 11
33.640967
 21
99.122479
 31
0.0
  0
LINE
  8
CHAN-HID
 62
     7
 10
49.640967
 20
99.575479
 30
0.0
 11
33.640967
 21
99.575479
 31
0.0
  0
LINE
  8
CHAN-HID
 62
     7
 10
49.640967
 20
105.731479
 30
0.0
 11
33.640967
 21
105.731479
 31
0.0
  0
LINE
  8
CHAN-HID
 62
     7
 10
49.640967
 20
105.231479
 30
0.0
 11
33.640967
 21
105.231479
 31
0.0
  0
LINE
  8
CHAN-HID
 62
     7
 10
49.640967
 20
105.684479
 30
0.0
 11
33.640967
 21
105.684479
 31
0.0
  0
LINE
  8
CHAN-HID
 62
     7
 10
49.640967
 20
106.184479
 30
0.0
 11
33.640967
 21
106.184479
 31
0.0
  0
LINE
  8
MOUSE-HID
 62
     7
 10
49.577967
 20
88.389381
 30
0.0
 11
33.703967
 21
88.389381
 31
0.0
  0
LINE
  8
SHELF-HID
 62
     7
 10
49.952967
 20
110.513479
 30
0.0
 11
33.328967
 21
110.513479
 31
0.0
  0
LINE
  8
SHELF
 62
     7
 10
49.952967
 20
98.607479
 30
0.0
 11
33.328967
 21
98.607479
 31
0.0
  0
LINE
  8
SHELF
 62
     7
 10
50.218967
 20
98.560479
 30
0.0
 11
33.062967
 21
98.560479
 31
0.0
  0
LINE
  8
SHELF-HID
 62
     7
 10
50.218967
 20
110.560479
 30
0.0
 11
33.062967
 21
110.560479
 31
0.0
  0
LINE
  8
HOUSE
 62
     7
 10
32.812967
 20
65.358754
 30
0.0
 11
50.468967
 21
65.358754
 31
0.0
  0
LINE
  8
HOUSE-HID
 62
     7
 10
32.890967
 20
65.405754
 30
0.0
 11
50.390967
 21
65.405754
 31
0.0
  0
LINE
  8
HOUSE
 62
     7
 10
32.140967
 20
77.858754
 30
0.0
 11
51.140967
 21
77.858754
 31
0.0
  0
LINE
  8
HOUSE
 62
     7
 10
32.890967
 20
65.858754
 30
0.0
 11
50.390967
 21
65.858754
 31
0.0
  0
LINE
  8
HOUSE-HID
 10
32.890967
 20
118.560479
 30
0.0
 11
50.390967
 21
118.560479
 31
0.0
  0
LINE
  8
HOUSE-HID
 10
32.890967
 20
119.013479
 30
0.0
 11
50.390967
 21
119.013479
 31
0.0
  0
LINE
  8
HOUSE
 10
32.812967
 20
119.060479
 30
0.0
 11
50.468967
 21
119.060479
 31
0.0
  0
DIMENSION
  8
DIM
 62
     7
  2
*D6
 10
51.140967
 20
81.153381
 30
0.0
 11
41.640967
 21
81.153381
 31
0.0
  1
<> REF.
 13
32.140967
 23
88.295381
 33
0.0
 14
51.140967
 24
88.295381
 34
0.0
 50
180.0
  3
23NSTD
  0
DIMENSION
  8
DIM
 62
     7
  2
*D7
 10
32.484967
 20
83.401381
 30
0.0
 11
41.640967
 21
83.401381
 31
0.0
 13
50.796967
 23
88.214381
 33
0.0
 14
32.484967
 24
88.214381
 34
0.0
 50
180.0
  3
23NSTD
  0
LINE
  8
HOUSE
 62
     7
 10
32.859967
 20
88.342381
 30
0.0
 11
50.421967
 21
88.342381
 31
0.0
  0
LINE
  8
HOUSE
 62
     7
 10
32.140967
 20
88.295381
 30
0.0
 11
51.140967
 21
88.295381
 31
0.0
  0
LINE
  8
HOUSE
 62
     7
 10
50.421967
 20
91.716381
 30
0.0
 11
32.859967
 21
91.716381
 31
0.0
  0
LINE
  8
HOUSE
 62
     7
 10
51.140967
 20
91.763381
 30
0.0
 11
32.140967
 21
91.763381
 31
0.0
  0
LINE
  8
MOUSE-HID
 62
     7
 10
33.702967
 20
88.904381
 30
0.0
 11
49.578967
 21
88.904381
 31
0.0
  0
LINE
  8
MOUSE-HID
 62
     7
 10
49.578967
 20
88.951381
 30
0.0
 11
33.702967
 21
88.951381
 31
0.0
  0
LINE
  8
CHAN
 62
     7
 10
33.640967
 20
88.342381
 30
0.0
 11
49.640967
 21
88.342381
 31
0.0
  0
LINE
  8
CHAN-HID
 62
     7
 10
33.640967
 20
88.389381
 30
0.0
 11
49.640967
 21
88.389381
 31
0.0
  0
LINE
  8
CHAN
 62
     7
 10
33.640967
 20
88.967381
 30
0.0
 11
49.640967
 21
88.967381
 31
0.0
  0
LINE
  8
HOUSE
 62
     7
 10
32.140967
 20
106.560479
 30
0.0
 11
51.140967
 21
106.560479
 31
0.0
  0
POLYLINE
  8
MOUSE-HID
 62
     7
 66
     1
 10
0.0
 20
0.0
 30
0.0
 70
     1
  0
VERTEX
  8
MOUSE-HID
 62
     7
 10
34.265967
 20
88.545381
 30
0.0
 42
-1.0
  0
VERTEX
  8
MOUSE-HID
 62
     7
 10
34.265967
 20
88.795381
 30
0.0
  0
VERTEX
  8
MOUSE-HID
 62
     7
 10
49.015967
 20
88.795381
 30
0.0
 42
-1.0
  0
VERTEX
  8
MOUSE-HID
 62
     7
 10
49.015967
 20
88.545381
 30
0.0
  0
SEQEND
  8
MOUSE-HID
 62
     7
  0
LINE
  8
SHELF
 62
     7
 10
33.453967
 20
89.389381
 30
0.0
 11
49.827967
 21
89.389381
 31
0.0
  0
LINE
  8
SHELF-HID
 62
     7
 10
33.327967
 20
89.061381
 30
0.0
 11
49.953967
 21
89.061381
 31
0.0
  0
DIMENSION
  8
DIM
 62
     7
  2
*D8
 10
49.640967
 20
85.649381
 30
0.0
 11
41.640967
 21
85.649381
 31
0.0
  1
<> REF.
 13
33.640967
 23
88.389381
 33
0.0
 14
49.640967
 24
88.389381
 34
0.0
  3
23NSTD
  0
LINE
  8
SHELF
 62
     7
 10
33.327967
 20
89.014381
 30
0.0
 11
49.953967
 21
89.014381
 31
0.0
  0
LINE
  8
TITLE
 62
     7
 10
6.496
 20
61.752
 30
0.0
 11
6.496
 21
58.418667
 31
0.0
  0
TEXT
  8
TEXT
 62
     7
 10
2.042055
 20
15.047891
 30
0.0
 40
1.000001
  1
HOUSING, SHELF ASSEMBLY
 41
0.75
  0
TEXT
  8
TEXT
 62
     7
 10
2.042055
 20
8.383882
 30
0.0
 40
1.000001
  1
HOUSING, SHELF ASSEMBLY
 41
0.75
  0
LINE
  8
TEXT
 62
     7
 10
13.736574
 20
6.717213
 30
0.0
 11
17.82282
 21
6.717213
 31
0.0
  0
LINE
  8
TEXT
 62
     7
 10
13.025911
 20
13.381222
 30
0.0
 11
17.82282
 21
13.381222
 31
0.0
  0
TEXT
  8
TEXT
 62
     7
 10
2.042055
 20
1.72254
 30
0.0
 40
1.000001
  1
SLIDE LOAD RATING:  140 LBS. PER PAIR.
 41
0.75
  0
TEXT
  8
TEXT
 62
     7
 10
8.536204
 20
59.241955
 30
0.0
 40
1.25
  1
KEYBOARD SHELF ASSEMBLY - 23" P.S.
 41
0.75
 72
     1
 11
23.536204
 21
59.241955
 31
0.0
  0
TEXT
  8
TEXT
 62
     7
 10
2.042055
 20
16.71456
 30
0.0
 40
1.000001
  1
%%uMATERIAL:
 41
0.75
  0
TEXT
  8
TEXT
 62
     7
 10
2.042055
 20
10.050551
 30
0.0
 40
1.000001
  1
%%UFINISH:
 41
0.75
  0
TEXT
  8
TEXT
 62
     7
 10
2.878129
 20
6.717213
 30
0.0
 40
1.000001
  1
AND MOUSE PAD
 41
0.75
  0
TEXT
  8
TEXT
 62
     7
 10
2.878129
 20
13.381222
 30
0.0
 40
1.000001
  1
AND MOUSE PAD
 41
0.75
  0
LINE
  8
HOUSE-HID
 62
     7
 10
2.15869
 20
29.965845
 30
0.0
 11
14.596065
 21
29.965845
 31
0.0
  0
LINE
  8
HOUSE
 62
     7
 10
14.596065
 20
30.012845
 30
0.0
 11
2.15869
 21
30.012845
 31
0.0
  0
LINE
  8
HOUSE-HID
 62
     7
 10
2.15869
 20
26.591845
 30
0.0
 11
14.596065
 21
26.591845
 31
0.0
  0
LINE
  8
HOUSE
 62
     7
 10
2.15869
 20
26.544845
 30
0.0
 11
14.596065
 21
26.544845
 31
0.0
  0
LINE
  8
HOUSE-HID
 62
     7
 10
2.143065
 20
26.60747
 30
0.0
 11
2.143065
 21
29.95022
 31
0.0
  0
LINE
  8
HOUSE
 62
     7
 10
2.096065
 20
29.95022
 30
0.0
 11
2.096065
 21
26.60747
 31
0.0
  0
ARC
  8
HOUSE-HID
 62
     7
 10
2.15869
 20
26.60747
 30
0.0
 40
0.015625
 50
180.0
 51
270.0
  0
ARC
  8
HOUSE
 62
     7
 10
2.15869
 20
26.60747
 30
0.0
 40
0.062625
 50
180.0
 51
270.0
  0
ARC
  8
HOUSE-HID
 62
     7
 10
2.15869
 20
29.95022
 30
0.0
 40
0.015625
 50
90.0
 51
180.0
  0
ARC
  8
HOUSE
 62
     7
 10
2.15869
 20
29.95022
 30
0.0
 40
0.062625
 50
90.0
 51
180.0
  0
TEXT
  8
TEXT
 62
     7
 10
4.529704
 20
24.544845
 30
0.0
 40
1.0
  1
%%USIDE VIEW
 41
0.75
 72
     1
 11
7.792204
 21
24.544845
 31
0.0
  0
POLYLINE
  8
HIDDEN
 62
     7
 66
     1
 10
0.0
 20
0.0
 30
0.0
 70
     1
 75
     6
  0
VERTEX
  8
HIDDEN
 62
     7
 10
14.596065
 20
27.481765
 30
0.0
  0
VERTEX
  8
HIDDEN
 62
     7
 10
2.942093
 20
27.481765
 30
0.0
 42
-0.236205
  0
VERTEX
  8
HIDDEN
 62
     7
 10
2.756065
 20
27.606845
 30
0.0
  0
VERTEX
  8
HIDDEN
 62
     7
 10
2.756065
 20
27.669345
 30
0.0
  0
VERTEX
  8
HIDDEN
 62
     7
 10
3.006065
 20
27.669345
 30
0.0
  0
VERTEX
  8
HIDDEN
 62
     7
 10
3.006065
 20
27.699345
 30
0.0
  0
VERTEX
  8
HIDDEN
 62
     7
 10
2.756065
 20
27.699345
 30
0.0
  0
VERTEX
  8
HIDDEN
 62
     7
 10
2.756065
 20
28.264345
 30
0.0
  0
VERTEX
  8
HIDDEN
 62
     7
 10
3.006065
 20
28.264345
 30
0.0
  0
VERTEX
  8
HIDDEN
 62
     7
 10
3.006065
 20
28.294345
 30
0.0
  0
VERTEX
  8
HIDDEN
 62
     7
 10
2.756065
 20
28.294345
 30
0.0
  0
VERTEX
  8
HIDDEN
 62
     7
 10
2.756065
 20
28.356845
 30
0.0
 42
-0.236205
  0
VERTEX
  8
HIDDEN
 62
     7
 10
2.942093
 20
28.481926
 30
0.0
  0
VERTEX
  8
HIDDEN
 62
     7
 10
14.596065
 20
28.481926
 30
0.0
  0
SEQEND
  8
HIDDEN
 62
     7
  0
LINE
  8
HIDDEN
 62
     7
 10
14.596065
 20
28.676845
 30
0.0
 11
2.596065
 21
28.676845
 31
0.0
  0
LINE
  8
HIDDEN
 62
     7
 10
14.596065
 20
27.286845
 30
0.0
 11
2.596065
 21
27.286845
 31
0.0
  0
LINE
  8
HIDDEN
 62
     7
 10
14.596065
 20
27.390629
 30
0.0
 11
2.596065
 21
27.390629
 31
0.0
  0
LINE
  8
HIDDEN
 62
     7
 10
14.596065
 20
28.570078
 30
0.0
 11
2.596065
 21
28.570078
 31
0.0
  0
LINE
  8
HIDDEN
 62
     7
 10
14.596065
 20
28.606845
 30
0.0
 11
2.596065
 21
28.606845
 31
0.0
  0
LINE
  8
HIDDEN
 62
     7
 10
14.596065
 20
27.356845
 30
0.0
 11
2.596065
 21
27.356845
 31
0.0
  0
LINE
  8
MOUSE-HID
 62
     7
 10
13.941065
 20
27.153845
 30
0.0
 11
7.565065
 21
27.153845
 31
0.0
  0
LINE
  8
MOUSE-HID
 62
     7
 10
7.503065
 20
26.638845
 30
0.0
 11
14.003065
 21
26.638845
 31
0.0
  0
LINE
  8
MOUSE-HID
 62
     7
 10
7.503065
 20
27.200845
 30
0.0
 11
14.003065
 21
27.200845
 31
0.0
  0
LINE
  8
SHELF-HID
 62
     7
 10
14.596065
 20
29.013845
 30
0.0
 11
2.596065
 21
29.013845
 31
0.0
  0
LINE
  8
SHELF-HID
 62
     7
 10
14.596065
 20
28.966845
 30
0.0
 11
2.596065
 21
28.966845
 31
0.0
  0
LINE
  8
SHELF-HID
 62
     7
 10
14.596065
 20
27.263845
 30
0.0
 11
2.596065
 21
27.263845
 31
0.0
  0
LINE
  8
SHELF-HID
 62
     7
 10
14.534065
 20
27.310845
 30
0.0
 11
2.658065
 21
27.310845
 31
0.0
  0
LINE
  8
HIDDEN
 62
     7
 10
2.696065
 20
27.544345
 30
0.0
 11
2.696065
 21
28.419345
 31
0.0
  0
LINE
  8
HIDDEN
 62
     7
 10
2.596065
 20
27.544345
 30
0.0
 11
2.596065
 21
28.419345
 31
0.0
  0
LINE
  8
SHELF-HID
 62
     7
 10
2.596065
 20
29.013845
 30
0.0
 11
2.596065
 21
27.263845
 31
0.0
  0
LINE
  8
HIDDEN
 62
     7
 10
2.596065
 20
27.286845
 30
0.0
 11
2.596065
 21
27.390629
 31
0.0
  0
LINE
  8
HIDDEN
 62
     7
 10
2.696065
 20
27.544345
 30
0.0
 11
2.596065
 21
27.544345
 31
0.0
  0
ARC
  8
HIDDEN
 62
     7
 10
2.622376
 20
27.484807
 30
0.0
 40
0.094736
 50
276.226197
 51
38.937386
  0
LINE
  8
HOUSE-HID
 62
     7
 10
2.596065
 20
26.544845
 30
0.0
 11
2.596065
 21
26.591845
 31
0.0
  0
LINE
  8
SHELF-HID
 62
     7
 10
2.596065
 20
27.638845
 30
0.0
 11
2.643065
 21
27.638845
 31
0.0
  0
ARC
  8
SHELF-HID
 62
     7
 10
2.658065
 20
27.325845
 30
0.0
 40
0.015
 50
180.0
 51
270.0
  0
ARC
  8
SHELF-HID
 62
     7
 10
2.658065
 20
27.325845
 30
0.0
 40
0.062
 50
180.0
 51
270.0
  0
LINE
  8
SHELF-HID
 62
     7
 10
2.643065
 20
27.638845
 30
0.0
 11
2.643065
 21
27.325845
 31
0.0
  0
ARC
  8
HIDDEN
 62
     7
 10
3.221065
 20
27.966845
 30
0.0
 40
0.09
 50
180.0
 51
360.0
  0
ARC
  8
HIDDEN
 62
     7
 10
3.221065
 20
27.996845
 30
0.0
 40
0.09
 50
0.0
 51
180.0
  0
CIRCLE
  8
HOUSE
 62
     7
 10
3.221065
 20
27.981845
 30
0.0
 40
0.082
  0
LINE
  8
HIDDEN
 62
     7
 10
3.131065
 20
27.966845
 30
0.0
 11
3.131065
 21
27.996845
 31
0.0
  0
LINE
  8
HIDDEN
 62
     7
 10
2.596065
 20
28.573061
 30
0.0
 11
2.596065
 21
28.676845
 31
0.0
  0
LINE
  8
HIDDEN
 62
     7
 10
2.696065
 20
28.419345
 30
0.0
 11
2.596065
 21
28.419345
 31
0.0
  0
ARC
  8
HIDDEN
 62
     7
 10
2.622376
 20
28.478884
 30
0.0
 40
0.094736
 50
321.062614
 51
74.282556
  0
ARC
  8
HIDDEN
 62
     7
 10
3.721065
 20
27.966845
 30
0.0
 40
0.09
 50
180.0
 51
360.0
  0
LINE
  8
HIDDEN
 62
     7
 10
3.811065
 20
27.966845
 30
0.0
 11
3.811065
 21
27.996845
 31
0.0
  0
LINE
  8
HIDDEN
 62
     7
 10
3.631065
 20
27.966845
 30
0.0
 11
3.631065
 21
27.996845
 31
0.0
  0
ARC
  8
HIDDEN
 62
     7
 10
3.721065
 20
27.996845
 30
0.0
 40
0.09
 50
0.0
 51
180.0
  0
LINE
  8
HIDDEN
 62
     7
 10
3.311065
 20
27.966845
 30
0.0
 11
3.311065
 21
27.996845
 31
0.0
  0
CIRCLE
  8
HOUSE
 62
     7
 10
3.721065
 20
27.981845
 30
0.0
 40
0.082
  0
CIRCLE
  8
SHELF-HID
 62
     7
 10
3.596065
 20
27.981845
 30
0.0
 40
0.082
  0
CIRCLE
  8
SHELF-HID
 62
     7
 10
5.096065
 20
27.981845
 30
0.0
 40
0.082
  0
POLYLINE
  8
HIDDEN
 62
     7
 66
     1
 10
0.0
 20
0.0
 30
0.0
  0
VERTEX
  8
HIDDEN
 62
     7
 10
6.925065
 20
26.837845
 30
0.0
  0
VERTEX
  8
HIDDEN
 62
     7
 10
7.200802
 20
26.837845
 30
0.0
  0
VERTEX
  8
HIDDEN
 62
     7
 10
7.300065
 20
26.864443
 30
0.0
  0
VERTEX
  8
HIDDEN
 62
     7
 10
7.300065
 20
26.975248
 30
0.0
  0
VERTEX
  8
HIDDEN
 62
     7
 10
7.200802
 20
27.001845
 30
0.0
  0
VERTEX
  8
HIDDEN
 62
     7
 10
6.925065
 20
27.001845
 30
0.0
  0
SEQEND
  8
HIDDEN
 62
     7
  0
POLYLINE
  8
CHAN-HID
 62
     7
 66
     1
 10
0.0
 20
0.0
 30
0.0
 70
     1
  0
VERTEX
  8
CHAN-HID
 62
     7
 10
7.925065
 20
26.638845
 30
0.0
  0
VERTEX
  8
CHAN-HID
 62
     7
 10
7.487065
 20
26.638845
 30
0.0
 42
-0.414214
  0
VERTEX
  8
CHAN-HID
 62
     7
 10
7.472065
 20
26.653845
 30
0.0
  0
VERTEX
  8
CHAN-HID
 62
     7
 10
7.472065
 20
27.201845
 30
0.0
 42
0.414214
  0
VERTEX
  8
CHAN-HID
 62
     7
 10
7.410065
 20
27.263845
 30
0.0
  0
VERTEX
  8
CHAN-HID
 62
     7
 10
6.972065
 20
27.263845
 30
0.0
  0
VERTEX
  8
CHAN-HID
 62
     7
 10
6.972065
 20
27.216845
 30
0.0
  0
VERTEX
  8
CHAN-HID
 62
     7
 10
7.410065
 20
27.216845
 30
0.0
 42
-0.414214
  0
VERTEX
  8
CHAN-HID
 62
     7
 10
7.425065
 20
27.201845
 30
0.0
  0
VERTEX
  8
CHAN-HID
 62
     7
 10
7.425065
 20
26.653845
 30
0.0
 42
0.414214
  0
VERTEX
  8
CHAN-HID
 62
     7
 10
7.487065
 20
26.591845
 30
0.0
  0
VERTEX
  8
CHAN-HID
 62
     7
 10
7.925065
 20
26.591845
 30
0.0
  0
SEQEND
  8
CHAN-HID
 62
     7
  0
POLYLINE
  8
HIDDEN
 62
     7
 66
     1
 10
0.0
 20
0.0
 30
0.0
 70
     1
  0
VERTEX
  8
HIDDEN
 62
     7
 10
6.830786
 20
26.939698
 30
0.0
  0
VERTEX
  8
HIDDEN
 62
     7
 10
6.844944
 20
26.931066
 30
0.0
  0
VERTEX
  8
HIDDEN
 62
     7
 10
6.844944
 20
26.908624
 30
0.0
  0
VERTEX
  8
HIDDEN
 62
     7
 10
6.830786
 20
26.899993
 30
0.0
 42
0.172267
  0
VERTEX
  8
HIDDEN
 62
     7
 10
6.90927
 20
26.718662
 30
0.0
 42
0.740612
  0
VERTEX
  8
HIDDEN
 62
     7
 10
6.925065
 20
26.723477
 30
0.0
  0
VERTEX
  8
HIDDEN
 62
     7
 10
6.925065
 20
27.116214
 30
0.0
 42
0.740612
  0
VERTEX
  8
HIDDEN
 62
     7
 10
6.90927
 20
27.121029
 30
0.0
 42
0.172267
  0
SEQEND
  8
HIDDEN
 62
     7
  0
ARC
  8
MOUSE-HID
 62
     7
 10
7.565065
 20
27.138845
 30
0.0
 40
0.015
 50
90.0
 51
180.0
  0
ARC
  8
MOUSE-HID
 62
     7
 10
7.565065
 20
27.138845
 30
0.0
 40
0.062
 50
90.0
 51
180.0
  0
LINE
  8
MOUSE-HID
 62
     7
 10
7.503065
 20
27.044845
 30
0.0
 11
7.550065
 21
27.044845
 31
0.0
  0
LINE
  8
MOUSE-HID
 62
     7
 10
7.503065
 20
26.794845
 30
0.0
 11
7.550065
 21
26.794845
 31
0.0
  0
LINE
  8
MOUSE-HID
 62
     7
 10
7.503065
 20
26.638845
 30
0.0
 11
7.503065
 21
27.200845
 31
0.0
  0
LINE
  8
MOUSE-HID
 62
     7
 10
7.550065
 20
27.138845
 30
0.0
 11
7.550065
 21
26.638845
 31
0.0
  0
ARC
  8
HIDDEN
 62
     7
 10
8.081065
 20
27.981845
 30
0.0
 40
0.09
 50
90.0
 51
270.0
  0
CIRCLE
  8
HOUSE
 62
     7
 10
8.096065
 20
27.981845
 30
0.0
 40
0.082
  0
LINE
  8
HIDDEN
 62
     7
 10
8.111065
 20
27.891845
 30
0.0
 11
8.081065
 21
27.891845
 31
0.0
  0
LINE
  8
HIDDEN
 62
     7
 10
8.111065
 20
28.071845
 30
0.0
 11
8.081065
 21
28.071845
 31
0.0
  0
ARC
  8
HIDDEN
 62
     7
 10
8.111065
 20
27.981845
 30
0.0
 40
0.09
 50
270.0
 51
90.0
  0
LINE
  8
HIDDEN
 62
     7
 10
9.611065
 20
27.891845
 30
0.0
 11
9.581065
 21
27.891845
 31
0.0
  0
LINE
  8
HIDDEN
 62
     7
 10
9.611065
 20
28.071845
 30
0.0
 11
9.581065
 21
28.071845
 31
0.0
  0
CIRCLE
  8
HOUSE
 62
     7
 10
9.596065
 20
27.981845
 30
0.0
 40
0.082
  0
CIRCLE
  8
SHELF-HID
 62
     7
 10
9.596065
 20
27.981845
 30
0.0
 40
0.082
  0
ARC
  8
HIDDEN
 62
     7
 10
9.581065
 20
27.981845
 30
0.0
 40
0.09
 50
90.0
 51
270.0
  0
ARC
  8
HIDDEN
 62
     7
 10
9.611065
 20
27.981845
 30
0.0
 40
0.09
 50
270.0
 51
90.0
  0
LINE
  8
HIDDEN
 62
     7
 10
14.596065
 20
27.286845
 30
0.0
 11
14.596065
 21
28.676845
 31
0.0
  0
LINE
  8
SHELF-HID
 62
     7
 10
14.596065
 20
29.013845
 30
0.0
 11
14.596065
 21
27.263845
 31
0.0
  0
LINE
  8
HOUSE
 62
     7
 10
14.596065
 20
30.012845
 30
0.0
 11
14.596065
 21
26.544845
 31
0.0
  0
LINE
  8
HOUSE
 62
     7
 10
14.549065
 20
30.012845
 30
0.0
 11
14.549065
 21
26.544845
 31
0.0
  0
POLYLINE
  8
CHAN-HID
 62
     7
 66
     1
 10
0.0
 20
0.0
 30
0.0
 70
     1
  0
VERTEX
  8
CHAN-HID
 62
     7
 10
14.534065
 20
27.216845
 30
0.0
  0
VERTEX
  8
CHAN-HID
 62
     7
 10
14.096065
 20
27.216845
 30
0.0
 42
0.414214
  0
VERTEX
  8
CHAN-HID
 62
     7
 10
14.081065
 20
27.201845
 30
0.0
  0
VERTEX
  8
CHAN-HID
 62
     7
 10
14.081065
 20
26.653845
 30
0.0
 42
-0.414214
  0
VERTEX
  8
CHAN-HID
 62
     7
 10
14.019065
 20
26.591845
 30
0.0
  0
VERTEX
  8
CHAN-HID
 62
     7
 10
13.581065
 20
26.591845
 30
0.0
  0
VERTEX
  8
CHAN-HID
 62
     7
 10
13.581065
 20
26.638845
 30
0.0
  0
VERTEX
  8
CHAN-HID
 62
     7
 10
14.019065
 20
26.638845
 30
0.0
 42
0.414214
  0
VERTEX
  8
CHAN-HID
 62
     7
 10
14.034065
 20
26.653845
 30
0.0
  0
VERTEX
  8
CHAN-HID
 62
     7
 10
14.034065
 20
27.201845
 30
0.0
 42
-0.414214
  0
VERTEX
  8
CHAN-HID
 62
     7
 10
14.096065
 20
27.263845
 30
0.0
  0
VERTEX
  8
CHAN-HID
 62
     7
 10
14.534065
 20
27.263845
 30
0.0
  0
SEQEND
  8
CHAN-HID
 62
     7
  0
POLYLINE
  8
HIDDEN
 62
     7
 66
     1
 10
0.0
 20
0.0
 30
0.0
  0
VERTEX
  8
HIDDEN
 62
     7
 10
14.081065
 20
26.837845
 30
0.0
  0
VERTEX
  8
HIDDEN
 62
     7
 10
13.805328
 20
26.837845
 30
0.0
  0
VERTEX
  8
HIDDEN
 62
     7
 10
13.706065
 20
26.864443
 30
0.0
  0
VERTEX
  8
HIDDEN
 62
     7
 10
13.706065
 20
26.975248
 30
0.0
  0
VERTEX
  8
HIDDEN
 62
     7
 10
13.805328
 20
27.001845
 30
0.0
  0
VERTEX
  8
HIDDEN
 62
     7
 10
14.081065
 20
27.001845
 30
0.0
  0
SEQEND
  8
HIDDEN
 62
     7
  0
POLYLINE
  8
HIDDEN
 62
     7
 66
     1
 10
0.0
 20
0.0
 30
0.0
 70
     1
  0
VERTEX
  8
HIDDEN
 62
     7
 10
14.175344
 20
26.939698
 30
0.0
  0
VERTEX
  8
HIDDEN
 62
     7
 10
14.161186
 20
26.931066
 30
0.0
  0
VERTEX
  8
HIDDEN
 62
     7
 10
14.161186
 20
26.908624
 30
0.0
  0
VERTEX
  8
HIDDEN
 62
     7
 10
14.175344
 20
26.899993
 30
0.0
 42
-0.172267
  0
VERTEX
  8
HIDDEN
 62
     7
 10
14.096861
 20
26.718662
 30
0.0
 42
-0.740612
  0
VERTEX
  8
HIDDEN
 62
     7
 10
14.081065
 20
26.723477
 30
0.0
  0
VERTEX
  8
HIDDEN
 62
     7
 10
14.081065
 20
27.116214
 30
0.0
 42
-0.740612
  0
VERTEX
  8
HIDDEN
 62
     7
 10
14.096861
 20
27.121029
 30
0.0
 42
-0.172267
  0
SEQEND
  8
HIDDEN
 62
     7
  0
ARC
  8
MOUSE-HID
 62
     7
 10
13.941065
 20
27.138845
 30
0.0
 40
0.015
 50
360.0
 51
90.0
  0
ARC
  8
MOUSE-HID
 62
     7
 10
13.941065
 20
27.138845
 30
0.0
 40
0.062
 50
0.0
 51
90.0
  0
LINE
  8
MOUSE-HID
 62
     7
 10
14.003065
 20
26.794845
 30
0.0
 11
13.956065
 21
26.794845
 31
0.0
  0
LINE
  8
MOUSE-HID
 62
     7
 10
14.003065
 20
27.044845
 30
0.0
 11
13.956065
 21
27.044845
 31
0.0
  0
LINE
  8
MOUSE-HID
 62
     7
 10
13.956065
 20
26.638845
 30
0.0
 11
13.956065
 21
27.138845
 31
0.0
  0
LINE
  8
MOUSE-HID
 62
     7
 10
14.003065
 20
27.200845
 30
0.0
 11
14.003065
 21
26.638845
 31
0.0
  0
LINE
  8
SHELF-HID
 62
     7
 10
14.596065
 20
27.638845
 30
0.0
 11
14.549065
 21
27.638845
 31
0.0
  0
ARC
  8
SHELF-HID
 62
     7
 10
14.534065
 20
27.325845
 30
0.0
 40
0.062
 50
270.0
 51
0.0
  0
ARC
  8
SHELF-HID
 62
     7
 10
14.534065
 20
27.325845
 30
0.0
 40
0.015
 50
270.0
 51
0.0
  0
LINE
  8
SHELF-HID
 62
     7
 10
14.549065
 20
27.638845
 30
0.0
 11
14.549065
 21
27.325845
 31
0.0
  0
ARC
  8
HIDDEN
 62
     7
 10
13.471065
 20
27.966845
 30
0.0
 40
0.09
 50
180.0
 51
360.0
  0
ARC
  8
HIDDEN
 62
     7
 10
13.471065
 20
27.996845
 30
0.0
 40
0.09
 50
0.0
 51
180.0
  0
CIRCLE
  8
HOUSE
 62
     7
 10
13.471065
 20
27.981845
 30
0.0
 40
0.082
  0
CIRCLE
  8
SHELF-HID
 62
     7
 10
13.596065
 20
27.981845
 30
0.0
 40
0.082
  0
LINE
  8
HIDDEN
 62
     7
 10
13.381065
 20
27.966845
 30
0.0
 11
13.381065
 21
27.996845
 31
0.0
  0
LINE
  8
HIDDEN
 62
     7
 10
12.986065
 20
27.891845
 30
0.0
 11
12.956065
 21
27.891845
 31
0.0
  0
LINE
  8
HIDDEN
 62
     7
 10
12.986065
 20
28.071845
 30
0.0
 11
12.956065
 21
28.071845
 31
0.0
  0
ARC
  8
HIDDEN
 62
     7
 10
12.986065
 20
27.981845
 30
0.0
 40
0.09
 50
270.0
 51
90.0
  0
ARC
  8
HIDDEN
 62
     7
 10
12.956065
 20
27.981845
 30
0.0
 40
0.09
 50
90.0
 51
270.0
  0
LINE
  8
HIDDEN
 62
     7
 10
14.061065
 20
27.966845
 30
0.0
 11
14.061065
 21
27.996845
 31
0.0
  0
LINE
  8
HIDDEN
 62
     7
 10
13.881065
 20
27.966845
 30
0.0
 11
13.881065
 21
27.996845
 31
0.0
  0
LINE
  8
HIDDEN
 62
     7
 10
13.561065
 20
27.966845
 30
0.0
 11
13.561065
 21
27.996845
 31
0.0
  0
ARC
  8
HIDDEN
 62
     7
 10
13.971065
 20
27.966845
 30
0.0
 40
0.09
 50
180.0
 51
360.0
  0
ARC
  8
HIDDEN
 62
     7
 10
13.971065
 20
27.996845
 30
0.0
 40
0.09
 50
0.0
 51
180.0
  0
CIRCLE
  8
HOUSE
 62
     7
 10
13.971065
 20
27.981845
 30
0.0
 40
0.082
  0
TEXT
  8
TEXT
 62
     7
 10
18.366269
 20
6.717213
 30
0.0
 40
1.000001
  1
SMOOTH BLACK OR
 41
0.75
  0
TEXT
  8
TEXT
 62
     7
 10
18.366269
 20
5.050544
 30
0.0
 40
1.000001
  1
METALLIC GRAY
 41
0.75
  0
TEXT
  8
TEXT
 62
     7
 10
18.366269
 20
13.381222
 30
0.0
 40
1.000001
  1
18 GA. STEEL
 41
0.75
  0
LINE
  8
HOUSE
 62
     7
 10
31.271018
 20
3.858447
 30
0.0
 11
31.271018
 21
3.358447
 31
0.0
  0
LINE
  8
HOUSE
 62
     7
 10
31.240018
 20
3.889447
 30
0.0
 11
31.240018
 21
3.358447
 31
0.0
  0
LINE
  8
HOUSE
 62
     7
 10
31.193018
 20
15.795822
 30
0.0
 11
31.193018
 21
3.358447
 31
0.0
  0
LINE
  8
HIDDEN
 62
     7
 10
31.630518
 20
15.690444
 30
0.0
 11
31.630518
 21
4.018447
 31
0.0
  0
LINE
  8
HIDDEN
 62
     7
 10
31.255518
 20
15.858447
 30
0.0
 11
31.255518
 21
3.858447
 31
0.0
  0
LINE
  8
HIDDEN
 62
     7
 10
31.56601
 20
15.764447
 30
0.0
 11
31.56601
 21
3.858447
 31
0.0
  0
LINE
  8
HIDDEN
 62
     7
 10
31.355518
 20
15.858447
 30
0.0
 11
31.355518
 21
4.018447
 31
0.0
  0
LINE
  8
HIDDEN
 62
     7
 10
31.317518
 20
15.858447
 30
0.0
 11
31.317518
 21
3.858447
 31
0.0
  0
LINE
  8
MOUSE
 62
     7
 10
33.021018
 20
15.265447
 30
0.0
 11
33.021018
 21
8.765447
 31
0.0
  0
LINE
  8
MOUSE
 62
     7
 10
33.068018
 20
15.265447
 30
0.0
 11
33.068018
 21
8.765447
 31
0.0
  0
LINE
  8
SHELF-HID
 62
     7
 10
31.318018
 20
15.733447
 30
0.0
 11
31.318018
 21
3.983447
 31
0.0
  0
LINE
  8
SHELF-HID
 62
     7
 10
31.646018
 20
15.858447
 30
0.0
 11
31.646018
 21
3.858447
 31
0.0
  0
LINE
  8
SHELF-HID
 62
     7
 10
31.693018
 20
15.483155
 30
0.0
 11
31.693018
 21
3.858447
 31
0.0
  0
LINE
  8
HOUSE
 62
     7
 10
31.693018
 20
15.483155
 30
0.0
 11
31.693018
 21
3.889447
 31
0.0
  0
LINE
  8
HOUSE-HID
 62
     7
 10
31.240018
 20
3.889447
 30
0.0
 11
31.240018
 21
15.795822
 31
0.0
  0
LINE
  8
CHAN
 62
     7
 10
33.021018
 20
9.187447
 30
0.0
 11
33.021018
 21
8.234447
 31
0.0
  0
LINE
  8
HIDDEN
 62
     7
 10
31.630518
 20
4.018447
 30
0.0
 11
31.355518
 21
4.018447
 31
0.0
  0
LINE
  8
HOUSE
 62
     7
 10
31.193018
 20
3.889447
 30
0.0
 11
31.693018
 21
3.889447
 31
0.0
  0
LINE
  8
HIDDEN
 62
     7
 10
31.255518
 20
3.858447
 30
0.0
 11
31.56601
 21
3.858447
 31
0.0
  0
ARC
  8
SHELF
 62
     7
 10
31.443018
 20
3.983447
 30
0.0
 40
0.125
 50
180.0
 51
270.0
  0
LINE
  8
SHELF-HID
 62
     7
 10
31.709018
 20
3.905447
 30
0.0
 11
31.709018
 21
3.858447
 31
0.0
  0
LINE
  8
MOUSE-HID
 62
     7
 10
33.084018
 20
8.812447
 30
0.0
 11
33.084018
 21
8.765447
 31
0.0
  0
LINE
  8
MOUSE-HID
 62
     7
 10
33.521018
 20
8.812447
 30
0.0
 11
33.521018
 21
8.765447
 31
0.0
  0
LINE
  8
HOUSE
 62
     7
 10
30.521018
 20
15.811447
 30
0.0
 11
31.177393
 21
15.811447
 31
0.0
  0
LINE
  8
HOUSE
 62
     7
 10
30.521018
 20
15.858447
 30
0.0
 11
30.521018
 21
15.811447
 31
0.0
  0
LINE
  8
OBJECT
 62
     7
 10
31.630518
 20
15.690444
 30
0.0
 11
31.630518
 21
15.858447
 31
0.0
  0
LINE
  8
SHELF
 62
     7
 10
31.693018
 20
15.483155
 30
0.0
 11
31.693018
 21
15.858447
 31
0.0
  0
ARC
  8
SHELF-HID
 62
     7
 10
31.443018
 20
15.733447
 30
0.0
 40
0.125
 50
90.0
 51
180.0
  0
ARC
  8
HOUSE
 62
     7
 10
31.318018
 20
15.483155
 30
0.0
 40
0.375
 50
0.0
 51
90.0
  0
LINE
  8
OBJECT
 62
     7
 10
31.355518
 20
15.858447
 30
0.0
 11
31.630518
 21
15.858447
 31
0.0
  0
LINE
  8
OBJECT
 62
     7
 10
31.56601
 20
15.764447
 30
0.0
 11
31.56601
 21
15.858447
 31
0.0
  0
LINE
  8
OBJECT
 62
     7
 10
31.255518
 20
15.858447
 30
0.0
 11
31.56601
 21
15.858447
 31
0.0
  0
LINE
  8
OBJECT
 62
     7
 10
31.355518
 20
15.858447
 30
0.0
 11
31.355518
 21
15.858447
 31
0.0
  0
ARC
  8
HOUSE
 62
     7
 10
31.177393
 20
15.795822
 30
0.0
 40
0.015625
 50
0.0
 51
90.0
  0
ARC
  8
HOUSE-HID
 62
     7
 10
31.177393
 20
15.795822
 30
0.0
 40
0.062625
 50
360.0
 51
90.0
  0
LINE
  8
OBJECT
 62
     7
 10
31.271018
 20
15.858155
 30
0.0
 11
31.318018
 21
15.858155
 31
0.0
  0
LINE
  8
SHELF-HID
 62
     7
 10
31.709018
 20
15.858447
 30
0.0
 11
31.709018
 21
15.811447
 31
0.0
  0
LINE
  8
CHAN
 62
     7
 10
33.021018
 20
15.796447
 30
0.0
 11
33.021018
 21
14.843447
 31
0.0
  0
LINE
  8
MOUSE-HID
 62
     7
 10
33.084018
 20
15.265447
 30
0.0
 11
33.084018
 21
15.218447
 31
0.0
  0
LINE
  8
MOUSE-HID
 62
     7
 10
33.521018
 20
15.265447
 30
0.0
 11
33.521018
 21
15.218447
 31
0.0
  0
DIMENSION
  8
DIM
 62
     7
  2
*D9
 10
24.145018
 20
43.969805
 30
0.0
 11
24.145018
 21
50.219805
 31
0.0
  1
<> REF.
 13
31.193018
 23
56.469805
 33
0.0
 14
30.521018
 24
43.969805
 34
0.0
 50
90.0
  3
23NSTD
  0
DIMENSION
  8
DIM
 62
     7
  2
*D10
 10
24.145018
 20
35.969805
 30
0.0
 11
24.145018
 21
39.969805
 31
0.0
 13
30.521018
 23
43.969805
 33
0.0
 14
31.355518
 24
35.969805
 34
0.0
 50
90.0
  3
23NSTD
  0
DIMENSION
  8
DIM
 62
     7
  2
*D34
 10
20.649018
 20
30.012845
 30
0.0
 11
20.649018
 21
28.278845
 31
0.0
 13
30.521018
 23
26.544845
 33
0.0
 14
30.521018
 24
30.012845
 34
0.0
 50
90.0
  3
23NSTDI
  0
DIMENSION
  8
DIM
 62
     7
  2
*D33
 10
24.145018
 20
29.778845
 30
0.0
 11
24.145018
 21
28.278845
 31
0.0
 13
30.550018
 23
26.778845
 33
0.0
 14
30.550018
 24
29.778845
 34
0.0
 50
90.0
  3
23NSTDI
  0
DIMENSION
  8
DIM
 62
     7
  2
*D13
 10
27.641018
 20
30.012845
 30
0.0
 11
31.238518
 21
32.892845
 31
0.0
 13
30.550018
 23
29.778845
 33
0.0
 14
30.521018
 24
30.012845
 34
0.0
 50
90.0
  3
23NSTD
  0
LINE
  8
HIDDEN
 62
     7
 10
31.355518
 20
35.969805
 30
0.0
 11
31.355518
 21
47.809805
 31
0.0
  0
LINE
  8
HIDDEN
 62
     7
 10
31.630518
 20
35.969805
 30
0.0
 11
31.630518
 21
47.809805
 31
0.0
  0
LINE
  8
SHELF
 62
     7
 10
31.693018
 20
43.922805
 30
0.0
 11
31.693018
 21
35.969805
 31
0.0
  0
LINE
  8
SHELF
 62
     7
 10
31.318018
 20
43.922805
 30
0.0
 11
31.318018
 21
36.094805
 31
0.0
  0
LINE
  8
SHELF-HID
 62
     7
 10
31.646018
 20
35.969805
 30
0.0
 11
31.646018
 21
47.969805
 31
0.0
  0
LINE
  8
CENTER
 62
     7
 10
30.550018
 20
29.778845
 30
0.0
 11
31.180018
 21
29.778845
 31
0.0
  0
LINE
  8
CENTER
 62
     7
 10
30.550018
 20
26.778845
 30
0.0
 11
31.180018
 21
26.778845
 31
0.0
  0
POLYLINE
  8
HOUSE
 62
     7
 66
     1
 10
0.0
 20
0.0
 30
0.0
 70
     1
  0
VERTEX
  8
HOUSE
 62
     7
 10
30.929018
 20
29.639845
 30
0.0
  0
VERTEX
  8
HOUSE
 62
     7
 10
30.801018
 20
29.639845
 30
0.0
 42
-1.0
  0
VERTEX
  8
HOUSE
 62
     7
 10
30.801018
 20
29.917845
 30
0.0
  0
VERTEX
  8
HOUSE
 62
     7
 10
30.929018
 20
29.917845
 30
0.0
 42
-1.0
  0
SEQEND
  8
HOUSE
 62
     7
  0
POLYLINE
  8
HOUSE
 62
     7
 66
     1
 10
0.0
 20
0.0
 30
0.0
 70
     1
  0
VERTEX
  8
HOUSE
 62
     7
 10
30.929018
 20
26.639845
 30
0.0
  0
VERTEX
  8
HOUSE
 62
     7
 10
30.801018
 20
26.639845
 30
0.0
 42
-1.0
  0
VERTEX
  8
HOUSE
 62
     7
 10
30.801018
 20
26.917845
 30
0.0
  0
VERTEX
  8
HOUSE
 62
     7
 10
30.929018
 20
26.917845
 30
0.0
 42
-1.0
  0
SEQEND
  8
HOUSE
 62
     7
  0
LINE
  8
HOUSE
 62
     7
 10
30.521018
 20
30.012845
 30
0.0
 11
30.521018
 21
26.544845
 31
0.0
  0
LINE
  8
HOUSE
 62
     7
 10
31.240018
 20
29.965845
 30
0.0
 11
31.240018
 21
26.591845
 31
0.0
  0
LINE
  8
HOUSE-HID
 62
     7
 10
31.193018
 20
30.012845
 30
0.0
 11
31.193018
 21
26.544845
 31
0.0
  0
LINE
  8
SHELF
 62
     7
 10
31.693018
 20
28.951845
 30
0.0
 11
31.693018
 21
27.325845
 31
0.0
  0
INSERT
  8
OBJECT
 62
     7
  2
FR-SLIDE
 10
31.255518
 20
27.981345
 30
0.0
 50
180.0
  0
LINE
  8
SHELF
 62
     7
 10
31.646018
 20
28.951845
 30
0.0
 11
31.646018
 21
27.325845
 31
0.0
  0
LINE
  8
CENTER
 62
     7
 10
30.865018
 20
26.463845
 30
0.0
 11
30.865018
 21
27.093845
 31
0.0
  0
LINE
  8
SHELF-HID
 62
     7
 10
31.709018
 20
27.513845
 30
0.0
 11
31.709018
 21
27.263845
 31
0.0
  0
LINE
  8
HOUSE
 62
     7
 10
31.693018
 20
26.591845
 30
0.0
 11
31.693018
 21
26.544845
 31
0.0
  0
ARC
  8
SHELF-HID
 62
     7
 10
31.708018
 20
27.325845
 30
0.0
 40
0.062
 50
180.0
 51
270.0
  0
ARC
  8
SHELF-HID
 62
     7
 10
31.708018
 20
27.325845
 30
0.0
 40
0.015
 50
180.0
 51
270.0
  0
ARC
  8
SHELF
 62
     7
 10
31.834018
 20
27.513845
 30
0.0
 40
0.125
 50
90.0
 51
180.0
  0
LINE
  8
MOUSE-HID
 62
     7
 10
33.068018
 20
26.638845
 30
0.0
 11
33.021018
 21
26.638845
 31
0.0
  0
LINE
  8
MOUSE-HID
 62
     7
 10
33.084018
 20
26.638845
 30
0.0
 11
33.084018
 21
27.200845
 31
0.0
  0
ARC
  8
MOUSE-HID
 62
     7
 10
33.083018
 20
27.138845
 30
0.0
 40
0.015
 50
90.0
 51
180.0
  0
LINE
  8
MOUSE-HID
 62
     7
 10
33.068018
 20
26.638845
 30
0.0
 11
33.068018
 21
27.138845
 31
0.0
  0
LINE
  8
MOUSE-HID
 62
     7
 10
33.021018
 20
27.138845
 30
0.0
 11
33.021018
 21
26.638845
 31
0.0
  0
ARC
  8
MOUSE-HID
 62
     7
 10
33.083018
 20
27.138845
 30
0.0
 40
0.062
 50
90.0
 51
180.0
  0
LINE
  8
CHAN
 62
     7
 10
33.021018
 20
26.591845
 30
0.0
 11
33.021018
 21
27.263845
 31
0.0
  0
LINE
  8
CENTER
 62
     7
 10
30.865018
 20
29.463845
 30
0.0
 11
30.865018
 21
30.093845
 31
0.0
  0
LINE
  8
SHELF
 62
     7
 10
31.318018
 20
28.966845
 30
0.0
 11
31.631018
 21
28.966845
 31
0.0
  0
LINE
  8
SHELF
 62
     7
 10
31.318018
 20
29.013845
 30
0.0
 11
31.631018
 21
29.013845
 31
0.0
  0
LINE
  8
SHELF
 62
     7
 10
31.318018
 20
29.013845
 30
0.0
 11
31.318018
 21
28.966845
 31
0.0
  0
ARC
  8
SHELF
 62
     7
 10
31.631018
 20
28.951845
 30
0.0
 40
0.062
 50
0.0
 51
90.0
  0
ARC
  8
SHELF
 62
     7
 10
31.631018
 20
28.951845
 30
0.0
 40
0.015
 50
0.0
 51
90.0
  0
LINE
  8
HIDDEN
 62
     7
 10
31.355518
 20
35.969805
 30
0.0
 11
31.630518
 21
35.969805
 31
0.0
  0
ARC
  8
SHELF
 62
     7
 10
31.443018
 20
36.094805
 30
0.0
 40
0.125
 50
180.0
 51
270.0
  0
LINE
  8
SHELF
 62
     7
 10
31.709018
 20
35.969805
 30
0.0
 11
31.709018
 21
36.016805
 31
0.0
  0
LINE
  8
CHAN-HID
 62
     7
 10
33.021018
 20
36.031805
 30
0.0
 11
33.021018
 21
36.984805
 31
0.0
  0
LINE
  8
HIDDEN
 62
     7
 10
31.255518
 20
43.969805
 30
0.0
 11
31.255518
 21
55.969805
 31
0.0
  0
LINE
  8
HIDDEN
 62
     7
 10
31.595518
 20
43.969805
 30
0.0
 11
31.595518
 21
55.969805
 31
0.0
  0
LINE
  8
HIDDEN
 62
     7
 10
31.317518
 20
43.969805
 30
0.0
 11
31.317518
 21
55.969805
 31
0.0
  0
LINE
  8
HOUSE-HID
 62
     7
 10
31.693018
 20
44.345097
 30
0.0
 11
31.693018
 21
55.938805
 31
0.0
  0
LINE
  8
HOUSE-HID
 62
     7
 10
31.240018
 20
56.469805
 30
0.0
 11
31.240018
 21
44.03243
 31
0.0
  0
LINE
  8
HOUSE
 62
     7
 10
31.193018
 20
44.03243
 30
0.0
 11
31.193018
 21
56.469805
 31
0.0
  0
LINE
  8
HOUSE
 62
     7
 10
30.521018
 20
44.016805
 30
0.0
 11
31.177393
 21
44.016805
 31
0.0
  0
LINE
  8
HOUSE
 62
     7
 10
30.521018
 20
43.969805
 30
0.0
 11
30.521018
 21
44.016805
 31
0.0
  0
LINE
  8
SHELF-HID
 62
     7
 10
31.693018
 20
43.922805
 30
0.0
 11
31.693018
 21
47.969805
 31
0.0
  0
LINE
  8
SHELF-HID
 62
     7
 10
31.318018
 20
43.922805
 30
0.0
 11
31.318018
 21
47.844805
 31
0.0
  0
LINE
  8
HIDDEN
 62
     7
 10
31.255518
 20
43.969805
 30
0.0
 11
31.595518
 21
43.969805
 31
0.0
  0
ARC
  8
HOUSE-HID
 62
     7
 10
31.318018
 20
44.345097
 30
0.0
 40
0.375
 50
270.0
 51
360.0
  0
LINE
  8
HOUSE-HID
 62
     7
 10
31.271018
 20
43.970097
 30
0.0
 11
31.318018
 21
43.970097
 31
0.0
  0
ARC
  8
HOUSE-HID
 62
     7
 10
31.177393
 20
44.03243
 30
0.0
 40
0.062625
 50
270.0
 51
0.0
  0
ARC
  8
HOUSE
 62
     7
 10
31.177393
 20
44.03243
 30
0.0
 40
0.015625
 50
270.0
 51
0.0
  0
LINE
  8
CHAN-HID
 62
     7
 10
33.021018
 20
42.640805
 30
0.0
 11
33.021018
 21
43.593805
 31
0.0
  0
LINE
  8
HIDDEN
 62
     7
 10
31.630518
 20
47.809805
 30
0.0
 11
31.355518
 21
47.809805
 31
0.0
  0
ARC
  8
SHELF-HID
 62
     7
 10
31.443018
 20
47.844805
 30
0.0
 40
0.125
 50
90.0
 51
180.0
  0
LINE
  8
SHELF-HID
 62
     7
 10
31.709018
 20
47.922805
 30
0.0
 11
31.709018
 21
47.969805
 31
0.0
  0
LINE
  8
HOUSE-HID
 62
     7
 10
31.271018
 20
56.469805
 30
0.0
 11
31.271018
 21
55.969805
 31
0.0
  0
LINE
  8
HIDDEN
 62
     7
 10
31.255518
 20
55.969805
 30
0.0
 11
31.595518
 21
55.969805
 31
0.0
  0
LINE
  8
HOUSE-HID
 62
     7
 10
31.193018
 20
55.938805
 30
0.0
 11
31.693018
 21
55.938805
 31
0.0
  0
TEXT
  8
TEXT
 62
     7
 10
2.042055
 20
63.522206
 30
0.0
 40
1.000001
  1
NOT AVAILABLE FOR SERIES 2000 RACKS.
 41
0.75
  0
TEXT
  8
TEXT
 10
8.692454
 20
120.983288
 30
0.0
 40
1.25
  1
KEYBOARD SHELF ASSEMBLY - 19" P.S.
 41
0.75
 72
     1
 11
23.536204
 21
120.983288
 31
0.0
  0
TEXT
  8
TEXT
 62
     7
 10
2.042055
 20
66.807877
 30
0.0
 40
1.000001
  1
SLIDE LOAD RATING:  140 LBS. PER PAIR.
 41
0.75
  0
LINE
  8
TEXT
 62
     7
 10
13.736574
 20
71.802551
 30
0.0
 11
18.886397
 21
71.802551
 31
0.0
  0
LINE
  8
TEXT
 62
     7
 10
13.025911
 20
78.46656
 30
0.0
 11
18.886397
 21
78.46656
 31
0.0
  0
TEXT
  8
TEXT
 62
     7
 10
2.042055
 20
73.46922
 30
0.0
 40
1.000001
  1
HOUSING, SHELF ASSEMBLY
 41
0.75
  0
TEXT
  8
TEXT
 62
     7
 10
2.042055
 20
80.133229
 30
0.0
 40
1.000001
  1
HOUSING, SHELF ASSEMBLY
 41
0.75
  0
POLYLINE
  8
HIDDEN
 62
     7
 66
     1
 10
0.0
 20
0.0
 30
0.0
 70
     1
 75
     6
  0
VERTEX
  8
HIDDEN
 62
     7
 10
16.427839
 20
89.2323
 30
0.0
  0
VERTEX
  8
HIDDEN
 62
     7
 10
4.773867
 20
89.2323
 30
0.0
 42
-0.236205
  0
VERTEX
  8
HIDDEN
 62
     7
 10
4.587839
 20
89.357381
 30
0.0
  0
VERTEX
  8
HIDDEN
 62
     7
 10
4.587839
 20
89.419881
 30
0.0
  0
VERTEX
  8
HIDDEN
 62
     7
 10
4.837839
 20
89.419881
 30
0.0
  0
VERTEX
  8
HIDDEN
 62
     7
 10
4.837839
 20
89.449881
 30
0.0
  0
VERTEX
  8
HIDDEN
 62
     7
 10
4.587839
 20
89.449881
 30
0.0
  0
VERTEX
  8
HIDDEN
 62
     7
 10
4.587839
 20
90.014881
 30
0.0
  0
VERTEX
  8
HIDDEN
 62
     7
 10
4.837839
 20
90.014881
 30
0.0
  0
VERTEX
  8
HIDDEN
 62
     7
 10
4.837839
 20
90.044881
 30
0.0
  0
VERTEX
  8
HIDDEN
 62
     7
 10
4.587839
 20
90.044881
 30
0.0
  0
VERTEX
  8
HIDDEN
 62
     7
 10
4.587839
 20
90.107381
 30
0.0
 42
-0.236205
  0
VERTEX
  8
HIDDEN
 62
     7
 10
4.773867
 20
90.232462
 30
0.0
  0
VERTEX
  8
HIDDEN
 62
     7
 10
16.427839
 20
90.232462
 30
0.0
  0
SEQEND
  8
HIDDEN
 62
     7
  0
LINE
  8
HIDDEN
 62
     7
 10
16.427839
 20
90.427381
 30
0.0
 11
4.427839
 21
90.427381
 31
0.0
  0
LINE
  8
HIDDEN
 62
     7
 10
16.427839
 20
89.037381
 30
0.0
 11
4.427839
 21
89.037381
 31
0.0
  0
LINE
  8
HIDDEN
 62
     7
 10
16.427839
 20
89.141165
 30
0.0
 11
4.427839
 21
89.141165
 31
0.0
  0
LINE
  8
HIDDEN
 62
     7
 10
16.427839
 20
90.320613
 30
0.0
 11
4.427839
 21
90.320613
 31
0.0
  0
LINE
  8
HIDDEN
 62
     7
 10
16.427839
 20
90.357381
 30
0.0
 11
4.427839
 21
90.357381
 31
0.0
  0
LINE
  8
HIDDEN
 62
     7
 10
16.427839
 20
89.107381
 30
0.0
 11
4.427839
 21
89.107381
 31
0.0
  0
LINE
  8
HOUSE-HID
 62
     7
 10
3.990464
 20
91.716381
 30
0.0
 11
16.427839
 21
91.716381
 31
0.0
  0
LINE
  8
HOUSE
 62
     7
 10
16.427839
 20
91.763381
 30
0.0
 11
3.990464
 21
91.763381
 31
0.0
  0
LINE
  8
MOUSE-HID
 62
     7
 10
15.772839
 20
88.904381
 30
0.0
 11
9.396839
 21
88.904381
 31
0.0
  0
LINE
  8
MOUSE-HID
 62
     7
 10
9.334839
 20
88.389381
 30
0.0
 11
15.834839
 21
88.389381
 31
0.0
  0
LINE
  8
MOUSE-HID
 62
     7
 10
9.334839
 20
88.951381
 30
0.0
 11
15.834839
 21
88.951381
 31
0.0
  0
LINE
  8
SHELF-HID
 62
     7
 10
16.427839
 20
90.764381
 30
0.0
 11
4.427839
 21
90.764381
 31
0.0
  0
LINE
  8
SHELF-HID
 62
     7
 10
16.427839
 20
90.717381
 30
0.0
 11
4.427839
 21
90.717381
 31
0.0
  0
LINE
  8
SHELF-HID
 62
     7
 10
16.427839
 20
89.014381
 30
0.0
 11
4.427839
 21
89.014381
 31
0.0
  0
LINE
  8
SHELF-HID
 62
     7
 10
16.365839
 20
89.061381
 30
0.0
 11
4.489839
 21
89.061381
 31
0.0
  0
LINE
  8
HOUSE-HID
 62
     7
 10
3.990464
 20
88.342381
 30
0.0
 11
16.427839
 21
88.342381
 31
0.0
  0
LINE
  8
HOUSE
 62
     7
 10
3.990464
 20
88.295381
 30
0.0
 11
16.427839
 21
88.295381
 31
0.0
  0
TEXT
  8
TEXT
 62
     7
 10
2.042055
 20
75.135889
 30
0.0
 40
1.000001
  1
%%UFINISH:
 41
0.75
  0
TEXT
  8
TEXT
 62
     7
 10
2.042055
 20
81.799897
 30
0.0
 40
1.000001
  1
%%uMATERIAL:
 41
0.75
  0
TEXT
  8
TEXT
 62
     7
 10
2.878129
 20
71.802551
 30
0.0
 40
1.000001
  1
AND MOUSE PAD
 41
0.75
  0
TEXT
  8
TEXT
 62
     7
 10
2.878129
 20
78.46656
 30
0.0
 40
1.000001
  1
AND MOUSE PAD
 41
0.75
  0
TEXT
  8
TEXT
 62
     7
 10
6.915339
 20
86.295381
 30
0.0
 40
1.0
  1
%%USIDE VIEW
 41
0.75
 72
     1
 11
10.177839
 21
86.295381
 31
0.0
  0
POLYLINE
  8
HIDDEN
 62
     7
 66
     1
 10
0.0
 20
0.0
 30
0.0
  0
VERTEX
  8
HIDDEN
 62
     7
 10
8.756839
 20
88.588381
 30
0.0
  0
VERTEX
  8
HIDDEN
 62
     7
 10
9.032576
 20
88.588381
 30
0.0
  0
VERTEX
  8
HIDDEN
 62
     7
 10
9.131839
 20
88.614978
 30
0.0
  0
VERTEX
  8
HIDDEN
 62
     7
 10
9.131839
 20
88.725783
 30
0.0
  0
VERTEX
  8
HIDDEN
 62
     7
 10
9.032576
 20
88.752381
 30
0.0
  0
VERTEX
  8
HIDDEN
 62
     7
 10
8.756839
 20
88.752381
 30
0.0
  0
SEQEND
  8
HIDDEN
 62
     7
  0
ARC
  8
HIDDEN
 62
     7
 10
5.552839
 20
89.747381
 30
0.0
 40
0.09
 50
0.0
 51
180.0
  0
ARC
  8
HIDDEN
 62
     7
 10
5.052839
 20
89.747381
 30
0.0
 40
0.09
 50
0.0
 51
180.0
  0
LINE
  8
HIDDEN
 62
     7
 10
4.527839
 20
89.294881
 30
0.0
 11
4.527839
 21
90.169881
 31
0.0
  0
LINE
  8
HIDDEN
 62
     7
 10
4.427839
 20
89.294881
 30
0.0
 11
4.427839
 21
90.169881
 31
0.0
  0
CIRCLE
  8
HOUSE
 62
     7
 10
5.052839
 20
89.732381
 30
0.0
 40
0.082
  0
CIRCLE
  8
HOUSE
 62
     7
 10
5.552839
 20
89.732381
 30
0.0
 40
0.082
  0
CIRCLE
  8
SHELF-HID
 62
     7
 10
5.427839
 20
89.732381
 30
0.0
 40
0.082
  0
LINE
  8
SHELF-HID
 62
     7
 10
4.427839
 20
90.764381
 30
0.0
 11
4.427839
 21
89.014381
 31
0.0
  0
CIRCLE
  8
SHELF-HID
 62
     7
 10
6.927839
 20
89.732381
 30
0.0
 40
0.082
  0
LINE
  8
HOUSE-HID
 62
     7
 10
3.974839
 20
88.358006
 30
0.0
 11
3.974839
 21
91.700756
 31
0.0
  0
LINE
  8
HOUSE
 62
     7
 10
3.927839
 20
91.700756
 30
0.0
 11
3.927839
 21
88.358006
 31
0.0
  0
ARC
  8
HOUSE-HID
 62
     7
 10
3.990464
 20
88.358006
 30
0.0
 40
0.015625
 50
180.0
 51
270.0
  0
ARC
  8
HOUSE
 62
     7
 10
3.990464
 20
88.358006
 30
0.0
 40
0.062625
 50
180.0
 51
270.0
  0
LINE
  8
HIDDEN
 62
     7
 10
4.427839
 20
89.037381
 30
0.0
 11
4.427839
 21
89.141165
 31
0.0
  0
LINE
  8
HIDDEN
 62
     7
 10
4.527839
 20
89.294881
 30
0.0
 11
4.427839
 21
89.294881
 31
0.0
  0
ARC
  8
HIDDEN
 62
     7
 10
4.454151
 20
89.235342
 30
0.0
 40
0.094736
 50
276.226197
 51
38.937386
  0
LINE
  8
HOUSE-HID
 62
     7
 10
4.427839
 20
88.295381
 30
0.0
 11
4.427839
 21
88.342381
 31
0.0
  0
LINE
  8
SHELF-HID
 62
     7
 10
4.427839
 20
89.389381
 30
0.0
 11
4.474839
 21
89.389381
 31
0.0
  0
ARC
  8
SHELF-HID
 62
     7
 10
4.489839
 20
89.076381
 30
0.0
 40
0.015
 50
180.0
 51
270.0
  0
ARC
  8
SHELF-HID
 62
     7
 10
4.489839
 20
89.076381
 30
0.0
 40
0.062
 50
180.0
 51
270.0
  0
LINE
  8
SHELF-HID
 62
     7
 10
4.474839
 20
89.389381
 30
0.0
 11
4.474839
 21
89.076381
 31
0.0
  0
ARC
  8
HIDDEN
 62
     7
 10
5.552839
 20
89.717381
 30
0.0
 40
0.09
 50
180.0
 51
360.0
  0
LINE
  8
HIDDEN
 62
     7
 10
5.642839
 20
89.717381
 30
0.0
 11
5.642839
 21
89.747381
 31
0.0
  0
LINE
  8
HIDDEN
 62
     7
 10
5.462839
 20
89.717381
 30
0.0
 11
5.462839
 21
89.747381
 31
0.0
  0
ARC
  8
HIDDEN
 62
     7
 10
5.052839
 20
89.717381
 30
0.0
 40
0.09
 50
180.0
 51
360.0
  0
LINE
  8
HIDDEN
 62
     7
 10
5.142839
 20
89.717381
 30
0.0
 11
5.142839
 21
89.747381
 31
0.0
  0
LINE
  8
HIDDEN
 62
     7
 10
4.962839
 20
89.717381
 30
0.0
 11
4.962839
 21
89.747381
 31
0.0
  0
POLYLINE
  8
HIDDEN
 62
     7
 66
     1
 10
0.0
 20
0.0
 30
0.0
 70
     1
  0
VERTEX
  8
HIDDEN
 62
     7
 10
8.66256
 20
88.690233
 30
0.0
  0
VERTEX
  8
HIDDEN
 62
     7
 10
8.676719
 20
88.681602
 30
0.0
  0
VERTEX
  8
HIDDEN
 62
     7
 10
8.676719
 20
88.65916
 30
0.0
  0
VERTEX
  8
HIDDEN
 62
     7
 10
8.66256
 20
88.650528
 30
0.0
 42
0.172267
  0
VERTEX
  8
HIDDEN
 62
     7
 10
8.741044
 20
88.469198
 30
0.0
 42
0.740612
  0
VERTEX
  8
HIDDEN
 62
     7
 10
8.756839
 20
88.474012
 30
0.0
  0
VERTEX
  8
HIDDEN
 62
     7
 10
8.756839
 20
88.866749
 30
0.0
 42
0.740612
  0
VERTEX
  8
HIDDEN
 62
     7
 10
8.741044
 20
88.871564
 30
0.0
 42
0.172267
  0
SEQEND
  8
HIDDEN
 62
     7
  0
ARC
  8
HOUSE-HID
 62
     7
 10
3.990464
 20
91.700756
 30
0.0
 40
0.015625
 50
90.0
 51
180.0
  0
ARC
  8
HOUSE
 62
     7
 10
3.990464
 20
91.700756
 30
0.0
 40
0.062625
 50
90.0
 51
180.0
  0
LINE
  8
HIDDEN
 62
     7
 10
4.427839
 20
90.323597
 30
0.0
 11
4.427839
 21
90.427381
 31
0.0
  0
LINE
  8
HIDDEN
 62
     7
 10
4.527839
 20
90.169881
 30
0.0
 11
4.427839
 21
90.169881
 31
0.0
  0
ARC
  8
HIDDEN
 62
     7
 10
4.454151
 20
90.22942
 30
0.0
 40
0.094736
 50
321.062614
 51
74.282556
  0
ARC
  8
HIDDEN
 62
     7
 10
14.817839
 20
89.732381
 30
0.0
 40
0.09
 50
270.0
 51
90.0
  0
ARC
  8
HIDDEN
 62
     7
 10
14.787839
 20
89.732381
 30
0.0
 40
0.09
 50
90.0
 51
270.0
  0
ARC
  8
HIDDEN
 62
     7
 10
11.442839
 20
89.732381
 30
0.0
 40
0.09
 50
270.0
 51
90.0
  0
ARC
  8
HIDDEN
 62
     7
 10
11.412839
 20
89.732381
 30
0.0
 40
0.09
 50
90.0
 51
270.0
  0
ARC
  8
HIDDEN
 62
     7
 10
9.912839
 20
89.732381
 30
0.0
 40
0.09
 50
90.0
 51
270.0
  0
ARC
  8
HIDDEN
 62
     7
 10
9.942839
 20
89.732381
 30
0.0
 40
0.09
 50
270.0
 51
90.0
  0
CIRCLE
  8
HOUSE
 62
     7
 10
9.927839
 20
89.732381
 30
0.0
 40
0.082
  0
CIRCLE
  8
HOUSE
 62
     7
 10
11.427839
 20
89.732381
 30
0.0
 40
0.082
  0
CIRCLE
  8
SHELF-HID
 62
     7
 10
11.427839
 20
89.732381
 30
0.0
 40
0.082
  0
POLYLINE
  8
CHAN-HID
 62
     7
 66
     1
 10
0.0
 20
0.0
 30
0.0
 70
     1
  0
VERTEX
  8
CHAN-HID
 62
     7
 10
9.756839
 20
88.389381
 30
0.0
  0
VERTEX
  8
CHAN-HID
 62
     7
 10
9.318839
 20
88.389381
 30
0.0
 42
-0.414214
  0
VERTEX
  8
CHAN-HID
 62
     7
 10
9.303839
 20
88.404381
 30
0.0
  0
VERTEX
  8
CHAN-HID
 62
     7
 10
9.303839
 20
88.952381
 30
0.0
 42
0.414214
  0
VERTEX
  8
CHAN-HID
 62
     7
 10
9.241839
 20
89.014381
 30
0.0
  0
VERTEX
  8
CHAN-HID
 62
     7
 10
8.803839
 20
89.014381
 30
0.0
  0
VERTEX
  8
CHAN-HID
 62
     7
 10
8.803839
 20
88.967381
 30
0.0
  0
VERTEX
  8
CHAN-HID
 62
     7
 10
9.241839
 20
88.967381
 30
0.0
 42
-0.414214
  0
VERTEX
  8
CHAN-HID
 62
     7
 10
9.256839
 20
88.952381
 30
0.0
  0
VERTEX
  8
CHAN-HID
 62
     7
 10
9.256839
 20
88.404381
 30
0.0
 42
0.414214
  0
VERTEX
  8
CHAN-HID
 62
     7
 10
9.318839
 20
88.342381
 30
0.0
  0
VERTEX
  8
CHAN-HID
 62
     7
 10
9.756839
 20
88.342381
 30
0.0
  0
SEQEND
  8
CHAN-HID
 62
     7
  0
ARC
  8
MOUSE-HID
 62
     7
 10
9.396839
 20
88.889381
 30
0.0
 40
0.015
 50
90.0
 51
180.0
  0
ARC
  8
MOUSE-HID
 62
     7
 10
9.396839
 20
88.889381
 30
0.0
 40
0.062
 50
90.0
 51
180.0
  0
LINE
  8
MOUSE-HID
 62
     7
 10
9.334839
 20
88.795381
 30
0.0
 11
9.381839
 21
88.795381
 31
0.0
  0
LINE
  8
MOUSE-HID
 62
     7
 10
9.334839
 20
88.545381
 30
0.0
 11
9.381839
 21
88.545381
 31
0.0
  0
LINE
  8
MOUSE-HID
 62
     7
 10
9.334839
 20
88.389381
 30
0.0
 11
9.334839
 21
88.951381
 31
0.0
  0
LINE
  8
MOUSE-HID
 62
     7
 10
9.381839
 20
88.889381
 30
0.0
 11
9.381839
 21
88.389381
 31
0.0
  0
LINE
  8
HIDDEN
 62
     7
 10
9.942839
 20
89.642381
 30
0.0
 11
9.912839
 21
89.642381
 31
0.0
  0
LINE
  8
HIDDEN
 62
     7
 10
11.442839
 20
89.642381
 30
0.0
 11
11.412839
 21
89.642381
 31
0.0
  0
LINE
  8
HIDDEN
 62
     7
 10
14.817839
 20
89.642381
 30
0.0
 11
14.787839
 21
89.642381
 31
0.0
  0
LINE
  8
HIDDEN
 62
     7
 10
9.942839
 20
89.822381
 30
0.0
 11
9.912839
 21
89.822381
 31
0.0
  0
LINE
  8
HIDDEN
 62
     7
 10
11.442839
 20
89.822381
 30
0.0
 11
11.412839
 21
89.822381
 31
0.0
  0
LINE
  8
HIDDEN
 62
     7
 10
14.817839
 20
89.822381
 30
0.0
 11
14.787839
 21
89.822381
 31
0.0
  0
DIMENSION
  8
DIM
 62
     7
  2
*D14
 10
25.764967
 20
98.560479
 30
0.0
 11
25.764967
 21
102.560479
 31
0.0
 13
32.140967
 23
106.560479
 33
0.0
 14
32.975467
 24
98.560479
 34
0.0
 50
90.0
  3
23NSTD
  0
LINE
  8
HIDDEN
 62
     7
 10
32.975467
 20
98.560479
 30
0.0
 11
32.975467
 21
110.400479
 31
0.0
  0
LINE
  8
HIDDEN
 62
     7
 10
33.250467
 20
98.560479
 30
0.0
 11
33.250467
 21
110.400479
 31
0.0
  0
LINE
  8
SHELF
 62
     7
 10
33.312967
 20
106.513479
 30
0.0
 11
33.312967
 21
98.560479
 31
0.0
  0
LINE
  8
SHELF
 62
     7
 10
32.937967
 20
106.513479
 30
0.0
 11
32.937967
 21
98.685479
 31
0.0
  0
LINE
  8
CHAN-HID
 62
     7
 10
33.640967
 20
98.622479
 30
0.0
 11
33.640967
 21
99.575479
 31
0.0
  0
LINE
  8
SHELF-HID
 62
     7
 10
33.265967
 20
98.560479
 30
0.0
 11
33.265967
 21
110.560479
 31
0.0
  0
TEXT
  8
TEXT
 62
     7
 10
19.429846
 20
70.135882
 30
0.0
 40
1.000001
  1
METALLIC GRAY
 41
0.75
  0
TEXT
  8
TEXT
 62
     7
 10
19.429846
 20
71.802551
 30
0.0
 40
1.000001
  1
SMOOTH BLACK OR
 41
0.75
  0
DIMENSION
  8
DIM
 62
     7
  2
*D38
 10
22.268967
 20
91.763381
 30
0.0
 11
22.268967
 21
90.029381
 31
0.0
 13
32.140967
 23
88.295381
 33
0.0
 14
32.140967
 24
91.763381
 34
0.0
 50
90.0
  3
23NSTDI
  0
DIMENSION
  8
DIM
 62
     7
  2
*D37
 10
25.764967
 20
91.529381
 30
0.0
 11
25.764967
 21
90.029381
 31
0.0
 13
32.169967
 23
88.529381
 33
0.0
 14
32.169967
 24
91.529381
 34
0.0
 50
90.0
  3
23NSTDI
  0
TEXT
  8
TEXT
 62
     7
 10
19.429846
 20
78.46656
 30
0.0
 40
1.000001
  1
18 GA. STEEL
 41
0.75
  0
ARC
  8
HIDDEN
 62
     7
 10
15.302839
 20
89.747381
 30
0.0
 40
0.09
 50
0.0
 51
180.0
  0
ARC
  8
HIDDEN
 62
     7
 10
15.802839
 20
89.747381
 30
0.0
 40
0.09
 50
0.0
 51
180.0
  0
LINE
  8
HIDDEN
 62
     7
 10
16.427839
 20
89.037381
 30
0.0
 11
16.427839
 21
90.427381
 31
0.0
  0
CIRCLE
  8
HOUSE
 62
     7
 10
15.302839
 20
89.732381
 30
0.0
 40
0.082
  0
CIRCLE
  8
HOUSE
 62
     7
 10
15.802839
 20
89.732381
 30
0.0
 40
0.082
  0
CIRCLE
  8
SHELF-HID
 62
     7
 10
15.427839
 20
89.732381
 30
0.0
 40
0.082
  0
LINE
  8
SHELF-HID
 62
     7
 10
16.427839
 20
90.764381
 30
0.0
 11
16.427839
 21
89.014381
 31
0.0
  0
LINE
  8
HOUSE
 62
     7
 10
16.427839
 20
91.763381
 30
0.0
 11
16.427839
 21
88.295381
 31
0.0
  0
LINE
  8
HOUSE
 62
     7
 10
16.380839
 20
91.763381
 30
0.0
 11
16.380839
 21
88.295381
 31
0.0
  0
ARC
  8
HIDDEN
 62
     7
 10
15.802839
 20
89.717381
 30
0.0
 40
0.09
 50
180.0
 51
360.0
  0
POLYLINE
  8
HIDDEN
 62
     7
 66
     1
 10
0.0
 20
0.0
 30
0.0
  0
VERTEX
  8
HIDDEN
 62
     7
 10
15.912839
 20
88.588381
 30
0.0
  0
VERTEX
  8
HIDDEN
 62
     7
 10
15.637103
 20
88.588381
 30
0.0
  0
VERTEX
  8
HIDDEN
 62
     7
 10
15.537839
 20
88.614978
 30
0.0
  0
VERTEX
  8
HIDDEN
 62
     7
 10
15.537839
 20
88.725783
 30
0.0
  0
VERTEX
  8
HIDDEN
 62
     7
 10
15.637103
 20
88.752381
 30
0.0
  0
VERTEX
  8
HIDDEN
 62
     7
 10
15.912839
 20
88.752381
 30
0.0
  0
SEQEND
  8
HIDDEN
 62
     7
  0
POLYLINE
  8
CHAN-HID
 62
     7
 66
     1
 10
0.0
 20
0.0
 30
0.0
 70
     1
  0
VERTEX
  8
CHAN-HID
 62
     7
 10
16.365839
 20
88.967381
 30
0.0
  0
VERTEX
  8
CHAN-HID
 62
     7
 10
15.927839
 20
88.967381
 30
0.0
 42
0.414214
  0
VERTEX
  8
CHAN-HID
 62
     7
 10
15.912839
 20
88.952381
 30
0.0
  0
VERTEX
  8
CHAN-HID
 62
     7
 10
15.912839
 20
88.404381
 30
0.0
 42
-0.414214
  0
VERTEX
  8
CHAN-HID
 62
     7
 10
15.850839
 20
88.342381
 30
0.0
  0
VERTEX
  8
CHAN-HID
 62
     7
 10
15.412839
 20
88.342381
 30
0.0
  0
VERTEX
  8
CHAN-HID
 62
     7
 10
15.412839
 20
88.389381
 30
0.0
  0
VERTEX
  8
CHAN-HID
 62
     7
 10
15.850839
 20
88.389381
 30
0.0
 42
0.414214
  0
VERTEX
  8
CHAN-HID
 62
     7
 10
15.865839
 20
88.404381
 30
0.0
  0
VERTEX
  8
CHAN-HID
 62
     7
 10
15.865839
 20
88.952381
 30
0.0
 42
-0.414214
  0
VERTEX
  8
CHAN-HID
 62
     7
 10
15.927839
 20
89.014381
 30
0.0
  0
VERTEX
  8
CHAN-HID
 62
     7
 10
16.365839
 20
89.014381
 30
0.0
  0
SEQEND
  8
CHAN-HID
 62
     7
  0
LINE
  8
HIDDEN
 62
     7
 10
15.212839
 20
89.717381
 30
0.0
 11
15.212839
 21
89.747381
 31
0.0
  0
LINE
  8
HIDDEN
 62
     7
 10
15.712839
 20
89.717381
 30
0.0
 11
15.712839
 21
89.747381
 31
0.0
  0
LINE
  8
HIDDEN
 62
     7
 10
15.392839
 20
89.717381
 30
0.0
 11
15.392839
 21
89.747381
 31
0.0
  0
ARC
  8
HIDDEN
 62
     7
 10
15.302839
 20
89.717381
 30
0.0
 40
0.09
 50
180.0
 51
360.0
  0
ARC
  8
MOUSE-HID
 62
     7
 10
15.772839
 20
88.889381
 30
0.0
 40
0.015
 50
360.0
 51
90.0
  0
ARC
  8
MOUSE-HID
 62
     7
 10
15.772839
 20
88.889381
 30
0.0
 40
0.062
 50
0.0
 51
90.0
  0
LINE
  8
MOUSE-HID
 62
     7
 10
15.834839
 20
88.545381
 30
0.0
 11
15.787839
 21
88.545381
 31
0.0
  0
LINE
  8
MOUSE-HID
 62
     7
 10
15.834839
 20
88.795381
 30
0.0
 11
15.787839
 21
88.795381
 31
0.0
  0
LINE
  8
MOUSE-HID
 62
     7
 10
15.787839
 20
88.389381
 30
0.0
 11
15.787839
 21
88.889381
 31
0.0
  0
LINE
  8
MOUSE-HID
 62
     7
 10
15.834839
 20
88.951381
 30
0.0
 11
15.834839
 21
88.389381
 31
0.0
  0
LINE
  8
HIDDEN
 62
     7
 10
15.892839
 20
89.717381
 30
0.0
 11
15.892839
 21
89.747381
 31
0.0
  0
LINE
  8
SHELF-HID
 62
     7
 10
16.427839
 20
89.389381
 30
0.0
 11
16.380839
 21
89.389381
 31
0.0
  0
POLYLINE
  8
HIDDEN
 62
     7
 66
     1
 10
0.0
 20
0.0
 30
0.0
 70
     1
  0
VERTEX
  8
HIDDEN
 62
     7
 10
16.007119
 20
88.690233
 30
0.0
  0
VERTEX
  8
HIDDEN
 62
     7
 10
15.99296
 20
88.681602
 30
0.0
  0
VERTEX
  8
HIDDEN
 62
     7
 10
15.99296
 20
88.65916
 30
0.0
  0
VERTEX
  8
HIDDEN
 62
     7
 10
16.007119
 20
88.650528
 30
0.0
 42
-0.172267
  0
VERTEX
  8
HIDDEN
 62
     7
 10
15.928635
 20
88.469198
 30
0.0
 42
-0.740612
  0
VERTEX
  8
HIDDEN
 62
     7
 10
15.912839
 20
88.474012
 30
0.0
  0
VERTEX
  8
HIDDEN
 62
     7
 10
15.912839
 20
88.866749
 30
0.0
 42
-0.740612
  0
VERTEX
  8
HIDDEN
 62
     7
 10
15.928635
 20
88.871564
 30
0.0
 42
-0.172267
  0
SEQEND
  8
HIDDEN
 62
     7
  0
ARC
  8
SHELF-HID
 62
     7
 10
16.365839
 20
89.076381
 30
0.0
 40
0.062
 50
270.0
 51
0.0
  0
ARC
  8
SHELF-HID
 62
     7
 10
16.365839
 20
89.076381
 30
0.0
 40
0.015
 50
270.0
 51
0.0
  0
LINE
  8
SHELF-HID
 62
     7
 10
16.380839
 20
89.389381
 30
0.0
 11
16.380839
 21
89.076381
 31
0.0
  0
LINE
  8
HIDDEN
 62
     7
 10
33.250467
 20
77.69075
 30
0.0
 11
33.250467
 21
66.018754
 31
0.0
  0
LINE
  8
HIDDEN
 62
     7
 10
32.875467
 20
77.858754
 30
0.0
 11
32.875467
 21
65.858754
 31
0.0
  0
LINE
  8
HIDDEN
 62
     7
 10
33.185959
 20
77.764753
 30
0.0
 11
33.185959
 21
65.858754
 31
0.0
  0
LINE
  8
HIDDEN
 62
     7
 10
32.975467
 20
77.858754
 30
0.0
 11
32.975467
 21
66.018754
 31
0.0
  0
LINE
  8
HIDDEN
 62
     7
 10
32.937467
 20
77.858754
 30
0.0
 11
32.937467
 21
65.858754
 31
0.0
  0
LINE
  8
CHAN
 62
     7
 10
33.640967
 20
71.187754
 30
0.0
 11
33.640967
 21
70.234754
 31
0.0
  0
LINE
  8
SHELF-HID
 62
     7
 10
32.937967
 20
77.733754
 30
0.0
 11
32.937967
 21
65.983754
 31
0.0
  0
LINE
  8
SHELF-HID
 62
     7
 10
33.265967
 20
77.858754
 30
0.0
 11
33.265967
 21
65.858754
 31
0.0
  0
LINE
  8
SHELF-HID
 62
     7
 10
33.312967
 20
77.483461
 30
0.0
 11
33.312967
 21
65.858754
 31
0.0
  0
LINE
  8
HOUSE
 62
     7
 10
33.312967
 20
77.483461
 30
0.0
 11
33.312967
 21
65.889754
 31
0.0
  0
LINE
  8
HOUSE
 62
     7
 10
32.812967
 20
77.796129
 30
0.0
 11
32.812967
 21
65.358754
 31
0.0
  0
LINE
  8
HOUSE-HID
 62
     7
 10
32.859967
 20
65.889754
 30
0.0
 11
32.859967
 21
77.796129
 31
0.0
  0
ARC
  8
SHELF
 62
     7
 10
33.062967
 20
65.983754
 30
0.0
 40
0.125
 50
180.0
 51
270.0
  0
LINE
  8
SHELF-HID
 62
     7
 10
33.328967
 20
65.905754
 30
0.0
 11
33.328967
 21
65.858754
 31
0.0
  0
LINE
  8
HIDDEN
 62
     7
 10
32.875467
 20
65.858754
 30
0.0
 11
33.185959
 21
65.858754
 31
0.0
  0
LINE
  8
HOUSE
 62
     7
 10
32.812967
 20
65.889754
 30
0.0
 11
33.312967
 21
65.889754
 31
0.0
  0
LINE
  8
HOUSE
 62
     7
 10
32.890967
 20
65.858754
 30
0.0
 11
32.890967
 21
65.358754
 31
0.0
  0
LINE
  8
HOUSE
 62
     7
 10
32.859967
 20
65.889754
 30
0.0
 11
32.859967
 21
65.358754
 31
0.0
  0
LINE
  8
HIDDEN
 62
     7
 10
33.250467
 20
66.018754
 30
0.0
 11
32.975467
 21
66.018754
 31
0.0
  0
LINE
  8
MOUSE
 62
     7
 10
33.640967
 20
77.265754
 30
0.0
 11
33.640967
 21
70.765754
 31
0.0
  0
LINE
  8
MOUSE
 62
     7
 10
33.687967
 20
77.265754
 30
0.0
 11
33.687967
 21
70.765754
 31
0.0
  0
LINE
  8
MOUSE-HID
 62
     7
 10
33.703967
 20
70.812754
 30
0.0
 11
33.703967
 21
70.765754
 31
0.0
  0
LINE
  8
HOUSE
 62
     7
 10
32.140967
 20
77.811754
 30
0.0
 11
32.797342
 21
77.811754
 31
0.0
  0
LINE
  8
HOUSE
 62
     7
 10
32.140967
 20
77.858754
 30
0.0
 11
32.140967
 21
77.811754
 31
0.0
  0
LINE
  8
OBJECT
 62
     7
 10
33.250467
 20
77.69075
 30
0.0
 11
33.250467
 21
77.858754
 31
0.0
  0
LINE
  8
OBJECT
 62
     7
 10
33.185959
 20
77.764753
 30
0.0
 11
33.185959
 21
77.858754
 31
0.0
  0
LINE
  8
SHELF
 62
     7
 10
33.312967
 20
77.483461
 30
0.0
 11
33.312967
 21
77.858754
 31
0.0
  0
LINE
  8
SHELF-HID
 62
     7
 10
33.328967
 20
77.858754
 30
0.0
 11
33.328967
 21
77.811754
 31
0.0
  0
ARC
  8
SHELF-HID
 62
     7
 10
33.062967
 20
77.733754
 30
0.0
 40
0.125
 50
90.0
 51
180.0
  0
ARC
  8
HOUSE-HID
 62
     7
 10
32.797342
 20
77.796129
 30
0.0
 40
0.062625
 50
360.0
 51
90.0
  0
ARC
  8
HOUSE
 62
     7
 10
32.937967
 20
77.483461
 30
0.0
 40
0.375
 50
0.0
 51
90.0
  0
ARC
  8
HOUSE
 62
     7
 10
32.797342
 20
77.796129
 30
0.0
 40
0.015625
 50
0.0
 51
90.0
  0
LINE
  8
MOUSE-HID
 62
     7
 10
33.703967
 20
77.265754
 30
0.0
 11
33.703967
 21
77.218754
 31
0.0
  0
LINE
  8
CHAN
 62
     7
 10
33.640967
 20
77.796754
 30
0.0
 11
33.640967
 21
76.843754
 31
0.0
  0
LINE
  8
OBJECT
 62
     7
 10
32.875467
 20
77.858754
 30
0.0
 11
33.185959
 21
77.858754
 31
0.0
  0
LINE
  8
OBJECT
 62
     7
 10
32.975467
 20
77.858754
 30
0.0
 11
33.250467
 21
77.858754
 31
0.0
  0
LINE
  8
OBJECT
 62
     7
 10
32.975467
 20
77.858754
 30
0.0
 11
32.975467
 21
77.858754
 31
0.0
  0
LINE
  8
OBJECT
 62
     7
 10
32.890967
 20
77.858461
 30
0.0
 11
32.937967
 21
77.858461
 31
0.0
  0
LINE
  8
MOUSE-HID
 62
     7
 10
34.140967
 20
70.812754
 30
0.0
 11
34.140967
 21
70.765754
 31
0.0
  0
LINE
  8
MOUSE-HID
 62
     7
 10
34.140967
 20
77.265754
 30
0.0
 11
34.140967
 21
77.218754
 31
0.0
  0
DIMENSION
  8
DIM
 62
     7
  2
*D17
 10
29.260967
 20
91.763381
 30
0.0
 11
32.858467
 21
94.643381
 31
0.0
 13
32.169967
 23
91.529381
 33
0.0
 14
32.140967
 24
91.763381
 34
0.0
 50
90.0
  3
23NSTD
  0
LINE
  8
HOUSE
 62
     7
 10
32.859967
 20
91.716381
 30
0.0
 11
32.859967
 21
88.342381
 31
0.0
  0
LINE
  8
HOUSE
 62
     7
 10
32.140967
 20
91.763381
 30
0.0
 11
32.140967
 21
88.295381
 31
0.0
  0
LINE
  8
HOUSE-HID
 62
     7
 10
32.812967
 20
91.763381
 30
0.0
 11
32.812967
 21
88.295381
 31
0.0
  0
LINE
  8
SHELF
 62
     7
 10
33.312967
 20
90.702381
 30
0.0
 11
33.312967
 21
89.076381
 31
0.0
  0
INSERT
  8
OBJECT
 62
     7
  2
FR-SLIDE
 10
32.875467
 20
89.731881
 30
0.0
 50
180.0
  0
LINE
  8
SHELF
 62
     7
 10
33.265967
 20
90.702381
 30
0.0
 11
33.265967
 21
89.076381
 31
0.0
  0
LINE
  8
CENTER
 62
     7
 10
32.169967
 20
88.529381
 30
0.0
 11
32.799967
 21
88.529381
 31
0.0
  0
POLYLINE
  8
HOUSE
 62
     7
 66
     1
 10
0.0
 20
0.0
 30
0.0
 70
     1
  0
VERTEX
  8
HOUSE
 62
     7
 10
32.548967
 20
88.390381
 30
0.0
  0
VERTEX
  8
HOUSE
 62
     7
 10
32.420967
 20
88.390381
 30
0.0
 42
-1.0
  0
VERTEX
  8
HOUSE
 62
     7
 10
32.420967
 20
88.668381
 30
0.0
  0
VERTEX
  8
HOUSE
 62
     7
 10
32.548967
 20
88.668381
 30
0.0
 42
-1.0
  0
SEQEND
  8
HOUSE
 62
     7
  0
LINE
  8
CENTER
 62
     7
 10
32.484967
 20
88.214381
 30
0.0
 11
32.484967
 21
88.844381
 31
0.0
  0
LINE
  8
MOUSE-HID
 62
     7
 10
33.687967
 20
88.389381
 30
0.0
 11
33.640967
 21
88.389381
 31
0.0
  0
LINE
  8
MOUSE-HID
 62
     7
 10
33.703967
 20
88.389381
 30
0.0
 11
33.703967
 21
88.951381
 31
0.0
  0
LINE
  8
SHELF-HID
 62
     7
 10
33.328967
 20
89.264381
 30
0.0
 11
33.328967
 21
89.014381
 31
0.0
  0
LINE
  8
HOUSE
 62
     7
 10
33.312967
 20
88.342381
 30
0.0
 11
33.312967
 21
88.295381
 31
0.0
  0
ARC
  8
MOUSE-HID
 62
     7
 10
33.702967
 20
88.889381
 30
0.0
 40
0.015
 50
90.0
 51
180.0
  0
LINE
  8
MOUSE-HID
 62
     7
 10
33.687967
 20
88.389381
 30
0.0
 11
33.687967
 21
88.889381
 31
0.0
  0
LINE
  8
MOUSE-HID
 62
     7
 10
33.640967
 20
88.889381
 30
0.0
 11
33.640967
 21
88.389381
 31
0.0
  0
ARC
  8
MOUSE-HID
 62
     7
 10
33.702967
 20
88.889381
 30
0.0
 40
0.062
 50
90.0
 51
180.0
  0
LINE
  8
CHAN
 62
     7
 10
33.640967
 20
88.342381
 30
0.0
 11
33.640967
 21
89.014381
 31
0.0
  0
ARC
  8
SHELF-HID
 62
     7
 10
33.327967
 20
89.076381
 30
0.0
 40
0.062
 50
180.0
 51
270.0
  0
ARC
  8
SHELF-HID
 62
     7
 10
33.327967
 20
89.076381
 30
0.0
 40
0.015
 50
180.0
 51
270.0
  0
ARC
  8
SHELF
 62
     7
 10
33.453967
 20
89.264381
 30
0.0
 40
0.125
 50
90.0
 51
180.0
  0
LINE
  8
CENTER
 62
     7
 10
32.169967
 20
91.529381
 30
0.0
 11
32.799967
 21
91.529381
 31
0.0
  0
POLYLINE
  8
HOUSE
 62
     7
 66
     1
 10
0.0
 20
0.0
 30
0.0
 70
     1
  0
VERTEX
  8
HOUSE
 62
     7
 10
32.548967
 20
91.390381
 30
0.0
  0
VERTEX
  8
HOUSE
 62
     7
 10
32.420967
 20
91.390381
 30
0.0
 42
-1.0
  0
VERTEX
  8
HOUSE
 62
     7
 10
32.420967
 20
91.668381
 30
0.0
  0
VERTEX
  8
HOUSE
 62
     7
 10
32.548967
 20
91.668381
 30
0.0
 42
-1.0
  0
SEQEND
  8
HOUSE
 62
     7
  0
LINE
  8
SHELF
 62
     7
 10
32.937967
 20
90.717381
 30
0.0
 11
33.250967
 21
90.717381
 31
0.0
  0
LINE
  8
SHELF
 62
     7
 10
32.937967
 20
90.764381
 30
0.0
 11
33.250967
 21
90.764381
 31
0.0
  0
LINE
  8
CENTER
 62
     7
 10
32.484967
 20
91.214381
 30
0.0
 11
32.484967
 21
91.844381
 31
0.0
  0
LINE
  8
SHELF
 62
     7
 10
32.937967
 20
90.764381
 30
0.0
 11
32.937967
 21
90.717381
 31
0.0
  0
ARC
  8
SHELF
 62
     7
 10
33.250967
 20
90.702381
 30
0.0
 40
0.062
 50
0.0
 51
90.0
  0
ARC
  8
SHELF
 62
     7
 10
33.250967
 20
90.702381
 30
0.0
 40
0.015
 50
0.0
 51
90.0
  0
LINE
  8
HIDDEN
 62
     7
 10
32.975467
 20
98.560479
 30
0.0
 11
33.250467
 21
98.560479
 31
0.0
  0
ARC
  8
SHELF
 62
     7
 10
33.062967
 20
98.685479
 30
0.0
 40
0.125
 50
180.0
 51
270.0
  0
LINE
  8
SHELF
 62
     7
 10
33.328967
 20
98.560479
 30
0.0
 11
33.328967
 21
98.607479
 31
0.0
  0
DIMENSION
  8
DIM
 62
     7
  2
*D18
 10
25.764967
 20
106.560479
 30
0.0
 11
25.764967
 21
112.810479
 31
0.0
  1
<> REF.
 13
32.812967
 23
119.060479
 33
0.0
 14
32.140967
 24
106.560479
 34
0.0
 50
90.0
  3
23NSTD
  0
LINE
  8
HIDDEN
 62
     7
 10
32.875467
 20
106.560479
 30
0.0
 11
32.875467
 21
118.560479
 31
0.0
  0
LINE
  8
HIDDEN
 62
     7
 10
33.215467
 20
106.560479
 30
0.0
 11
33.215467
 21
118.560479
 31
0.0
  0
LINE
  8
HIDDEN
 62
     7
 10
32.937467
 20
106.560479
 30
0.0
 11
32.937467
 21
118.560479
 31
0.0
  0
LINE
  8
HOUSE-HID
 62
     7
 10
33.312967
 20
106.935772
 30
0.0
 11
33.312967
 21
118.529479
 31
0.0
  0
LINE
  8
HOUSE-HID
 62
     7
 10
32.859967
 20
119.060479
 30
0.0
 11
32.859967
 21
106.623104
 31
0.0
  0
LINE
  8
HOUSE
 62
     7
 10
32.812967
 20
106.623104
 30
0.0
 11
32.812967
 21
119.060479
 31
0.0
  0
LINE
  8
SHELF-HID
 62
     7
 10
33.312967
 20
106.513479
 30
0.0
 11
33.312967
 21
110.560479
 31
0.0
  0
LINE
  8
SHELF-HID
 62
     7
 10
32.937967
 20
106.513479
 30
0.0
 11
32.937967
 21
110.435479
 31
0.0
  0
LINE
  8
HOUSE
 62
     7
 10
32.140967
 20
106.607479
 30
0.0
 11
32.797342
 21
106.607479
 31
0.0
  0
LINE
  8
HOUSE
 62
     7
 10
32.140967
 20
106.560479
 30
0.0
 11
32.140967
 21
106.607479
 31
0.0
  0
LINE
  8
CHAN-HID
 62
     7
 10
33.640967
 20
105.231479
 30
0.0
 11
33.640967
 21
106.184479
 31
0.0
  0
LINE
  8
HIDDEN
 62
     7
 10
32.875467
 20
106.560479
 30
0.0
 11
33.215467
 21
106.560479
 31
0.0
  0
ARC
  8
HOUSE-HID
 62
     7
 10
32.937967
 20
106.935772
 30
0.0
 40
0.375
 50
270.0
 51
360.0
  0
LINE
  8
HOUSE-HID
 62
     7
 10
32.890967
 20
106.560772
 30
0.0
 11
32.937967
 21
106.560772
 31
0.0
  0
ARC
  8
HOUSE-HID
 62
     7
 10
32.797342
 20
106.623104
 30
0.0
 40
0.062625
 50
270.0
 51
0.0
  0
ARC
  8
HOUSE
 62
     7
 10
32.797342
 20
106.623104
 30
0.0
 40
0.015625
 50
270.0
 51
0.0
  0
LINE
  8
HIDDEN
 62
     7
 10
33.250467
 20
110.400479
 30
0.0
 11
32.975467
 21
110.400479
 31
0.0
  0
ARC
  8
SHELF-HID
 62
     7
 10
33.062967
 20
110.435479
 30
0.0
 40
0.125
 50
90.0
 51
180.0
  0
LINE
  8
SHELF-HID
 62
     7
 10
33.328967
 20
110.513479
 30
0.0
 11
33.328967
 21
110.560479
 31
0.0
  0
LINE
  8
HIDDEN
 10
32.875467
 20
118.560479
 30
0.0
 11
33.215467
 21
118.560479
 31
0.0
  0
LINE
  8
HOUSE-HID
 10
32.812967
 20
118.529479
 30
0.0
 11
33.312967
 21
118.529479
 31
0.0
  0
LINE
  8
HOUSE-HID
 10
32.890967
 20
119.060479
 30
0.0
 11
32.890967
 21
118.560479
 31
0.0
  0
LINE
  8
TITLE
 62
     7
 10
40.48
 20
61.752
 30
0.0
 11
40.48
 21
58.418667
 31
0.0
  0
LINE
  8
TITLE
 62
     7
 10
40.976
 20
61.752
 30
0.0
 11
40.976
 21
58.418667
 31
0.0
  0
LINE
  8
TITLE
 62
     7
 10
46.976
 20
61.752
 30
0.0
 11
46.976
 21
58.418667
 31
0.0
  0
TEXT
  8
TEXT
 62
     7
 10
63.616357
 20
24.544845
 30
0.0
 40
1.0
  1
%%USECTION "A-A"
 41
0.75
 72
     1
 11
68.003857
 21
24.544845
 31
0.0
  0
TEXT
  8
TEXT
 62
     7
 10
60.182894
 20
59.241955
 30
0.0
 40
1.25
  1
KS-1787
 41
0.75
 72
     1
 11
63.151644
 21
59.241955
 31
0.0
  0
POLYLINE
  8
HIDDEN
 62
     7
 66
     1
 10
0.0
 20
0.0
 30
0.0
  0
VERTEX
  8
HIDDEN
 62
     7
 10
65.246074
 20
28.219345
 30
0.0
  0
VERTEX
  8
HIDDEN
 62
     7
 10
65.566074
 20
28.286845
 30
0.0
  0
VERTEX
  8
HIDDEN
 62
     7
 10
66.016074
 20
28.286845
 30
0.0
  0
VERTEX
  8
HIDDEN
 62
     7
 10
66.016074
 20
28.124345
 30
0.0
  0
VERTEX
  8
HIDDEN
 62
     7
 10
66.416074
 20
28.124345
 30
0.0
  0
VERTEX
  8
HIDDEN
 62
     7
 10
66.416074
 20
28.286845
 30
0.0
  0
VERTEX
  8
HIDDEN
 62
     7
 10
68.996074
 20
28.286845
 30
0.0
  0
VERTEX
  8
HIDDEN
 62
     7
 10
68.996074
 20
27.676845
 30
0.0
  0
VERTEX
  8
HIDDEN
 62
     7
 10
66.416074
 20
27.676845
 30
0.0
  0
VERTEX
  8
HIDDEN
 62
     7
 10
66.416074
 20
27.839345
 30
0.0
  0
VERTEX
  8
HIDDEN
 62
     7
 10
66.016074
 20
27.839345
 30
0.0
  0
VERTEX
  8
HIDDEN
 62
     7
 10
66.016074
 20
27.676845
 30
0.0
  0
VERTEX
  8
HIDDEN
 62
     7
 10
65.566074
 20
27.676845
 30
0.0
  0
VERTEX
  8
HIDDEN
 62
     7
 10
65.246074
 20
27.744345
 30
0.0
  0
SEQEND
  8
HIDDEN
 62
     7
  0
POLYLINE
  8
HIDDEN
 62
     7
 66
     1
 10
0.0
 20
0.0
 30
0.0
 70
     1
  0
VERTEX
  8
HIDDEN
 62
     7
 10
69.961074
 20
27.699345
 30
0.0
  0
VERTEX
  8
HIDDEN
 62
     7
 10
69.961074
 20
28.264345
 30
0.0
  0
VERTEX
  8
HIDDEN
 62
     7
 10
69.711074
 20
28.264345
 30
0.0
  0
VERTEX
  8
HIDDEN
 62
     7
 10
69.711074
 20
28.294345
 30
0.0
  0
VERTEX
  8
HIDDEN
 62
     7
 10
69.961074
 20
28.294345
 30
0.0
  0
VERTEX
  8
HIDDEN
 62
     7
 10
69.961074
 20
28.356845
 30
0.0
 42
0.236205
  0
VERTEX
  8
HIDDEN
 62
     7
 10
69.775046
 20
28.481926
 30
0.0
  0
VERTEX
  8
HIDDEN
 62
     7
 10
58.121074
 20
28.481926
 30
0.0
  0
VERTEX
  8
HIDDEN
 62
     7
 10
58.121074
 20
27.481765
 30
0.0
  0
VERTEX
  8
HIDDEN
 62
     7
 10
69.775046
 20
27.481765
 30
0.0
 42
0.236205
  0
VERTEX
  8
HIDDEN
 62
     7
 10
69.961074
 20
27.606845
 30
0.0
  0
VERTEX
  8
HIDDEN
 62
     7
 10
69.961074
 20
27.669345
 30
0.0
  0
VERTEX
  8
HIDDEN
 62
     7
 10
69.711074
 20
27.669345
 30
0.0
  0
VERTEX
  8
HIDDEN
 62
     7
 10
69.711074
 20
27.699345
 30
0.0
  0
SEQEND
  8
HIDDEN
 62
     7
  0
DIMENSION
  8
DIM
 62
     7
  2
*D32
 10
59.439018
 20
33.682805
 30
0.0
 11
56.081518
 21
33.682805
 31
0.0
 13
52.724018
 23
36.094805
 33
0.0
 14
59.439018
 24
36.562805
 34
0.0
  3
23NSTDI
  0
POLYLINE
  8
OBJECT
 62
     7
 66
     1
 10
0.0
 20
0.0
 30
0.0
 70
     1
  0
VERTEX
  8
OBJECT
 62
     7
 10
65.386353
 20
26.939698
 30
0.0
  0
VERTEX
  8
OBJECT
 62
     7
 10
65.372195
 20
26.931066
 30
0.0
  0
VERTEX
  8
OBJECT
 62
     7
 10
65.372195
 20
26.908624
 30
0.0
  0
VERTEX
  8
OBJECT
 62
     7
 10
65.386353
 20
26.899993
 30
0.0
 42
-0.172267
  0
VERTEX
  8
OBJECT
 62
     7
 10
65.30787
 20
26.718662
 30
0.0
 42
-0.740612
  0
VERTEX
  8
OBJECT
 62
     7
 10
65.292074
 20
26.723477
 30
0.0
  0
VERTEX
  8
OBJECT
 62
     7
 10
65.292074
 20
27.116214
 30
0.0
 42
-0.740612
  0
VERTEX
  8
OBJECT
 62
     7
 10
65.30787
 20
27.121029
 30
0.0
 42
-0.172267
  0
SEQEND
  8
OBJECT
 62
     7
  0
POLYLINE
  8
CHAN
 62
     7
 66
     1
 10
0.0
 20
0.0
 30
0.0
 70
     1
  0
VERTEX
  8
CHAN
 62
     7
 10
64.792074
 20
26.638845
 30
0.0
  0
VERTEX
  8
CHAN
 62
     7
 10
65.230074
 20
26.638845
 30
0.0
 42
0.414214
  0
VERTEX
  8
CHAN
 62
     7
 10
65.245074
 20
26.653845
 30
0.0
  0
VERTEX
  8
CHAN
 62
     7
 10
65.245074
 20
27.201845
 30
0.0
 42
-0.414214
  0
VERTEX
  8
CHAN
 62
     7
 10
65.307074
 20
27.263845
 30
0.0
  0
VERTEX
  8
CHAN
 62
     7
 10
65.745074
 20
27.263845
 30
0.0
  0
VERTEX
  8
CHAN
 62
     7
 10
65.745074
 20
27.216845
 30
0.0
  0
VERTEX
  8
CHAN
 62
     7
 10
65.307074
 20
27.216845
 30
0.0
 42
0.414214
  0
VERTEX
  8
CHAN
 62
     7
 10
65.292074
 20
27.201845
 30
0.0
  0
VERTEX
  8
CHAN
 62
     7
 10
65.292074
 20
26.653845
 30
0.0
 42
-0.414214
  0
VERTEX
  8
CHAN
 62
     7
 10
65.230074
 20
26.591845
 30
0.0
  0
VERTEX
  8
CHAN
 62
     7
 10
64.792074
 20
26.591845
 30
0.0
  0
SEQEND
  8
CHAN
 62
     7
  0
LINE
  8
SHELF
 62
     7
 10
58.183074
 20
27.310845
 30
0.0
 11
70.059074
 21
27.310845
 31
0.0
  0
LINE
  8
SHELF
 62
     7
 10
58.121074
 20
27.263845
 30
0.0
 11
70.121074
 21
27.263845
 31
0.0
  0
LINE
  8
SHELF
 62
     7
 10
58.121074
 20
28.966845
 30
0.0
 11
70.121074
 21
28.966845
 31
0.0
  0
LINE
  8
SHELF
 62
     7
 10
58.121074
 20
29.013845
 30
0.0
 11
70.121074
 21
29.013845
 31
0.0
  0
LINE
  8
HOUSE
 62
     7
 10
52.349018
 20
3.889447
 30
0.0
 11
52.849018
 21
3.889447
 31
0.0
  0
ARC
  8
HOUSE
 62
     7
 10
52.864643
 20
15.795822
 30
0.0
 40
0.062625
 50
90.0
 51
180.0
  0
LINE
  8
HOUSE
 62
     7
 10
52.771018
 20
3.858447
 30
0.0
 11
52.771018
 21
3.358447
 31
0.0
  0
LINE
  8
HOUSE
 62
     7
 10
52.802018
 20
3.889447
 30
0.0
 11
52.802018
 21
3.358447
 31
0.0
  0
POLYLINE
  8
OBJECT
 62
     7
 66
     1
 10
0.0
 20
0.0
 30
0.0
 70
     1
  0
VERTEX
  8
OBJECT
 62
     7
 10
42.040871
 20
8.593168
 30
0.0
  0
VERTEX
  8
OBJECT
 62
     7
 10
42.032239
 20
8.607326
 30
0.0
  0
VERTEX
  8
OBJECT
 62
     7
 10
42.009797
 20
8.607326
 30
0.0
  0
VERTEX
  8
OBJECT
 62
     7
 10
42.001165
 20
8.593168
 30
0.0
 42
-0.172267
  0
VERTEX
  8
OBJECT
 62
     7
 10
41.819835
 20
8.671652
 30
0.0
 42
-0.740612
  0
VERTEX
  8
OBJECT
 62
     7
 10
41.82465
 20
8.687447
 30
0.0
  0
VERTEX
  8
OBJECT
 62
     7
 10
42.217387
 20
8.687447
 30
0.0
 42
-0.740612
  0
VERTEX
  8
OBJECT
 62
     7
 10
42.222201
 20
8.671652
 30
0.0
 42
-0.172267
  0
SEQEND
  8
OBJECT
 62
     7
  0
POLYLINE
  8
HIDDEN
 62
     7
 66
     1
 10
0.0
 20
0.0
 30
0.0
  0
VERTEX
  8
HIDDEN
 62
     7
 10
41.939018
 20
8.187447
 30
0.0
  0
VERTEX
  8
HIDDEN
 62
     7
 10
41.939018
 20
8.463184
 30
0.0
  0
VERTEX
  8
HIDDEN
 62
     7
 10
41.965616
 20
8.562447
 30
0.0
  0
VERTEX
  8
HIDDEN
 62
     7
 10
42.076421
 20
8.562447
 30
0.0
  0
VERTEX
  8
HIDDEN
 62
     7
 10
42.103018
 20
8.463184
 30
0.0
  0
VERTEX
  8
HIDDEN
 62
     7
 10
42.103018
 20
8.187447
 30
0.0
  0
SEQEND
  8
HIDDEN
 62
     7
  0
POLYLINE
  8
HIDDEN
 62
     7
 66
     1
 10
0.0
 20
0.0
 30
0.0
  0
VERTEX
  8
HIDDEN
 62
     7
 10
41.939018
 20
15.343447
 30
0.0
  0
VERTEX
  8
HIDDEN
 62
     7
 10
41.939018
 20
15.06771
 30
0.0
  0
VERTEX
  8
HIDDEN
 62
     7
 10
41.965616
 20
14.968447
 30
0.0
  0
VERTEX
  8
HIDDEN
 62
     7
 10
42.076421
 20
14.968447
 30
0.0
  0
VERTEX
  8
HIDDEN
 62
     7
 10
42.103018
 20
15.06771
 30
0.0
  0
VERTEX
  8
HIDDEN
 62
     7
 10
42.103018
 20
15.343447
 30
0.0
  0
SEQEND
  8
HIDDEN
 62
     7
  0
POLYLINE
  8
OBJECT
 62
     7
 66
     1
 10
0.0
 20
0.0
 30
0.0
 70
     1
  0
VERTEX
  8
OBJECT
 62
     7
 10
42.040871
 20
15.437726
 30
0.0
  0
VERTEX
  8
OBJECT
 62
     7
 10
42.032239
 20
15.423568
 30
0.0
  0
VERTEX
  8
OBJECT
 62
     7
 10
42.009797
 20
15.423568
 30
0.0
  0
VERTEX
  8
OBJECT
 62
     7
 10
42.001165
 20
15.437726
 30
0.0
 42
0.172267
  0
VERTEX
  8
OBJECT
 62
     7
 10
41.819835
 20
15.359243
 30
0.0
 42
0.740612
  0
VERTEX
  8
OBJECT
 62
     7
 10
41.82465
 20
15.343447
 30
0.0
  0
VERTEX
  8
OBJECT
 62
     7
 10
42.217387
 20
15.343447
 30
0.0
 42
0.740612
  0
VERTEX
  8
OBJECT
 62
     7
 10
42.222201
 20
15.359243
 30
0.0
 42
0.172267
  0
SEQEND
  8
OBJECT
 62
     7
  0
LINE
  8
HIDDEN
 62
     7
 10
52.724518
 20
15.858447
 30
0.0
 11
52.724518
 21
3.858447
 31
0.0
  0
LINE
  8
HIDDEN
 62
     7
 10
52.686518
 20
15.858447
 30
0.0
 11
52.686518
 21
4.018447
 31
0.0
  0
LINE
  8
HIDDEN
 62
     7
 10
52.476026
 20
15.764447
 30
0.0
 11
52.476026
 21
3.858447
 31
0.0
  0
LINE
  8
HIDDEN
 62
     7
 10
52.786518
 20
15.858447
 30
0.0
 11
52.786518
 21
3.858447
 31
0.0
  0
LINE
  8
HIDDEN
 62
     7
 10
52.411518
 20
15.690444
 30
0.0
 11
52.411518
 21
4.018447
 31
0.0
  0
LINE
  8
MOUSE
 62
     7
 10
51.021018
 20
15.265447
 30
0.0
 11
51.021018
 21
8.765447
 31
0.0
  0
LINE
  8
MOUSE
 62
     7
 10
50.974018
 20
15.265447
 30
0.0
 11
50.974018
 21
8.765447
 31
0.0
  0
LINE
  8
SHELF-HID
 62
     7
 10
52.349018
 20
15.483155
 30
0.0
 11
52.349018
 21
3.858447
 31
0.0
  0
LINE
  8
SHELF-HID
 62
     7
 10
52.396018
 20
15.858447
 30
0.0
 11
52.396018
 21
3.858447
 31
0.0
  0
LINE
  8
SHELF-HID
 62
     7
 10
52.724018
 20
15.733447
 30
0.0
 11
52.724018
 21
3.983447
 31
0.0
  0
LINE
  8
HOUSE
 62
     7
 10
52.349018
 20
15.483155
 30
0.0
 11
52.349018
 21
3.889447
 31
0.0
  0
LINE
  8
HOUSE-HID
 62
     7
 10
52.802018
 20
3.889447
 30
0.0
 11
52.802018
 21
15.795822
 31
0.0
  0
LINE
  8
CHAN
 62
     7
 10
51.021018
 20
9.187447
 30
0.0
 11
51.021018
 21
8.234447
 31
0.0
  0
LINE
  8
HIDDEN
 62
     7
 10
52.411518
 20
4.018447
 30
0.0
 11
52.686518
 21
4.018447
 31
0.0
  0
LINE
  8
HIDDEN
 62
     7
 10
52.786518
 20
3.858447
 30
0.0
 11
52.476026
 21
3.858447
 31
0.0
  0
ARC
  8
SHELF-HID
 62
     7
 10
52.599018
 20
3.983447
 30
0.0
 40
0.125
 50
270.0
 51
0.0
  0
LINE
  8
SHELF-HID
 62
     7
 10
52.333018
 20
3.905447
 30
0.0
 11
52.333018
 21
3.858447
 31
0.0
  0
LINE
  8
MOUSE-HID
 62
     7
 10
50.958018
 20
8.812447
 30
0.0
 11
50.958018
 21
8.765447
 31
0.0
  0
LINE
  8
MOUSE-HID
 62
     7
 10
50.521018
 20
8.812447
 30
0.0
 11
50.521018
 21
8.765447
 31
0.0
  0
LINE
  8
CHAN
 62
     7
 10
51.021018
 20
15.796447
 30
0.0
 11
51.021018
 21
14.843447
 31
0.0
  0
LINE
  8
MOUSE-HID
 62
     7
 10
50.958018
 20
15.265447
 30
0.0
 11
50.958018
 21
15.218447
 31
0.0
  0
LINE
  8
MOUSE-HID
 62
     7
 10
50.521018
 20
15.265447
 30
0.0
 11
50.521018
 21
15.218447
 31
0.0
  0
LINE
  8
OBJECT
 62
     7
 10
52.411518
 20
15.690444
 30
0.0
 11
52.411518
 21
15.858447
 31
0.0
  0
LINE
  8
SHELF
 62
     7
 10
52.349018
 20
15.483155
 30
0.0
 11
52.349018
 21
15.858447
 31
0.0
  0
ARC
  8
SHELF
 62
     7
 10
52.599018
 20
15.733447
 30
0.0
 40
0.125
 50
0.0
 51
90.0
  0
ARC
  8
HOUSE
 62
     7
 10
52.724018
 20
15.483155
 30
0.0
 40
0.375
 50
90.0
 51
180.0
  0
LINE
  8
OBJECT
 62
     7
 10
52.476026
 20
15.764447
 30
0.0
 11
52.476026
 21
15.858447
 31
0.0
  0
LINE
  8
OBJECT
 62
     7
 10
52.686518
 20
15.858447
 30
0.0
 11
52.686518
 21
15.858447
 31
0.0
  0
LINE
  8
OBJECT
 62
     7
 10
52.686518
 20
15.858447
 30
0.0
 11
52.411518
 21
15.858447
 31
0.0
  0
LINE
  8
OBJECT
 62
     7
 10
52.786518
 20
15.858447
 30
0.0
 11
52.476026
 21
15.858447
 31
0.0
  0
LINE
  8
SHELF-HID
 62
     7
 10
52.333018
 20
15.858447
 30
0.0
 11
52.333018
 21
15.811447
 31
0.0
  0
LINE
  8
OBJECT
 62
     7
 10
52.771018
 20
15.858155
 30
0.0
 11
52.724018
 21
15.858155
 31
0.0
  0
LINE
  8
HOUSE
 62
     7
 10
52.849018
 20
15.795822
 30
0.0
 11
52.849018
 21
3.358447
 31
0.0
  0
LINE
  8
HOUSE
 62
     7
 10
53.521018
 20
15.858447
 30
0.0
 11
53.521018
 21
15.811447
 31
0.0
  0
ARC
  8
HOUSE
 62
     7
 10
52.864643
 20
15.795822
 30
0.0
 40
0.015625
 50
90.0
 51
180.0
  0
LINE
  8
HOUSE
 62
     7
 10
53.521018
 20
15.811447
 30
0.0
 11
52.864643
 21
15.811447
 31
0.0
  0
LINE
  8
MOUSE
 62
     7
 10
52.724018
 20
43.062805
 30
0.0
 11
59.439018
 21
43.062805
 31
0.0
  0
LINE
  8
MOUSE
 62
     7
 10
52.724018
 20
36.562805
 30
0.0
 11
59.439018
 21
36.562805
 31
0.0
  0
LINE
  8
MOUSE-HID
 62
     7
 10
59.376018
 20
36.609805
 30
0.0
 11
41.502018
 21
36.609805
 31
0.0
  0
LINE
  8
MOUSE-HID
 62
     7
 10
59.376018
 20
43.015805
 30
0.0
 11
41.502018
 21
43.015805
 31
0.0
  0
LINE
  8
HOUSE-HID
 62
     7
 10
52.849018
 20
55.938805
 30
0.0
 11
52.349018
 21
55.938805
 31
0.0
  0
ARC
  8
HOUSE-HID
 62
     7
 10
52.864643
 20
44.03243
 30
0.0
 40
0.062625
 50
180.0
 51
270.0
  0
INSERT
  8
OBJECT
 62
     7
  2
FR-SLIDE
 10
52.786518
 20
27.981345
 30
0.0
  0
LINE
  8
HIDDEN
 62
     7
 10
52.686518
 20
35.969805
 30
0.0
 11
52.686518
 21
47.809805
 31
0.0
  0
LINE
  8
HIDDEN
 62
     7
 10
52.411518
 20
35.969805
 30
0.0
 11
52.411518
 21
47.809805
 31
0.0
  0
LINE
  8
SHELF
 62
     7
 10
52.349018
 20
43.922805
 30
0.0
 11
52.349018
 21
35.969805
 31
0.0
  0
LINE
  8
SHELF
 62
     7
 10
52.724018
 20
43.922805
 30
0.0
 11
52.724018
 21
36.094805
 31
0.0
  0
LINE
  8
MOUSE-HID
 62
     7
 10
41.486018
 20
36.562805
 30
0.0
 11
41.486018
 21
43.062805
 31
0.0
  0
LINE
  8
MOUSE-HID
 62
     7
 10
41.439018
 20
36.562805
 30
0.0
 11
41.439018
 21
43.062805
 31
0.0
  0
LINE
  8
SHELF-HID
 62
     7
 10
52.396018
 20
35.969805
 30
0.0
 11
52.396018
 21
47.969805
 31
0.0
  0
LINE
  8
MOUSE-HID
 62
     7
 10
52.724018
 20
36.562805
 30
0.0
 11
41.439018
 21
36.562805
 31
0.0
  0
LINE
  8
OBJECT
 62
     7
 10
42.208353
 20
26.939698
 30
0.0
 11
41.833683
 21
26.939698
 31
0.0
  0
LINE
  8
OBJECT
 62
     7
 10
42.208353
 20
26.899993
 30
0.0
 11
41.833683
 21
26.899993
 31
0.0
  0
CIRCLE
  8
OBJECT
 62
     7
 10
42.021018
 20
26.919845
 30
0.0
 40
0.188384
  0
CIRCLE
  8
CHAN-HID
 62
     7
 10
42.021018
 20
26.919845
 30
0.0
 40
0.068
  0
LINE
  8
CENTER
 62
     7
 10
42.021018
 20
27.044845
 30
0.0
 11
42.021018
 21
26.794845
 31
0.0
  0
SOLID
  8
BEND
 62
     7
 10
45.874406
 20
25.532659
 30
0.0
 11
45.874406
 21
26.012658
 31
0.0
 12
44.434409
 22
25.772659
 32
0.0
 13
44.434409
 23
25.772659
 33
0.0
  0
TEXT
  8
TEXT
 62
     7
 10
43.452882
 20
25.36975
 30
0.0
 40
1.0
  1
A
 41
0.75
 72
     4
 11
43.702882
 21
25.86975
 31
0.0
  0
SOLID
  8
BEND
 62
     7
 10
45.874406
 20
30.78218
 30
0.0
 11
45.874406
 21
31.262179
 31
0.0
 12
44.434409
 22
31.022179
 32
0.0
 13
44.434409
 23
31.022179
 33
0.0
  0
TEXT
  8
TEXT
 62
     7
 10
43.452882
 20
30.619271
 30
0.0
 40
1.0
  1
A
 41
0.75
 72
     4
 11
43.702882
 21
31.119271
 31
0.0
  0
LINE
  8
MOUSE-HID
 62
     7
 10
41.502018
 20
36.562805
 30
0.0
 11
41.502018
 21
36.609805
 31
0.0
  0
LINE
  8
MOUSE-HID
 62
     7
 10
41.939018
 20
36.562805
 30
0.0
 11
41.939018
 21
36.609805
 31
0.0
  0
POLYLINE
  8
HIDDEN
 62
     7
 66
     1
 10
0.0
 20
0.0
 30
0.0
 70
     1
  0
VERTEX
  8
HIDDEN
 62
     7
 10
42.040871
 20
36.437526
 30
0.0
  0
VERTEX
  8
HIDDEN
 62
     7
 10
42.032239
 20
36.451684
 30
0.0
  0
VERTEX
  8
HIDDEN
 62
     7
 10
42.009797
 20
36.451684
 30
0.0
  0
VERTEX
  8
HIDDEN
 62
     7
 10
42.001165
 20
36.437526
 30
0.0
 42
-0.172267
  0
VERTEX
  8
HIDDEN
 62
     7
 10
41.819835
 20
36.516009
 30
0.0
 42
-0.740612
  0
VERTEX
  8
HIDDEN
 62
     7
 10
41.82465
 20
36.531805
 30
0.0
  0
VERTEX
  8
HIDDEN
 62
     7
 10
42.217387
 20
36.531805
 30
0.0
 42
-0.740612
  0
VERTEX
  8
HIDDEN
 62
     7
 10
42.222201
 20
36.516009
 30
0.0
 42
-0.172267
  0
SEQEND
  8
HIDDEN
 62
     7
  0
POLYLINE
  8
HIDDEN
 62
     7
 66
     1
 10
0.0
 20
0.0
 30
0.0
  0
VERTEX
  8
HIDDEN
 62
     7
 10
41.939018
 20
36.531805
 30
0.0
  0
VERTEX
  8
HIDDEN
 62
     7
 10
41.939018
 20
36.807542
 30
0.0
  0
VERTEX
  8
HIDDEN
 62
     7
 10
41.965616
 20
36.906805
 30
0.0
  0
VERTEX
  8
HIDDEN
 62
     7
 10
42.076421
 20
36.906805
 30
0.0
  0
VERTEX
  8
HIDDEN
 62
     7
 10
42.103018
 20
36.807542
 30
0.0
  0
VERTEX
  8
HIDDEN
 62
     7
 10
42.103018
 20
36.531805
 30
0.0
  0
SEQEND
  8
HIDDEN
 62
     7
  0
LINE
  8
HOUSE
 62
     7
 10
52.802018
 20
26.591845
 30
0.0
 11
52.802018
 21
29.965845
 31
0.0
  0
LINE
  8
SHELF
 62
     7
 10
52.349018
 20
28.951845
 30
0.0
 11
52.349018
 21
27.325845
 31
0.0
  0
LINE
  8
SHELF
 62
     7
 10
52.396018
 20
28.951845
 30
0.0
 11
52.396018
 21
27.325845
 31
0.0
  0
LINE
  8
MOUSE-HID
 62
     7
 10
50.958018
 20
27.200845
 30
0.0
 11
50.958018
 21
26.638845
 31
0.0
  0
LINE
  8
MOUSE-HID
 62
     7
 10
50.974018
 20
27.138845
 30
0.0
 11
50.974018
 21
26.638845
 31
0.0
  0
ARC
  8
MOUSE-HID
 62
     7
 10
50.959018
 20
27.138845
 30
0.0
 40
0.015
 50
360.0
 51
90.0
  0
ARC
  8
MOUSE-HID
 62
     7
 10
50.959018
 20
27.138845
 30
0.0
 40
0.062
 50
0.0
 51
90.0
  0
LINE
  8
MOUSE-HID
 62
     7
 10
51.021018
 20
26.638845
 30
0.0
 11
51.021018
 21
27.138845
 31
0.0
  0
LINE
  8
MOUSE-HID
 62
     7
 10
51.021018
 20
26.638845
 30
0.0
 11
50.974018
 21
26.638845
 31
0.0
  0
LINE
  8
CHAN
 62
     7
 10
51.021018
 20
26.591845
 30
0.0
 11
51.021018
 21
27.263845
 31
0.0
  0
LINE
  8
SHELF-HID
 62
     7
 10
52.333018
 20
27.513845
 30
0.0
 11
52.333018
 21
27.263845
 31
0.0
  0
LINE
  8
HOUSE
 62
     7
 10
52.349018
 20
26.591845
 30
0.0
 11
52.349018
 21
26.544845
 31
0.0
  0
ARC
  8
SHELF
 62
     7
 10
52.334018
 20
27.325845
 30
0.0
 40
0.015
 50
270.0
 51
0.0
  0
ARC
  8
SHELF
 62
     7
 10
52.208018
 20
27.513845
 30
0.0
 40
0.125
 50
0.0
 51
90.0
  0
ARC
  8
SHELF
 62
     7
 10
52.334018
 20
27.325845
 30
0.0
 40
0.062
 50
270.0
 51
0.0
  0
ARC
  8
SHELF
 62
     7
 10
52.411018
 20
28.951845
 30
0.0
 40
0.015
 50
90.0
 51
180.0
  0
ARC
  8
SHELF
 62
     7
 10
52.411018
 20
28.951845
 30
0.0
 40
0.062
 50
90.0
 51
180.0
  0
LINE
  8
SHELF
 62
     7
 10
52.724018
 20
29.013845
 30
0.0
 11
52.724018
 21
28.966845
 31
0.0
  0
LINE
  8
SHELF
 62
     7
 10
52.724018
 20
28.966845
 30
0.0
 11
52.411018
 21
28.966845
 31
0.0
  0
LINE
  8
SHELF
 62
     7
 10
52.724018
 20
29.013845
 30
0.0
 11
52.411018
 21
29.013845
 31
0.0
  0
LINE
  8
CHAN-HID
 62
     7
 10
51.021018
 20
36.031805
 30
0.0
 11
51.021018
 21
36.984805
 31
0.0
  0
LINE
  8
HIDDEN
 62
     7
 10
52.686518
 20
35.969805
 30
0.0
 11
52.411518
 21
35.969805
 31
0.0
  0
LINE
  8
SHELF
 62
     7
 10
52.333018
 20
35.969805
 30
0.0
 11
52.333018
 21
36.016805
 31
0.0
  0
ARC
  8
SHELF
 62
     7
 10
52.599018
 20
36.094805
 30
0.0
 40
0.125
 50
270.0
 51
0.0
  0
LINE
  8
MOUSE-HID
 62
     7
 10
52.724018
 20
43.062805
 30
0.0
 11
41.439018
 21
43.062805
 31
0.0
  0
LINE
  8
MOUSE-HID
 62
     7
 10
41.502018
 20
43.015805
 30
0.0
 11
41.502018
 21
43.062805
 31
0.0
  0
LINE
  8
MOUSE-HID
 62
     7
 10
41.939018
 20
43.015805
 30
0.0
 11
41.939018
 21
43.062805
 31
0.0
  0
POLYLINE
  8
HIDDEN
 62
     7
 66
     1
 10
0.0
 20
0.0
 30
0.0
  0
VERTEX
  8
HIDDEN
 62
     7
 10
41.939018
 20
43.687805
 30
0.0
  0
VERTEX
  8
HIDDEN
 62
     7
 10
41.939018
 20
43.412068
 30
0.0
  0
VERTEX
  8
HIDDEN
 62
     7
 10
41.965616
 20
43.312805
 30
0.0
  0
VERTEX
  8
HIDDEN
 62
     7
 10
42.076421
 20
43.312805
 30
0.0
  0
VERTEX
  8
HIDDEN
 62
     7
 10
42.103018
 20
43.412068
 30
0.0
  0
VERTEX
  8
HIDDEN
 62
     7
 10
42.103018
 20
43.687805
 30
0.0
  0
SEQEND
  8
HIDDEN
 62
     7
  0
POLYLINE
  8
HIDDEN
 62
     7
 66
     1
 10
0.0
 20
0.0
 30
0.0
 70
     1
  0
VERTEX
  8
HIDDEN
 62
     7
 10
42.040871
 20
43.782084
 30
0.0
  0
VERTEX
  8
HIDDEN
 62
     7
 10
42.032239
 20
43.767926
 30
0.0
  0
VERTEX
  8
HIDDEN
 62
     7
 10
42.009797
 20
43.767926
 30
0.0
  0
VERTEX
  8
HIDDEN
 62
     7
 10
42.001165
 20
43.782084
 30
0.0
 42
0.172267
  0
VERTEX
  8
HIDDEN
 62
     7
 10
41.819835
 20
43.7036
 30
0.0
 42
0.740612
  0
VERTEX
  8
HIDDEN
 62
     7
 10
41.82465
 20
43.687805
 30
0.0
  0
VERTEX
  8
HIDDEN
 62
     7
 10
42.217387
 20
43.687805
 30
0.0
 42
0.740612
  0
VERTEX
  8
HIDDEN
 62
     7
 10
42.222201
 20
43.7036
 30
0.0
 42
0.172267
  0
SEQEND
  8
HIDDEN
 62
     7
  0
LINE
  8
HIDDEN
 62
     7
 10
52.786518
 20
43.969805
 30
0.0
 11
52.786518
 21
55.969805
 31
0.0
  0
LINE
  8
HIDDEN
 62
     7
 10
52.446518
 20
43.969805
 30
0.0
 11
52.446518
 21
55.969805
 31
0.0
  0
LINE
  8
HIDDEN
 62
     7
 10
52.724518
 20
43.969805
 30
0.0
 11
52.724518
 21
55.969805
 31
0.0
  0
LINE
  8
HOUSE-HID
 62
     7
 10
52.349018
 20
44.345097
 30
0.0
 11
52.349018
 21
55.938805
 31
0.0
  0
LINE
  8
HOUSE-HID
 62
     7
 10
52.802018
 20
56.469805
 30
0.0
 11
52.802018
 21
44.03243
 31
0.0
  0
LINE
  8
SHELF-HID
 62
     7
 10
52.724018
 20
43.922805
 30
0.0
 11
52.724018
 21
47.844805
 31
0.0
  0
LINE
  8
SHELF-HID
 62
     7
 10
52.349018
 20
43.922805
 30
0.0
 11
52.349018
 21
47.969805
 31
0.0
  0
LINE
  8
CHAN-HID
 62
     7
 10
51.021018
 20
42.640805
 30
0.0
 11
51.021018
 21
43.593805
 31
0.0
  0
LINE
  8
HIDDEN
 62
     7
 10
52.786518
 20
43.969805
 30
0.0
 11
52.446518
 21
43.969805
 31
0.0
  0
LINE
  8
HOUSE-HID
 62
     7
 10
52.771018
 20
43.970097
 30
0.0
 11
52.724018
 21
43.970097
 31
0.0
  0
ARC
  8
HOUSE-HID
 62
     7
 10
52.724018
 20
44.345097
 30
0.0
 40
0.375
 50
180.0
 51
270.0
  0
LINE
  8
HIDDEN
 62
     7
 10
52.411518
 20
47.809805
 30
0.0
 11
52.686518
 21
47.809805
 31
0.0
  0
ARC
  8
SHELF-HID
 62
     7
 10
52.599018
 20
47.844805
 30
0.0
 40
0.125
 50
0.0
 51
90.0
  0
LINE
  8
SHELF
 62
     7
 10
52.333018
 20
47.922805
 30
0.0
 11
52.333018
 21
47.969805
 31
0.0
  0
LINE
  8
HOUSE-HID
 62
     7
 10
52.771018
 20
56.469805
 30
0.0
 11
52.771018
 21
55.969805
 31
0.0
  0
LINE
  8
HIDDEN
 62
     7
 10
52.786518
 20
55.969805
 30
0.0
 11
52.446518
 21
55.969805
 31
0.0
  0
LINE
  8
MOUSE-HID
 62
     7
 10
59.392018
 20
36.562805
 30
0.0
 11
59.392018
 21
43.062805
 31
0.0
  0
LINE
  8
MOUSE
 62
     7
 10
59.439018
 20
36.562805
 30
0.0
 11
59.439018
 21
43.062805
 31
0.0
  0
ARC
  8
HIDDEN
 62
     7
 10
59.121074
 20
27.966845
 30
0.0
 40
0.09
 50
180.0
 51
360.0
  0
ARC
  8
HIDDEN
 62
     7
 10
59.121074
 20
27.996845
 30
0.0
 40
0.09
 50
0.0
 51
180.0
  0
LINE
  8
MOUSE
 62
     7
 10
65.214074
 20
26.638845
 30
0.0
 11
58.714074
 21
26.638845
 31
0.0
  0
LINE
  8
MOUSE
 62
     7
 10
58.776074
 20
27.153845
 30
0.0
 11
65.152074
 21
27.153845
 31
0.0
  0
LINE
  8
MOUSE
 62
     7
 10
65.214074
 20
27.200845
 30
0.0
 11
58.714074
 21
27.200845
 31
0.0
  0
CIRCLE
  8
SHELF
 62
     7
 10
59.121074
 20
27.981845
 30
0.0
 40
0.082
  0
POLYLINE
  8
CHAN
 62
     7
 66
     1
 10
0.0
 20
0.0
 30
0.0
 70
     1
  0
VERTEX
  8
CHAN
 62
     7
 10
58.183074
 20
27.216845
 30
0.0
  0
VERTEX
  8
CHAN
 62
     7
 10
58.621074
 20
27.216845
 30
0.0
 42
-0.414214
  0
VERTEX
  8
CHAN
 62
     7
 10
58.636074
 20
27.201845
 30
0.0
  0
VERTEX
  8
CHAN
 62
     7
 10
58.636074
 20
26.653845
 30
0.0
 42
0.414214
  0
VERTEX
  8
CHAN
 62
     7
 10
58.698074
 20
26.591845
 30
0.0
  0
VERTEX
  8
CHAN
 62
     7
 10
59.136074
 20
26.591845
 30
0.0
  0
VERTEX
  8
CHAN
 62
     7
 10
59.136074
 20
26.638845
 30
0.0
  0
VERTEX
  8
CHAN
 62
     7
 10
58.698074
 20
26.638845
 30
0.0
 42
-0.414214
  0
VERTEX
  8
CHAN
 62
     7
 10
58.683074
 20
26.653845
 30
0.0
  0
VERTEX
  8
CHAN
 62
     7
 10
58.683074
 20
27.201845
 30
0.0
 42
0.414214
  0
VERTEX
  8
CHAN
 62
     7
 10
58.621074
 20
27.263845
 30
0.0
  0
VERTEX
  8
CHAN
 62
     7
 10
58.183074
 20
27.263845
 30
0.0
  0
SEQEND
  8
CHAN
 62
     7
  0
LINE
  8
HOUSE
 62
     7
 10
53.521018
 20
26.544845
 30
0.0
 11
53.521018
 21
30.012845
 31
0.0
  0
LINE
  8
HOUSE-HID
 62
     7
 10
52.849018
 20
26.544845
 30
0.0
 11
52.849018
 21
30.012845
 31
0.0
  0
LINE
  8
CENTER
 62
     7
 10
53.177018
 20
26.463845
 30
0.0
 11
53.177018
 21
27.093845
 31
0.0
  0
LINE
  8
CENTER
 62
     7
 10
53.492018
 20
26.778845
 30
0.0
 11
52.862018
 21
26.778845
 31
0.0
  0
POLYLINE
  8
HOUSE
 62
     7
 66
     1
 10
0.0
 20
0.0
 30
0.0
 70
     1
  0
VERTEX
  8
HOUSE
 62
     7
 10
53.241018
 20
26.639845
 30
0.0
  0
VERTEX
  8
HOUSE
 62
     7
 10
53.113018
 20
26.639845
 30
0.0
 42
-1.0
  0
VERTEX
  8
HOUSE
 62
     7
 10
53.113018
 20
26.917845
 30
0.0
  0
VERTEX
  8
HOUSE
 62
     7
 10
53.241018
 20
26.917845
 30
0.0
 42
-1.0
  0
SEQEND
  8
HOUSE
 62
     7
  0
LINE
  8
CENTER
 62
     7
 10
53.177018
 20
29.463845
 30
0.0
 11
53.177018
 21
30.093845
 31
0.0
  0
LINE
  8
CENTER
 62
     7
 10
53.492018
 20
29.778845
 30
0.0
 11
52.862018
 21
29.778845
 31
0.0
  0
POLYLINE
  8
HOUSE
 62
     7
 66
     1
 10
0.0
 20
0.0
 30
0.0
 70
     1
  0
VERTEX
  8
HOUSE
 62
     7
 10
53.241018
 20
29.639845
 30
0.0
  0
VERTEX
  8
HOUSE
 62
     7
 10
53.113018
 20
29.639845
 30
0.0
 42
-1.0
  0
VERTEX
  8
HOUSE
 62
     7
 10
53.113018
 20
29.917845
 30
0.0
  0
VERTEX
  8
HOUSE
 62
     7
 10
53.241018
 20
29.917845
 30
0.0
 42
-1.0
  0
SEQEND
  8
HOUSE
 62
     7
  0
LINE
  8
SHELF
 62
     7
 10
58.121074
 20
29.013845
 30
0.0
 11
58.121074
 21
27.263845
 31
0.0
  0
ARC
  8
SHELF
 62
     7
 10
58.183074
 20
27.325845
 30
0.0
 40
0.062
 50
180.0
 51
270.0
  0
ARC
  8
SHELF
 62
     7
 10
58.183074
 20
27.325845
 30
0.0
 40
0.015
 50
180.0
 51
270.0
  0
LINE
  8
SHELF
 62
     7
 10
58.168074
 20
27.638845
 30
0.0
 11
58.168074
 21
27.325845
 31
0.0
  0
LINE
  8
SHELF
 62
     7
 10
58.121074
 20
27.638845
 30
0.0
 11
58.168074
 21
27.638845
 31
0.0
  0
ARC
  8
MOUSE-HID
 62
     7
 10
58.776074
 20
27.138845
 30
0.0
 40
0.015
 50
90.0
 51
180.0
  0
LINE
  8
MOUSE
 62
     7
 10
58.761074
 20
26.638845
 30
0.0
 11
58.761074
 21
27.138845
 31
0.0
  0
LINE
  8
MOUSE
 62
     7
 10
58.714074
 20
27.200845
 30
0.0
 11
58.714074
 21
26.638845
 31
0.0
  0
ARC
  8
MOUSE-HID
 62
     7
 10
58.776074
 20
27.138845
 30
0.0
 40
0.062
 50
90.0
 51
180.0
  0
LINE
  8
MOUSE-HID
 62
     7
 10
58.714074
 20
26.794845
 30
0.0
 11
58.761074
 21
26.794845
 31
0.0
  0
LINE
  8
MOUSE-HID
 62
     7
 10
58.714074
 20
27.044845
 30
0.0
 11
58.761074
 21
27.044845
 31
0.0
  0
POLYLINE
  8
OBJECT
 62
     7
 66
     1
 10
0.0
 20
0.0
 30
0.0
 70
     1
  0
VERTEX
  8
OBJECT
 62
     7
 10
58.541795
 20
26.939698
 30
0.0
  0
VERTEX
  8
OBJECT
 62
     7
 10
58.555953
 20
26.931066
 30
0.0
  0
VERTEX
  8
OBJECT
 62
     7
 10
58.555953
 20
26.908624
 30
0.0
  0
VERTEX
  8
OBJECT
 62
     7
 10
58.541795
 20
26.899993
 30
0.0
 42
0.172267
  0
VERTEX
  8
OBJECT
 62
     7
 10
58.620278
 20
26.718662
 30
0.0
 42
0.740612
  0
VERTEX
  8
OBJECT
 62
     7
 10
58.636074
 20
26.723477
 30
0.0
  0
VERTEX
  8
OBJECT
 62
     7
 10
58.636074
 20
27.116214
 30
0.0
 42
0.740612
  0
VERTEX
  8
OBJECT
 62
     7
 10
58.620278
 20
27.121029
 30
0.0
 42
0.172267
  0
SEQEND
  8
OBJECT
 62
     7
  0
POLYLINE
  8
OBJECT
 62
     7
 66
     1
 10
0.0
 20
0.0
 30
0.0
  0
VERTEX
  8
OBJECT
 62
     7
 10
58.636074
 20
26.837845
 30
0.0
  0
VERTEX
  8
OBJECT
 62
     7
 10
58.911811
 20
26.837845
 30
0.0
  0
VERTEX
  8
OBJECT
 62
     7
 10
59.011074
 20
26.864443
 30
0.0
  0
VERTEX
  8
OBJECT
 62
     7
 10
59.011074
 20
26.975248
 30
0.0
  0
VERTEX
  8
OBJECT
 62
     7
 10
58.911811
 20
27.001845
 30
0.0
  0
VERTEX
  8
OBJECT
 62
     7
 10
58.636074
 20
27.001845
 30
0.0
  0
SEQEND
  8
OBJECT
 62
     7
  0
LINE
  8
HIDDEN
 62
     7
 10
59.031074
 20
27.996845
 30
0.0
 11
59.031074
 21
27.966845
 31
0.0
  0
CIRCLE
  8
HIDDEN
 62
     7
 10
58.746074
 20
27.981845
 30
0.0
 40
0.1875
  0
LINE
  8
MOUSE-HID
 62
     7
 10
58.939018
 20
36.562805
 30
0.0
 11
58.939018
 21
36.609805
 31
0.0
  0
LINE
  8
HIDDEN
 62
     7
 10
59.211074
 20
27.996845
 30
0.0
 11
59.211074
 21
27.966845
 31
0.0
  0
LINE
  8
MOUSE
 62
     7
 10
65.167074
 20
27.138845
 30
0.0
 11
65.167074
 21
26.638845
 31
0.0
  0
ARC
  8
MOUSE-HID
 62
     7
 10
65.152074
 20
27.138845
 30
0.0
 40
0.015
 50
360.0
 51
90.0
  0
ARC
  8
MOUSE-HID
 62
     7
 10
65.152074
 20
27.138845
 30
0.0
 40
0.062
 50
0.0
 51
90.0
  0
LINE
  8
MOUSE
 62
     7
 10
65.214074
 20
26.638845
 30
0.0
 11
65.214074
 21
27.200845
 31
0.0
  0
LINE
  8
MOUSE-HID
 62
     7
 10
65.214074
 20
27.044845
 30
0.0
 11
65.167074
 21
27.044845
 31
0.0
  0
LINE
  8
MOUSE-HID
 62
     7
 10
65.214074
 20
26.794845
 30
0.0
 11
65.167074
 21
26.794845
 31
0.0
  0
POLYLINE
  8
OBJECT
 62
     7
 66
     1
 10
0.0
 20
0.0
 30
0.0
  0
VERTEX
  8
OBJECT
 62
     7
 10
65.292074
 20
26.837845
 30
0.0
  0
VERTEX
  8
OBJECT
 62
     7
 10
65.016337
 20
26.837845
 30
0.0
  0
VERTEX
  8
OBJECT
 62
     7
 10
64.917074
 20
26.864443
 30
0.0
  0
VERTEX
  8
OBJECT
 62
     7
 10
64.917074
 20
26.975248
 30
0.0
  0
VERTEX
  8
OBJECT
 62
     7
 10
65.016337
 20
27.001845
 30
0.0
  0
VERTEX
  8
OBJECT
 62
     7
 10
65.292074
 20
27.001845
 30
0.0
  0
SEQEND
  8
OBJECT
 62
     7
  0
ARC
  8
HIDDEN
 62
     7
 10
63.106074
 20
27.981845
 30
0.0
 40
0.09
 50
90.0
 51
270.0
  0
ARC
  8
HIDDEN
 62
     7
 10
63.136074
 20
27.981845
 30
0.0
 40
0.09
 50
270.0
 51
90.0
  0
LINE
  8
HIDDEN
 62
     7
 10
63.106074
 20
28.071845
 30
0.0
 11
63.136074
 21
28.071845
 31
0.0
  0
LINE
  8
HIDDEN
 62
     7
 10
63.106074
 20
27.891845
 30
0.0
 11
63.136074
 21
27.891845
 31
0.0
  0
CIRCLE
  8
SHELF
 62
     7
 10
63.121074
 20
27.981845
 30
0.0
 40
0.082
  0
POLYLINE
  8
HIDDEN
 62
     7
 66
     1
 10
0.0
 20
0.0
 30
0.0
  0
VERTEX
  8
HIDDEN
 62
     7
 10
65.146074
 20
27.839658
 30
0.0
 42
1.0
  0
VERTEX
  8
HIDDEN
 62
     7
 10
65.346074
 20
27.839658
 30
0.0
  0
VERTEX
  8
HIDDEN
 62
     7
 10
65.346074
 20
28.124033
 30
0.0
 42
1.0
  0
VERTEX
  8
HIDDEN
 62
     7
 10
65.146074
 20
28.124033
 30
0.0
 42
1.0
  0
SEQEND
  8
HIDDEN
 62
     7
  0
LINE
  8
HIDDEN
 62
     7
 10
65.146074
 20
28.124033
 30
0.0
 11
65.146074
 21
27.839658
 31
0.0
  0
LINE
  8
MOUSE-HID
 62
     7
 10
59.376018
 20
36.562805
 30
0.0
 11
59.376018
 21
36.609805
 31
0.0
  0
LINE
  8
HOUSE
 62
     7
 10
52.849018
 20
44.03243
 30
0.0
 11
52.849018
 21
56.469805
 31
0.0
  0
ARC
  8
HOUSE
 62
     7
 10
52.864643
 20
44.03243
 30
0.0
 40
0.015625
 50
180.0
 51
270.0
  0
LINE
  8
HOUSE
 62
     7
 10
53.521018
 20
44.016805
 30
0.0
 11
52.864643
 21
44.016805
 31
0.0
  0
LINE
  8
HOUSE
 62
     7
 10
53.521018
 20
43.969805
 30
0.0
 11
53.521018
 21
44.016805
 31
0.0
  0
LINE
  8
MOUSE-HID
 62
     7
 10
58.939018
 20
43.015805
 30
0.0
 11
58.939018
 21
43.062805
 31
0.0
  0
LINE
  8
MOUSE-HID
 62
     7
 10
59.376018
 20
43.015805
 30
0.0
 11
59.376018
 21
43.062805
 31
0.0
  0
LINE
  8
OBJECT
 62
     7
 10
70.121074
 20
28.676845
 30
0.0
 11
78.121074
 21
28.676845
 31
0.0
  0
LINE
  8
OBJECT
 62
     7
 10
70.121074
 20
28.606845
 30
0.0
 11
78.121074
 21
28.606845
 31
0.0
  0
LINE
  8
OBJECT
 62
     7
 10
70.121074
 20
28.573061
 30
0.0
 11
78.121074
 21
28.573061
 31
0.0
  0
LINE
  8
OBJECT
 62
     7
 10
70.121074
 20
27.286845
 30
0.0
 11
78.121074
 21
27.286845
 31
0.0
  0
LINE
  8
OBJECT
 62
     7
 10
70.121074
 20
27.356845
 30
0.0
 11
78.121074
 21
27.356845
 31
0.0
  0
LINE
  8
OBJECT
 62
     7
 10
70.121074
 20
27.393613
 30
0.0
 11
78.121074
 21
27.393613
 31
0.0
  0
LINE
  8
HOUSE
 62
     7
 10
78.558449
 20
26.544845
 30
0.0
 11
66.121074
 21
26.544845
 31
0.0
  0
LINE
  8
HOUSE
 62
     7
 10
78.558449
 20
26.591845
 30
0.0
 11
66.121074
 21
26.591845
 31
0.0
  0
LINE
  8
HOUSE
 62
     7
 10
66.121074
 20
30.012845
 30
0.0
 11
78.558449
 21
30.012845
 31
0.0
  0
LINE
  8
HOUSE
 62
     7
 10
78.558449
 20
29.965845
 30
0.0
 11
66.121074
 21
29.965845
 31
0.0
  0
LINE
  8
OBJECT
 62
     7
 10
70.121074
 20
27.756845
 30
0.0
 11
74.063574
 21
27.756845
 31
0.0
  0
LINE
  8
OBJECT
 62
     7
 10
70.121074
 20
28.206845
 30
0.0
 11
74.063574
 21
28.206845
 31
0.0
  0
LINE
  8
OBJECT
 62
     7
 10
71.588574
 20
28.351845
 30
0.0
 11
71.838574
 21
28.351845
 31
0.0
  0
LINE
  8
OBJECT
 62
     7
 10
71.258574
 20
28.501845
 30
0.0
 11
71.673574
 21
28.501845
 31
0.0
  0
LINE
  8
OBJECT
 62
     7
 10
71.673574
 20
28.526845
 30
0.0
 11
71.258574
 21
28.526845
 31
0.0
  0
POLYLINE
  8
OBJECT
 62
     7
 66
     1
 10
0.0
 20
0.0
 30
0.0
 70
     1
 75
     6
  0
VERTEX
  8
OBJECT
 62
     7
 10
70.798574
 20
27.794345
 30
0.0
  0
VERTEX
  8
OBJECT
 62
     7
 10
71.773574
 20
27.794345
 30
0.0
 42
1.0
  0
VERTEX
  8
OBJECT
 62
     7
 10
71.773574
 20
28.169345
 30
0.0
  0
VERTEX
  8
OBJECT
 62
     7
 10
70.798574
 20
28.169345
 30
0.0
 42
1.0
  0
SEQEND
  8
OBJECT
 62
     7
  0
LINE
  8
OBJECT
 62
     7
 10
71.588574
 20
27.611845
 30
0.0
 11
71.838574
 21
27.611845
 31
0.0
  0
LINE
  8
OBJECT
 62
     7
 10
71.673574
 20
27.436845
 30
0.0
 11
71.258574
 21
27.436845
 31
0.0
  0
LINE
  8
OBJECT
 62
     7
 10
71.258574
 20
27.461845
 30
0.0
 11
71.673574
 21
27.461845
 31
0.0
  0
LINE
  8
HIDDEN
 62
     7
 10
68.703574
 20
28.526845
 30
0.0
 11
68.288574
 21
28.526845
 31
0.0
  0
LINE
  8
HIDDEN
 62
     7
 10
68.288574
 20
28.501845
 30
0.0
 11
68.703574
 21
28.501845
 31
0.0
  0
LINE
  8
HIDDEN
  6
HIDDEN
 62
     7
 10
67.878574
 20
28.206845
 30
0.0
 11
69.961074
 21
28.206845
 31
0.0
  0
LINE
  8
HIDDEN
  6
HIDDEN
 62
     7
 10
67.878574
 20
27.756845
 30
0.0
 11
69.961074
 21
27.756845
 31
0.0
  0
LINE
  8
HIDDEN
 62
     7
 10
68.288574
 20
27.461845
 30
0.0
 11
68.703574
 21
27.461845
 31
0.0
  0
LINE
  8
HIDDEN
 62
     7
 10
68.703574
 20
27.436845
 30
0.0
 11
68.288574
 21
27.436845
 31
0.0
  0
LINE
  8
HIDDEN
 62
     7
 10
66.121074
 20
27.286845
 30
0.0
 11
70.121074
 21
27.286845
 31
0.0
  0
LINE
  8
HIDDEN
 62
     7
 10
66.121074
 20
27.356845
 30
0.0
 11
70.121074
 21
27.356845
 31
0.0
  0
LINE
  8
HIDDEN
 62
     7
 10
66.121074
 20
27.393613
 30
0.0
 11
70.121074
 21
27.393613
 31
0.0
  0
LINE
  8
HIDDEN
 62
     7
 10
66.121074
 20
28.676845
 30
0.0
 11
70.121074
 21
28.676845
 31
0.0
  0
LINE
  8
HIDDEN
 62
     7
 10
66.121074
 20
28.606845
 30
0.0
 11
70.121074
 21
28.606845
 31
0.0
  0
LINE
  8
HIDDEN
 62
     7
 10
66.121074
 20
28.573061
 30
0.0
 11
70.121074
 21
28.573061
 31
0.0
  0
LINE
  8
HOUSE-HID
 62
     7
 10
66.168074
 20
27.216845
 30
0.0
 11
66.168074
 21
29.013845
 31
0.0
  0
LINE
  8
HOUSE-HID
 62
     7
 10
66.121074
 20
29.013845
 30
0.0
 11
66.121074
 21
27.216845
 31
0.0
  0
LINE
  8
HIDDEN
 62
     7
 10
67.878574
 20
28.501845
 30
0.0
 11
67.878574
 21
27.461845
 31
0.0
  0
LINE
  8
HIDDEN
 62
     7
 10
66.271074
 20
27.481765
 30
0.0
 11
66.121074
 21
27.411765
 31
0.0
  0
LINE
  8
HOUSE
 62
     7
 10
66.121074
 20
27.216845
 30
0.0
 11
66.121074
 21
26.544845
 31
0.0
  0
LINE
  8
HIDDEN
 62
     7
 10
66.121074
 20
27.481765
 30
0.0
 11
66.121074
 21
27.286845
 31
0.0
  0
LINE
  8
HOUSE
 62
     7
 10
66.168074
 20
27.216845
 30
0.0
 11
66.168074
 21
26.544845
 31
0.0
  0
LINE
  8
HIDDEN
 62
     7
 10
66.721074
 20
27.481765
 30
0.0
 11
66.871074
 21
27.411765
 31
0.0
  0
LINE
  8
HIDDEN
 62
     7
 10
66.871074
 20
27.390629
 30
0.0
 11
66.871074
 21
27.411765
 31
0.0
  0
ARC
  8
HIDDEN
 62
     7
 10
68.001074
 20
27.436845
 30
0.0
 40
0.1
 50
332.473424
 51
0.0
  0
ARC
  8
HIDDEN
 62
     7
 10
68.001074
 20
27.436845
 30
0.0
 40
0.1
 50
180.0
 51
207.526576
  0
ARC
  8
HIDDEN
 62
     7
 10
68.496074
 20
27.436845
 30
0.0
 40
0.1
 50
180.0
 51
207.526576
  0
ARC
  8
HIDDEN
 62
     7
 10
68.001074
 20
27.436845
 30
0.0
 40
0.1
 50
14.477512
 51
26.691805
  0
LINE
  8
HIDDEN
 62
     7
 10
68.123574
 20
27.461845
 30
0.0
 11
68.123574
 21
27.481765
 31
0.0
  0
ARC
  8
HIDDEN
 62
     7
 10
68.001074
 20
27.436845
 30
0.0
 40
0.1
 50
153.308195
 51
165.522488
  0
LINE
  8
HIDDEN
 62
     7
 10
68.288574
 20
27.436845
 30
0.0
 11
68.288574
 21
27.461845
 31
0.0
  0
LINE
  8
HIDDEN
 62
     7
 10
68.208574
 20
27.461845
 30
0.0
 11
68.208574
 21
27.436845
 31
0.0
  0
ARC
  8
HIDDEN
 62
     7
 10
68.496074
 20
27.436845
 30
0.0
 40
0.1
 50
153.308195
 51
165.522488
  0
LINE
  8
HIDDEN
 62
     7
 10
67.793574
 20
27.436845
 30
0.0
 11
67.793574
 21
27.461845
 31
0.0
  0
LINE
  8
HIDDEN
 62
     7
 10
68.208574
 20
27.436845
 30
0.0
 11
67.793574
 21
27.436845
 31
0.0
  0
LINE
  8
HIDDEN
 62
     7
 10
67.793574
 20
27.461845
 30
0.0
 11
68.208574
 21
27.461845
 31
0.0
  0
LINE
  8
HIDDEN
 62
     7
 10
66.271074
 20
28.481926
 30
0.0
 11
66.121074
 21
28.551926
 31
0.0
  0
LINE
  8
HIDDEN
 62
     7
 10
66.121074
 20
28.676845
 30
0.0
 11
66.121074
 21
28.481926
 31
0.0
  0
LINE
  8
HOUSE
 62
     7
 10
66.121074
 20
30.012845
 30
0.0
 11
66.121074
 21
29.013845
 31
0.0
  0
ARC
  8
HIDDEN
 62
     7
 10
66.746074
 20
27.966845
 30
0.0
 40
0.09
 50
180.0
 51
360.0
  0
ARC
  8
HIDDEN
 62
     7
 10
66.746074
 20
27.996845
 30
0.0
 40
0.09
 50
0.0
 51
180.0
  0
LINE
  8
HIDDEN
 62
     7
 10
66.656074
 20
27.996845
 30
0.0
 11
66.656074
 21
27.966845
 31
0.0
  0
LINE
  8
HIDDEN
 62
     7
 10
66.836074
 20
27.996845
 30
0.0
 11
66.836074
 21
27.966845
 31
0.0
  0
LINE
  8
HIDDEN
 62
     7
 10
66.721074
 20
28.481926
 30
0.0
 11
66.871074
 21
28.551926
 31
0.0
  0
LINE
  8
HIDDEN
 62
     7
 10
66.871074
 20
28.573061
 30
0.0
 11
66.871074
 21
28.551926
 31
0.0
  0
CIRCLE
  8
HOUSE-HID
 62
     7
 10
66.746074
 20
27.981845
 30
0.0
 40
0.082
  0
LINE
  8
HOUSE
 62
     7
 10
66.168074
 20
30.012845
 30
0.0
 11
66.168074
 21
29.013845
 31
0.0
  0
LINE
  8
HIDDEN
 62
     7
 10
67.731074
 20
28.071845
 30
0.0
 11
67.761074
 21
28.071845
 31
0.0
  0
LINE
  8
HIDDEN
 62
     7
 10
67.731074
 20
27.891845
 30
0.0
 11
67.761074
 21
27.891845
 31
0.0
  0
ARC
  8
HIDDEN
 62
     7
 10
67.636074
 20
27.981845
 30
0.0
 40
0.09
 50
270.0
 51
90.0
  0
ARC
  8
HIDDEN
 62
     7
 10
67.731074
 20
27.981845
 30
0.0
 40
0.09
 50
90.0
 51
270.0
  0
ARC
  8
HIDDEN
 62
     7
 10
67.606074
 20
27.981845
 30
0.0
 40
0.09
 50
90.0
 51
270.0
  0
LINE
  8
HIDDEN
 62
     7
 10
67.606074
 20
28.071845
 30
0.0
 11
67.636074
 21
28.071845
 31
0.0
  0
LINE
  8
HIDDEN
 62
     7
 10
67.606074
 20
27.891845
 30
0.0
 11
67.636074
 21
27.891845
 31
0.0
  0
LINE
  8
HIDDEN
 62
     7
 10
67.156074
 20
27.996845
 30
0.0
 11
67.156074
 21
27.966845
 31
0.0
  0
LINE
  8
HIDDEN
 62
     7
 10
67.336074
 20
27.996845
 30
0.0
 11
67.336074
 21
27.966845
 31
0.0
  0
ARC
  8
HIDDEN
 62
     7
 10
67.246074
 20
27.996845
 30
0.0
 40
0.09
 50
0.0
 51
180.0
  0
ARC
  8
HIDDEN
 62
     7
 10
67.246074
 20
27.966845
 30
0.0
 40
0.09
 50
180.0
 51
360.0
  0
CIRCLE
  8
SHELF
 62
     7
 10
67.621074
 20
27.981845
 30
0.0
 40
0.082
  0
CIRCLE
  8
HOUSE-HID
 62
     7
 10
67.246074
 20
27.981845
 30
0.0
 40
0.082
  0
CIRCLE
  8
HIDDEN
 62
     7
 10
68.253574
 20
27.981845
 30
0.0
 40
0.075
  0
ARC
  8
HIDDEN
 62
     7
 10
68.001074
 20
28.526845
 30
0.0
 40
0.1
 50
0.0
 51
27.526576
  0
LINE
  8
HIDDEN
 62
     7
 10
68.123574
 20
28.501845
 30
0.0
 11
68.123574
 21
28.481926
 31
0.0
  0
ARC
  8
HIDDEN
 62
     7
 10
68.001074
 20
28.526845
 30
0.0
 40
0.1
 50
333.308195
 51
345.522488
  0
ARC
  8
HIDDEN
 62
     7
 10
68.001074
 20
28.526845
 30
0.0
 40
0.1
 50
152.473424
 51
180.0
  0
ARC
  8
HIDDEN
 62
     7
 10
68.001074
 20
28.526845
 30
0.0
 40
0.1
 50
194.477512
 51
206.691805
  0
LINE
  8
HIDDEN
 62
     7
 10
68.288574
 20
28.526845
 30
0.0
 11
68.288574
 21
28.501845
 31
0.0
  0
LINE
  8
HIDDEN
 62
     7
 10
68.208574
 20
28.501845
 30
0.0
 11
68.208574
 21
28.526845
 31
0.0
  0
ARC
  8
HIDDEN
 62
     7
 10
68.496074
 20
28.526845
 30
0.0
 40
0.1
 50
194.477512
 51
206.691805
  0
ARC
  8
HIDDEN
 62
     7
 10
68.496074
 20
28.526845
 30
0.0
 40
0.1
 50
152.473424
 51
180.0
  0
LINE
  8
HIDDEN
 62
     7
 10
67.793574
 20
28.526845
 30
0.0
 11
67.793574
 21
28.501845
 31
0.0
  0
ARC
  8
HIDDEN
 62
     7
 10
67.761074
 20
27.981845
 30
0.0
 40
0.09
 50
270.0
 51
90.0
  0
LINE
  8
HIDDEN
 62
     7
 10
67.793574
 20
28.501845
 30
0.0
 11
68.208574
 21
28.501845
 31
0.0
  0
LINE
  8
HIDDEN
 62
     7
 10
68.208574
 20
28.526845
 30
0.0
 11
67.793574
 21
28.526845
 31
0.0
  0
LINE
  8
SHELF
 62
     7
 10
70.121074
 20
29.013845
 30
0.0
 11
70.121074
 21
27.263845
 31
0.0
  0
LINE
  8
HIDDEN
 62
     7
 10
69.773574
 20
27.461845
 30
0.0
 11
70.121074
 21
27.461845
 31
0.0
  0
LINE
  8
HIDDEN
 62
     7
 10
70.121074
 20
27.436845
 30
0.0
 11
69.773574
 21
27.436845
 31
0.0
  0
ARC
  8
SHELF
 62
     7
 10
70.059074
 20
27.325845
 30
0.0
 40
0.062
 50
270.0
 51
0.0
  0
LINE
  8
SHELF
 62
     7
 10
70.121074
 20
27.638845
 30
0.0
 11
70.074074
 21
27.638845
 31
0.0
  0
LINE
  8
HIDDEN
 62
     7
 10
69.278574
 20
27.461845
 30
0.0
 11
69.693574
 21
27.461845
 31
0.0
  0
LINE
  8
HIDDEN
 62
     7
 10
69.693574
 20
27.436845
 30
0.0
 11
69.278574
 21
27.436845
 31
0.0
  0
ARC
  8
HIDDEN
 62
     7
 10
68.991074
 20
27.436845
 30
0.0
 40
0.1
 50
180.0
 51
207.526576
  0
ARC
  8
HIDDEN
 62
     7
 10
68.496074
 20
27.436845
 30
0.0
 40
0.1
 50
332.473424
 51
0.0
  0
ARC
  8
HIDDEN
 62
     7
 10
68.991074
 20
27.436845
 30
0.0
 40
0.1
 50
332.473424
 51
0.0
  0
LINE
  8
HIDDEN
 62
     7
 10
68.783574
 20
27.461845
 30
0.0
 11
69.198574
 21
27.461845
 31
0.0
  0
LINE
  8
HIDDEN
 62
     7
 10
69.198574
 20
27.436845
 30
0.0
 11
68.783574
 21
27.436845
 31
0.0
  0
LINE
  8
HIDDEN
 62
     7
 10
68.868574
 20
27.461845
 30
0.0
 11
68.868574
 21
27.481765
 31
0.0
  0
LINE
  8
HIDDEN
 62
     7
 10
68.618574
 20
27.461845
 30
0.0
 11
68.618574
 21
27.481765
 31
0.0
  0
LINE
  8
HIDDEN
 62
     7
 10
68.783574
 20
27.436845
 30
0.0
 11
68.783574
 21
27.461845
 31
0.0
  0
ARC
  8
HIDDEN
 62
     7
 10
68.496074
 20
27.436845
 30
0.0
 40
0.1
 50
14.477512
 51
26.691805
  0
LINE
  8
HIDDEN
 62
     7
 10
68.703574
 20
27.461845
 30
0.0
 11
68.703574
 21
27.436845
 31
0.0
  0
LINE
  8
HIDDEN
 62
     7
 10
69.113574
 20
27.461845
 30
0.0
 11
69.113574
 21
27.481765
 31
0.0
  0
LINE
  8
HIDDEN
 62
     7
 10
69.278574
 20
27.436845
 30
0.0
 11
69.278574
 21
27.461845
 31
0.0
  0
LINE
  8
HIDDEN
 62
     7
 10
69.198574
 20
27.461845
 30
0.0
 11
69.198574
 21
27.436845
 31
0.0
  0
ARC
  8
HIDDEN
 62
     7
 10
68.991074
 20
27.436845
 30
0.0
 40
0.1
 50
153.308195
 51
165.522488
  0
ARC
  8
HIDDEN
 62
     7
 10
68.991074
 20
27.436845
 30
0.0
 40
0.1
 50
14.477512
 51
26.691805
  0
ARC
  8
HIDDEN
 62
     7
 10
69.981074
 20
27.436845
 30
0.0
 40
0.1
 50
332.473424
 51
0.0
  0
ARC
  8
HIDDEN
 62
     7
 10
69.486074
 20
27.436845
 30
0.0
 40
0.1
 50
180.0
 51
207.526576
  0
ARC
  8
HIDDEN
 62
     7
 10
69.981074
 20
27.436845
 30
0.0
 40
0.1
 50
180.0
 51
207.526576
  0
ARC
  8
HIDDEN
 62
     7
 10
69.486074
 20
27.436845
 30
0.0
 40
0.1
 50
332.473424
 51
0.0
  0
ARC
  8
HIDDEN
 62
     7
 10
69.486074
 20
27.436845
 30
0.0
 40
0.1
 50
153.308195
 51
165.522488
  0
LINE
  8
HIDDEN
 62
     7
 10
69.363574
 20
27.461845
 30
0.0
 11
69.363574
 21
27.481765
 31
0.0
  0
LINE
  8
HIDDEN
 62
     7
 10
69.693574
 20
27.461845
 30
0.0
 11
69.693574
 21
27.436845
 31
0.0
  0
LINE
  8
HIDDEN
 62
     7
 10
69.773574
 20
27.436845
 30
0.0
 11
69.773574
 21
27.461845
 31
0.0
  0
LINE
  8
HIDDEN
 62
     7
 10
69.858574
 20
27.461845
 30
0.0
 11
69.858574
 21
27.507938
 31
0.0
  0
LINE
  8
HIDDEN
 62
     7
 10
69.608574
 20
27.461845
 30
0.0
 11
69.608574
 21
27.481765
 31
0.0
  0
ARC
  8
HIDDEN
 62
     7
 10
69.486074
 20
27.436845
 30
0.0
 40
0.1
 50
14.477512
 51
26.691805
  0
ARC
  8
HIDDEN
 62
     7
 10
69.981074
 20
27.436845
 30
0.0
 40
0.1
 50
14.477512
 51
165.522488
  0
ARC
  8
SHELF
 62
     7
 10
70.059074
 20
27.325845
 30
0.0
 40
0.015
 50
270.0
 51
0.0
  0
LINE
  8
SHELF
 62
     7
 10
70.074074
 20
27.638845
 30
0.0
 11
70.074074
 21
27.325845
 31
0.0
  0
ARC
  8
OBJECT
 62
     7
 10
70.971074
 20
27.436845
 30
0.0
 40
0.1
 50
180.0
 51
207.526576
  0
ARC
  8
OBJECT
 62
     7
 10
70.971074
 20
27.436845
 30
0.0
 40
0.1
 50
14.477512
 51
165.522488
  0
LINE
  8
OBJECT
 62
     7
 10
70.763574
 20
27.461845
 30
0.0
 11
71.178574
 21
27.461845
 31
0.0
  0
LINE
  8
OBJECT
 62
     7
 10
71.178574
 20
27.436845
 30
0.0
 11
70.763574
 21
27.436845
 31
0.0
  0
LINE
  8
OBJECT
 62
     7
 10
70.121074
 20
27.436845
 30
0.0
 11
70.188574
 21
27.436845
 31
0.0
  0
LINE
  8
OBJECT
 62
     7
 10
70.121074
 20
27.461845
 30
0.0
 11
70.188574
 21
27.461845
 31
0.0
  0
LINE
  8
HIDDEN
 62
     7
 10
70.121074
 20
27.611845
 30
0.0
 11
70.103574
 21
27.611845
 31
0.0
  0
LINE
  8
OBJECT
 62
     7
 10
70.848574
 20
27.461845
 30
0.0
 11
70.848574
 21
27.611845
 31
0.0
  0
ARC
  8
OBJECT
 62
     7
 10
70.476074
 20
27.436845
 30
0.0
 40
0.1
 50
180.0
 51
207.526576
  0
ARC
  8
OBJECT
 62
     7
 10
70.476074
 20
27.436845
 30
0.0
 40
0.1
 50
332.473424
 51
0.0
  0
LINE
  8
OBJECT
 62
     7
 10
70.598574
 20
27.461845
 30
0.0
 11
70.598574
 21
27.611845
 31
0.0
  0
ARC
  8
OBJECT
 62
     7
 10
70.476074
 20
27.436845
 30
0.0
 40
0.1
 50
14.477512
 51
165.522488
  0
LINE
  8
OBJECT
 62
     7
 10
70.683574
 20
27.461845
 30
0.0
 11
70.683574
 21
27.436845
 31
0.0
  0
LINE
  8
OBJECT
 62
     7
 10
70.268574
 20
27.436845
 30
0.0
 11
70.268574
 21
27.461845
 31
0.0
  0
LINE
  8
OBJECT
 62
     7
 10
70.268574
 20
27.461845
 30
0.0
 11
70.683574
 21
27.461845
 31
0.0
  0
LINE
  8
OBJECT
 62
     7
 10
70.683574
 20
27.436845
 30
0.0
 11
70.268574
 21
27.436845
 31
0.0
  0
LINE
  8
OBJECT
 62
     7
 10
70.353574
 20
27.461845
 30
0.0
 11
70.353574
 21
27.611845
 31
0.0
  0
LINE
  8
HIDDEN
 62
     7
 10
70.103574
 20
27.461845
 30
0.0
 11
70.103574
 21
27.611845
 31
0.0
  0
LINE
  8
OBJECT
 62
     7
 10
70.188574
 20
27.461845
 30
0.0
 11
70.188574
 21
27.436845
 31
0.0
  0
LINE
  8
OBJECT
 62
     7
 10
70.121074
 20
27.611845
 30
0.0
 11
70.353574
 21
27.611845
 31
0.0
  0
LINE
  8
OBJECT
 62
     7
 10
70.763574
 20
27.436845
 30
0.0
 11
70.763574
 21
27.461845
 31
0.0
  0
LINE
  8
OBJECT
 62
     7
 10
70.598574
 20
27.611845
 30
0.0
 11
70.848574
 21
27.611845
 31
0.0
  0
ARC
  8
OBJECT
 62
     7
 10
71.466074
 20
27.436845
 30
0.0
 40
0.1
 50
332.473424
 51
0.0
  0
LINE
  8
OBJECT
 62
     7
 10
71.588574
 20
27.461845
 30
0.0
 11
71.588574
 21
27.611845
 31
0.0
  0
ARC
  8
OBJECT
 62
     7
 10
71.466074
 20
27.436845
 30
0.0
 40
0.1
 50
180.0
 51
207.526576
  0
ARC
  8
OBJECT
 62
     7
 10
70.971074
 20
27.436845
 30
0.0
 40
0.1
 50
332.473424
 51
0.0
  0
LINE
  8
OBJECT
 62
     7
 10
71.093574
 20
27.611845
 30
0.0
 11
71.343574
 21
27.611845
 31
0.0
  0
LINE
  8
OBJECT
 62
     7
 10
71.258574
 20
27.436845
 30
0.0
 11
71.258574
 21
27.461845
 31
0.0
  0
LINE
  8
OBJECT
 62
     7
 10
71.093574
 20
27.461845
 30
0.0
 11
71.093574
 21
27.611845
 31
0.0
  0
LINE
  8
OBJECT
 62
     7
 10
71.178574
 20
27.461845
 30
0.0
 11
71.178574
 21
27.436845
 31
0.0
  0
LINE
  8
OBJECT
 62
     7
 10
71.343574
 20
27.461845
 30
0.0
 11
71.343574
 21
27.611845
 31
0.0
  0
ARC
  8
OBJECT
 62
     7
 10
71.466074
 20
27.436845
 30
0.0
 40
0.1
 50
14.477512
 51
165.522488
  0
LINE
  8
HIDDEN
 62
     7
 10
70.121074
 20
28.526845
 30
0.0
 11
69.773574
 21
28.526845
 31
0.0
  0
LINE
  8
HIDDEN
 62
     7
 10
69.773574
 20
28.501845
 30
0.0
 11
70.121074
 21
28.501845
 31
0.0
  0
LINE
  8
HIDDEN
 62
     7
 10
69.961074
 20
28.206845
 30
0.0
 11
70.121074
 21
28.206845
 31
0.0
  0
LINE
  8
HIDDEN
 62
     7
 10
69.961074
 20
27.756845
 30
0.0
 11
70.121074
 21
27.756845
 31
0.0
  0
CIRCLE
  8
HIDDEN
 62
     7
 10
69.243574
 20
27.981845
 30
0.0
 40
0.075
  0
LINE
  8
HIDDEN
 62
     7
 10
69.693574
 20
28.526845
 30
0.0
 11
69.278574
 21
28.526845
 31
0.0
  0
LINE
  8
HIDDEN
 62
     7
 10
69.278574
 20
28.501845
 30
0.0
 11
69.693574
 21
28.501845
 31
0.0
  0
ARC
  8
HIDDEN
 62
     7
 10
68.991074
 20
28.526845
 30
0.0
 40
0.1
 50
152.473424
 51
180.0
  0
LINE
  8
HIDDEN
 62
     7
 10
69.198574
 20
28.526845
 30
0.0
 11
68.783574
 21
28.526845
 31
0.0
  0
LINE
  8
HIDDEN
 62
     7
 10
68.783574
 20
28.501845
 30
0.0
 11
69.198574
 21
28.501845
 31
0.0
  0
CIRCLE
  8
HIDDEN
 62
     7
 10
68.748574
 20
27.981845
 30
0.0
 40
0.075
  0
ARC
  8
HIDDEN
 62
     7
 10
68.496074
 20
28.526845
 30
0.0
 40
0.1
 50
333.308195
 51
345.522488
  0
LINE
  8
HIDDEN
 62
     7
 10
68.618574
 20
28.501845
 30
0.0
 11
68.618574
 21
28.481926
 31
0.0
  0
LINE
  8
HIDDEN
 62
     7
 10
68.868574
 20
28.501845
 30
0.0
 11
68.868574
 21
28.481926
 31
0.0
  0
LINE
  8
HIDDEN
 62
     7
 10
68.703574
 20
28.501845
 30
0.0
 11
68.703574
 21
28.526845
 31
0.0
  0
ARC
  8
HIDDEN
 62
     7
 10
68.496074
 20
28.526845
 30
0.0
 40
0.1
 50
0.0
 51
27.526576
  0
LINE
  8
HIDDEN
 62
     7
 10
68.783574
 20
28.526845
 30
0.0
 11
68.783574
 21
28.501845
 31
0.0
  0
LINE
  8
HIDDEN
 62
     7
 10
69.121074
 20
28.167251
 30
0.0
 11
69.121074
 21
27.79644
 31
0.0
  0
ARC
  8
HIDDEN
 62
     7
 10
69.121074
 20
27.966845
 30
0.0
 40
0.09
 50
180.0
 51
360.0
  0
ARC
  8
HIDDEN
 62
     7
 10
69.121074
 20
27.996845
 30
0.0
 40
0.09
 50
0.0
 51
180.0
  0
LINE
  8
HIDDEN
 62
     7
 10
69.031074
 20
27.996845
 30
0.0
 11
69.031074
 21
27.966845
 31
0.0
  0
LINE
  8
HIDDEN
 62
     7
 10
69.211074
 20
27.996845
 30
0.0
 11
69.211074
 21
27.966845
 31
0.0
  0
LINE
  8
HIDDEN
 62
     7
 10
69.113574
 20
28.501845
 30
0.0
 11
69.113574
 21
28.481926
 31
0.0
  0
LINE
  8
HIDDEN
 62
     7
 10
69.198574
 20
28.501845
 30
0.0
 11
69.198574
 21
28.526845
 31
0.0
  0
LINE
  8
HIDDEN
 62
     7
 10
69.278574
 20
28.526845
 30
0.0
 11
69.278574
 21
28.501845
 31
0.0
  0
ARC
  8
HIDDEN
 62
     7
 10
68.991074
 20
28.526845
 30
0.0
 40
0.1
 50
194.477512
 51
206.691805
  0
ARC
  8
HIDDEN
 62
     7
 10
68.991074
 20
28.526845
 30
0.0
 40
0.1
 50
333.308195
 51
345.522488
  0
ARC
  8
HIDDEN
 62
     7
 10
68.991074
 20
28.526845
 30
0.0
 40
0.1
 50
0.0
 51
27.526576
  0
CIRCLE
  8
SHELF
 62
     7
 10
69.121074
 20
27.981845
 30
0.0
 40
0.082
  0
ARC
  8
HIDDEN
 62
     7
 10
69.981074
 20
28.526845
 30
0.0
 40
0.1
 50
0.0
 51
27.526576
  0
CIRCLE
  8
HIDDEN
 62
     7
 10
69.738574
 20
27.981845
 30
0.0
 40
0.075
  0
LINE
  8
HIDDEN
 62
     7
 10
69.363574
 20
28.501845
 30
0.0
 11
69.363574
 21
28.481926
 31
0.0
  0
ARC
  8
HIDDEN
 62
     7
 10
69.486074
 20
28.526845
 30
0.0
 40
0.1
 50
194.477512
 51
206.691805
  0
ARC
  8
HIDDEN
 62
     7
 10
69.486074
 20
28.526845
 30
0.0
 40
0.1
 50
152.473424
 51
180.0
  0
LINE
  8
HIDDEN
 62
     7
 10
69.693574
 20
28.501845
 30
0.0
 11
69.693574
 21
28.526845
 31
0.0
  0
ARC
  8
HIDDEN
 62
     7
 10
69.981074
 20
28.526845
 30
0.0
 40
0.1
 50
152.473424
 51
180.0
  0
LINE
  8
HIDDEN
 62
     7
 10
69.773574
 20
28.526845
 30
0.0
 11
69.773574
 21
28.501845
 31
0.0
  0
LINE
  8
HIDDEN
 62
     7
 10
69.858574
 20
28.501845
 30
0.0
 11
69.858574
 21
28.455753
 31
0.0
  0
ARC
  8
HIDDEN
 62
     7
 10
69.486074
 20
28.526845
 30
0.0
 40
0.1
 50
333.308195
 51
345.522488
  0
LINE
  8
HIDDEN
 62
     7
 10
69.608574
 20
28.501845
 30
0.0
 11
69.608574
 21
28.481926
 31
0.0
  0
ARC
  8
HIDDEN
 62
     7
 10
69.486074
 20
28.526845
 30
0.0
 40
0.1
 50
0.0
 51
27.526576
  0
ARC
  8
HIDDEN
 62
     7
 10
69.981074
 20
28.526845
 30
0.0
 40
0.1
 50
194.477512
 51
345.522488
  0
ARC
  8
OBJECT
 62
     7
 10
70.971074
 20
28.526845
 30
0.0
 40
0.1
 50
194.477512
 51
345.522488
  0
ARC
  8
OBJECT
 62
     7
 10
70.971074
 20
28.526845
 30
0.0
 40
0.1
 50
152.473424
 51
180.0
  0
LINE
  8
OBJECT
 62
     7
 10
71.178574
 20
28.526845
 30
0.0
 11
70.763574
 21
28.526845
 31
0.0
  0
LINE
  8
OBJECT
 62
     7
 10
70.763574
 20
28.501845
 30
0.0
 11
71.178574
 21
28.501845
 31
0.0
  0
LINE
  8
OBJECT
 62
     7
 10
70.121074
 20
28.501845
 30
0.0
 11
70.188574
 21
28.501845
 31
0.0
  0
LINE
  8
OBJECT
 62
     7
 10
70.121074
 20
28.526845
 30
0.0
 11
70.188574
 21
28.526845
 31
0.0
  0
LINE
  8
HIDDEN
 62
     7
 10
70.103574
 20
28.351845
 30
0.0
 11
70.121074
 21
28.351845
 31
0.0
  0
LINE
  8
OBJECT
 62
     7
 10
70.848574
 20
28.501845
 30
0.0
 11
70.848574
 21
28.351845
 31
0.0
  0
LINE
  8
OBJECT
 62
     7
 10
70.598574
 20
28.501845
 30
0.0
 11
70.598574
 21
28.351845
 31
0.0
  0
LINE
  8
OBJECT
 62
     7
 10
70.353574
 20
28.501845
 30
0.0
 11
70.353574
 21
28.351845
 31
0.0
  0
LINE
  8
HIDDEN
 62
     7
 10
70.103574
 20
28.501845
 30
0.0
 11
70.103574
 21
28.351845
 31
0.0
  0
CIRCLE
  8
OBJECT
 62
     7
 10
70.233574
 20
27.981845
 30
0.0
 40
0.075
  0
LINE
  8
OBJECT
 62
     7
 10
70.121074
 20
28.351845
 30
0.0
 11
70.353574
 21
28.351845
 31
0.0
  0
LINE
  8
OBJECT
 62
     7
 10
70.683574
 20
28.501845
 30
0.0
 11
70.683574
 21
28.526845
 31
0.0
  0
ARC
  8
OBJECT
 62
     7
 10
70.476074
 20
28.526845
 30
0.0
 40
0.1
 50
194.477512
 51
345.522488
  0
ARC
  8
OBJECT
 62
     7
 10
70.476074
 20
28.526845
 30
0.0
 40
0.1
 50
0.0
 51
27.526576
  0
ARC
  8
OBJECT
 62
     7
 10
70.476074
 20
28.526845
 30
0.0
 40
0.1
 50
152.473424
 51
180.0
  0
LINE
  8
OBJECT
 62
     7
 10
70.268574
 20
28.526845
 30
0.0
 11
70.268574
 21
28.501845
 31
0.0
  0
LINE
  8
OBJECT
 62
     7
 10
70.683574
 20
28.526845
 30
0.0
 11
70.268574
 21
28.526845
 31
0.0
  0
LINE
  8
OBJECT
 62
     7
 10
70.268574
 20
28.501845
 30
0.0
 11
70.683574
 21
28.501845
 31
0.0
  0
LINE
  8
OBJECT
 62
     7
 10
70.188574
 20
28.501845
 30
0.0
 11
70.188574
 21
28.526845
 31
0.0
  0
LINE
  8
OBJECT
 62
     7
 10
70.763574
 20
28.526845
 30
0.0
 11
70.763574
 21
28.501845
 31
0.0
  0
LINE
  8
OBJECT
 62
     7
 10
70.598574
 20
28.351845
 30
0.0
 11
70.848574
 21
28.351845
 31
0.0
  0
LINE
  8
OBJECT
 62
     7
 10
71.588574
 20
28.501845
 30
0.0
 11
71.588574
 21
28.351845
 31
0.0
  0
ARC
  8
OBJECT
 62
     7
 10
71.466074
 20
28.526845
 30
0.0
 40
0.1
 50
0.0
 51
27.526576
  0
LINE
  8
OBJECT
 62
     7
 10
71.093574
 20
28.351845
 30
0.0
 11
71.343574
 21
28.351845
 31
0.0
  0
CIRCLE
  8
OBJECT
 62
     7
 10
71.121074
 20
27.981845
 30
0.0
 40
0.1875
  0
LINE
  8
OBJECT
 62
     7
 10
71.093574
 20
28.501845
 30
0.0
 11
71.093574
 21
28.351845
 31
0.0
  0
LINE
  8
OBJECT
 62
     7
 10
71.106074
 20
27.891845
 30
0.0
 11
71.136074
 21
27.891845
 31
0.0
  0
LINE
  8
OBJECT
 62
     7
 10
71.106074
 20
28.071845
 30
0.0
 11
71.136074
 21
28.071845
 31
0.0
  0
ARC
  8
OBJECT
 62
     7
 10
71.106074
 20
27.981845
 30
0.0
 40
0.09
 50
90.0
 51
270.0
  0
ARC
  8
OBJECT
 62
     7
 10
71.136074
 20
27.981845
 30
0.0
 40
0.09
 50
270.0
 51
90.0
  0
LINE
  8
OBJECT
 62
     7
 10
71.258574
 20
28.526845
 30
0.0
 11
71.258574
 21
28.501845
 31
0.0
  0
LINE
  8
OBJECT
 62
     7
 10
71.178574
 20
28.501845
 30
0.0
 11
71.178574
 21
28.526845
 31
0.0
  0
ARC
  8
OBJECT
 62
     7
 10
70.971074
 20
28.526845
 30
0.0
 40
0.1
 50
0.0
 51
27.526576
  0
LINE
  8
OBJECT
 62
     7
 10
71.343574
 20
28.501845
 30
0.0
 11
71.343574
 21
28.351845
 31
0.0
  0
ARC
  8
OBJECT
 62
     7
 10
71.466074
 20
28.526845
 30
0.0
 40
0.1
 50
152.473424
 51
180.0
  0
ARC
  8
OBJECT
 62
     7
 10
71.466074
 20
28.526845
 30
0.0
 40
0.1
 50
194.477512
 51
345.522488
  0
CIRCLE
  8
HOUSE-HID
 62
     7
 10
71.121074
 20
27.981845
 30
0.0
 40
0.082
  0
LINE
  8
OBJECT
 62
     7
 10
74.063574
 20
28.501845
 30
0.0
 11
74.063574
 21
27.461845
 31
0.0
  0
LINE
  8
OBJECT
 62
     7
 10
73.073574
 20
27.611845
 30
0.0
 11
73.323574
 21
27.611845
 31
0.0
  0
ARC
  8
OBJECT
 62
     7
 10
72.456074
 20
27.436845
 30
0.0
 40
0.1
 50
14.477512
 51
165.522488
  0
LINE
  8
OBJECT
 62
     7
 10
72.248574
 20
27.461845
 30
0.0
 11
72.663574
 21
27.461845
 31
0.0
  0
LINE
  8
OBJECT
 62
     7
 10
72.663574
 20
27.436845
 30
0.0
 11
72.248574
 21
27.436845
 31
0.0
  0
ARC
  8
OBJECT
 62
     7
 10
72.456074
 20
27.436845
 30
0.0
 40
0.1
 50
180.0
 51
207.526576
  0
LINE
  8
OBJECT
 62
     7
 10
72.333574
 20
27.461845
 30
0.0
 11
72.333574
 21
27.611845
 31
0.0
  0
ARC
  8
OBJECT
 62
     7
 10
71.961074
 20
27.436845
 30
0.0
 40
0.1
 50
180.0
 51
207.526576
  0
ARC
  8
OBJECT
 62
     7
 10
71.961074
 20
27.436845
 30
0.0
 40
0.1
 50
332.473424
 51
0.0
  0
ARC
  8
OBJECT
 62
     7
 10
71.961074
 20
27.436845
 30
0.0
 40
0.1
 50
14.477512
 51
165.522488
  0
LINE
  8
OBJECT
 62
     7
 10
71.753574
 20
27.461845
 30
0.0
 11
72.168574
 21
27.461845
 31
0.0
  0
LINE
  8
OBJECT
 62
     7
 10
72.168574
 20
27.436845
 30
0.0
 11
71.753574
 21
27.436845
 31
0.0
  0
LINE
  8
OBJECT
 62
     7
 10
71.753574
 20
27.436845
 30
0.0
 11
71.753574
 21
27.461845
 31
0.0
  0
LINE
  8
OBJECT
 62
     7
 10
71.838574
 20
27.461845
 30
0.0
 11
71.838574
 21
27.611845
 31
0.0
  0
LINE
  8
OBJECT
 62
     7
 10
71.673574
 20
27.461845
 30
0.0
 11
71.673574
 21
27.436845
 31
0.0
  0
LINE
  8
OBJECT
 62
     7
 10
72.083574
 20
27.461845
 30
0.0
 11
72.083574
 21
27.611845
 31
0.0
  0
LINE
  8
OBJECT
 62
     7
 10
72.248574
 20
27.436845
 30
0.0
 11
72.248574
 21
27.461845
 31
0.0
  0
LINE
  8
OBJECT
 62
     7
 10
72.168574
 20
27.461845
 30
0.0
 11
72.168574
 21
27.436845
 31
0.0
  0
LINE
  8
OBJECT
 62
     7
 10
72.083574
 20
27.611845
 30
0.0
 11
72.333574
 21
27.611845
 31
0.0
  0
ARC
  8
OBJECT
 62
     7
 10
72.951074
 20
27.436845
 30
0.0
 40
0.1
 50
332.473424
 51
0.0
  0
LINE
  8
OBJECT
 62
     7
 10
73.073574
 20
27.461845
 30
0.0
 11
73.073574
 21
27.611845
 31
0.0
  0
LINE
  8
OBJECT
 62
     7
 10
73.158574
 20
27.461845
 30
0.0
 11
73.158574
 21
27.436845
 31
0.0
  0
ARC
  8
OBJECT
 62
     7
 10
72.456074
 20
27.436845
 30
0.0
 40
0.1
 50
332.473424
 51
0.0
  0
ARC
  8
OBJECT
 62
     7
 10
72.951074
 20
27.436845
 30
0.0
 40
0.1
 50
180.0
 51
207.526576
  0
LINE
  8
OBJECT
 62
     7
 10
72.578574
 20
27.461845
 30
0.0
 11
72.578574
 21
27.611845
 31
0.0
  0
LINE
  8
OBJECT
 62
     7
 10
72.578574
 20
27.611845
 30
0.0
 11
72.828574
 21
27.611845
 31
0.0
  0
LINE
  8
OBJECT
 62
     7
 10
72.828574
 20
27.461845
 30
0.0
 11
72.828574
 21
27.611845
 31
0.0
  0
LINE
  8
OBJECT
 62
     7
 10
72.743574
 20
27.436845
 30
0.0
 11
72.743574
 21
27.461845
 31
0.0
  0
LINE
  8
OBJECT
 62
     7
 10
72.663574
 20
27.461845
 30
0.0
 11
72.663574
 21
27.436845
 31
0.0
  0
LINE
  8
OBJECT
 62
     7
 10
72.743574
 20
27.461845
 30
0.0
 11
73.158574
 21
27.461845
 31
0.0
  0
LINE
  8
OBJECT
 62
     7
 10
73.158574
 20
27.436845
 30
0.0
 11
72.743574
 21
27.436845
 31
0.0
  0
ARC
  8
OBJECT
 62
     7
 10
72.951074
 20
27.436845
 30
0.0
 40
0.1
 50
14.477512
 51
165.522488
  0
ARC
  8
OBJECT
 62
     7
 10
73.941074
 20
27.436845
 30
0.0
 40
0.1
 50
14.477512
 51
165.522488
  0
LINE
  8
OBJECT
 62
     7
 10
74.148574
 20
27.436845
 30
0.0
 11
73.733574
 21
27.436845
 31
0.0
  0
LINE
  8
OBJECT
 62
     7
 10
73.733574
 20
27.461845
 30
0.0
 11
74.148574
 21
27.461845
 31
0.0
  0
ARC
  8
OBJECT
 62
     7
 10
73.941074
 20
27.436845
 30
0.0
 40
0.1
 50
180.0
 51
207.526576
  0
LINE
  8
OBJECT
 62
     7
 10
73.818574
 20
27.461845
 30
0.0
 11
73.818574
 21
27.611845
 31
0.0
  0
ARC
  8
OBJECT
 62
     7
 10
73.446074
 20
27.436845
 30
0.0
 40
0.1
 50
180.0
 51
207.526576
  0
ARC
  8
OBJECT
 62
     7
 10
73.446074
 20
27.436845
 30
0.0
 40
0.1
 50
332.473424
 51
0.0
  0
LINE
  8
OBJECT
 62
     7
 10
73.238574
 20
27.461845
 30
0.0
 11
73.653574
 21
27.461845
 31
0.0
  0
LINE
  8
OBJECT
 62
     7
 10
73.653574
 20
27.436845
 30
0.0
 11
73.238574
 21
27.436845
 31
0.0
  0
LINE
  8
OBJECT
 62
     7
 10
73.568574
 20
27.461845
 30
0.0
 11
73.568574
 21
27.611845
 31
0.0
  0
LINE
  8
OBJECT
 62
     7
 10
73.323574
 20
27.461845
 30
0.0
 11
73.323574
 21
27.611845
 31
0.0
  0
ARC
  8
OBJECT
 62
     7
 10
73.446074
 20
27.436845
 30
0.0
 40
0.1
 50
14.477512
 51
165.522488
  0
LINE
  8
OBJECT
 62
     7
 10
73.238574
 20
27.436845
 30
0.0
 11
73.238574
 21
27.461845
 31
0.0
  0
LINE
  8
OBJECT
 62
     7
 10
73.653574
 20
27.461845
 30
0.0
 11
73.653574
 21
27.436845
 31
0.0
  0
LINE
  8
OBJECT
 62
     7
 10
73.733574
 20
27.436845
 30
0.0
 11
73.733574
 21
27.461845
 31
0.0
  0
LINE
  8
OBJECT
 62
     7
 10
73.568574
 20
27.611845
 30
0.0
 11
73.818574
 21
27.611845
 31
0.0
  0
ARC
  8
OBJECT
 62
     7
 10
73.941074
 20
27.436845
 30
0.0
 40
0.1
 50
332.473424
 51
0.0
  0
LINE
  8
OBJECT
 62
     7
 10
74.148574
 20
27.461845
 30
0.0
 11
74.148574
 21
27.436845
 31
0.0
  0
LINE
  8
OBJECT
 62
     7
 10
73.073574
 20
28.351845
 30
0.0
 11
73.323574
 21
28.351845
 31
0.0
  0
CIRCLE
  8
OBJECT
 62
     7
 10
73.203574
 20
27.981845
 30
0.0
 40
0.075
  0
ARC
  8
OBJECT
 62
     7
 10
72.456074
 20
28.526845
 30
0.0
 40
0.1
 50
194.477512
 51
345.522488
  0
LINE
  8
OBJECT
 62
     7
 10
72.663574
 20
28.526845
 30
0.0
 11
72.248574
 21
28.526845
 31
0.0
  0
LINE
  8
OBJECT
 62
     7
 10
72.248574
 20
28.501845
 30
0.0
 11
72.663574
 21
28.501845
 31
0.0
  0
LINE
  8
OBJECT
 62
     7
 10
72.333574
 20
28.501845
 30
0.0
 11
72.333574
 21
28.351845
 31
0.0
  0
ARC
  8
OBJECT
 62
     7
 10
72.456074
 20
28.526845
 30
0.0
 40
0.1
 50
152.473424
 51
180.0
  0
LINE
  8
OBJECT
 62
     7
 10
72.083574
 20
28.501845
 30
0.0
 11
72.083574
 21
28.351845
 31
0.0
  0
LINE
  8
OBJECT
 62
     7
 10
71.838574
 20
28.501845
 30
0.0
 11
71.838574
 21
28.351845
 31
0.0
  0
ARC
  8
OBJECT
 62
     7
 10
71.961074
 20
28.526845
 30
0.0
 40
0.1
 50
194.477512
 51
345.522488
  0
LINE
  8
OBJECT
 62
     7
 10
72.168574
 20
28.526845
 30
0.0
 11
71.753574
 21
28.526845
 31
0.0
  0
LINE
  8
OBJECT
 62
     7
 10
71.753574
 20
28.501845
 30
0.0
 11
72.168574
 21
28.501845
 31
0.0
  0
ARC
  8
OBJECT
 62
     7
 10
71.961074
 20
28.526845
 30
0.0
 40
0.1
 50
152.473424
 51
180.0
  0
LINE
  8
OBJECT
 62
     7
 10
71.753574
 20
28.526845
 30
0.0
 11
71.753574
 21
28.501845
 31
0.0
  0
LINE
  8
OBJECT
 62
     7
 10
71.673574
 20
28.501845
 30
0.0
 11
71.673574
 21
28.526845
 31
0.0
  0
LINE
  8
OBJECT
 62
     7
 10
72.168574
 20
28.501845
 30
0.0
 11
72.168574
 21
28.526845
 31
0.0
  0
ARC
  8
OBJECT
 62
     7
 10
71.961074
 20
28.526845
 30
0.0
 40
0.1
 50
0.0
 51
27.526576
  0
LINE
  8
OBJECT
 62
     7
 10
72.248574
 20
28.526845
 30
0.0
 11
72.248574
 21
28.501845
 31
0.0
  0
CIRCLE
  8
OBJECT
 62
     7
 10
72.213574
 20
27.981845
 30
0.0
 40
0.075
  0
LINE
  8
OBJECT
 62
     7
 10
72.083574
 20
28.351845
 30
0.0
 11
72.333574
 21
28.351845
 31
0.0
  0
LINE
  8
OBJECT
 62
     7
 10
73.073574
 20
28.501845
 30
0.0
 11
73.073574
 21
28.351845
 31
0.0
  0
ARC
  8
OBJECT
 62
     7
 10
72.951074
 20
28.526845
 30
0.0
 40
0.1
 50
0.0
 51
27.526576
  0
LINE
  8
OBJECT
 62
     7
 10
73.158574
 20
28.501845
 30
0.0
 11
73.158574
 21
28.526845
 31
0.0
  0
LINE
  8
OBJECT
 62
     7
 10
72.828574
 20
28.501845
 30
0.0
 11
72.828574
 21
28.351845
 31
0.0
  0
LINE
  8
OBJECT
 62
     7
 10
72.578574
 20
28.501845
 30
0.0
 11
72.578574
 21
28.351845
 31
0.0
  0
CIRCLE
  8
OBJECT
 62
     7
 10
72.708574
 20
27.981845
 30
0.0
 40
0.075
  0
LINE
  8
OBJECT
 62
     7
 10
72.578574
 20
28.351845
 30
0.0
 11
72.828574
 21
28.351845
 31
0.0
  0
LINE
  8
OBJECT
 62
     7
 10
72.606074
 20
27.891845
 30
0.0
 11
72.636074
 21
27.891845
 31
0.0
  0
LINE
  8
OBJECT
 62
     7
 10
72.606074
 20
28.071845
 30
0.0
 11
72.636074
 21
28.071845
 31
0.0
  0
ARC
  8
OBJECT
 62
     7
 10
72.606074
 20
27.981845
 30
0.0
 40
0.09
 50
90.0
 51
270.0
  0
ARC
  8
OBJECT
 62
     7
 10
72.636074
 20
27.981845
 30
0.0
 40
0.09
 50
270.0
 51
90.0
  0
ARC
  8
OBJECT
 62
     7
 10
72.456074
 20
28.526845
 30
0.0
 40
0.1
 50
0.0
 51
27.526576
  0
LINE
  8
OBJECT
 62
     7
 10
72.663574
 20
28.501845
 30
0.0
 11
72.663574
 21
28.526845
 31
0.0
  0
LINE
  8
OBJECT
 62
     7
 10
72.743574
 20
28.526845
 30
0.0
 11
72.743574
 21
28.501845
 31
0.0
  0
ARC
  8
OBJECT
 62
     7
 10
72.951074
 20
28.526845
 30
0.0
 40
0.1
 50
152.473424
 51
180.0
  0
LINE
  8
OBJECT
 62
     7
 10
73.158574
 20
28.526845
 30
0.0
 11
72.743574
 21
28.526845
 31
0.0
  0
LINE
  8
OBJECT
 62
     7
 10
72.743574
 20
28.501845
 30
0.0
 11
73.158574
 21
28.501845
 31
0.0
  0
ARC
  8
OBJECT
 62
     7
 10
72.951074
 20
28.526845
 30
0.0
 40
0.1
 50
194.477512
 51
345.522488
  0
CIRCLE
  8
HOUSE-HID
 62
     7
 10
72.621074
 20
27.981845
 30
0.0
 40
0.082
  0
ARC
  8
OBJECT
 62
     7
 10
73.941074
 20
28.526845
 30
0.0
 40
0.1
 50
194.477512
 51
345.522488
  0
LINE
  8
OBJECT
 62
     7
 10
73.733574
 20
28.501845
 30
0.0
 11
74.148574
 21
28.501845
 31
0.0
  0
LINE
  8
OBJECT
 62
     7
 10
74.148574
 20
28.526845
 30
0.0
 11
73.733574
 21
28.526845
 31
0.0
  0
LINE
  8
OBJECT
 62
     7
 10
73.818574
 20
28.501845
 30
0.0
 11
73.818574
 21
28.351845
 31
0.0
  0
ARC
  8
OBJECT
 62
     7
 10
73.941074
 20
28.526845
 30
0.0
 40
0.1
 50
152.473424
 51
180.0
  0
LINE
  8
OBJECT
 62
     7
 10
73.568574
 20
28.501845
 30
0.0
 11
73.568574
 21
28.351845
 31
0.0
  0
LINE
  8
OBJECT
 62
     7
 10
73.323574
 20
28.501845
 30
0.0
 11
73.323574
 21
28.351845
 31
0.0
  0
LINE
  8
OBJECT
 62
     7
 10
73.653574
 20
28.526845
 30
0.0
 11
73.238574
 21
28.526845
 31
0.0
  0
LINE
  8
OBJECT
 62
     7
 10
73.238574
 20
28.501845
 30
0.0
 11
73.653574
 21
28.501845
 31
0.0
  0
LINE
  8
OBJECT
 62
     7
 10
73.238574
 20
28.526845
 30
0.0
 11
73.238574
 21
28.501845
 31
0.0
  0
ARC
  8
OBJECT
 62
     7
 10
73.446074
 20
28.526845
 30
0.0
 40
0.1
 50
194.477512
 51
345.522488
  0
ARC
  8
OBJECT
 62
     7
 10
73.446074
 20
28.526845
 30
0.0
 40
0.1
 50
0.0
 51
27.526576
  0
ARC
  8
OBJECT
 62
     7
 10
73.446074
 20
28.526845
 30
0.0
 40
0.1
 50
152.473424
 51
180.0
  0
LINE
  8
OBJECT
 62
     7
 10
73.653574
 20
28.501845
 30
0.0
 11
73.653574
 21
28.526845
 31
0.0
  0
LINE
  8
OBJECT
 62
     7
 10
73.733574
 20
28.526845
 30
0.0
 11
73.733574
 21
28.501845
 31
0.0
  0
LINE
  8
OBJECT
 62
     7
 10
73.568574
 20
28.351845
 30
0.0
 11
73.818574
 21
28.351845
 31
0.0
  0
CIRCLE
  8
OBJECT
 62
     7
 10
73.698574
 20
27.981845
 30
0.0
 40
0.075
  0
LINE
  8
OBJECT
 62
     7
 10
74.148574
 20
28.501845
 30
0.0
 11
74.148574
 21
28.526845
 31
0.0
  0
ARC
  8
OBJECT
 62
     7
 10
73.941074
 20
28.526845
 30
0.0
 40
0.1
 50
0.0
 51
27.526576
  0
ARC
  8
OBJECT
 62
     7
 10
76.996074
 20
27.966845
 30
0.0
 40
0.09
 50
180.0
 51
360.0
  0
ARC
  8
OBJECT
 62
     7
 10
76.996074
 20
27.996845
 30
0.0
 40
0.09
 50
0.0
 51
180.0
  0
LINE
  8
OBJECT
 62
     7
 10
76.906074
 20
27.996845
 30
0.0
 11
76.906074
 21
27.966845
 31
0.0
  0
LINE
  8
OBJECT
 62
     7
 10
77.086074
 20
27.996845
 30
0.0
 11
77.086074
 21
27.966845
 31
0.0
  0
CIRCLE
  8
HOUSE-HID
 62
     7
 10
76.996074
 20
27.981845
 30
0.0
 40
0.082
  0
LINE
  8
OBJECT
 62
     7
 10
77.586074
 20
27.996845
 30
0.0
 11
77.586074
 21
27.966845
 31
0.0
  0
LINE
  8
OBJECT
 62
     7
 10
77.406074
 20
27.996845
 30
0.0
 11
77.406074
 21
27.966845
 31
0.0
  0
ARC
  8
OBJECT
 62
     7
 10
77.496074
 20
27.996845
 30
0.0
 40
0.09
 50
0.0
 51
180.0
  0
ARC
  8
OBJECT
 62
     7
 10
77.496074
 20
27.966845
 30
0.0
 40
0.09
 50
180.0
 51
360.0
  0
CIRCLE
  8
HOUSE-HID
 62
     7
 10
77.496074
 20
27.981845
 30
0.0
 40
0.082
  0
LINE
  8
OBJECT
 62
     7
 10
78.121074
 20
28.419345
 30
0.0
 11
78.121074
 21
27.544345
 31
0.0
  0
LINE
  8
OBJECT
 62
     7
 10
78.021074
 20
28.419345
 30
0.0
 11
78.021074
 21
27.544345
 31
0.0
  0
LINE
  8
HOUSE
 62
     7
 10
78.621074
 20
29.95022
 30
0.0
 11
78.621074
 21
26.60747
 31
0.0
  0
LINE
  8
HOUSE
 62
     7
 10
78.574074
 20
26.60747
 30
0.0
 11
78.574074
 21
29.95022
 31
0.0
  0
ARC
  8
OBJECT
 62
     7
 10
78.094763
 20
27.484807
 30
0.0
 40
0.094736
 50
141.062614
 51
254.282556
  0
LINE
  8
OBJECT
 62
     7
 10
78.121074
 20
27.393613
 30
0.0
 11
78.121074
 21
27.286845
 31
0.0
  0
LINE
  8
OBJECT
 62
     7
 10
78.021074
 20
27.544345
 30
0.0
 11
78.121074
 21
27.544345
 31
0.0
  0
ARC
  8
HOUSE
 62
     7
 10
78.558449
 20
26.60747
 30
0.0
 40
0.062625
 50
270.0
 51
360.0
  0
ARC
  8
HOUSE
 62
     7
 10
78.558449
 20
26.60747
 30
0.0
 40
0.015625
 50
270.0
 51
0.0
  0
LINE
  8
HOUSE
 62
     7
 10
78.121074
 20
26.544845
 30
0.0
 11
78.121074
 21
26.591845
 31
0.0
  0
ARC
  8
OBJECT
 62
     7
 10
78.094763
 20
28.478884
 30
0.0
 40
0.094736
 50
96.226197
 51
218.937386
  0
LINE
  8
OBJECT
 62
     7
 10
78.021074
 20
28.419345
 30
0.0
 11
78.121074
 21
28.419345
 31
0.0
  0
LINE
  8
OBJECT
 62
     7
 10
78.121074
 20
28.676845
 30
0.0
 11
78.121074
 21
28.573061
 31
0.0
  0
ARC
  8
HOUSE
 62
     7
 10
78.558449
 20
29.95022
 30
0.0
 40
0.062625
 50
0.0
 51
90.0
  0
ARC
  8
HOUSE
 62
     7
 10
78.558449
 20
29.95022
 30
0.0
 40
0.015625
 50
0.0
 51
90.0
  0
TEXT
  8
TEXT
 62
     7
 10
63.236307
 20
86.295381
 30
0.0
 40
1.0
  1
%%USECTION "A-A"
 41
0.75
 72
     1
 11
67.623807
 21
86.295381
 31
0.0
  0
TEXT
  8
TEXT
 10
60.182894
 20
120.983288
 30
0.0
 40
1.25
  1
KS-1785
 41
0.75
 72
     1
 11
63.151644
 21
120.983288
 31
0.0
  0
LINE
  8
HIDDEN
 62
     7
 10
65.523807
 20
90.232462
 30
0.0
 11
65.373807
 21
90.302462
 31
0.0
  0
POLYLINE
  8
HIDDEN
 62
     7
 66
     1
 10
0.0
 20
0.0
 30
0.0
  0
VERTEX
  8
HIDDEN
 62
     7
 10
64.498807
 20
89.969881
 30
0.0
  0
VERTEX
  8
HIDDEN
 62
     7
 10
64.818807
 20
90.037381
 30
0.0
  0
VERTEX
  8
HIDDEN
 62
     7
 10
65.268807
 20
90.037381
 30
0.0
  0
VERTEX
  8
HIDDEN
 62
     7
 10
65.268807
 20
89.874881
 30
0.0
  0
VERTEX
  8
HIDDEN
 62
     7
 10
65.668807
 20
89.874881
 30
0.0
  0
VERTEX
  8
HIDDEN
 62
     7
 10
65.668807
 20
90.037381
 30
0.0
  0
VERTEX
  8
HIDDEN
 62
     7
 10
68.248807
 20
90.037381
 30
0.0
  0
VERTEX
  8
HIDDEN
 62
     7
 10
68.248807
 20
89.427381
 30
0.0
  0
VERTEX
  8
HIDDEN
 62
     7
 10
65.668807
 20
89.427381
 30
0.0
  0
VERTEX
  8
HIDDEN
 62
     7
 10
65.668807
 20
89.589881
 30
0.0
  0
VERTEX
  8
HIDDEN
 62
     7
 10
65.268807
 20
89.589881
 30
0.0
  0
VERTEX
  8
HIDDEN
 62
     7
 10
65.268807
 20
89.427381
 30
0.0
  0
VERTEX
  8
HIDDEN
 62
     7
 10
64.818807
 20
89.427381
 30
0.0
  0
VERTEX
  8
HIDDEN
 62
     7
 10
64.498807
 20
89.494881
 30
0.0
  0
SEQEND
  8
HIDDEN
 62
     7
  0
LINE
  8
HIDDEN
 62
     7
 10
65.523807
 20
89.2323
 30
0.0
 11
65.373807
 21
89.1623
 31
0.0
  0
POLYLINE
  8
HIDDEN
 62
     7
 66
     1
 10
0.0
 20
0.0
 30
0.0
 70
     1
  0
VERTEX
  8
HIDDEN
 62
     7
 10
69.213807
 20
89.449881
 30
0.0
  0
VERTEX
  8
HIDDEN
 62
     7
 10
69.213807
 20
90.014881
 30
0.0
  0
VERTEX
  8
HIDDEN
 62
     7
 10
68.963807
 20
90.014881
 30
0.0
  0
VERTEX
  8
HIDDEN
 62
     7
 10
68.963807
 20
90.044881
 30
0.0
  0
VERTEX
  8
HIDDEN
 62
     7
 10
69.213807
 20
90.044881
 30
0.0
  0
VERTEX
  8
HIDDEN
 62
     7
 10
69.213807
 20
90.107381
 30
0.0
 42
0.236205
  0
VERTEX
  8
HIDDEN
 62
     7
 10
69.027779
 20
90.232462
 30
0.0
  0
VERTEX
  8
HIDDEN
 62
     7
 10
57.373807
 20
90.232462
 30
0.0
  0
VERTEX
  8
HIDDEN
 62
     7
 10
57.373807
 20
89.2323
 30
0.0
  0
VERTEX
  8
HIDDEN
 62
     7
 10
69.027779
 20
89.2323
 30
0.0
 42
0.236205
  0
VERTEX
  8
HIDDEN
 62
     7
 10
69.213807
 20
89.357381
 30
0.0
  0
VERTEX
  8
HIDDEN
 62
     7
 10
69.213807
 20
89.419881
 30
0.0
  0
VERTEX
  8
HIDDEN
 62
     7
 10
68.963807
 20
89.419881
 30
0.0
  0
VERTEX
  8
HIDDEN
 62
     7
 10
68.963807
 20
89.449881
 30
0.0
  0
SEQEND
  8
HIDDEN
 62
     7
  0
LINE
  8
HIDDEN
 62
     7
 10
65.373807
 20
89.037381
 30
0.0
 11
69.373807
 21
89.037381
 31
0.0
  0
LINE
  8
HIDDEN
 62
     7
 10
65.373807
 20
89.107381
 30
0.0
 11
69.373807
 21
89.107381
 31
0.0
  0
LINE
  8
HIDDEN
 62
     7
 10
65.373807
 20
89.144148
 30
0.0
 11
69.373807
 21
89.144148
 31
0.0
  0
LINE
  8
HIDDEN
 62
     7
 10
65.373807
 20
90.427381
 30
0.0
 11
69.373807
 21
90.427381
 31
0.0
  0
LINE
  8
HIDDEN
 62
     7
 10
65.373807
 20
90.357381
 30
0.0
 11
69.373807
 21
90.357381
 31
0.0
  0
LINE
  8
HIDDEN
 62
     7
 10
65.373807
 20
90.323597
 30
0.0
 11
69.373807
 21
90.323597
 31
0.0
  0
LINE
  8
SHELF
 62
     7
 10
57.435807
 20
89.061381
 30
0.0
 11
69.311807
 21
89.061381
 31
0.0
  0
LINE
  8
SHELF
 62
     7
 10
57.373807
 20
89.014381
 30
0.0
 11
69.373807
 21
89.014381
 31
0.0
  0
LINE
  8
SHELF
 62
     7
 10
57.373807
 20
90.717381
 30
0.0
 11
69.373807
 21
90.717381
 31
0.0
  0
LINE
  8
SHELF
 62
     7
 10
57.373807
 20
90.764381
 30
0.0
 11
69.373807
 21
90.764381
 31
0.0
  0
LINE
  8
HOUSE
 62
     7
 10
77.811182
 20
88.295381
 30
0.0
 11
65.373807
 21
88.295381
 31
0.0
  0
LINE
  8
HOUSE
 62
     7
 10
77.811182
 20
88.342381
 30
0.0
 11
65.373807
 21
88.342381
 31
0.0
  0
LINE
  8
HOUSE
 62
     7
 10
65.373807
 20
91.763381
 30
0.0
 11
77.811182
 21
91.763381
 31
0.0
  0
LINE
  8
HOUSE
 62
     7
 10
77.811182
 20
91.716381
 30
0.0
 11
65.373807
 21
91.716381
 31
0.0
  0
DIMENSION
  8
DIM
 62
     7
  2
*D51
 10
61.946967
 20
99.153479
 30
0.0
 11
61.946967
 21
102.403479
 31
0.0
  1
<> REF.
 13
57.058967
 23
105.653479
 33
0.0
 14
57.058967
 24
99.153479
 34
0.0
 50
90.0
  3
23NSTDI
  0
LINE
  8
HIDDEN
 62
     7
 10
50.306467
 20
98.560479
 30
0.0
 11
50.306467
 21
110.400479
 31
0.0
  0
LINE
  8
HIDDEN
 62
     7
 10
50.031467
 20
98.560479
 30
0.0
 11
50.031467
 21
110.400479
 31
0.0
  0
LINE
  8
SHELF
 62
     7
 10
49.968967
 20
106.513479
 30
0.0
 11
49.968967
 21
98.560479
 31
0.0
  0
LINE
  8
SHELF
 62
     7
 10
50.343967
 20
106.513479
 30
0.0
 11
50.343967
 21
98.685479
 31
0.0
  0
LINE
  8
CHAN-HID
 62
     7
 10
49.640967
 20
98.622479
 30
0.0
 11
49.640967
 21
99.575479
 31
0.0
  0
POLYLINE
  8
HIDDEN
 62
     7
 66
     1
 10
0.0
 20
0.0
 30
0.0
  0
VERTEX
  8
HIDDEN
 62
     7
 10
41.558967
 20
99.122479
 30
0.0
  0
VERTEX
  8
HIDDEN
 62
     7
 10
41.558967
 20
99.398216
 30
0.0
  0
VERTEX
  8
HIDDEN
 62
     7
 10
41.585565
 20
99.497479
 30
0.0
  0
VERTEX
  8
HIDDEN
 62
     7
 10
41.69637
 20
99.497479
 30
0.0
  0
VERTEX
  8
HIDDEN
 62
     7
 10
41.722967
 20
99.398216
 30
0.0
  0
VERTEX
  8
HIDDEN
 62
     7
 10
41.722967
 20
99.122479
 30
0.0
  0
SEQEND
  8
HIDDEN
 62
     7
  0
LINE
  8
MOUSE-HID
 62
     7
 10
57.011967
 20
99.153479
 30
0.0
 11
57.011967
 21
105.653479
 31
0.0
  0
LINE
  8
MOUSE-HID
 62
     7
 10
41.105967
 20
99.153479
 30
0.0
 11
41.105967
 21
105.653479
 31
0.0
  0
LINE
  8
MOUSE
 62
     7
 10
57.058967
 20
99.153479
 30
0.0
 11
57.058967
 21
105.653479
 31
0.0
  0
LINE
  8
MOUSE-HID
 62
     7
 10
41.058967
 20
99.153479
 30
0.0
 11
41.058967
 21
105.653479
 31
0.0
  0
LINE
  8
SHELF-HID
 62
     7
 10
50.015967
 20
98.560479
 30
0.0
 11
50.015967
 21
110.560479
 31
0.0
  0
DIMENSION
  8
DIM
 62
     7
  2
*D36
 10
57.058967
 20
95.680479
 30
0.0
 11
53.701467
 21
95.680479
 31
0.0
 13
50.343967
 23
98.685479
 33
0.0
 14
57.058967
 24
99.153479
 34
0.0
  3
23NSTDI
  0
LINE
  8
MOUSE
 62
     7
 10
50.343967
 20
99.153479
 30
0.0
 11
57.058967
 21
99.153479
 31
0.0
  0
LINE
  8
MOUSE-HID
 62
     7
 10
56.995967
 20
99.200479
 30
0.0
 11
41.121967
 21
99.200479
 31
0.0
  0
POLYLINE
  8
OBJECT
 62
     7
 66
     1
 10
0.0
 20
0.0
 30
0.0
 70
     1
  0
VERTEX
  8
OBJECT
 62
     7
 10
41.66082
 20
70.593475
 30
0.0
  0
VERTEX
  8
OBJECT
 62
     7
 10
41.652188
 20
70.607633
 30
0.0
  0
VERTEX
  8
OBJECT
 62
     7
 10
41.629746
 20
70.607633
 30
0.0
  0
VERTEX
  8
OBJECT
 62
     7
 10
41.621115
 20
70.593475
 30
0.0
 42
-0.172267
  0
VERTEX
  8
OBJECT
 62
     7
 10
41.439784
 20
70.671958
 30
0.0
 42
-0.740612
  0
VERTEX
  8
OBJECT
 62
     7
 10
41.444599
 20
70.687754
 30
0.0
  0
VERTEX
  8
OBJECT
 62
     7
 10
41.837336
 20
70.687754
 30
0.0
 42
-0.740612
  0
VERTEX
  8
OBJECT
 62
     7
 10
41.842151
 20
70.671958
 30
0.0
 42
-0.172267
  0
SEQEND
  8
OBJECT
 62
     7
  0
POLYLINE
  8
HIDDEN
 62
     7
 66
     1
 10
0.0
 20
0.0
 30
0.0
  0
VERTEX
  8
HIDDEN
 62
     7
 10
41.558967
 20
70.187754
 30
0.0
  0
VERTEX
  8
HIDDEN
 62
     7
 10
41.558967
 20
70.463491
 30
0.0
  0
VERTEX
  8
HIDDEN
 62
     7
 10
41.585565
 20
70.562754
 30
0.0
  0
VERTEX
  8
HIDDEN
 62
     7
 10
41.69637
 20
70.562754
 30
0.0
  0
VERTEX
  8
HIDDEN
 62
     7
 10
41.722967
 20
70.463491
 30
0.0
  0
VERTEX
  8
HIDDEN
 62
     7
 10
41.722967
 20
70.187754
 30
0.0
  0
SEQEND
  8
HIDDEN
 62
     7
  0
POLYLINE
  8
OBJECT
 62
     7
 66
     1
 10
0.0
 20
0.0
 30
0.0
 70
     1
  0
VERTEX
  8
OBJECT
 62
     7
 10
41.66082
 20
77.438033
 30
0.0
  0
VERTEX
  8
OBJECT
 62
     7
 10
41.652188
 20
77.423875
 30
0.0
  0
VERTEX
  8
OBJECT
 62
     7
 10
41.629746
 20
77.423875
 30
0.0
  0
VERTEX
  8
OBJECT
 62
     7
 10
41.621115
 20
77.438033
 30
0.0
 42
0.172267
  0
VERTEX
  8
OBJECT
 62
     7
 10
41.439784
 20
77.359549
 30
0.0
 42
0.740612
  0
VERTEX
  8
OBJECT
 62
     7
 10
41.444599
 20
77.343754
 30
0.0
  0
VERTEX
  8
OBJECT
 62
     7
 10
41.837336
 20
77.343754
 30
0.0
 42
0.740612
  0
VERTEX
  8
OBJECT
 62
     7
 10
41.842151
 20
77.359549
 30
0.0
 42
0.172267
  0
SEQEND
  8
OBJECT
 62
     7
  0
POLYLINE
  8
HIDDEN
 62
     7
 66
     1
 10
0.0
 20
0.0
 30
0.0
  0
VERTEX
  8
HIDDEN
 62
     7
 10
41.558967
 20
77.343754
 30
0.0
  0
VERTEX
  8
HIDDEN
 62
     7
 10
41.558967
 20
77.068017
 30
0.0
  0
VERTEX
  8
HIDDEN
 62
     7
 10
41.585565
 20
76.968754
 30
0.0
  0
VERTEX
  8
HIDDEN
 62
     7
 10
41.69637
 20
76.968754
 30
0.0
  0
VERTEX
  8
HIDDEN
 62
     7
 10
41.722967
 20
77.068017
 30
0.0
  0
VERTEX
  8
HIDDEN
 62
     7
 10
41.722967
 20
77.343754
 30
0.0
  0
SEQEND
  8
HIDDEN
 62
     7
  0
LINE
  8
HIDDEN
 62
     7
 10
50.344467
 20
77.858754
 30
0.0
 11
50.344467
 21
65.858754
 31
0.0
  0
LINE
  8
HIDDEN
 62
     7
 10
50.306467
 20
77.858754
 30
0.0
 11
50.306467
 21
66.018754
 31
0.0
  0
LINE
  8
HIDDEN
 62
     7
 10
50.095976
 20
77.764753
 30
0.0
 11
50.095976
 21
65.858754
 31
0.0
  0
LINE
  8
HIDDEN
 62
     7
 10
50.406467
 20
77.858754
 30
0.0
 11
50.406467
 21
65.858754
 31
0.0
  0
LINE
  8
HIDDEN
 62
     7
 10
50.031467
 20
77.69075
 30
0.0
 11
50.031467
 21
66.018754
 31
0.0
  0
LINE
  8
CHAN
 62
     7
 10
49.640967
 20
71.187754
 30
0.0
 11
49.640967
 21
70.234754
 31
0.0
  0
LINE
  8
SHELF-HID
 62
     7
 10
49.968967
 20
77.483461
 30
0.0
 11
49.968967
 21
65.858754
 31
0.0
  0
LINE
  8
SHELF-HID
 62
     7
 10
50.015967
 20
77.858754
 30
0.0
 11
50.015967
 21
65.858754
 31
0.0
  0
LINE
  8
SHELF-HID
 62
     7
 10
50.343967
 20
77.733754
 30
0.0
 11
50.343967
 21
65.983754
 31
0.0
  0
LINE
  8
HOUSE
 62
     7
 10
49.968967
 20
77.483461
 30
0.0
 11
49.968967
 21
65.889754
 31
0.0
  0
LINE
  8
HOUSE
 62
     7
 10
50.468967
 20
77.796129
 30
0.0
 11
50.468967
 21
65.358754
 31
0.0
  0
LINE
  8
HOUSE-HID
 62
     7
 10
50.421967
 20
65.889754
 30
0.0
 11
50.421967
 21
77.796129
 31
0.0
  0
ARC
  8
SHELF-HID
 62
     7
 10
50.218967
 20
65.983754
 30
0.0
 40
0.125
 50
270.0
 51
0.0
  0
LINE
  8
SHELF-HID
 62
     7
 10
49.952967
 20
65.905754
 30
0.0
 11
49.952967
 21
65.858754
 31
0.0
  0
LINE
  8
HOUSE
 62
     7
 10
49.968967
 20
65.889754
 30
0.0
 11
50.468967
 21
65.889754
 31
0.0
  0
LINE
  8
HIDDEN
 62
     7
 10
50.406467
 20
65.858754
 30
0.0
 11
50.095976
 21
65.858754
 31
0.0
  0
LINE
  8
HOUSE
 62
     7
 10
50.390967
 20
65.858754
 30
0.0
 11
50.390967
 21
65.358754
 31
0.0
  0
LINE
  8
HOUSE
 62
     7
 10
50.421967
 20
65.889754
 30
0.0
 11
50.421967
 21
65.358754
 31
0.0
  0
LINE
  8
HIDDEN
 62
     7
 10
50.031467
 20
66.018754
 30
0.0
 11
50.306467
 21
66.018754
 31
0.0
  0
LINE
  8
MOUSE
 62
     7
 10
49.640967
 20
77.265754
 30
0.0
 11
49.640967
 21
70.765754
 31
0.0
  0
LINE
  8
MOUSE
 62
     7
 10
49.593967
 20
77.265754
 30
0.0
 11
49.593967
 21
70.765754
 31
0.0
  0
LINE
  8
MOUSE-HID
 62
     7
 10
49.577967
 20
70.812754
 30
0.0
 11
49.577967
 21
70.765754
 31
0.0
  0
LINE
  8
MOUSE-HID
 62
     7
 10
49.140967
 20
70.812754
 30
0.0
 11
49.140967
 21
70.765754
 31
0.0
  0
LINE
  8
MOUSE-HID
 62
     7
 10
49.577967
 20
77.265754
 30
0.0
 11
49.577967
 21
77.218754
 31
0.0
  0
LINE
  8
MOUSE-HID
 62
     7
 10
49.140967
 20
77.265754
 30
0.0
 11
49.140967
 21
77.218754
 31
0.0
  0
LINE
  8
CHAN
 62
     7
 10
49.640967
 20
77.796754
 30
0.0
 11
49.640967
 21
76.843754
 31
0.0
  0
LINE
  8
OBJECT
 62
     7
 10
50.095976
 20
77.764753
 30
0.0
 11
50.095976
 21
77.858754
 31
0.0
  0
LINE
  8
OBJECT
 62
     7
 10
50.031467
 20
77.69075
 30
0.0
 11
50.031467
 21
77.858754
 31
0.0
  0
LINE
  8
SHELF
 62
     7
 10
49.968967
 20
77.483461
 30
0.0
 11
49.968967
 21
77.858754
 31
0.0
  0
ARC
  8
SHELF
 62
     7
 10
50.218967
 20
77.733754
 30
0.0
 40
0.125
 50
0.0
 51
90.0
  0
LINE
  8
SHELF-HID
 62
     7
 10
49.952967
 20
77.858754
 30
0.0
 11
49.952967
 21
77.811754
 31
0.0
  0
LINE
  8
HOUSE
 62
     7
 10
51.140967
 20
77.858754
 30
0.0
 11
51.140967
 21
77.811754
 31
0.0
  0
ARC
  8
HOUSE
 62
     7
 10
50.484592
 20
77.796129
 30
0.0
 40
0.062625
 50
90.0
 51
180.0
  0
ARC
  8
HOUSE
 62
     7
 10
50.343967
 20
77.483461
 30
0.0
 40
0.375
 50
90.0
 51
180.0
  0
ARC
  8
HOUSE
 62
     7
 10
50.484592
 20
77.796129
 30
0.0
 40
0.015625
 50
90.0
 51
180.0
  0
LINE
  8
HOUSE
 62
     7
 10
51.140967
 20
77.811754
 30
0.0
 11
50.484592
 21
77.811754
 31
0.0
  0
LINE
  8
OBJECT
 62
     7
 10
50.306467
 20
77.858754
 30
0.0
 11
50.306467
 21
77.858754
 31
0.0
  0
LINE
  8
OBJECT
 62
     7
 10
50.306467
 20
77.858754
 30
0.0
 11
50.031467
 21
77.858754
 31
0.0
  0
LINE
  8
OBJECT
 62
     7
 10
50.406467
 20
77.858754
 30
0.0
 11
50.095976
 21
77.858754
 31
0.0
  0
LINE
  8
OBJECT
 62
     7
 10
50.390967
 20
77.858461
 30
0.0
 11
50.343967
 21
77.858461
 31
0.0
  0
LINE
  8
MOUSE-HID
 62
     7
 10
50.343967
 20
99.153479
 30
0.0
 11
41.058967
 21
99.153479
 31
0.0
  0
TEXT
  8
TEXT
 62
     7
 10
43.072831
 20
87.120285
 30
0.0
 40
1.0
  1
A
 41
0.75
 72
     4
 11
43.322831
 21
87.620285
 31
0.0
  0
LINE
  8
OBJECT
 62
     7
 10
41.828303
 20
88.690233
 30
0.0
 11
41.453632
 21
88.690233
 31
0.0
  0
LINE
  8
OBJECT
 62
     7
 10
41.828303
 20
88.650528
 30
0.0
 11
41.453632
 21
88.650528
 31
0.0
  0
CIRCLE
  8
OBJECT
 62
     7
 10
41.640967
 20
88.670381
 30
0.0
 40
0.188384
  0
CIRCLE
  8
CHAN-HID
 62
     7
 10
41.640967
 20
88.670381
 30
0.0
 40
0.068
  0
LINE
  8
CENTER
 62
     7
 10
41.640967
 20
88.795381
 30
0.0
 11
41.640967
 21
88.545381
 31
0.0
  0
SOLID
  8
BEND
 62
     7
 10
45.494356
 20
87.283194
 30
0.0
 11
45.494356
 21
87.763193
 31
0.0
 12
44.054358
 22
87.523194
 32
0.0
 13
44.054358
 23
87.523194
 33
0.0
  0
TEXT
  8
TEXT
 62
     7
 10
43.072831
 20
92.369806
 30
0.0
 40
1.0
  1
A
 41
0.75
 72
     4
 11
43.322831
 21
92.869806
 31
0.0
  0
POLYLINE
  8
HIDDEN
 62
     7
 66
     1
 10
0.0
 20
0.0
 30
0.0
 70
     1
  0
VERTEX
  8
HIDDEN
 62
     7
 10
41.66082
 20
99.0282
 30
0.0
  0
VERTEX
  8
HIDDEN
 62
     7
 10
41.652188
 20
99.042358
 30
0.0
  0
VERTEX
  8
HIDDEN
 62
     7
 10
41.629746
 20
99.042358
 30
0.0
  0
VERTEX
  8
HIDDEN
 62
     7
 10
41.621115
 20
99.0282
 30
0.0
 42
-0.172267
  0
VERTEX
  8
HIDDEN
 62
     7
 10
41.439784
 20
99.106684
 30
0.0
 42
-0.740612
  0
VERTEX
  8
HIDDEN
 62
     7
 10
41.444599
 20
99.122479
 30
0.0
  0
VERTEX
  8
HIDDEN
 62
     7
 10
41.837336
 20
99.122479
 30
0.0
 42
-0.740612
  0
VERTEX
  8
HIDDEN
 62
     7
 10
41.842151
 20
99.106684
 30
0.0
 42
-0.172267
  0
SEQEND
  8
HIDDEN
 62
     7
  0
LINE
  8
MOUSE-HID
 62
     7
 10
41.558967
 20
99.153479
 30
0.0
 11
41.558967
 21
99.200479
 31
0.0
  0
LINE
  8
MOUSE-HID
 62
     7
 10
41.121967
 20
99.153479
 30
0.0
 11
41.121967
 21
99.200479
 31
0.0
  0
SOLID
  8
BEND
 62
     7
 10
45.494356
 20
92.532715
 30
0.0
 11
45.494356
 21
93.012714
 31
0.0
 12
44.054358
 22
92.772715
 32
0.0
 13
44.054358
 23
92.772715
 33
0.0
  0
LINE
  8
HOUSE
 62
     7
 10
51.140967
 20
88.295381
 30
0.0
 11
51.140967
 21
91.763381
 31
0.0
  0
LINE
  8
HOUSE
 62
     7
 10
50.421967
 20
88.342381
 30
0.0
 11
50.421967
 21
91.716381
 31
0.0
  0
LINE
  8
HOUSE-HID
 62
     7
 10
50.468967
 20
88.295381
 30
0.0
 11
50.468967
 21
91.763381
 31
0.0
  0
LINE
  8
SHELF
 62
     7
 10
49.968967
 20
90.702381
 30
0.0
 11
49.968967
 21
89.076381
 31
0.0
  0
LINE
  8
SHELF
 62
     7
 10
50.015967
 20
90.702381
 30
0.0
 11
50.015967
 21
89.076381
 31
0.0
  0
INSERT
  8
OBJECT
 62
     7
  2
FR-SLIDE
 10
50.406467
 20
89.731881
 30
0.0
  0
LINE
  8
MOUSE-HID
 62
     7
 10
49.577967
 20
88.951381
 30
0.0
 11
49.577967
 21
88.389381
 31
0.0
  0
LINE
  8
MOUSE-HID
 62
     7
 10
49.593967
 20
88.889381
 30
0.0
 11
49.593967
 21
88.389381
 31
0.0
  0
ARC
  8
MOUSE-HID
 62
     7
 10
49.578967
 20
88.889381
 30
0.0
 40
0.015
 50
360.0
 51
90.0
  0
ARC
  8
MOUSE-HID
 62
     7
 10
49.578967
 20
88.889381
 30
0.0
 40
0.062
 50
0.0
 51
90.0
  0
LINE
  8
MOUSE-HID
 62
     7
 10
49.640967
 20
88.389381
 30
0.0
 11
49.640967
 21
88.889381
 31
0.0
  0
LINE
  8
MOUSE-HID
 62
     7
 10
49.640967
 20
88.389381
 30
0.0
 11
49.593967
 21
88.389381
 31
0.0
  0
LINE
  8
CHAN
 62
     7
 10
49.640967
 20
88.342381
 30
0.0
 11
49.640967
 21
89.014381
 31
0.0
  0
LINE
  8
SHELF-HID
 62
     7
 10
49.952967
 20
89.264381
 30
0.0
 11
49.952967
 21
89.014381
 31
0.0
  0
LINE
  8
HOUSE
 62
     7
 10
49.968967
 20
88.342381
 30
0.0
 11
49.968967
 21
88.295381
 31
0.0
  0
ARC
  8
SHELF
 62
     7
 10
49.953967
 20
89.076381
 30
0.0
 40
0.015
 50
270.0
 51
0.0
  0
ARC
  8
SHELF
 62
     7
 10
49.827967
 20
89.264381
 30
0.0
 40
0.125
 50
0.0
 51
90.0
  0
ARC
  8
SHELF
 62
     7
 10
49.953967
 20
89.076381
 30
0.0
 40
0.062
 50
270.0
 51
0.0
  0
LINE
  8
CENTER
 62
     7
 10
50.796967
 20
88.214381
 30
0.0
 11
50.796967
 21
88.844381
 31
0.0
  0
LINE
  8
CENTER
 62
     7
 10
51.111967
 20
88.529381
 30
0.0
 11
50.481967
 21
88.529381
 31
0.0
  0
POLYLINE
  8
HOUSE
 62
     7
 66
     1
 10
0.0
 20
0.0
 30
0.0
 70
     1
  0
VERTEX
  8
HOUSE
 62
     7
 10
50.860967
 20
88.390381
 30
0.0
  0
VERTEX
  8
HOUSE
 62
     7
 10
50.732967
 20
88.390381
 30
0.0
 42
-1.0
  0
VERTEX
  8
HOUSE
 62
     7
 10
50.732967
 20
88.668381
 30
0.0
  0
VERTEX
  8
HOUSE
 62
     7
 10
50.860967
 20
88.668381
 30
0.0
 42
-1.0
  0
SEQEND
  8
HOUSE
 62
     7
  0
ARC
  8
SHELF
 62
     7
 10
50.030967
 20
90.702381
 30
0.0
 40
0.015
 50
90.0
 51
180.0
  0
ARC
  8
SHELF
 62
     7
 10
50.030967
 20
90.702381
 30
0.0
 40
0.062
 50
90.0
 51
180.0
  0
LINE
  8
SHELF
 62
     7
 10
50.343967
 20
90.764381
 30
0.0
 11
50.343967
 21
90.717381
 31
0.0
  0
LINE
  8
SHELF
 62
     7
 10
50.343967
 20
90.717381
 30
0.0
 11
50.030967
 21
90.717381
 31
0.0
  0
LINE
  8
SHELF
 62
     7
 10
50.343967
 20
90.764381
 30
0.0
 11
50.030967
 21
90.764381
 31
0.0
  0
LINE
  8
CENTER
 62
     7
 10
50.796967
 20
91.214381
 30
0.0
 11
50.796967
 21
91.844381
 31
0.0
  0
LINE
  8
CENTER
 62
     7
 10
51.111967
 20
91.529381
 30
0.0
 11
50.481967
 21
91.529381
 31
0.0
  0
POLYLINE
  8
HOUSE
 62
     7
 66
     1
 10
0.0
 20
0.0
 30
0.0
 70
     1
  0
VERTEX
  8
HOUSE
 62
     7
 10
50.860967
 20
91.390381
 30
0.0
  0
VERTEX
  8
HOUSE
 62
     7
 10
50.732967
 20
91.390381
 30
0.0
 42
-1.0
  0
VERTEX
  8
HOUSE
 62
     7
 10
50.732967
 20
91.668381
 30
0.0
  0
VERTEX
  8
HOUSE
 62
     7
 10
50.860967
 20
91.668381
 30
0.0
 42
-1.0
  0
SEQEND
  8
HOUSE
 62
     7
  0
LINE
  8
HIDDEN
 62
     7
 10
50.306467
 20
98.560479
 30
0.0
 11
50.031467
 21
98.560479
 31
0.0
  0
LINE
  8
SHELF
 62
     7
 10
49.952967
 20
98.560479
 30
0.0
 11
49.952967
 21
98.607479
 31
0.0
  0
ARC
  8
SHELF
 62
     7
 10
50.218967
 20
98.685479
 30
0.0
 40
0.125
 50
270.0
 51
0.0
  0
LINE
  8
MOUSE
 62
     7
 10
64.466807
 20
88.389381
 30
0.0
 11
57.966807
 21
88.389381
 31
0.0
  0
LINE
  8
MOUSE
 62
     7
 10
58.028807
 20
88.904381
 30
0.0
 11
64.404807
 21
88.904381
 31
0.0
  0
LINE
  8
MOUSE
 62
     7
 10
64.466807
 20
88.951381
 30
0.0
 11
57.966807
 21
88.951381
 31
0.0
  0
ARC
  8
HIDDEN
 62
     7
 10
58.373807
 20
89.747381
 30
0.0
 40
0.09
 50
0.0
 51
180.0
  0
CIRCLE
  8
HIDDEN
 62
     7
 10
57.998807
 20
89.732381
 30
0.0
 40
0.1875
  0
CIRCLE
  8
SHELF
 62
     7
 10
58.373807
 20
89.732381
 30
0.0
 40
0.082
  0
LINE
  8
SHELF
 62
     7
 10
57.373807
 20
90.764381
 30
0.0
 11
57.373807
 21
89.014381
 31
0.0
  0
POLYLINE
  8
CHAN
 62
     7
 66
     1
 10
0.0
 20
0.0
 30
0.0
 70
     1
  0
VERTEX
  8
CHAN
 62
     7
 10
57.435807
 20
88.967381
 30
0.0
  0
VERTEX
  8
CHAN
 62
     7
 10
57.873807
 20
88.967381
 30
0.0
 42
-0.414214
  0
VERTEX
  8
CHAN
 62
     7
 10
57.888807
 20
88.952381
 30
0.0
  0
VERTEX
  8
CHAN
 62
     7
 10
57.888807
 20
88.404381
 30
0.0
 42
0.414214
  0
VERTEX
  8
CHAN
 62
     7
 10
57.950807
 20
88.342381
 30
0.0
  0
VERTEX
  8
CHAN
 62
     7
 10
58.388807
 20
88.342381
 30
0.0
  0
VERTEX
  8
CHAN
 62
     7
 10
58.388807
 20
88.389381
 30
0.0
  0
VERTEX
  8
CHAN
 62
     7
 10
57.950807
 20
88.389381
 30
0.0
 42
-0.414214
  0
VERTEX
  8
CHAN
 62
     7
 10
57.935807
 20
88.404381
 30
0.0
  0
VERTEX
  8
CHAN
 62
     7
 10
57.935807
 20
88.952381
 30
0.0
 42
0.414214
  0
VERTEX
  8
CHAN
 62
     7
 10
57.873807
 20
89.014381
 30
0.0
  0
VERTEX
  8
CHAN
 62
     7
 10
57.435807
 20
89.014381
 30
0.0
  0
SEQEND
  8
CHAN
 62
     7
  0
ARC
  8
SHELF
 62
     7
 10
57.435807
 20
89.076381
 30
0.0
 40
0.062
 50
180.0
 51
270.0
  0
ARC
  8
SHELF
 62
     7
 10
57.435807
 20
89.076381
 30
0.0
 40
0.015
 50
180.0
 51
270.0
  0
LINE
  8
SHELF
 62
     7
 10
57.420807
 20
89.389381
 30
0.0
 11
57.420807
 21
89.076381
 31
0.0
  0
LINE
  8
SHELF
 62
     7
 10
57.373807
 20
89.389381
 30
0.0
 11
57.420807
 21
89.389381
 31
0.0
  0
ARC
  8
HIDDEN
 62
     7
 10
58.373807
 20
89.717381
 30
0.0
 40
0.09
 50
180.0
 51
360.0
  0
LINE
  8
HIDDEN
 62
     7
 10
58.283807
 20
89.747381
 30
0.0
 11
58.283807
 21
89.717381
 31
0.0
  0
ARC
  8
MOUSE-HID
 62
     7
 10
58.028807
 20
88.889381
 30
0.0
 40
0.015
 50
90.0
 51
180.0
  0
LINE
  8
MOUSE
 62
     7
 10
58.013807
 20
88.389381
 30
0.0
 11
58.013807
 21
88.889381
 31
0.0
  0
LINE
  8
MOUSE
 62
     7
 10
57.966807
 20
88.951381
 30
0.0
 11
57.966807
 21
88.389381
 31
0.0
  0
ARC
  8
MOUSE-HID
 62
     7
 10
58.028807
 20
88.889381
 30
0.0
 40
0.062
 50
90.0
 51
180.0
  0
LINE
  8
MOUSE-HID
 62
     7
 10
57.966807
 20
88.545381
 30
0.0
 11
58.013807
 21
88.545381
 31
0.0
  0
LINE
  8
MOUSE-HID
 62
     7
 10
57.966807
 20
88.795381
 30
0.0
 11
58.013807
 21
88.795381
 31
0.0
  0
POLYLINE
  8
OBJECT
 62
     7
 66
     1
 10
0.0
 20
0.0
 30
0.0
 70
     1
  0
VERTEX
  8
OBJECT
 62
     7
 10
57.794527
 20
88.690233
 30
0.0
  0
VERTEX
  8
OBJECT
 62
     7
 10
57.808686
 20
88.681602
 30
0.0
  0
VERTEX
  8
OBJECT
 62
     7
 10
57.808686
 20
88.65916
 30
0.0
  0
VERTEX
  8
OBJECT
 62
     7
 10
57.794527
 20
88.650528
 30
0.0
 42
0.172267
  0
VERTEX
  8
OBJECT
 62
     7
 10
57.873011
 20
88.469198
 30
0.0
 42
0.740612
  0
VERTEX
  8
OBJECT
 62
     7
 10
57.888807
 20
88.474012
 30
0.0
  0
VERTEX
  8
OBJECT
 62
     7
 10
57.888807
 20
88.866749
 30
0.0
 42
0.740612
  0
VERTEX
  8
OBJECT
 62
     7
 10
57.873011
 20
88.871564
 30
0.0
 42
0.172267
  0
SEQEND
  8
OBJECT
 62
     7
  0
POLYLINE
  8
OBJECT
 62
     7
 66
     1
 10
0.0
 20
0.0
 30
0.0
  0
VERTEX
  8
OBJECT
 62
     7
 10
57.888807
 20
88.588381
 30
0.0
  0
VERTEX
  8
OBJECT
 62
     7
 10
58.164543
 20
88.588381
 30
0.0
  0
VERTEX
  8
OBJECT
 62
     7
 10
58.263807
 20
88.614978
 30
0.0
  0
VERTEX
  8
OBJECT
 62
     7
 10
58.263807
 20
88.725783
 30
0.0
  0
VERTEX
  8
OBJECT
 62
     7
 10
58.164543
 20
88.752381
 30
0.0
  0
VERTEX
  8
OBJECT
 62
     7
 10
57.888807
 20
88.752381
 30
0.0
  0
SEQEND
  8
OBJECT
 62
     7
  0
LINE
  8
HIDDEN
 62
     7
 10
58.463807
 20
89.747381
 30
0.0
 11
58.463807
 21
89.717381
 31
0.0
  0
LINE
  8
MOUSE-HID
 62
     7
 10
56.558967
 20
99.153479
 30
0.0
 11
56.558967
 21
99.200479
 31
0.0
  0
LINE
  8
MOUSE-HID
 62
     7
 10
56.995967
 20
99.153479
 30
0.0
 11
56.995967
 21
99.200479
 31
0.0
  0
LINE
  8
HOUSE-HID
 62
     7
 10
65.373807
 20
90.764381
 30
0.0
 11
65.373807
 21
88.967381
 31
0.0
  0
POLYLINE
  8
HIDDEN
 62
     7
 66
     1
 10
0.0
 20
0.0
 30
0.0
  0
VERTEX
  8
HIDDEN
 62
     7
 10
64.398807
 20
89.590193
 30
0.0
 42
1.0
  0
VERTEX
  8
HIDDEN
 62
     7
 10
64.598807
 20
89.590193
 30
0.0
  0
VERTEX
  8
HIDDEN
 62
     7
 10
64.598807
 20
89.874568
 30
0.0
 42
1.0
  0
VERTEX
  8
HIDDEN
 62
     7
 10
64.398807
 20
89.874568
 30
0.0
 42
1.0
  0
SEQEND
  8
HIDDEN
 62
     7
  0
LINE
  8
HIDDEN
 62
     7
 10
64.398807
 20
89.874568
 30
0.0
 11
64.398807
 21
89.590193
 31
0.0
  0
ARC
  8
HIDDEN
 62
     7
 10
62.388807
 20
89.732381
 30
0.0
 40
0.09
 50
270.0
 51
90.0
  0
ARC
  8
HIDDEN
 62
     7
 10
62.358807
 20
89.732381
 30
0.0
 40
0.09
 50
90.0
 51
270.0
  0
CIRCLE
  8
SHELF
 62
     7
 10
62.373807
 20
89.732381
 30
0.0
 40
0.082
  0
LINE
  8
HIDDEN
 62
     7
 10
62.358807
 20
89.642381
 30
0.0
 11
62.388807
 21
89.642381
 31
0.0
  0
POLYLINE
  8
OBJECT
 62
     7
 66
     1
 10
0.0
 20
0.0
 30
0.0
 70
     1
  0
VERTEX
  8
OBJECT
 62
     7
 10
64.639086
 20
88.690233
 30
0.0
  0
VERTEX
  8
OBJECT
 62
     7
 10
64.624928
 20
88.681602
 30
0.0
  0
VERTEX
  8
OBJECT
 62
     7
 10
64.624928
 20
88.65916
 30
0.0
  0
VERTEX
  8
OBJECT
 62
     7
 10
64.639086
 20
88.650528
 30
0.0
 42
-0.172267
  0
VERTEX
  8
OBJECT
 62
     7
 10
64.560602
 20
88.469198
 30
0.0
 42
-0.740612
  0
VERTEX
  8
OBJECT
 62
     7
 10
64.544807
 20
88.474012
 30
0.0
  0
VERTEX
  8
OBJECT
 62
     7
 10
64.544807
 20
88.866749
 30
0.0
 42
-0.740612
  0
VERTEX
  8
OBJECT
 62
     7
 10
64.560602
 20
88.871564
 30
0.0
 42
-0.172267
  0
SEQEND
  8
OBJECT
 62
     7
  0
POLYLINE
  8
CHAN
 62
     7
 66
     1
 10
0.0
 20
0.0
 30
0.0
 70
     1
  0
VERTEX
  8
CHAN
 62
     7
 10
64.044807
 20
88.389381
 30
0.0
  0
VERTEX
  8
CHAN
 62
     7
 10
64.482807
 20
88.389381
 30
0.0
 42
0.414214
  0
VERTEX
  8
CHAN
 62
     7
 10
64.497807
 20
88.404381
 30
0.0
  0
VERTEX
  8
CHAN
 62
     7
 10
64.497807
 20
88.952381
 30
0.0
 42
-0.414214
  0
VERTEX
  8
CHAN
 62
     7
 10
64.559807
 20
89.014381
 30
0.0
  0
VERTEX
  8
CHAN
 62
     7
 10
64.997807
 20
89.014381
 30
0.0
  0
VERTEX
  8
CHAN
 62
     7
 10
64.997807
 20
88.967381
 30
0.0
  0
VERTEX
  8
CHAN
 62
     7
 10
64.559807
 20
88.967381
 30
0.0
 42
0.414214
  0
VERTEX
  8
CHAN
 62
     7
 10
64.544807
 20
88.952381
 30
0.0
  0
VERTEX
  8
CHAN
 62
     7
 10
64.544807
 20
88.404381
 30
0.0
 42
-0.414214
  0
VERTEX
  8
CHAN
 62
     7
 10
64.482807
 20
88.342381
 30
0.0
  0
VERTEX
  8
CHAN
 62
     7
 10
64.044807
 20
88.342381
 30
0.0
  0
SEQEND
  8
CHAN
 62
     7
  0
LINE
  8
MOUSE
 62
     7
 10
64.419807
 20
88.889381
 30
0.0
 11
64.419807
 21
88.389381
 31
0.0
  0
ARC
  8
MOUSE-HID
 62
     7
 10
64.404807
 20
88.889381
 30
0.0
 40
0.015
 50
360.0
 51
90.0
  0
ARC
  8
MOUSE-HID
 62
     7
 10
64.404807
 20
88.889381
 30
0.0
 40
0.062
 50
0.0
 51
90.0
  0
LINE
  8
MOUSE
 62
     7
 10
64.466807
 20
88.389381
 30
0.0
 11
64.466807
 21
88.951381
 31
0.0
  0
LINE
  8
MOUSE-HID
 62
     7
 10
64.466807
 20
88.795381
 30
0.0
 11
64.419807
 21
88.795381
 31
0.0
  0
LINE
  8
MOUSE-HID
 62
     7
 10
64.466807
 20
88.545381
 30
0.0
 11
64.419807
 21
88.545381
 31
0.0
  0
POLYLINE
  8
OBJECT
 62
     7
 66
     1
 10
0.0
 20
0.0
 30
0.0
  0
VERTEX
  8
OBJECT
 62
     7
 10
64.544807
 20
88.588381
 30
0.0
  0
VERTEX
  8
OBJECT
 62
     7
 10
64.26907
 20
88.588381
 30
0.0
  0
VERTEX
  8
OBJECT
 62
     7
 10
64.169807
 20
88.614978
 30
0.0
  0
VERTEX
  8
OBJECT
 62
     7
 10
64.169807
 20
88.725783
 30
0.0
  0
VERTEX
  8
OBJECT
 62
     7
 10
64.26907
 20
88.752381
 30
0.0
  0
VERTEX
  8
OBJECT
 62
     7
 10
64.544807
 20
88.752381
 30
0.0
  0
SEQEND
  8
OBJECT
 62
     7
  0
LINE
  8
HOUSE
 62
     7
 10
65.373807
 20
88.967381
 30
0.0
 11
65.373807
 21
88.295381
 31
0.0
  0
LINE
  8
HIDDEN
 62
     7
 10
65.373807
 20
89.2323
 30
0.0
 11
65.373807
 21
89.037381
 31
0.0
  0
LINE
  8
HIDDEN
 62
     7
 10
62.358807
 20
89.822381
 30
0.0
 11
62.388807
 21
89.822381
 31
0.0
  0
LINE
  8
HIDDEN
 62
     7
 10
65.373807
 20
90.427381
 30
0.0
 11
65.373807
 21
90.232462
 31
0.0
  0
LINE
  8
HOUSE
 62
     7
 10
65.373807
 20
91.763381
 30
0.0
 11
65.373807
 21
90.764381
 31
0.0
  0
LINE
  8
MOUSE
 62
     7
 10
50.343967
 20
105.653479
 30
0.0
 11
57.058967
 21
105.653479
 31
0.0
  0
LINE
  8
MOUSE-HID
 62
     7
 10
56.995967
 20
105.606479
 30
0.0
 11
41.121967
 21
105.606479
 31
0.0
  0
LINE
  8
HIDDEN
 62
     7
 10
50.406467
 20
106.560479
 30
0.0
 11
50.406467
 21
118.560479
 31
0.0
  0
LINE
  8
HIDDEN
 62
     7
 10
50.066467
 20
106.560479
 30
0.0
 11
50.066467
 21
118.560479
 31
0.0
  0
LINE
  8
HIDDEN
 62
     7
 10
50.344467
 20
106.560479
 30
0.0
 11
50.344467
 21
118.560479
 31
0.0
  0
LINE
  8
HOUSE-HID
 62
     7
 10
49.968967
 20
106.935772
 30
0.0
 11
49.968967
 21
118.529479
 31
0.0
  0
LINE
  8
HOUSE-HID
 62
     7
 10
50.421967
 20
119.060479
 30
0.0
 11
50.421967
 21
106.623104
 31
0.0
  0
LINE
  8
HOUSE
 62
     7
 10
50.468967
 20
106.623104
 30
0.0
 11
50.468967
 21
119.060479
 31
0.0
  0
LINE
  8
MOUSE-HID
 62
     7
 10
50.343967
 20
105.653479
 30
0.0
 11
41.058967
 21
105.653479
 31
0.0
  0
POLYLINE
  8
HIDDEN
 62
     7
 66
     1
 10
0.0
 20
0.0
 30
0.0
 70
     1
  0
VERTEX
  8
HIDDEN
 62
     7
 10
41.66082
 20
106.372758
 30
0.0
  0
VERTEX
  8
HIDDEN
 62
     7
 10
41.652188
 20
106.3586
 30
0.0
  0
VERTEX
  8
HIDDEN
 62
     7
 10
41.629746
 20
106.3586
 30
0.0
  0
VERTEX
  8
HIDDEN
 62
     7
 10
41.621115
 20
106.372758
 30
0.0
 42
0.172267
  0
VERTEX
  8
HIDDEN
 62
     7
 10
41.439784
 20
106.294275
 30
0.0
 42
0.740612
  0
VERTEX
  8
HIDDEN
 62
     7
 10
41.444599
 20
106.278479
 30
0.0
  0
VERTEX
  8
HIDDEN
 62
     7
 10
41.837336
 20
106.278479
 30
0.0
 42
0.740612
  0
VERTEX
  8
HIDDEN
 62
     7
 10
41.842151
 20
106.294275
 30
0.0
 42
0.172267
  0
SEQEND
  8
HIDDEN
 62
     7
  0
LINE
  8
MOUSE-HID
 62
     7
 10
41.558967
 20
105.606479
 30
0.0
 11
41.558967
 21
105.653479
 31
0.0
  0
POLYLINE
  8
HIDDEN
 62
     7
 66
     1
 10
0.0
 20
0.0
 30
0.0
  0
VERTEX
  8
HIDDEN
 62
     7
 10
41.558967
 20
106.278479
 30
0.0
  0
VERTEX
  8
HIDDEN
 62
     7
 10
41.558967
 20
106.002742
 30
0.0
  0
VERTEX
  8
HIDDEN
 62
     7
 10
41.585565
 20
105.903479
 30
0.0
  0
VERTEX
  8
HIDDEN
 62
     7
 10
41.69637
 20
105.903479
 30
0.0
  0
VERTEX
  8
HIDDEN
 62
     7
 10
41.722967
 20
106.002742
 30
0.0
  0
VERTEX
  8
HIDDEN
 62
     7
 10
41.722967
 20
106.278479
 30
0.0
  0
SEQEND
  8
HIDDEN
 62
     7
  0
LINE
  8
MOUSE-HID
 62
     7
 10
41.121967
 20
105.606479
 30
0.0
 11
41.121967
 21
105.653479
 31
0.0
  0
LINE
  8
SHELF-HID
 62
     7
 10
50.343967
 20
106.513479
 30
0.0
 11
50.343967
 21
110.435479
 31
0.0
  0
LINE
  8
SHELF-HID
 62
     7
 10
49.968967
 20
106.513479
 30
0.0
 11
49.968967
 21
110.560479
 31
0.0
  0
LINE
  8
CHAN-HID
 62
     7
 10
49.640967
 20
105.231479
 30
0.0
 11
49.640967
 21
106.184479
 31
0.0
  0
ARC
  8
HOUSE-HID
 62
     7
 10
50.484592
 20
106.623104
 30
0.0
 40
0.062625
 50
180.0
 51
270.0
  0
LINE
  8
HIDDEN
 62
     7
 10
50.406467
 20
106.560479
 30
0.0
 11
50.066467
 21
106.560479
 31
0.0
  0
LINE
  8
HOUSE-HID
 62
     7
 10
50.390967
 20
106.560772
 30
0.0
 11
50.343967
 21
106.560772
 31
0.0
  0
ARC
  8
HOUSE-HID
 62
     7
 10
50.343967
 20
106.935772
 30
0.0
 40
0.375
 50
180.0
 51
270.0
  0
ARC
  8
HOUSE
 62
     7
 10
50.484592
 20
106.623104
 30
0.0
 40
0.015625
 50
180.0
 51
270.0
  0
LINE
  8
HOUSE
 62
     7
 10
51.140967
 20
106.607479
 30
0.0
 11
50.484592
 21
106.607479
 31
0.0
  0
LINE
  8
HOUSE
 62
     7
 10
51.140967
 20
106.560479
 30
0.0
 11
51.140967
 21
106.607479
 31
0.0
  0
LINE
  8
HIDDEN
 62
     7
 10
50.031467
 20
110.400479
 30
0.0
 11
50.306467
 21
110.400479
 31
0.0
  0
ARC
  8
SHELF-HID
 62
     7
 10
50.218967
 20
110.435479
 30
0.0
 40
0.125
 50
0.0
 51
90.0
  0
LINE
  8
SHELF
 62
     7
 10
49.952967
 20
110.513479
 30
0.0
 11
49.952967
 21
110.560479
 31
0.0
  0
LINE
  8
HOUSE-HID
 10
50.468967
 20
118.529479
 30
0.0
 11
49.968967
 21
118.529479
 31
0.0
  0
LINE
  8
HIDDEN
 10
50.406467
 20
118.560479
 30
0.0
 11
50.066467
 21
118.560479
 31
0.0
  0
LINE
  8
HOUSE-HID
 10
50.390967
 20
119.060479
 30
0.0
 11
50.390967
 21
118.560479
 31
0.0
  0
LINE
  8
MOUSE-HID
 62
     7
 10
56.558967
 20
105.606479
 30
0.0
 11
56.558967
 21
105.653479
 31
0.0
  0
LINE
  8
MOUSE-HID
 62
     7
 10
56.995967
 20
105.606479
 30
0.0
 11
56.995967
 21
105.653479
 31
0.0
  0
LINE
  8
OBJECT
 62
     7
 10
69.373807
 20
89.507381
 30
0.0
 11
73.316307
 21
89.507381
 31
0.0
  0
LINE
  8
OBJECT
 62
     7
 10
69.373807
 20
89.957381
 30
0.0
 11
73.316307
 21
89.957381
 31
0.0
  0
LINE
  8
OBJECT
 62
     7
 10
69.373807
 20
90.427381
 30
0.0
 11
77.373807
 21
90.427381
 31
0.0
  0
LINE
  8
OBJECT
 62
     7
 10
69.373807
 20
90.357381
 30
0.0
 11
77.373807
 21
90.357381
 31
0.0
  0
LINE
  8
OBJECT
 62
     7
 10
69.373807
 20
90.323597
 30
0.0
 11
77.373807
 21
90.323597
 31
0.0
  0
LINE
  8
OBJECT
 62
     7
 10
69.373807
 20
89.037381
 30
0.0
 11
77.373807
 21
89.037381
 31
0.0
  0
LINE
  8
OBJECT
 62
     7
 10
69.373807
 20
89.107381
 30
0.0
 11
77.373807
 21
89.107381
 31
0.0
  0
LINE
  8
OBJECT
 62
     7
 10
69.373807
 20
89.144148
 30
0.0
 11
77.373807
 21
89.144148
 31
0.0
  0
ARC
  8
OBJECT
 62
     7
 10
71.708807
 20
90.277381
 30
0.0
 40
0.1
 50
194.477512
 51
345.522488
  0
ARC
  8
OBJECT
 62
     7
 10
71.708807
 20
89.187381
 30
0.0
 40
0.1
 50
14.477512
 51
165.522488
  0
LINE
  8
OBJECT
 62
     7
 10
71.501307
 20
89.212381
 30
0.0
 11
71.916307
 21
89.212381
 31
0.0
  0
LINE
  8
OBJECT
 62
     7
 10
71.916307
 20
89.187381
 30
0.0
 11
71.501307
 21
89.187381
 31
0.0
  0
LINE
  8
OBJECT
 62
     7
 10
71.916307
 20
90.277381
 30
0.0
 11
71.501307
 21
90.277381
 31
0.0
  0
LINE
  8
OBJECT
 62
     7
 10
71.501307
 20
90.252381
 30
0.0
 11
71.916307
 21
90.252381
 31
0.0
  0
LINE
  8
HOUSE-HID
 62
     7
 10
65.420807
 20
88.967381
 30
0.0
 11
65.420807
 21
90.764381
 31
0.0
  0
CIRCLE
  8
OBJECT
 62
     7
 10
70.373807
 20
89.732381
 30
0.0
 40
0.1875
  0
ARC
  8
OBJECT
 62
     7
 10
70.358807
 20
89.732381
 30
0.0
 40
0.09
 50
90.0
 51
270.0
  0
ARC
  8
OBJECT
 62
     7
 10
70.388807
 20
89.732381
 30
0.0
 40
0.09
 50
270.0
 51
90.0
  0
CIRCLE
  8
OBJECT
 62
     7
 10
69.486307
 20
89.732381
 30
0.0
 40
0.075
  0
CIRCLE
  8
HIDDEN
 62
     7
 10
68.991307
 20
89.732381
 30
0.0
 40
0.075
  0
POLYLINE
  8
OBJECT
 62
     7
 66
     1
 10
0.0
 20
0.0
 30
0.0
 70
     1
 75
     6
  0
VERTEX
  8
OBJECT
 62
     7
 10
70.051307
 20
89.544881
 30
0.0
  0
VERTEX
  8
OBJECT
 62
     7
 10
71.026307
 20
89.544881
 30
0.0
 42
1.0
  0
VERTEX
  8
OBJECT
 62
     7
 10
71.026307
 20
89.919881
 30
0.0
  0
VERTEX
  8
OBJECT
 62
     7
 10
70.051307
 20
89.919881
 30
0.0
 42
1.0
  0
SEQEND
  8
OBJECT
 62
     7
  0
CIRCLE
  8
HIDDEN
 62
     7
 10
68.001307
 20
89.732381
 30
0.0
 40
0.075
  0
LINE
  8
HIDDEN
 62
     7
 10
68.373807
 20
89.917786
 30
0.0
 11
68.373807
 21
89.546976
 31
0.0
  0
ARC
  8
HIDDEN
 62
     7
 10
68.373807
 20
89.747381
 30
0.0
 40
0.09
 50
0.0
 51
180.0
  0
CIRCLE
  8
HIDDEN
 62
     7
 10
67.506307
 20
89.732381
 30
0.0
 40
0.075
  0
ARC
  8
HIDDEN
 62
     7
 10
66.888807
 20
89.732381
 30
0.0
 40
0.09
 50
270.0
 51
90.0
  0
ARC
  8
HIDDEN
 62
     7
 10
66.983807
 20
89.732381
 30
0.0
 40
0.09
 50
90.0
 51
270.0
  0
ARC
  8
HIDDEN
 62
     7
 10
66.858807
 20
89.732381
 30
0.0
 40
0.09
 50
90.0
 51
270.0
  0
ARC
  8
HIDDEN
 62
     7
 10
66.498807
 20
89.747381
 30
0.0
 40
0.09
 50
0.0
 51
180.0
  0
ARC
  8
HIDDEN
 62
     7
 10
65.998807
 20
89.747381
 30
0.0
 40
0.09
 50
0.0
 51
180.0
  0
ARC
  8
HIDDEN
 62
     7
 10
67.013807
 20
89.732381
 30
0.0
 40
0.09
 50
270.0
 51
90.0
  0
CIRCLE
  8
HIDDEN
 62
     7
 10
68.496307
 20
89.732381
 30
0.0
 40
0.075
  0
LINE
  8
HIDDEN
 62
     7
 10
67.131307
 20
90.252381
 30
0.0
 11
67.131307
 21
89.212381
 31
0.0
  0
CIRCLE
  8
OBJECT
 62
     7
 10
71.466307
 20
89.732381
 30
0.0
 40
0.075
  0
CIRCLE
  8
SHELF
 62
     7
 10
68.373807
 20
89.732381
 30
0.0
 40
0.082
  0
CIRCLE
  8
SHELF
 62
     7
 10
66.873807
 20
89.732381
 30
0.0
 40
0.082
  0
LINE
  8
SHELF
 62
     7
 10
69.373807
 20
90.764381
 30
0.0
 11
69.373807
 21
89.014381
 31
0.0
  0
CIRCLE
  8
HOUSE-HID
 62
     7
 10
70.373807
 20
89.732381
 30
0.0
 40
0.082
  0
CIRCLE
  8
HOUSE-HID
 62
     7
 10
65.998807
 20
89.732381
 30
0.0
 40
0.082
  0
CIRCLE
  8
HOUSE-HID
 62
     7
 10
66.498807
 20
89.732381
 30
0.0
 40
0.082
  0
LINE
  8
HIDDEN
  6
HIDDEN
 62
     7
 10
67.131307
 20
89.507381
 30
0.0
 11
69.213807
 21
89.507381
 31
0.0
  0
LINE
  8
HOUSE
 62
     7
 10
65.420807
 20
88.967381
 30
0.0
 11
65.420807
 21
88.295381
 31
0.0
  0
ARC
  8
HIDDEN
 62
     7
 10
65.998807
 20
89.717381
 30
0.0
 40
0.09
 50
180.0
 51
360.0
  0
LINE
  8
HIDDEN
 62
     7
 10
65.908807
 20
89.747381
 30
0.0
 11
65.908807
 21
89.717381
 31
0.0
  0
LINE
  8
HIDDEN
 62
     7
 10
66.088807
 20
89.747381
 30
0.0
 11
66.088807
 21
89.717381
 31
0.0
  0
LINE
  8
HIDDEN
 62
     7
 10
65.973807
 20
89.2323
 30
0.0
 11
66.123807
 21
89.1623
 31
0.0
  0
LINE
  8
HIDDEN
 62
     7
 10
66.123807
 20
89.141165
 30
0.0
 11
66.123807
 21
89.1623
 31
0.0
  0
LINE
  8
HIDDEN
 62
     7
 10
66.858807
 20
89.642381
 30
0.0
 11
66.888807
 21
89.642381
 31
0.0
  0
LINE
  8
HIDDEN
 62
     7
 10
66.408807
 20
89.747381
 30
0.0
 11
66.408807
 21
89.717381
 31
0.0
  0
LINE
  8
HIDDEN
 62
     7
 10
66.588807
 20
89.747381
 30
0.0
 11
66.588807
 21
89.717381
 31
0.0
  0
ARC
  8
HIDDEN
 62
     7
 10
66.498807
 20
89.717381
 30
0.0
 40
0.09
 50
180.0
 51
360.0
  0
LINE
  8
HIDDEN
 62
     7
 10
67.541307
 20
89.212381
 30
0.0
 11
67.956307
 21
89.212381
 31
0.0
  0
LINE
  8
HIDDEN
 62
     7
 10
67.956307
 20
89.187381
 30
0.0
 11
67.541307
 21
89.187381
 31
0.0
  0
LINE
  8
HIDDEN
 62
     7
 10
66.983807
 20
89.642381
 30
0.0
 11
67.013807
 21
89.642381
 31
0.0
  0
ARC
  8
HIDDEN
 62
     7
 10
67.253807
 20
89.187381
 30
0.0
 40
0.1
 50
332.473424
 51
0.0
  0
ARC
  8
HIDDEN
 62
     7
 10
67.253807
 20
89.187381
 30
0.0
 40
0.1
 50
180.0
 51
207.526576
  0
ARC
  8
HIDDEN
 62
     7
 10
67.748807
 20
89.187381
 30
0.0
 40
0.1
 50
180.0
 51
207.526576
  0
ARC
  8
HIDDEN
 62
     7
 10
67.253807
 20
89.187381
 30
0.0
 40
0.1
 50
14.477512
 51
26.691805
  0
LINE
  8
HIDDEN
 62
     7
 10
67.376307
 20
89.212381
 30
0.0
 11
67.376307
 21
89.2323
 31
0.0
  0
ARC
  8
HIDDEN
 62
     7
 10
67.253807
 20
89.187381
 30
0.0
 40
0.1
 50
153.308195
 51
165.522488
  0
LINE
  8
HIDDEN
 62
     7
 10
67.541307
 20
89.187381
 30
0.0
 11
67.541307
 21
89.212381
 31
0.0
  0
LINE
  8
HIDDEN
 62
     7
 10
67.461307
 20
89.212381
 30
0.0
 11
67.461307
 21
89.187381
 31
0.0
  0
ARC
  8
HIDDEN
 62
     7
 10
67.748807
 20
89.187381
 30
0.0
 40
0.1
 50
153.308195
 51
165.522488
  0
LINE
  8
HIDDEN
 62
     7
 10
67.046307
 20
89.187381
 30
0.0
 11
67.046307
 21
89.212381
 31
0.0
  0
LINE
  8
HIDDEN
 62
     7
 10
67.461307
 20
89.187381
 30
0.0
 11
67.046307
 21
89.187381
 31
0.0
  0
LINE
  8
HIDDEN
 62
     7
 10
67.046307
 20
89.212381
 30
0.0
 11
67.461307
 21
89.212381
 31
0.0
  0
ARC
  8
HIDDEN
 62
     7
 10
68.373807
 20
89.717381
 30
0.0
 40
0.09
 50
180.0
 51
360.0
  0
LINE
  8
HIDDEN
 62
     7
 10
68.283807
 20
89.747381
 30
0.0
 11
68.283807
 21
89.717381
 31
0.0
  0
LINE
  8
HIDDEN
 62
     7
 10
68.463807
 20
89.747381
 30
0.0
 11
68.463807
 21
89.717381
 31
0.0
  0
ARC
  8
HIDDEN
 62
     7
 10
68.243807
 20
89.187381
 30
0.0
 40
0.1
 50
180.0
 51
207.526576
  0
ARC
  8
HIDDEN
 62
     7
 10
67.748807
 20
89.187381
 30
0.0
 40
0.1
 50
332.473424
 51
0.0
  0
ARC
  8
HIDDEN
 62
     7
 10
68.243807
 20
89.187381
 30
0.0
 40
0.1
 50
332.473424
 51
0.0
  0
LINE
  8
HIDDEN
 62
     7
 10
68.036307
 20
89.212381
 30
0.0
 11
68.451307
 21
89.212381
 31
0.0
  0
LINE
  8
HIDDEN
 62
     7
 10
68.451307
 20
89.187381
 30
0.0
 11
68.036307
 21
89.187381
 31
0.0
  0
LINE
  8
HIDDEN
 62
     7
 10
68.121307
 20
89.212381
 30
0.0
 11
68.121307
 21
89.2323
 31
0.0
  0
LINE
  8
HIDDEN
 62
     7
 10
67.871307
 20
89.212381
 30
0.0
 11
67.871307
 21
89.2323
 31
0.0
  0
LINE
  8
HIDDEN
 62
     7
 10
68.036307
 20
89.187381
 30
0.0
 11
68.036307
 21
89.212381
 31
0.0
  0
ARC
  8
HIDDEN
 62
     7
 10
67.748807
 20
89.187381
 30
0.0
 40
0.1
 50
14.477512
 51
26.691805
  0
LINE
  8
HIDDEN
 62
     7
 10
67.956307
 20
89.212381
 30
0.0
 11
67.956307
 21
89.187381
 31
0.0
  0
LINE
  8
HIDDEN
 62
     7
 10
68.366307
 20
89.212381
 30
0.0
 11
68.366307
 21
89.2323
 31
0.0
  0
LINE
  8
HIDDEN
 62
     7
 10
68.451307
 20
89.212381
 30
0.0
 11
68.451307
 21
89.187381
 31
0.0
  0
ARC
  8
HIDDEN
 62
     7
 10
68.243807
 20
89.187381
 30
0.0
 40
0.1
 50
153.308195
 51
165.522488
  0
ARC
  8
HIDDEN
 62
     7
 10
68.243807
 20
89.187381
 30
0.0
 40
0.1
 50
14.477512
 51
26.691805
  0
LINE
  8
OBJECT
 62
     7
 10
69.851307
 20
89.362381
 30
0.0
 11
70.101307
 21
89.362381
 31
0.0
  0
LINE
  8
OBJECT
 62
     7
 10
70.016307
 20
89.212381
 30
0.0
 11
70.431307
 21
89.212381
 31
0.0
  0
LINE
  8
OBJECT
 62
     7
 10
70.431307
 20
89.187381
 30
0.0
 11
70.016307
 21
89.187381
 31
0.0
  0
LINE
  8
HIDDEN
 62
     7
 10
69.026307
 20
89.212381
 30
0.0
 11
69.373807
 21
89.212381
 31
0.0
  0
LINE
  8
HIDDEN
 62
     7
 10
69.373807
 20
89.187381
 30
0.0
 11
69.026307
 21
89.187381
 31
0.0
  0
ARC
  8
HIDDEN
 62
     7
 10
69.233807
 20
89.187381
 30
0.0
 40
0.1
 50
14.477512
 51
165.522488
  0
LINE
  8
HIDDEN
 62
     7
 10
69.213807
 20
89.507381
 30
0.0
 11
69.373807
 21
89.507381
 31
0.0
  0
ARC
  8
HIDDEN
 62
     7
 10
68.738807
 20
89.187381
 30
0.0
 40
0.1
 50
180.0
 51
207.526576
  0
ARC
  8
HIDDEN
 62
     7
 10
69.233807
 20
89.187381
 30
0.0
 40
0.1
 50
180.0
 51
207.526576
  0
ARC
  8
HIDDEN
 62
     7
 10
68.738807
 20
89.187381
 30
0.0
 40
0.1
 50
332.473424
 51
0.0
  0
ARC
  8
HIDDEN
 62
     7
 10
68.738807
 20
89.187381
 30
0.0
 40
0.1
 50
153.308195
 51
165.522488
  0
LINE
  8
HIDDEN
 62
     7
 10
68.616307
 20
89.212381
 30
0.0
 11
68.616307
 21
89.2323
 31
0.0
  0
LINE
  8
HIDDEN
 62
     7
 10
68.946307
 20
89.212381
 30
0.0
 11
68.946307
 21
89.187381
 31
0.0
  0
LINE
  8
HIDDEN
 62
     7
 10
69.026307
 20
89.187381
 30
0.0
 11
69.026307
 21
89.212381
 31
0.0
  0
LINE
  8
HIDDEN
 62
     7
 10
69.111307
 20
89.212381
 30
0.0
 11
69.111307
 21
89.258473
 31
0.0
  0
LINE
  8
HIDDEN
 62
     7
 10
68.861307
 20
89.212381
 30
0.0
 11
68.861307
 21
89.2323
 31
0.0
  0
ARC
  8
HIDDEN
 62
     7
 10
68.738807
 20
89.187381
 30
0.0
 40
0.1
 50
14.477512
 51
26.691805
  0
LINE
  8
HIDDEN
 62
     7
 10
68.531307
 20
89.187381
 30
0.0
 11
68.531307
 21
89.212381
 31
0.0
  0
LINE
  8
HIDDEN
 62
     7
 10
68.531307
 20
89.212381
 30
0.0
 11
68.946307
 21
89.212381
 31
0.0
  0
LINE
  8
HIDDEN
 62
     7
 10
68.946307
 20
89.187381
 30
0.0
 11
68.531307
 21
89.187381
 31
0.0
  0
LINE
  8
OBJECT
 62
     7
 10
69.373807
 20
89.187381
 30
0.0
 11
69.441307
 21
89.187381
 31
0.0
  0
LINE
  8
OBJECT
 62
     7
 10
69.373807
 20
89.212381
 30
0.0
 11
69.441307
 21
89.212381
 31
0.0
  0
LINE
  8
HIDDEN
 62
     7
 10
69.373807
 20
89.362381
 30
0.0
 11
69.356307
 21
89.362381
 31
0.0
  0
ARC
  8
HIDDEN
 62
     7
 10
69.233807
 20
89.187381
 30
0.0
 40
0.1
 50
332.473424
 51
0.0
  0
ARC
  8
OBJECT
 62
     7
 10
69.728807
 20
89.187381
 30
0.0
 40
0.1
 50
180.0
 51
207.526576
  0
ARC
  8
OBJECT
 62
     7
 10
69.728807
 20
89.187381
 30
0.0
 40
0.1
 50
332.473424
 51
0.0
  0
LINE
  8
OBJECT
 62
     7
 10
69.851307
 20
89.212381
 30
0.0
 11
69.851307
 21
89.362381
 31
0.0
  0
ARC
  8
OBJECT
 62
     7
 10
69.728807
 20
89.187381
 30
0.0
 40
0.1
 50
14.477512
 51
165.522488
  0
LINE
  8
OBJECT
 62
     7
 10
69.936307
 20
89.212381
 30
0.0
 11
69.936307
 21
89.187381
 31
0.0
  0
LINE
  8
OBJECT
 62
     7
 10
69.521307
 20
89.187381
 30
0.0
 11
69.521307
 21
89.212381
 31
0.0
  0
LINE
  8
OBJECT
 62
     7
 10
69.521307
 20
89.212381
 30
0.0
 11
69.936307
 21
89.212381
 31
0.0
  0
LINE
  8
OBJECT
 62
     7
 10
69.936307
 20
89.187381
 30
0.0
 11
69.521307
 21
89.187381
 31
0.0
  0
LINE
  8
OBJECT
 62
     7
 10
69.606307
 20
89.212381
 30
0.0
 11
69.606307
 21
89.362381
 31
0.0
  0
LINE
  8
HIDDEN
 62
     7
 10
69.356307
 20
89.212381
 30
0.0
 11
69.356307
 21
89.362381
 31
0.0
  0
LINE
  8
OBJECT
 62
     7
 10
69.441307
 20
89.212381
 30
0.0
 11
69.441307
 21
89.187381
 31
0.0
  0
LINE
  8
OBJECT
 62
     7
 10
69.373807
 20
89.362381
 30
0.0
 11
69.606307
 21
89.362381
 31
0.0
  0
LINE
  8
OBJECT
 62
     7
 10
70.016307
 20
89.187381
 30
0.0
 11
70.016307
 21
89.212381
 31
0.0
  0
ARC
  8
SHELF
 62
     7
 10
69.311807
 20
89.076381
 30
0.0
 40
0.062
 50
270.0
 51
0.0
  0
ARC
  8
SHELF
 62
     7
 10
69.311807
 20
89.076381
 30
0.0
 40
0.015
 50
270.0
 51
0.0
  0
LINE
  8
SHELF
 62
     7
 10
69.326807
 20
89.389381
 30
0.0
 11
69.326807
 21
89.076381
 31
0.0
  0
LINE
  8
SHELF
 62
     7
 10
69.373807
 20
89.389381
 30
0.0
 11
69.326807
 21
89.389381
 31
0.0
  0
LINE
  8
OBJECT
 62
     7
 10
70.841307
 20
89.362381
 30
0.0
 11
71.091307
 21
89.362381
 31
0.0
  0
LINE
  8
OBJECT
 62
     7
 10
70.926307
 20
89.187381
 30
0.0
 11
70.511307
 21
89.187381
 31
0.0
  0
LINE
  8
OBJECT
 62
     7
 10
70.511307
 20
89.212381
 30
0.0
 11
70.926307
 21
89.212381
 31
0.0
  0
LINE
  8
OBJECT
 62
     7
 10
70.358807
 20
89.642381
 30
0.0
 11
70.388807
 21
89.642381
 31
0.0
  0
ARC
  8
OBJECT
 62
     7
 10
70.718807
 20
89.187381
 30
0.0
 40
0.1
 50
332.473424
 51
0.0
  0
LINE
  8
OBJECT
 62
     7
 10
70.841307
 20
89.212381
 30
0.0
 11
70.841307
 21
89.362381
 31
0.0
  0
ARC
  8
OBJECT
 62
     7
 10
70.223807
 20
89.187381
 30
0.0
 40
0.1
 50
180.0
 51
207.526576
  0
ARC
  8
OBJECT
 62
     7
 10
70.718807
 20
89.187381
 30
0.0
 40
0.1
 50
180.0
 51
207.526576
  0
ARC
  8
OBJECT
 62
     7
 10
70.223807
 20
89.187381
 30
0.0
 40
0.1
 50
332.473424
 51
0.0
  0
LINE
  8
OBJECT
 62
     7
 10
70.346307
 20
89.362381
 30
0.0
 11
70.596307
 21
89.362381
 31
0.0
  0
ARC
  8
OBJECT
 62
     7
 10
70.223807
 20
89.187381
 30
0.0
 40
0.1
 50
14.477512
 51
165.522488
  0
LINE
  8
OBJECT
 62
     7
 10
70.101307
 20
89.212381
 30
0.0
 11
70.101307
 21
89.362381
 31
0.0
  0
LINE
  8
OBJECT
 62
     7
 10
70.511307
 20
89.187381
 30
0.0
 11
70.511307
 21
89.212381
 31
0.0
  0
LINE
  8
OBJECT
 62
     7
 10
70.346307
 20
89.212381
 30
0.0
 11
70.346307
 21
89.362381
 31
0.0
  0
LINE
  8
OBJECT
 62
     7
 10
70.431307
 20
89.212381
 30
0.0
 11
70.431307
 21
89.187381
 31
0.0
  0
LINE
  8
OBJECT
 62
     7
 10
70.596307
 20
89.212381
 30
0.0
 11
70.596307
 21
89.362381
 31
0.0
  0
ARC
  8
OBJECT
 62
     7
 10
70.718807
 20
89.187381
 30
0.0
 40
0.1
 50
14.477512
 51
165.522488
  0
ARC
  8
OBJECT
 62
     7
 10
71.708807
 20
89.187381
 30
0.0
 40
0.1
 50
180.0
 51
207.526576
  0
LINE
  8
OBJECT
 62
     7
 10
71.586307
 20
89.212381
 30
0.0
 11
71.586307
 21
89.362381
 31
0.0
  0
ARC
  8
OBJECT
 62
     7
 10
71.213807
 20
89.187381
 30
0.0
 40
0.1
 50
180.0
 51
207.526576
  0
ARC
  8
OBJECT
 62
     7
 10
71.213807
 20
89.187381
 30
0.0
 40
0.1
 50
332.473424
 51
0.0
  0
ARC
  8
OBJECT
 62
     7
 10
71.213807
 20
89.187381
 30
0.0
 40
0.1
 50
14.477512
 51
165.522488
  0
LINE
  8
OBJECT
 62
     7
 10
71.006307
 20
89.212381
 30
0.0
 11
71.421307
 21
89.212381
 31
0.0
  0
LINE
  8
OBJECT
 62
     7
 10
71.421307
 20
89.187381
 30
0.0
 11
71.006307
 21
89.187381
 31
0.0
  0
LINE
  8
OBJECT
 62
     7
 10
71.006307
 20
89.187381
 30
0.0
 11
71.006307
 21
89.212381
 31
0.0
  0
LINE
  8
OBJECT
 62
     7
 10
71.091307
 20
89.212381
 30
0.0
 11
71.091307
 21
89.362381
 31
0.0
  0
LINE
  8
OBJECT
 62
     7
 10
70.926307
 20
89.212381
 30
0.0
 11
70.926307
 21
89.187381
 31
0.0
  0
LINE
  8
OBJECT
 62
     7
 10
71.336307
 20
89.212381
 30
0.0
 11
71.336307
 21
89.362381
 31
0.0
  0
LINE
  8
OBJECT
 62
     7
 10
71.501307
 20
89.187381
 30
0.0
 11
71.501307
 21
89.212381
 31
0.0
  0
LINE
  8
OBJECT
 62
     7
 10
71.421307
 20
89.212381
 30
0.0
 11
71.421307
 21
89.187381
 31
0.0
  0
LINE
  8
OBJECT
 62
     7
 10
71.336307
 20
89.362381
 30
0.0
 11
71.586307
 21
89.362381
 31
0.0
  0
LINE
  8
HIDDEN
  6
HIDDEN
 62
     7
 10
67.131307
 20
89.957381
 30
0.0
 11
69.213807
 21
89.957381
 31
0.0
  0
LINE
  8
HIDDEN
 62
     7
 10
65.973807
 20
90.232462
 30
0.0
 11
66.123807
 21
90.302462
 31
0.0
  0
LINE
  8
HIDDEN
 62
     7
 10
66.123807
 20
90.323597
 30
0.0
 11
66.123807
 21
90.302462
 31
0.0
  0
LINE
  8
HOUSE
 62
     7
 10
65.420807
 20
91.763381
 30
0.0
 11
65.420807
 21
90.764381
 31
0.0
  0
LINE
  8
HIDDEN
 62
     7
 10
66.858807
 20
89.822381
 30
0.0
 11
66.888807
 21
89.822381
 31
0.0
  0
LINE
  8
HIDDEN
 62
     7
 10
67.956307
 20
90.277381
 30
0.0
 11
67.541307
 21
90.277381
 31
0.0
  0
LINE
  8
HIDDEN
 62
     7
 10
67.541307
 20
90.252381
 30
0.0
 11
67.956307
 21
90.252381
 31
0.0
  0
ARC
  8
HIDDEN
 62
     7
 10
67.253807
 20
90.277381
 30
0.0
 40
0.1
 50
0.0
 51
27.526576
  0
LINE
  8
HIDDEN
 62
     7
 10
67.376307
 20
90.252381
 30
0.0
 11
67.376307
 21
90.232462
 31
0.0
  0
ARC
  8
HIDDEN
 62
     7
 10
67.253807
 20
90.277381
 30
0.0
 40
0.1
 50
333.308195
 51
345.522488
  0
ARC
  8
HIDDEN
 62
     7
 10
67.253807
 20
90.277381
 30
0.0
 40
0.1
 50
152.473424
 51
180.0
  0
ARC
  8
HIDDEN
 62
     7
 10
67.253807
 20
90.277381
 30
0.0
 40
0.1
 50
194.477512
 51
206.691805
  0
LINE
  8
HIDDEN
 62
     7
 10
67.541307
 20
90.277381
 30
0.0
 11
67.541307
 21
90.252381
 31
0.0
  0
LINE
  8
HIDDEN
 62
     7
 10
67.461307
 20
90.252381
 30
0.0
 11
67.461307
 21
90.277381
 31
0.0
  0
ARC
  8
HIDDEN
 62
     7
 10
67.748807
 20
90.277381
 30
0.0
 40
0.1
 50
194.477512
 51
206.691805
  0
ARC
  8
HIDDEN
 62
     7
 10
67.748807
 20
90.277381
 30
0.0
 40
0.1
 50
152.473424
 51
180.0
  0
LINE
  8
HIDDEN
 62
     7
 10
66.983807
 20
89.822381
 30
0.0
 11
67.013807
 21
89.822381
 31
0.0
  0
LINE
  8
HIDDEN
 62
     7
 10
67.046307
 20
90.277381
 30
0.0
 11
67.046307
 21
90.252381
 31
0.0
  0
LINE
  8
HIDDEN
 62
     7
 10
67.046307
 20
90.252381
 30
0.0
 11
67.461307
 21
90.252381
 31
0.0
  0
LINE
  8
HIDDEN
 62
     7
 10
67.461307
 20
90.277381
 30
0.0
 11
67.046307
 21
90.277381
 31
0.0
  0
ARC
  8
HIDDEN
 62
     7
 10
68.243807
 20
90.277381
 30
0.0
 40
0.1
 50
152.473424
 51
180.0
  0
LINE
  8
HIDDEN
 62
     7
 10
68.451307
 20
90.277381
 30
0.0
 11
68.036307
 21
90.277381
 31
0.0
  0
LINE
  8
HIDDEN
 62
     7
 10
68.036307
 20
90.252381
 30
0.0
 11
68.451307
 21
90.252381
 31
0.0
  0
ARC
  8
HIDDEN
 62
     7
 10
67.748807
 20
90.277381
 30
0.0
 40
0.1
 50
333.308195
 51
345.522488
  0
LINE
  8
HIDDEN
 62
     7
 10
67.871307
 20
90.252381
 30
0.0
 11
67.871307
 21
90.232462
 31
0.0
  0
LINE
  8
HIDDEN
 62
     7
 10
68.121307
 20
90.252381
 30
0.0
 11
68.121307
 21
90.232462
 31
0.0
  0
LINE
  8
HIDDEN
 62
     7
 10
67.956307
 20
90.252381
 30
0.0
 11
67.956307
 21
90.277381
 31
0.0
  0
ARC
  8
HIDDEN
 62
     7
 10
67.748807
 20
90.277381
 30
0.0
 40
0.1
 50
0.0
 51
27.526576
  0
LINE
  8
HIDDEN
 62
     7
 10
68.036307
 20
90.277381
 30
0.0
 11
68.036307
 21
90.252381
 31
0.0
  0
LINE
  8
HIDDEN
 62
     7
 10
68.366307
 20
90.252381
 30
0.0
 11
68.366307
 21
90.232462
 31
0.0
  0
LINE
  8
HIDDEN
 62
     7
 10
68.451307
 20
90.252381
 30
0.0
 11
68.451307
 21
90.277381
 31
0.0
  0
ARC
  8
HIDDEN
 62
     7
 10
68.243807
 20
90.277381
 30
0.0
 40
0.1
 50
194.477512
 51
206.691805
  0
ARC
  8
HIDDEN
 62
     7
 10
68.243807
 20
90.277381
 30
0.0
 40
0.1
 50
333.308195
 51
345.522488
  0
ARC
  8
HIDDEN
 62
     7
 10
68.243807
 20
90.277381
 30
0.0
 40
0.1
 50
0.0
 51
27.526576
  0
LINE
  8
OBJECT
 62
     7
 10
69.851307
 20
90.102381
 30
0.0
 11
70.101307
 21
90.102381
 31
0.0
  0
LINE
  8
OBJECT
 62
     7
 10
70.431307
 20
90.277381
 30
0.0
 11
70.016307
 21
90.277381
 31
0.0
  0
LINE
  8
OBJECT
 62
     7
 10
70.016307
 20
90.252381
 30
0.0
 11
70.431307
 21
90.252381
 31
0.0
  0
LINE
  8
HIDDEN
 62
     7
 10
69.373807
 20
90.277381
 30
0.0
 11
69.026307
 21
90.277381
 31
0.0
  0
LINE
  8
HIDDEN
 62
     7
 10
69.026307
 20
90.252381
 30
0.0
 11
69.373807
 21
90.252381
 31
0.0
  0
ARC
  8
HIDDEN
 62
     7
 10
69.233807
 20
90.277381
 30
0.0
 40
0.1
 50
194.477512
 51
345.522488
  0
LINE
  8
HIDDEN
 62
     7
 10
69.213807
 20
89.957381
 30
0.0
 11
69.373807
 21
89.957381
 31
0.0
  0
LINE
  8
HIDDEN
 62
     7
 10
68.616307
 20
90.252381
 30
0.0
 11
68.616307
 21
90.232462
 31
0.0
  0
ARC
  8
HIDDEN
 62
     7
 10
68.738807
 20
90.277381
 30
0.0
 40
0.1
 50
194.477512
 51
206.691805
  0
ARC
  8
HIDDEN
 62
     7
 10
68.738807
 20
90.277381
 30
0.0
 40
0.1
 50
152.473424
 51
180.0
  0
LINE
  8
HIDDEN
 62
     7
 10
68.946307
 20
90.252381
 30
0.0
 11
68.946307
 21
90.277381
 31
0.0
  0
ARC
  8
HIDDEN
 62
     7
 10
69.233807
 20
90.277381
 30
0.0
 40
0.1
 50
152.473424
 51
180.0
  0
LINE
  8
HIDDEN
 62
     7
 10
69.026307
 20
90.277381
 30
0.0
 11
69.026307
 21
90.252381
 31
0.0
  0
LINE
  8
HIDDEN
 62
     7
 10
69.111307
 20
90.252381
 30
0.0
 11
69.111307
 21
90.206288
 31
0.0
  0
ARC
  8
HIDDEN
 62
     7
 10
68.738807
 20
90.277381
 30
0.0
 40
0.1
 50
333.308195
 51
345.522488
  0
LINE
  8
HIDDEN
 62
     7
 10
68.861307
 20
90.252381
 30
0.0
 11
68.861307
 21
90.232462
 31
0.0
  0
ARC
  8
HIDDEN
 62
     7
 10
68.738807
 20
90.277381
 30
0.0
 40
0.1
 50
0.0
 51
27.526576
  0
LINE
  8
HIDDEN
 62
     7
 10
68.531307
 20
90.277381
 30
0.0
 11
68.531307
 21
90.252381
 31
0.0
  0
LINE
  8
HIDDEN
 62
     7
 10
68.946307
 20
90.277381
 30
0.0
 11
68.531307
 21
90.277381
 31
0.0
  0
LINE
  8
HIDDEN
 62
     7
 10
68.531307
 20
90.252381
 30
0.0
 11
68.946307
 21
90.252381
 31
0.0
  0
LINE
  8
OBJECT
 62
     7
 10
69.373807
 20
90.252381
 30
0.0
 11
69.441307
 21
90.252381
 31
0.0
  0
LINE
  8
OBJECT
 62
     7
 10
69.373807
 20
90.277381
 30
0.0
 11
69.441307
 21
90.277381
 31
0.0
  0
LINE
  8
HIDDEN
 62
     7
 10
69.356307
 20
90.102381
 30
0.0
 11
69.373807
 21
90.102381
 31
0.0
  0
ARC
  8
HIDDEN
 62
     7
 10
69.233807
 20
90.277381
 30
0.0
 40
0.1
 50
0.0
 51
27.526576
  0
LINE
  8
OBJECT
 62
     7
 10
69.851307
 20
90.252381
 30
0.0
 11
69.851307
 21
90.102381
 31
0.0
  0
LINE
  8
OBJECT
 62
     7
 10
69.606307
 20
90.252381
 30
0.0
 11
69.606307
 21
90.102381
 31
0.0
  0
LINE
  8
HIDDEN
 62
     7
 10
69.356307
 20
90.252381
 30
0.0
 11
69.356307
 21
90.102381
 31
0.0
  0
LINE
  8
OBJECT
 62
     7
 10
69.373807
 20
90.102381
 30
0.0
 11
69.606307
 21
90.102381
 31
0.0
  0
LINE
  8
OBJECT
 62
     7
 10
69.936307
 20
90.252381
 30
0.0
 11
69.936307
 21
90.277381
 31
0.0
  0
ARC
  8
OBJECT
 62
     7
 10
69.728807
 20
90.277381
 30
0.0
 40
0.1
 50
194.477512
 51
345.522488
  0
ARC
  8
OBJECT
 62
     7
 10
69.728807
 20
90.277381
 30
0.0
 40
0.1
 50
0.0
 51
27.526576
  0
ARC
  8
OBJECT
 62
     7
 10
69.728807
 20
90.277381
 30
0.0
 40
0.1
 50
152.473424
 51
180.0
  0
LINE
  8
OBJECT
 62
     7
 10
69.521307
 20
90.277381
 30
0.0
 11
69.521307
 21
90.252381
 31
0.0
  0
LINE
  8
OBJECT
 62
     7
 10
69.936307
 20
90.277381
 30
0.0
 11
69.521307
 21
90.277381
 31
0.0
  0
LINE
  8
OBJECT
 62
     7
 10
69.521307
 20
90.252381
 30
0.0
 11
69.936307
 21
90.252381
 31
0.0
  0
LINE
  8
OBJECT
 62
     7
 10
69.441307
 20
90.252381
 30
0.0
 11
69.441307
 21
90.277381
 31
0.0
  0
LINE
  8
OBJECT
 62
     7
 10
70.016307
 20
90.277381
 30
0.0
 11
70.016307
 21
90.252381
 31
0.0
  0
LINE
  8
OBJECT
 62
     7
 10
70.841307
 20
90.102381
 30
0.0
 11
71.091307
 21
90.102381
 31
0.0
  0
LINE
  8
OBJECT
 62
     7
 10
70.511307
 20
90.252381
 30
0.0
 11
70.926307
 21
90.252381
 31
0.0
  0
LINE
  8
OBJECT
 62
     7
 10
70.926307
 20
90.277381
 30
0.0
 11
70.511307
 21
90.277381
 31
0.0
  0
LINE
  8
OBJECT
 62
     7
 10
70.841307
 20
90.252381
 30
0.0
 11
70.841307
 21
90.102381
 31
0.0
  0
ARC
  8
OBJECT
 62
     7
 10
70.718807
 20
90.277381
 30
0.0
 40
0.1
 50
0.0
 51
27.526576
  0
LINE
  8
OBJECT
 62
     7
 10
70.346307
 20
90.102381
 30
0.0
 11
70.596307
 21
90.102381
 31
0.0
  0
LINE
  8
OBJECT
 62
     7
 10
70.101307
 20
90.252381
 30
0.0
 11
70.101307
 21
90.102381
 31
0.0
  0
LINE
  8
OBJECT
 62
     7
 10
70.346307
 20
90.252381
 30
0.0
 11
70.346307
 21
90.102381
 31
0.0
  0
LINE
  8
OBJECT
 62
     7
 10
70.358807
 20
89.822381
 30
0.0
 11
70.388807
 21
89.822381
 31
0.0
  0
ARC
  8
OBJECT
 62
     7
 10
70.223807
 20
90.277381
 30
0.0
 40
0.1
 50
194.477512
 51
345.522488
  0
ARC
  8
OBJECT
 62
     7
 10
70.223807
 20
90.277381
 30
0.0
 40
0.1
 50
152.473424
 51
180.0
  0
LINE
  8
OBJECT
 62
     7
 10
70.511307
 20
90.277381
 30
0.0
 11
70.511307
 21
90.252381
 31
0.0
  0
LINE
  8
OBJECT
 62
     7
 10
70.431307
 20
90.252381
 30
0.0
 11
70.431307
 21
90.277381
 31
0.0
  0
ARC
  8
OBJECT
 62
     7
 10
70.223807
 20
90.277381
 30
0.0
 40
0.1
 50
0.0
 51
27.526576
  0
LINE
  8
OBJECT
 62
     7
 10
70.596307
 20
90.252381
 30
0.0
 11
70.596307
 21
90.102381
 31
0.0
  0
ARC
  8
OBJECT
 62
     7
 10
70.718807
 20
90.277381
 30
0.0
 40
0.1
 50
152.473424
 51
180.0
  0
ARC
  8
OBJECT
 62
     7
 10
70.718807
 20
90.277381
 30
0.0
 40
0.1
 50
194.477512
 51
345.522488
  0
LINE
  8
OBJECT
 62
     7
 10
71.586307
 20
90.252381
 30
0.0
 11
71.586307
 21
90.102381
 31
0.0
  0
ARC
  8
OBJECT
 62
     7
 10
71.708807
 20
90.277381
 30
0.0
 40
0.1
 50
152.473424
 51
180.0
  0
LINE
  8
OBJECT
 62
     7
 10
71.336307
 20
90.252381
 30
0.0
 11
71.336307
 21
90.102381
 31
0.0
  0
LINE
  8
OBJECT
 62
     7
 10
71.091307
 20
90.252381
 30
0.0
 11
71.091307
 21
90.102381
 31
0.0
  0
ARC
  8
OBJECT
 62
     7
 10
71.213807
 20
90.277381
 30
0.0
 40
0.1
 50
194.477512
 51
345.522488
  0
LINE
  8
OBJECT
 62
     7
 10
71.421307
 20
90.277381
 30
0.0
 11
71.006307
 21
90.277381
 31
0.0
  0
LINE
  8
OBJECT
 62
     7
 10
71.006307
 20
90.252381
 30
0.0
 11
71.421307
 21
90.252381
 31
0.0
  0
ARC
  8
OBJECT
 62
     7
 10
71.213807
 20
90.277381
 30
0.0
 40
0.1
 50
152.473424
 51
180.0
  0
LINE
  8
OBJECT
 62
     7
 10
71.006307
 20
90.277381
 30
0.0
 11
71.006307
 21
90.252381
 31
0.0
  0
LINE
  8
OBJECT
 62
     7
 10
70.926307
 20
90.252381
 30
0.0
 11
70.926307
 21
90.277381
 31
0.0
  0
LINE
  8
OBJECT
 62
     7
 10
71.421307
 20
90.252381
 30
0.0
 11
71.421307
 21
90.277381
 31
0.0
  0
ARC
  8
OBJECT
 62
     7
 10
71.213807
 20
90.277381
 30
0.0
 40
0.1
 50
0.0
 51
27.526576
  0
LINE
  8
OBJECT
 62
     7
 10
71.501307
 20
90.277381
 30
0.0
 11
71.501307
 21
90.252381
 31
0.0
  0
LINE
  8
OBJECT
 62
     7
 10
71.336307
 20
90.102381
 30
0.0
 11
71.586307
 21
90.102381
 31
0.0
  0
ARC
  8
OBJECT
 62
     7
 10
76.248807
 20
89.747381
 30
0.0
 40
0.09
 50
0.0
 51
180.0
  0
ARC
  8
OBJECT
 62
     7
 10
76.748807
 20
89.747381
 30
0.0
 40
0.09
 50
0.0
 51
180.0
  0
CIRCLE
  8
OBJECT
 62
     7
 10
72.456307
 20
89.732381
 30
0.0
 40
0.075
  0
CIRCLE
  8
OBJECT
 62
     7
 10
71.961307
 20
89.732381
 30
0.0
 40
0.075
  0
ARC
  8
OBJECT
 62
     7
 10
71.858807
 20
89.732381
 30
0.0
 40
0.09
 50
90.0
 51
270.0
  0
ARC
  8
OBJECT
 62
     7
 10
71.888807
 20
89.732381
 30
0.0
 40
0.09
 50
270.0
 51
90.0
  0
CIRCLE
  8
OBJECT
 62
     7
 10
72.951307
 20
89.732381
 30
0.0
 40
0.075
  0
LINE
  8
OBJECT
 62
     7
 10
73.316307
 20
90.252381
 30
0.0
 11
73.316307
 21
89.212381
 31
0.0
  0
LINE
  8
OBJECT
 62
     7
 10
77.373807
 20
90.169881
 30
0.0
 11
77.373807
 21
89.294881
 31
0.0
  0
LINE
  8
OBJECT
 62
     7
 10
77.273807
 20
90.169881
 30
0.0
 11
77.273807
 21
89.294881
 31
0.0
  0
CIRCLE
  8
HOUSE-HID
 62
     7
 10
76.248807
 20
89.732381
 30
0.0
 40
0.082
  0
CIRCLE
  8
HOUSE-HID
 62
     7
 10
76.748807
 20
89.732381
 30
0.0
 40
0.082
  0
CIRCLE
  8
HOUSE-HID
 62
     7
 10
71.873807
 20
89.732381
 30
0.0
 40
0.082
  0
LINE
  8
HOUSE
 62
     7
 10
77.873807
 20
91.700756
 30
0.0
 11
77.873807
 21
88.358006
 31
0.0
  0
LINE
  8
HOUSE
 62
     7
 10
77.826807
 20
88.358006
 30
0.0
 11
77.826807
 21
91.700756
 31
0.0
  0
ARC
  8
OBJECT
 62
     7
 10
73.193807
 20
89.187381
 30
0.0
 40
0.1
 50
14.477512
 51
165.522488
  0
LINE
  8
OBJECT
 62
     7
 10
73.401307
 20
89.187381
 30
0.0
 11
72.986307
 21
89.187381
 31
0.0
  0
LINE
  8
OBJECT
 62
     7
 10
72.986307
 20
89.212381
 30
0.0
 11
73.401307
 21
89.212381
 31
0.0
  0
LINE
  8
OBJECT
 62
     7
 10
72.326307
 20
89.362381
 30
0.0
 11
72.576307
 21
89.362381
 31
0.0
  0
LINE
  8
OBJECT
 62
     7
 10
71.858807
 20
89.642381
 30
0.0
 11
71.888807
 21
89.642381
 31
0.0
  0
ARC
  8
OBJECT
 62
     7
 10
72.203807
 20
89.187381
 30
0.0
 40
0.1
 50
332.473424
 51
0.0
  0
LINE
  8
OBJECT
 62
     7
 10
72.326307
 20
89.212381
 30
0.0
 11
72.326307
 21
89.362381
 31
0.0
  0
LINE
  8
OBJECT
 62
     7
 10
72.411307
 20
89.212381
 30
0.0
 11
72.411307
 21
89.187381
 31
0.0
  0
ARC
  8
OBJECT
 62
     7
 10
71.708807
 20
89.187381
 30
0.0
 40
0.1
 50
332.473424
 51
0.0
  0
ARC
  8
OBJECT
 62
     7
 10
72.203807
 20
89.187381
 30
0.0
 40
0.1
 50
180.0
 51
207.526576
  0
LINE
  8
OBJECT
 62
     7
 10
71.831307
 20
89.212381
 30
0.0
 11
71.831307
 21
89.362381
 31
0.0
  0
LINE
  8
OBJECT
 62
     7
 10
71.831307
 20
89.362381
 30
0.0
 11
72.081307
 21
89.362381
 31
0.0
  0
LINE
  8
OBJECT
 62
     7
 10
72.081307
 20
89.212381
 30
0.0
 11
72.081307
 21
89.362381
 31
0.0
  0
LINE
  8
OBJECT
 62
     7
 10
71.996307
 20
89.187381
 30
0.0
 11
71.996307
 21
89.212381
 31
0.0
  0
LINE
  8
OBJECT
 62
     7
 10
71.916307
 20
89.212381
 30
0.0
 11
71.916307
 21
89.187381
 31
0.0
  0
LINE
  8
OBJECT
 62
     7
 10
71.996307
 20
89.212381
 30
0.0
 11
72.411307
 21
89.212381
 31
0.0
  0
LINE
  8
OBJECT
 62
     7
 10
72.411307
 20
89.187381
 30
0.0
 11
71.996307
 21
89.187381
 31
0.0
  0
ARC
  8
OBJECT
 62
     7
 10
72.203807
 20
89.187381
 30
0.0
 40
0.1
 50
14.477512
 51
165.522488
  0
ARC
  8
OBJECT
 62
     7
 10
73.193807
 20
89.187381
 30
0.0
 40
0.1
 50
180.0
 51
207.526576
  0
LINE
  8
OBJECT
 62
     7
 10
73.071307
 20
89.212381
 30
0.0
 11
73.071307
 21
89.362381
 31
0.0
  0
ARC
  8
OBJECT
 62
     7
 10
72.698807
 20
89.187381
 30
0.0
 40
0.1
 50
180.0
 51
207.526576
  0
ARC
  8
OBJECT
 62
     7
 10
72.698807
 20
89.187381
 30
0.0
 40
0.1
 50
332.473424
 51
0.0
  0
LINE
  8
OBJECT
 62
     7
 10
72.491307
 20
89.212381
 30
0.0
 11
72.906307
 21
89.212381
 31
0.0
  0
LINE
  8
OBJECT
 62
     7
 10
72.906307
 20
89.187381
 30
0.0
 11
72.491307
 21
89.187381
 31
0.0
  0
LINE
  8
OBJECT
 62
     7
 10
72.821307
 20
89.212381
 30
0.0
 11
72.821307
 21
89.362381
 31
0.0
  0
LINE
  8
OBJECT
 62
     7
 10
72.576307
 20
89.212381
 30
0.0
 11
72.576307
 21
89.362381
 31
0.0
  0
ARC
  8
OBJECT
 62
     7
 10
72.698807
 20
89.187381
 30
0.0
 40
0.1
 50
14.477512
 51
165.522488
  0
LINE
  8
OBJECT
 62
     7
 10
72.491307
 20
89.187381
 30
0.0
 11
72.491307
 21
89.212381
 31
0.0
  0
LINE
  8
OBJECT
 62
     7
 10
72.906307
 20
89.212381
 30
0.0
 11
72.906307
 21
89.187381
 31
0.0
  0
LINE
  8
OBJECT
 62
     7
 10
72.986307
 20
89.187381
 30
0.0
 11
72.986307
 21
89.212381
 31
0.0
  0
LINE
  8
OBJECT
 62
     7
 10
72.821307
 20
89.362381
 30
0.0
 11
73.071307
 21
89.362381
 31
0.0
  0
ARC
  8
OBJECT
 62
     7
 10
73.193807
 20
89.187381
 30
0.0
 40
0.1
 50
332.473424
 51
0.0
  0
LINE
  8
OBJECT
 62
     7
 10
73.401307
 20
89.212381
 30
0.0
 11
73.401307
 21
89.187381
 31
0.0
  0
ARC
  8
OBJECT
 62
     7
 10
76.248807
 20
89.717381
 30
0.0
 40
0.09
 50
180.0
 51
360.0
  0
LINE
  8
OBJECT
 62
     7
 10
76.158807
 20
89.747381
 30
0.0
 11
76.158807
 21
89.717381
 31
0.0
  0
LINE
  8
OBJECT
 62
     7
 10
76.338807
 20
89.747381
 30
0.0
 11
76.338807
 21
89.717381
 31
0.0
  0
LINE
  8
OBJECT
 62
     7
 10
76.838807
 20
89.747381
 30
0.0
 11
76.838807
 21
89.717381
 31
0.0
  0
LINE
  8
OBJECT
 62
     7
 10
76.658807
 20
89.747381
 30
0.0
 11
76.658807
 21
89.717381
 31
0.0
  0
ARC
  8
OBJECT
 62
     7
 10
76.748807
 20
89.717381
 30
0.0
 40
0.09
 50
180.0
 51
360.0
  0
ARC
  8
OBJECT
 62
     7
 10
77.347495
 20
89.235342
 30
0.0
 40
0.094736
 50
141.062614
 51
254.282556
  0
LINE
  8
OBJECT
 62
     7
 10
77.373807
 20
89.144148
 30
0.0
 11
77.373807
 21
89.037381
 31
0.0
  0
LINE
  8
OBJECT
 62
     7
 10
77.273807
 20
89.294881
 30
0.0
 11
77.373807
 21
89.294881
 31
0.0
  0
ARC
  8
HOUSE
 62
     7
 10
77.811182
 20
88.358006
 30
0.0
 40
0.062625
 50
270.0
 51
360.0
  0
ARC
  8
HOUSE
 62
     7
 10
77.811182
 20
88.358006
 30
0.0
 40
0.015625
 50
270.0
 51
0.0
  0
LINE
  8
HOUSE
 62
     7
 10
77.373807
 20
88.295381
 30
0.0
 11
77.373807
 21
88.342381
 31
0.0
  0
ARC
  8
OBJECT
 62
     7
 10
73.193807
 20
90.277381
 30
0.0
 40
0.1
 50
194.477512
 51
345.522488
  0
LINE
  8
OBJECT
 62
     7
 10
72.986307
 20
90.252381
 30
0.0
 11
73.401307
 21
90.252381
 31
0.0
  0
LINE
  8
OBJECT
 62
     7
 10
73.401307
 20
90.277381
 30
0.0
 11
72.986307
 21
90.277381
 31
0.0
  0
LINE
  8
OBJECT
 62
     7
 10
72.326307
 20
90.102381
 30
0.0
 11
72.576307
 21
90.102381
 31
0.0
  0
LINE
  8
OBJECT
 62
     7
 10
72.326307
 20
90.252381
 30
0.0
 11
72.326307
 21
90.102381
 31
0.0
  0
ARC
  8
OBJECT
 62
     7
 10
72.203807
 20
90.277381
 30
0.0
 40
0.1
 50
0.0
 51
27.526576
  0
LINE
  8
OBJECT
 62
     7
 10
72.411307
 20
90.252381
 30
0.0
 11
72.411307
 21
90.277381
 31
0.0
  0
LINE
  8
OBJECT
 62
     7
 10
72.081307
 20
90.252381
 30
0.0
 11
72.081307
 21
90.102381
 31
0.0
  0
LINE
  8
OBJECT
 62
     7
 10
71.831307
 20
90.252381
 30
0.0
 11
71.831307
 21
90.102381
 31
0.0
  0
LINE
  8
OBJECT
 62
     7
 10
71.831307
 20
90.102381
 30
0.0
 11
72.081307
 21
90.102381
 31
0.0
  0
LINE
  8
OBJECT
 62
     7
 10
71.858807
 20
89.822381
 30
0.0
 11
71.888807
 21
89.822381
 31
0.0
  0
ARC
  8
OBJECT
 62
     7
 10
71.708807
 20
90.277381
 30
0.0
 40
0.1
 50
0.0
 51
27.526576
  0
LINE
  8
OBJECT
 62
     7
 10
71.916307
 20
90.252381
 30
0.0
 11
71.916307
 21
90.277381
 31
0.0
  0
LINE
  8
OBJECT
 62
     7
 10
71.996307
 20
90.277381
 30
0.0
 11
71.996307
 21
90.252381
 31
0.0
  0
ARC
  8
OBJECT
 62
     7
 10
72.203807
 20
90.277381
 30
0.0
 40
0.1
 50
152.473424
 51
180.0
  0
LINE
  8
OBJECT
 62
     7
 10
72.411307
 20
90.277381
 30
0.0
 11
71.996307
 21
90.277381
 31
0.0
  0
LINE
  8
OBJECT
 62
     7
 10
71.996307
 20
90.252381
 30
0.0
 11
72.411307
 21
90.252381
 31
0.0
  0
ARC
  8
OBJECT
 62
     7
 10
72.203807
 20
90.277381
 30
0.0
 40
0.1
 50
194.477512
 51
345.522488
  0
LINE
  8
OBJECT
 62
     7
 10
73.071307
 20
90.252381
 30
0.0
 11
73.071307
 21
90.102381
 31
0.0
  0
ARC
  8
OBJECT
 62
     7
 10
73.193807
 20
90.277381
 30
0.0
 40
0.1
 50
152.473424
 51
180.0
  0
LINE
  8
OBJECT
 62
     7
 10
72.821307
 20
90.252381
 30
0.0
 11
72.821307
 21
90.102381
 31
0.0
  0
LINE
  8
OBJECT
 62
     7
 10
72.576307
 20
90.252381
 30
0.0
 11
72.576307
 21
90.102381
 31
0.0
  0
LINE
  8
OBJECT
 62
     7
 10
72.906307
 20
90.277381
 30
0.0
 11
72.491307
 21
90.277381
 31
0.0
  0
LINE
  8
OBJECT
 62
     7
 10
72.491307
 20
90.252381
 30
0.0
 11
72.906307
 21
90.252381
 31
0.0
  0
LINE
  8
OBJECT
 62
     7
 10
72.491307
 20
90.277381
 30
0.0
 11
72.491307
 21
90.252381
 31
0.0
  0
ARC
  8
OBJECT
 62
     7
 10
72.698807
 20
90.277381
 30
0.0
 40
0.1
 50
194.477512
 51
345.522488
  0
ARC
  8
OBJECT
 62
     7
 10
72.698807
 20
90.277381
 30
0.0
 40
0.1
 50
0.0
 51
27.526576
  0
ARC
  8
OBJECT
 62
     7
 10
72.698807
 20
90.277381
 30
0.0
 40
0.1
 50
152.473424
 51
180.0
  0
LINE
  8
OBJECT
 62
     7
 10
72.906307
 20
90.252381
 30
0.0
 11
72.906307
 21
90.277381
 31
0.0
  0
LINE
  8
OBJECT
 62
     7
 10
72.986307
 20
90.277381
 30
0.0
 11
72.986307
 21
90.252381
 31
0.0
  0
LINE
  8
OBJECT
 62
     7
 10
72.821307
 20
90.102381
 30
0.0
 11
73.071307
 21
90.102381
 31
0.0
  0
LINE
  8
OBJECT
 62
     7
 10
73.401307
 20
90.252381
 30
0.0
 11
73.401307
 21
90.277381
 31
0.0
  0
ARC
  8
OBJECT
 62
     7
 10
73.193807
 20
90.277381
 30
0.0
 40
0.1
 50
0.0
 51
27.526576
  0
ARC
  8
OBJECT
 62
     7
 10
77.347495
 20
90.22942
 30
0.0
 40
0.094736
 50
96.226197
 51
218.937386
  0
LINE
  8
OBJECT
 62
     7
 10
77.273807
 20
90.169881
 30
0.0
 11
77.373807
 21
90.169881
 31
0.0
  0
LINE
  8
OBJECT
 62
     7
 10
77.373807
 20
90.427381
 30
0.0
 11
77.373807
 21
90.323597
 31
0.0
  0
ARC
  8
HOUSE
 62
     7
 10
77.811182
 20
91.700756
 30
0.0
 40
0.062625
 50
0.0
 51
90.0
  0
ARC
  8
HOUSE
 62
     7
 10
77.811182
 20
91.700756
 30
0.0
 40
0.015625
 50
0.0
 51
90.0
  0
TEXT
  8
TEXT
 10
1.662667
 20
120.480634
 30
0.0
 40
1.0
  1
NAME
 72
     1
 11
3.496
 21
120.480634
 31
0.0
  0
TEXT
  8
TEXT
 10
1.662667
 20
122.1473
 30
0.0
 40
1.0
  1
PART
 72
     1
 11
3.496
 21
122.1473
 31
0.0
  0
TEXT
  8
TEXT
 10
42.976
 20
120.480634
 30
0.0
 40
1.0
  1
No.
 72
     1
 11
43.976
 21
120.480634
 31
0.0
  0
TEXT
  8
TEXT
 10
42.142667
 20
122.1473
 30
0.0
 40
1.0
  1
PART
 72
     1
 11
43.976
 21
122.1473
 31
0.0
  0
LINE
  8
TITLE
 10
46.976
 20
123.504
 30
0.0
 11
46.976
 21
120.16
 31
0.0
  0
LINE
  8
TITLE
 10
40.976
 20
123.504
 30
0.0
 11
40.976
 21
120.16
 31
0.0
  0
LINE
  8
TITLE
 10
40.48
 20
123.504
 30
0.0
 11
40.48
 21
120.16
 31
0.0
  0
LINE
  8
TITLE
 10
6.496
 20
120.16
 30
0.0
 11
6.496
 21
123.504
 31
0.0
  0
LINE
  8
TITLE
 10
0.496
 20
120.16
 30
0.0
 11
80.464
 21
120.16
 31
0.0
  0
LINE
  8
TITLE
 10
80.464
 20
0.496
 30
0.0
 11
0.496
 21
0.496
 31
0.0
  0
LINE
  8
TITLE
 10
80.464
 20
123.504
 30
0.0
 11
80.464
 21
62.248
 31
0.0
  0
LINE
  8
TITLE
 10
0.496
 20
123.504
 30
0.0
 11
80.464
 21
123.504
 31
0.0
  0
LINE
  8
TITLE
 10
0.496
 20
0.496
 30
0.0
 11
0.496
 21
61.752
 31
0.0
  0
LINE
  8
TITLE
 10
0.0
 20
0.0
 30
0.0
 11
0.0
 21
124.0
 31
0.0
  0
LINE
  8
TITLE
 10
80.96
 20
0.0
 30
0.0
 11
0.0
 21
0.0
 31
0.0
  0
LINE
  8
TITLE
 10
80.96
 20
124.0
 30
0.0
 11
80.96
 21
0.0
 31
0.0
  0
LINE
  8
TITLE
 10
0.0
 20
124.0
 30
0.0
 11
80.96
 21
124.0
 31
0.0
  0
TEXT
  8
TEXT
 62
     7
 10
1.662667
 20
60.405967
 30
0.0
 40
1.0
  1
PART
 72
     1
 11
3.496
 21
60.405967
 31
0.0
  0
TEXT
  8
TEXT
 62
     7
 10
1.662667
 20
58.7393
 30
0.0
 40
1.0
  1
NAME
 72
     1
 11
3.496
 21
58.7393
 31
0.0
  0
TEXT
  8
TEXT
 62
     7
 10
42.142667
 20
60.405967
 30
0.0
 40
1.0
  1
PART
 72
     1
 11
43.976
 21
60.405967
 31
0.0
  0
TEXT
  8
TEXT
 62
     7
 10
42.976
 20
58.7393
 30
0.0
 40
1.0
  1
No.
 72
     1
 11
43.976
 21
58.7393
 31
0.0
  0
DIMENSION
  8
DIM
 62
     7
  2
*D50
 10
68.938967
 20
110.513479
 30
0.0
 11
68.938967
 21
104.560479
 31
0.0
  1
<> INSIDE
 13
49.952967
 23
98.607479
 33
0.0
 14
49.952967
 24
110.513479
 34
0.0
 50
90.0
  3
23NSTD
  0
DIMENSION
  8
DIM
 62
     7
  2
*D50
 10
71.319018
 20
47.922805
 30
0.0
 11
71.319018
 21
41.969805
 31
0.0
 12
2.380051
 22
-62.590674
 32
0.0
  1
<> INSIDE
 13
52.333018
 23
36.016805
 33
0.0
 14
52.333018
 24
47.922805
 34
0.0
 50
90.0
  3
23NSTD
  0
DIMENSION
  8
DIM
 62
     7
  2
*D51
 10
64.327018
 20
36.562805
 30
0.0
 11
64.327018
 21
39.812805
 31
0.0
 12
2.380051
 22
-62.590674
 32
0.0
  1
<> REF.
 13
59.439018
 23
43.062805
 33
0.0
 14
59.439018
 24
36.562805
 34
0.0
 50
90.0
  3
23NSTDI
  0
LINE
  8
TITLE
 10
80.464
 20
61.752
 30
0.0
 11
80.464
 21
0.496
 31
0.0
  0
LINE
  8
TITLE
 10
0.496
 20
62.248
 30
0.0
 11
0.496
 21
123.504
 31
0.0
  0
POLYLINE
  8
BEND
  6
PHANTOM2
 62
     7
 66
     1
 10
0.0
 20
0.0
 30
0.0
 75
     6
  0
VERTEX
  8
BEND
  6
PHANTOM2
 62
     7
 10
45.494356
 20
92.772715
 30
0.0
  0
VERTEX
  8
BEND
  6
PHANTOM2
 62
     7
 10
47.573573
 20
92.772715
 30
0.0
  0
VERTEX
  8
BEND
  6
PHANTOM2
 62
     7
 10
47.573573
 20
87.523194
 30
0.0
  0
VERTEX
  8
BEND
  6
PHANTOM2
 62
     7
 10
45.494356
 20
87.523194
 30
0.0
  0
SEQEND
  8
BEND
  6
PHANTOM2
 62
     7
  0
POLYLINE
  8
BEND
  6
PHANTOM2
 62
     7
 66
     1
 10
0.0
 20
0.0
 30
0.0
 75
     6
  0
VERTEX
  8
BEND
  6
PHANTOM2
 62
     7
 10
45.874406
 20
31.022179
 30
0.0
  0
VERTEX
  8
BEND
  6
PHANTOM2
 62
     7
 10
47.953624
 20
31.022179
 30
0.0
  0
VERTEX
  8
BEND
  6
PHANTOM2
 62
     7
 10
47.953624
 20
25.772659
 30
0.0
  0
VERTEX
  8
BEND
  6
PHANTOM2
 62
     7
 10
45.874406
 20
25.772659
 30
0.0
  0
SEQEND
  8
BEND
  6
PHANTOM2
 62
     7
  0
ENDSEC
  0
EOF
