  0
SECTION
  2
HEADER
  9
$ACADVER
  1
AC1009
  9
$INSBASE
 10
0.0
 20
0.0
 30
0.0
  9
$EXTMIN
 10
0.0
 20
0.0
 30
-0.094
  9
$EXTMAX
 10
108.5
 20
70.84
 30
0.0
  9
$LIMMIN
 10
0.0
 20
0.0
  9
$LIMMAX
 10
92.25
 20
72.0
  9
$ORTHOMODE
 70
     1
  9
$REGENMODE
 70
     1
  9
$FILLMODE
 70
     1
  9
$QTEXTMODE
 70
     0
  9
$MIRRTEXT
 70
     0
  9
$DRAGMODE
 70
     2
  9
$LTSCALE
 40
3.5
  9
$OSMODE
 70
     0
  9
$ATTMODE
 70
     1
  9
$TEXTSIZE
 40
0.875
  9
$TRACEWID
 40
0.05
  9
$TEXTSTYLE
  7
TXT
  9
$CLAYER
  8
OBJECT
  9
$CELTYPE
  6
BYLAYER
  9
$CECOLOR
 62
   256
  9
$DIMSCALE
 40
7.0
  9
$DIMASZ
 40
0.18
  9
$DIMEXO
 40
0.063
  9
$DIMDLI
 40
0.281
  9
$DIMRND
 40
0.0
  9
$DIMDLE
 40
0.0
  9
$DIMEXE
 40
0.093
  9
$DIMTP
 40
0.0
  9
$DIMTM
 40
0.0
  9
$DIMTXT
 40
0.125
  9
$DIMCEN
 40
0.09
  9
$DIMTSZ
 40
0.0
  9
$DIMTOL
 70
     0
  9
$DIMLIM
 70
     0
  9
$DIMTIH
 70
     1
  9
$DIMTOH
 70
     1
  9
$DIMSE1
 70
     0
  9
$DIMSE2
 70
     0
  9
$DIMTAD
 70
     0
  9
$DIMZIN
 70
     0
  9
$DIMBLK
  1

  9
$DIMASO
 70
     1
  9
$DIMSHO
 70
     1
  9
$DIMPOST
  1

  9
$DIMAPOST
  1

  9
$DIMALT
 70
     0
  9
$DIMALTD
 70
     2
  9
$DIMALTF
 40
25.4
  9
$DIMLFAC
 40
1.0
  9
$DIMTOFL
 70
     0
  9
$DIMTVP
 40
0.0
  9
$DIMTIX
 70
     0
  9
$DIMSOXD
 70
     0
  9
$DIMSAH
 70
     0
  9
$DIMBLK1
  1

  9
$DIMBLK2
  1

  9
$DIMSTYLE
  2
23NSTD
  9
$DIMCLRD
 70
     0
  9
$DIMCLRE
 70
     0
  9
$DIMCLRT
 70
     0
  9
$DIMTFAC
 40
1.0
  9
$DIMGAP
 40
0.09
  9
$LUNITS
 70
     2
  9
$LUPREC
 70
     3
  9
$SKETCHINC
 40
0.1
  9
$FILLETRAD
 40
0.0
  9
$AUNITS
 70
     0
  9
$AUPREC
 70
     0
  9
$MENU
  1
acad
  9
$ELEVATION
 40
0.0
  9
$PELEVATION
 40
0.0
  9
$THICKNESS
 40
0.0
  9
$LIMCHECK
 70
     0
  9
$BLIPMODE
 70
     1
  9
$CHAMFERA
 40
0.25
  9
$CHAMFERB
 40
0.25
  9
$SKPOLY
 70
     0
  9
$TDCREATE
 40
2451334.529466435
  9
$TDUPDATE
 40
2451334.556896180
  9
$TDINDWG
 40
0.0235335648
  9
$TDUSRTIMER
 40
0.0235335648
  9
$USRTIMER
 70
     1
  9
$ANGBASE
 50
0.0
  9
$ANGDIR
 70
     0
  9
$PDMODE
 70
     0
  9
$PDSIZE
 40
0.0
  9
$PLINEWID
 40
0.0
  9
$COORDS
 70
     2
  9
$SPLFRAME
 70
     0
  9
$SPLINETYPE
 70
     6
  9
$SPLINESEGS
 70
     8
  9
$ATTDIA
 70
     1
  9
$ATTREQ
 70
     1
  9
$HANDLING
 70
     0
  9
$HANDSEED
  5
0
  9
$SURFTAB1
 70
     6
  9
$SURFTAB2
 70
     6
  9
$SURFTYPE
 70
     6
  9
$SURFU
 70
     6
  9
$SURFV
 70
     6
  9
$UCSNAME
  2

  9
$UCSORG
 10
0.0
 20
0.0
 30
0.0
  9
$UCSXDIR
 10
1.0
 20
0.0
 30
0.0
  9
$UCSYDIR
 10
0.0
 20
1.0
 30
0.0
  9
$PUCSNAME
  2

  9
$PUCSORG
 10
0.0
 20
0.0
 30
0.0
  9
$PUCSXDIR
 10
1.0
 20
0.0
 30
0.0
  9
$PUCSYDIR
 10
0.0
 20
1.0
 30
0.0
  9
$USERI1
 70
     0
  9
$USERI2
 70
     0
  9
$USERI3
 70
     0
  9
$USERI4
 70
     0
  9
$USERI5
 70
     0
  9
$USERR1
 40
0.0
  9
$USERR2
 40
0.0
  9
$USERR3
 40
0.0
  9
$USERR4
 40
0.0
  9
$USERR5
 40
0.0
  9
$WORLDVIEW
 70
     1
  9
$SHADEDGE
 70
     3
  9
$SHADEDIF
 70
    70
  9
$TILEMODE
 70
     1
  9
$MAXACTVP
 70
    16
  9
$PINSBASE
 10
0.0
 20
0.0
 30
0.0
  9
$PLIMCHECK
 70
     0
  9
$PEXTMIN
 10
1.000000E+20
 20
1.000000E+20
 30
1.000000E+20
  9
$PEXTMAX
 10
-1.000000E+20
 20
-1.000000E+20
 30
-1.000000E+20
  9
$PLIMMIN
 10
0.0
 20
0.0
  9
$PLIMMAX
 10
12.0
 20
9.0
  9
$UNITMODE
 70
     0
  9
$VISRETAIN
 70
     0
  9
$PLINEGEN
 70
     0
  9
$PSLTSCALE
 70
     0
  9
$TREEDEPTH
 70
  3020
  9
$DWGCODEPAGE
  3
ascii
  0
ENDSEC
  0
SECTION
  2
TABLES
  0
TABLE
  2
VPORT
 70
     2
  0
VPORT
  2
*ACTIVE
 70
     0
 10
0.0
 20
0.0
 11
1.0
 21
1.0
 12
54.25
 22
39.821204
 13
0.0
 23
0.0
 14
1.0
 24
1.0
 15
1.0
 25
1.0
 16
0.0
 26
0.0
 36
1.0
 17
0.0
 27
0.0
 37
0.0
 40
79.642408
 41
1.36234
 42
50.0
 43
0.0
 44
0.0
 50
0.0
 51
0.0
 71
     0
 72
  5000
 73
     1
 74
     0
 75
     0
 76
     0
 77
     0
 78
     0
  0
ENDTAB
  0
TABLE
  2
LTYPE
 70
     7
  0
LTYPE
  2
CONTINUOUS
 70
    64
  3
Solid line
 72
    65
 73
     0
 40
0.0
  0
LTYPE
  2
CENTER
 70
    64
  3
____ _ ____ _ ____ _ ____ _ ____ _ ____ _ ____ 
 72
    65
 73
     4
 40
2.0
 49
1.25
 49
-0.25
 49
0.25
 49
-0.25
  0
LTYPE
  2
PHANTOM
 70
    64
  3
______  __  __  ______  __  __  ______  __  __ 
 72
    65
 73
     6
 40
2.5
 49
1.25
 49
-0.25
 49
0.25
 49
-0.25
 49
0.25
 49
-0.25
  0
LTYPE
  2
HIDDEN
 70
    64
  3
__ __ __ __ __ __ __ __ __ __ __ __ __ __ __ __
 72
    65
 73
     2
 40
0.375
 49
0.25
 49
-0.125
  0
LTYPE
  2
HIDDEN2
 70
    64
  3
_ _ _ _ _ _ _ _ _ _ _ _ _ _ _ _ _ _ _ _ _ _ _ _
 72
    65
 73
     2
 40
0.1875
 49
0.125
 49
-0.0625
  0
LTYPE
  2
CENTER2
 70
     0
  3
___ _ ___ _ ___ _ ___ _ ___ _ ___ _ ___ _ ___ _
 72
    65
 73
     4
 40
1.125
 49
0.75
 49
-0.125
 49
0.125
 49
-0.125
  0
LTYPE
  2
PHANTOM2
 70
     0
  3
___ _ _ ___ _ _ ___ _ _ ___ _ _ ___ _ _ ___ _ _
 72
    65
 73
     6
 40
1.25
 49
0.625
 49
-0.125
 49
0.125
 49
-0.125
 49
0.125
 49
-0.125
  0
ENDTAB
  0
TABLE
  2
LAYER
 70
    16
  0
LAYER
  2
0
 70
    64
 62
     7
  6
CONTINUOUS
  0
LAYER
  2
TEXT
 70
    64
 62
     7
  6
CONTINUOUS
  0
LAYER
  2
TITLE
 70
    64
 62
     7
  6
CONTINUOUS
  0
LAYER
  2
DIM
 70
    64
 62
     7
  6
CONTINUOUS
  0
LAYER
  2
CENTER
 70
    64
 62
     7
  6
CENTER
  0
LAYER
  2
OBJECT
 70
    64
 62
     7
  6
CONTINUOUS
  0
LAYER
  2
BEND
 70
    64
 62
     7
  6
PHANTOM
  0
LAYER
  2
HIDDEN
 70
    64
 62
     7
  6
HIDDEN2
  0
LAYER
  2
DEFPOINTS
 70
    64
 62
     7
  6
CONTINUOUS
  0
LAYER
  2
BRACKET
 70
    64
 62
     7
  6
CONTINUOUS
  0
LAYER
  2
SLIDES
 70
    64
 62
     7
  6
CONTINUOUS
  0
LAYER
  2
SLIDES-HID
 70
    64
 62
     7
  6
HIDDEN
  0
LAYER
  2
BRACKET-HID
 70
    64
 62
     7
  6
HIDDEN
  0
LAYER
  2
HANDLE
 70
    64
 62
     7
  6
CONTINUOUS
  0
LAYER
  2
DRAWER
 70
    64
 62
     7
  6
CONTINUOUS
  0
LAYER
  2
DRAW-HID
 70
    64
 62
     7
  6
HIDDEN
  0
ENDTAB
  0
TABLE
  2
STYLE
 70
     2
  0
STYLE
  2
STANDARD
 70
    64
 40
0.0
 41
1.0
 50
0.0
 71
     0
 42
0.18
  3
txt
  4

  0
STYLE
  2
TXT
 70
    64
 40
0.0
 41
0.75
 50
0.0
 71
     0
 42
0.875
  3
txt
  4

  0
ENDTAB
  0
TABLE
  2
VIEW
 70
     0
  0
ENDTAB
  0
TABLE
  2
UCS
 70
     0
  0
ENDTAB
  0
TABLE
  2
APPID
 70
     3
  0
APPID
  2
ACAD
 70
    64
  0
APPID
  2
MCAD_NO_VIS
 70
    64
  0
APPID
  2
AD_SKETCHDIM
 70
    64
  0
ENDTAB
  0
TABLE
  2
DIMSTYLE
 70
     2
  0
DIMSTYLE
  2
23NSTD
 70
    64
  3

  4

  5

  6

  7

 40
7.0
 41
0.18
 42
0.063
 43
0.281
 44
0.093
 45
0.0
 46
0.0
 47
0.0
 48
0.0
140
0.125
141
0.09
142
0.0
143
25.4
144
1.0
145
0.0
146
1.0
147
0.09
 71
     0
 72
     0
 73
     1
 74
     1
 75
     0
 76
     0
 77
     0
 78
     0
170
     0
171
     2
172
     0
173
     0
174
     0
175
     0
176
     0
177
     0
178
     0
  0
DIMSTYLE
  2
23NSTDI
 70
    64
  3

  4

  5

  6

  7

 40
7.0
 41
0.18
 42
0.063
 43
0.281
 44
0.093
 45
0.0
 46
0.0
 47
0.0
 48
0.0
140
0.125
141
0.09
142
0.0
143
25.4
144
1.0
145
0.0
146
1.0
147
0.09
 71
     0
 72
     0
 73
     1
 74
     1
 75
     0
 76
     0
 77
     0
 78
     0
170
     0
171
     2
172
     0
173
     0
174
     1
175
     0
176
     0
177
     0
178
     0
  0
ENDTAB
  0
ENDSEC
  0
SECTION
  2
BLOCKS
  0
BLOCK
  8
0
  2
C
 70
     2
 10
0.0
 20
0.0
 30
0.0
  3
C
  0
ATTDEF
  8
TEXT
 10
15.305976
 20
0.539405
 30
0.0
 40
0.125
  1

  3
ENTER INITIALS
  2
NAME
 70
     4
 41
0.75
 72
     1
 11
15.477851
 21
0.539405
 31
0.0
  0
ATTDEF
  8
TEXT
 10
16.001361
 20
0.539405
 30
0.0
 40
0.125
  1

  3
ENTER DATE
  2
DATE
 70
     4
 41
0.75
 72
     1
 11
16.173236
 21
0.539405
 31
0.0
  0
ATTDEF
  8
TEXT
 10
19.199248
 20
0.710607
 30
0.0
 40
0.125
  1

  3
ENTER TITLE LINE #1
  2
TITLE1
 70
     4
 41
0.75
 72
     1
 11
19.433623
 21
0.710607
 31
0.0
  0
ATTDEF
  8
TEXT
 10
19.183623
 20
0.499477
 30
0.0
 40
0.125
  1
 
  3
ENTER TITLE LINE #2
  2
TITLE2
 70
     4
 41
0.75
 72
     1
 11
19.433623
 21
0.499477
 31
0.0
  0
ATTDEF
  8
TEXT
 10
19.415748
 20
0.106224
 30
0.0
 40
0.156
  1
 
  3
ENTER PART #
  2
PART
 70
     4
 41
0.75
 72
     1
 11
19.630248
 21
0.106224
 31
0.0
  0
ATTDEF
  8
TEXT
 10
19.415748
 20
15.677641
 30
0.0
 40
0.156
  1

  3
ENTER PART #
  2
PART
 70
     4
 41
0.75
 72
     1
 11
19.630248
 21
15.677641
 31
0.0
  0
ATTDEF
  8
TEXT
 10
11.056898
 20
1.182012
 30
0.0
 40
0.125
  1

  3
ENTER CUT SIZE
  2
CUTSIZE
 70
     4
 41
4.936416
 72
     5
 11
14.964894
 21
1.182012
 31
0.0
  0
ATTDEF
  8
TEXT
 10
11.069371
 20
0.286779
 30
0.0
 40
0.125
  1

  3
ENTER QUANTITY
  2
QTY
 70
     4
 41
0.75
 72
     1
 11
11.194371
 21
0.286779
 31
0.0
  0
ATTDEF
  8
TEXT
 10
11.967179
 20
0.286779
 30
0.0
 40
0.125
  1

  3
ENTER "USED ON" PART #
  2
USED
 70
     4
 41
0.75
 72
     1
 11
12.139054
 21
0.286779
 31
0.0
  0
ATTDEF
  8
TEXT
 10
15.958356
 20
0.955532
 30
0.0
 40
0.125
  1
AS NOTED
  3
ENTER MATERIAL
  2
MAT
 70
     4
 41
0.75
 72
     1
 11
16.083356
 21
0.955532
 31
0.0
  0
ATTDEF
  8
TEXT
 10
15.848981
 20
0.743654
 30
0.0
 40
0.125
  1
SEE SPEC.
  3
ENTER FINISH
  2
FINISH
 70
     4
 41
0.75
 72
     1
 11
16.083356
 21
0.743654
 31
0.0
  0
LINE
  8
TITLE
 10
20.5
 20
0.0
 30
0.0
 11
20.5
 21
16.0
 31
0.0
  0
LINE
  8
TITLE
 10
0.0
 20
0.0
 30
0.0
 11
20.5
 21
0.0
 31
0.0
  0
LINE
  8
TITLE
 10
0.0
 20
16.0
 30
0.0
 11
0.0
 21
0.0
 31
0.0
  0
LINE
  8
TITLE
 10
0.0
 20
16.0
 30
0.0
 11
20.5
 21
16.0
 31
0.0
  0
LINE
  8
TITLE
 10
11.02
 20
1.377
 30
0.0
 11
11.02
 21
0.0
 31
0.0
  0
LINE
  8
TITLE
 62
     8
 10
18.6875
 20
15.3125
 30
0.0
 11
18.6875
 21
15.5625
 31
0.0
  0
TEXT
  8
TITLE
 62
     8
 10
18.1875
 20
15.8125
 30
0.0
 40
0.09375
  1
DWG.
  0
TEXT
  8
TITLE
 62
     8
 10
18.179285
 20
15.398672
 30
0.0
 40
0.09375
  1
ISSUE
  0
LINE
  8
TITLE
 10
18.0625
 20
15.3125
 30
0.0
 11
18.0625
 21
16.0
 31
0.0
  0
TEXT
  8
TITLE
 62
     8
 10
18.1875
 20
15.65625
 30
0.0
 40
0.09375
  1
NO.
  0
LINE
  8
TITLE
 62
     8
 10
18.0625
 20
15.3125
 30
0.0
 11
20.5
 21
15.3125
 31
0.0
  0
LINE
  8
TITLE
 62
     8
 10
18.0625
 20
15.5625
 30
0.0
 11
20.5
 21
15.5625
 31
0.0
  0
TEXT
  8
TITLE
 62
     8
 10
19.12324
 20
15.400848
 30
0.0
 40
0.09375
  1
REVISIONS
  0
TEXT
  8
TITLE
 62
     8
 10
18.4375
 20
0.990354
 30
0.0
 40
0.09375
  1
NAME:
  0
TEXT
  8
TITLE
 62
     8
 10
18.4375
 20
0.063166
 30
0.0
 40
0.0938
  1
NO.
  0
TEXT
  8
TITLE
 62
     8
 10
18.4375
 20
0.219499
 30
0.0
 40
0.0938
  1
DWG.
  0
LINE
  8
TITLE
 62
     8
 10
18.367246
 20
0.0
 30
0.0
 11
18.367246
 21
1.127
 31
0.0
  0
LINE
  8
TITLE
 62
     8
 10
17.4365
 20
1.127
 30
0.0
 11
17.4365
 21
1.377
 31
0.0
  0
LINE
  8
TITLE
 10
17.636733
 20
0.859007
 30
0.0
 11
17.669763
 21
0.859007
 31
0.0
  0
ARC
  8
TITLE
 10
17.669763
 20
0.76607
 30
0.0
 40
0.092937
 50
0.0
 51
90.0
  0
LINE
  8
TITLE
 10
17.713861
 20
0.732878
 30
0.0
 11
17.672564
 21
0.732878
 31
0.0
  0
LINE
  8
TITLE
 10
17.636733
 20
0.593473
 30
0.0
 11
17.669763
 21
0.593473
 31
0.0
  0
ARC
  8
TITLE
 10
17.669763
 20
0.68641
 30
0.0
 40
0.092937
 50
270.0
 51
0.0
  0
LINE
  8
TITLE
 10
17.713861
 20
0.719602
 30
0.0
 11
17.672564
 21
0.719602
 31
0.0
  0
LINE
  8
TITLE
 10
17.636733
 20
0.593473
 30
0.0
 11
17.636733
 21
0.859007
 31
0.0
  0
LINE
  8
TITLE
 10
17.672564
 20
0.719602
 30
0.0
 11
17.672564
 21
0.732878
 31
0.0
  0
LINE
  8
TITLE
 10
17.7627
 20
0.68641
 30
0.0
 11
17.7627
 21
0.76607
 31
0.0
  0
LINE
  8
TITLE
 10
17.713861
 20
0.719602
 30
0.0
 11
17.713861
 21
0.732878
 31
0.0
  0
LINE
  8
TITLE
 10
17.533885
 20
0.859007
 30
0.0
 11
17.582422
 21
0.859007
 31
0.0
  0
LINE
  8
TITLE
 10
17.462234
 20
0.859007
 30
0.0
 11
17.510772
 21
0.859007
 31
0.0
  0
ARC
  8
TITLE
 10
17.524048
 20
0.636796
 30
0.0
 40
0.013277
 50
180.0
 51
262.555716
  0
ARC
  8
TITLE
 10
17.520608
 20
0.636796
 30
0.0
 40
0.013277
 50
277.444284
 51
0.0
  0
ARC
  8
TITLE
 10
17.565826
 20
0.610069
 30
0.0
 40
0.016596
 50
270.0
 51
0.0
  0
ARC
  8
TITLE
 10
17.47883
 20
0.610069
 30
0.0
 40
0.016596
 50
180.0
 51
270.0
  0
LINE
  8
TITLE
 10
17.47883
 20
0.593473
 30
0.0
 11
17.565826
 21
0.593473
 31
0.0
  0
LINE
  8
TITLE
 10
17.510772
 20
0.636796
 30
0.0
 11
17.510772
 21
0.859007
 31
0.0
  0
LINE
  8
TITLE
 10
17.533885
 20
0.636796
 30
0.0
 11
17.533885
 21
0.859007
 31
0.0
  0
LINE
  8
TITLE
 10
17.462234
 20
0.610069
 30
0.0
 11
17.462234
 21
0.859007
 31
0.0
  0
LINE
  8
TITLE
 10
17.582422
 20
0.610069
 30
0.0
 11
17.582422
 21
0.859007
 31
0.0
  0
LINE
  8
TITLE
 10
17.362847
 20
0.732878
 30
0.0
 11
17.290041
 21
0.732878
 31
0.0
  0
LINE
  8
TITLE
 10
17.277329
 20
0.859007
 30
0.0
 11
17.362847
 21
0.859007
 31
0.0
  0
LINE
  8
TITLE
 10
17.290041
 20
0.719602
 30
0.0
 11
17.290041
 21
0.72624
 31
0.0
  0
LINE
  8
TITLE
 10
17.277329
 20
0.593473
 30
0.0
 11
17.362847
 21
0.593473
 31
0.0
  0
LINE
  8
TITLE
 10
17.362847
 20
0.719602
 30
0.0
 11
17.290041
 21
0.719602
 31
0.0
  0
LINE
  8
TITLE
 10
17.277329
 20
0.593473
 30
0.0
 11
17.277329
 21
0.859007
 31
0.0
  0
LINE
  8
TITLE
 10
17.290041
 20
0.732878
 30
0.0
 11
17.290041
 21
0.72624
 31
0.0
  0
ARC
  8
TITLE
 10
17.362847
 20
0.795943
 30
0.0
 40
0.063065
 50
270.0
 51
90.0
  0
ARC
  8
TITLE
 10
17.362847
 20
0.656537
 30
0.0
 40
0.063065
 50
270.0
 51
90.0
  0
TEXT
  8
TITLE
 62
     8
 10
16.3755
 20
1.197741
 30
0.0
 40
0.09375
  1
PART NO.
  0
TEXT
  8
TITLE
 62
     8
 10
16.70238
 20
0.975598
 30
0.0
 40
0.09375
  1
SCALE:
  0
LINE
  8
TITLE
 62
     8
 10
16.663538
 20
0.0
 30
0.0
 11
16.663538
 21
1.127
 31
0.0
  0
TEXT
  8
TITLE
 62
     8
 10
16.763895
 20
0.125
 30
0.0
 40
0.09375
  1
WILLOUGHBY, OHIO
  0
TEXT
  8
TITLE
 62
     8
 10
16.704615
 20
0.375
 30
0.0
 40
0.09375
  1
BUD INDUSTRIES, INC.
  0
LINE
  8
TITLE
 62
     8
 10
18.367246
 20
0.382
 30
0.0
 11
20.5
 21
0.382
 31
0.0
  0
TEXT
  8
TITLE
 62
     8
 10
18.502446
 20
1.197741
 30
0.0
 40
0.09375
  1
DESCRIPTION
  0
LINE
  8
TITLE
 62
     8
 10
15.9375
 20
1.127
 30
0.0
 11
15.9375
 21
1.377
 31
0.0
  0
LINE
  8
TITLE
 62
     8
 10
15.419296
 20
1.127
 30
0.0
 11
15.419296
 21
1.377
 31
0.0
  0
TEXT
  8
TITLE
 62
     8
 10
15.470847
 20
1.197741
 30
0.0
 40
0.09375
  1
REQ'D.
  0
TEXT
  8
TITLE
 62
     8
 10
15.063
 20
0.972877
 30
0.0
 40
0.09375
  1
MAT:
  0
TEXT
  8
TITLE
 62
     8
 10
15.056572
 20
1.199408
 30
0.0
 40
0.09375
  1
ITEM
  0
TEXT
  8
TITLE
 62
     8
 10
15.063
 20
0.3125
 30
0.0
 40
0.09375
  1
CH.
  0
TEXT
  8
TITLE
 62
     8
 10
15.063
 20
0.569374
 30
0.0
 40
0.09375
  1
DR.
  0
TEXT
  8
TITLE
 62
     8
 10
15.063
 20
0.774118
 30
0.0
 40
0.09375
  1
FINISH:
  0
TEXT
  8
TITLE
 62
     8
 10
15.063
 20
0.0625
 30
0.0
 40
0.09375
  1
APP.
  0
LINE
  8
TITLE
 62
     8
 10
15.697756
 20
0.0
 30
0.0
 11
15.697756
 21
0.709
 31
0.0
  0
LINE
  8
TITLE
 62
     8
 10
15.0005
 20
0.0
 30
0.0
 11
15.0005
 21
1.377
 31
0.0
  0
TEXT
  8
TITLE
 10
13.045906
 20
0.952072
 30
0.0
 40
0.111789
  1
%%uTOLERANCES:
  0
TEXT
  8
TITLE
 62
     8
 10
13.091485
 20
0.23449
 30
0.0
 40
0.077242
  1
    SURFACES
  0
TEXT
  8
TITLE
 62
     8
 10
12.99372
 20
0.749439
 30
0.0
 40
0.077242
  1
%%p.005 BETWEEN HOLE CENTERS
  0
TEXT
  8
TITLE
 62
     8
 10
12.99372
 20
0.620702
 30
0.0
 40
0.077242
  1
%%p.015 FROM SHEARED EDGE
  0
TEXT
  8
TITLE
 62
     8
 10
12.99372
 20
0.491964
 30
0.0
 40
0.077242
  1
%%p.032 FROM A BENT SURFACE
  0
TEXT
  8
TITLE
 62
     8
 10
12.99865
 20
0.056475
 30
0.0
 40
0.077242
  1
UNLESS OTHERWISE SPECIFIED
  0
TEXT
  8
TITLE
 62
     8
 10
12.99372
 20
0.363227
 30
0.0
 40
0.077242
  1
%%p.063 BETWEEN ASSEMBLED
  0
LINE
  8
TITLE
 62
     8
 10
11.395
 20
0.0
 30
0.0
 11
11.395
 21
0.25
 31
0.0
  0
TEXT
  8
TITLE
 62
     8
 10
11.81726
 20
0.077628
 30
0.0
 40
0.09375
  1
USED ON
  0
LINE
  8
TITLE
 62
     8
 10
12.9225
 20
0.0
 30
0.0
 11
12.9225
 21
1.127
 31
0.0
  0
LINE
  8
TITLE
 10
11.02
 20
0.25
 30
0.0
 11
12.9225
 21
0.25
 31
0.0
  0
LINE
  8
TITLE
 10
12.9225
 20
1.127
 30
0.0
 11
11.02
 21
1.127
 31
0.0
  0
TEXT
  8
TITLE
 62
     8
 10
11.071749
 20
0.077628
 30
0.0
 40
0.09375
  1
QTY.
  0
LINE
  8
TITLE
 10
15.0005
 20
1.377
 30
0.0
 11
11.02
 21
1.377
 31
0.0
  0
LINE
  8
TITLE
 10
15.0005
 20
1.377
 30
0.0
 11
20.5
 21
1.377
 31
0.0
  0
LINE
  8
TITLE
 10
12.9225
 20
1.127
 30
0.0
 11
20.5
 21
1.127
 31
0.0
  0
LINE
  8
TITLE
 10
15.0005
 20
0.918
 30
0.0
 11
18.367246
 21
0.918
 31
0.0
  0
LINE
  8
TITLE
 10
15.0005
 20
0.25
 30
0.0
 11
16.663538
 21
0.25
 31
0.0
  0
LINE
  8
TITLE
 10
15.0005
 20
0.709
 30
0.0
 11
16.663538
 21
0.709
 31
0.0
  0
LINE
  8
TITLE
 10
15.0005
 20
0.5
 30
0.0
 11
16.663538
 21
0.5
 31
0.0
  0
ENDBLK
  8
0
  0
BLOCK
  8
0
  2
BRKT-FR
 70
    64
 10
0.0
 20
0.0
 30
0.0
  3
BRKT-FR
  0
LINE
  8
BRACKET-HID
 10
0.392
 20
0.875
 30
0.0
 11
0.392
 21
-2.625
 31
0.0
  0
LINE
  8
BRACKET-HID
 10
0.33
 20
-2.25
 30
0.0
 11
0.33
 21
-2.625
 31
0.0
  0
LINE
  8
BRACKET-HID
 10
0.392
 20
-2.625
 30
0.0
 11
0.33
 21
-2.625
 31
0.0
  0
LINE
  8
BRACKET-HID
 10
-0.169
 20
-2.063
 30
0.0
 11
-0.169
 21
0.313
 31
0.0
  0
LINE
  8
BRACKET-HID
 10
0.33
 20
0.109
 30
0.0
 11
0.33
 21
-0.109
 31
0.0
  0
ARC
  8
BRACKET-HID
 10
0.0
 20
0.0
 30
0.0
 40
0.109
 50
90.0
 51
270.0
  0
LINE
  8
BRACKET-HID
 10
0.33
 20
-1.016
 30
0.0
 11
0.33
 21
-1.234
 31
0.0
  0
ARC
  8
BRACKET-HID
 10
0.0
 20
-1.125
 30
0.0
 40
0.109
 50
90.0
 51
270.0
  0
LINE
  8
BRACKET-HID
 10
0.0
 20
-1.641
 30
0.0
 11
0.392
 21
-1.641
 31
0.0
  0
LINE
  8
BRACKET-HID
 10
0.018
 20
-2.25
 30
0.0
 11
0.392
 21
-2.25
 31
0.0
  0
LINE
  8
BRACKET-HID
 10
0.0
 20
-1.859
 30
0.0
 11
0.392
 21
-1.859
 31
0.0
  0
LINE
  8
BRACKET-HID
 10
0.0
 20
-1.234
 30
0.0
 11
0.392
 21
-1.234
 31
0.0
  0
ARC
  8
BRACKET-HID
 10
0.0
 20
-1.75
 30
0.0
 40
0.109
 50
90.0
 51
270.0
  0
ARC
  8
BRACKET-HID
 10
0.018
 20
-2.063
 30
0.0
 40
0.187
 50
180.0
 51
270.0
  0
LINE
  8
BRACKET-HID
 10
0.392
 20
-1.57
 30
0.0
 11
0.742
 21
-1.57
 31
0.0
  0
LINE
  8
BRACKET-HID
 10
0.392
 20
-1.632
 30
0.0
 11
0.742
 21
-1.632
 31
0.0
  0
LINE
  8
BRACKET-HID
 10
0.33
 20
-1.641
 30
0.0
 11
0.33
 21
-1.859
 31
0.0
  0
LINE
  8
BRACKET-HID
 10
0.742
 20
-1.632
 30
0.0
 11
0.742
 21
-1.57
 31
0.0
  0
LINE
  8
BRACKET-HID
 10
0.0
 20
-1.016
 30
0.0
 11
0.392
 21
-1.016
 31
0.0
  0
LINE
  8
BRACKET-HID
 10
0.0
 20
-0.734
 30
0.0
 11
0.392
 21
-0.734
 31
0.0
  0
LINE
  8
BRACKET-HID
 10
0.0
 20
-0.516
 30
0.0
 11
0.392
 21
-0.516
 31
0.0
  0
LINE
  8
BRACKET-HID
 10
0.0
 20
-0.109
 30
0.0
 11
0.392
 21
-0.109
 31
0.0
  0
ARC
  8
BRACKET-HID
 10
0.0
 20
-0.625
 30
0.0
 40
0.109
 50
90.0
 51
270.0
  0
LINE
  8
BRACKET-HID
 10
0.742
 20
-0.118
 30
0.0
 11
0.742
 21
-0.18
 31
0.0
  0
LINE
  8
BRACKET-HID
 10
0.392
 20
-0.18
 30
0.0
 11
0.742
 21
-0.18
 31
0.0
  0
LINE
  8
BRACKET-HID
 10
0.33
 20
-0.516
 30
0.0
 11
0.33
 21
-0.734
 31
0.0
  0
LINE
  8
BRACKET-HID
 10
0.392
 20
-0.118
 30
0.0
 11
0.742
 21
-0.118
 31
0.0
  0
LINE
  8
BRACKET-HID
 10
0.0
 20
0.109
 30
0.0
 11
0.392
 21
0.109
 31
0.0
  0
LINE
  8
BRACKET-HID
 10
0.018
 20
0.5
 30
0.0
 11
0.392
 21
0.5
 31
0.0
  0
ARC
  8
BRACKET-HID
 10
0.018
 20
0.313
 30
0.0
 40
0.187
 50
90.0
 51
180.0
  0
LINE
  8
BRACKET-HID
 10
0.33
 20
0.875
 30
0.0
 11
0.33
 21
0.5
 31
0.0
  0
LINE
  8
BRACKET-HID
 10
0.33
 20
0.875
 30
0.0
 11
0.392
 21
0.875
 31
0.0
  0
ENDBLK
  8
0
  0
BLOCK
  8
0
  2
BRKT-TOP
 70
    64
 10
0.0
 20
0.0
 30
0.0
  3
BRKT-TOP
  0
LINE
  8
BRACKET
 10
-1.62871
 20
-0.412
 30
0.0
 11
-2.74371
 21
-0.412
 31
0.0
  0
ARC
  8
BRACKET
 10
-4.61871
 20
-0.037
 30
0.0
 40
0.375
 50
270.0
 51
353.107897
  0
ARC
  8
BRACKET
 10
-5.73371
 20
-0.037
 30
0.0
 40
0.375
 50
186.892103
 51
270.0
  0
LINE
  8
BRACKET
 10
-4.61871
 20
-0.412
 30
0.0
 11
-5.73371
 21
-0.412
 31
0.0
  0
ARC
  8
BRACKET
 10
-2.74371
 20
-0.037
 30
0.0
 40
0.375
 50
186.892103
 51
270.0
  0
LINE
  8
BRACKET
 10
0.189
 20
0.0
 30
0.0
 11
0.189
 21
0.531
 31
0.0
  0
LINE
  8
BRACKET
 10
0.251
 20
-0.062
 30
0.0
 11
0.251
 21
0.531
 31
0.0
  0
LINE
  8
BRACKET
 10
0.0
 20
-0.062
 30
0.0
 11
0.0
 21
0.0
 31
0.0
  0
LINE
  8
BRACKET
 10
0.189
 20
0.531
 30
0.0
 11
0.251
 21
0.531
 31
0.0
  0
ARC
  8
BRACKET
 10
-1.62871
 20
-0.037
 30
0.0
 40
0.375
 50
270.0
 51
353.107897
  0
LINE
  8
BRACKET
 10
-0.375
 20
-0.062
 30
0.0
 11
-0.375
 21
0.0
 31
0.0
  0
LINE
  8
BRACKET
 10
-6.996
 20
0.0
 30
0.0
 11
0.189
 21
0.0
 31
0.0
  0
LINE
  8
BRACKET
 10
-6.996
 20
-0.062
 30
0.0
 11
0.251
 21
-0.062
 31
0.0
  0
LINE
  8
BRACKET
 10
-6.996
 20
-0.062
 30
0.0
 11
-6.996
 21
0.0
 31
0.0
  0
ENDBLK
  8
0
  0
BLOCK
  8
0
  2
BRKT-SIDE
 70
    64
 10
0.0
 20
0.0
 30
0.0
  3
BRKT-SIDE
  0
LINE
  8
BRACKET
 10
0.937
 20
-0.125
 30
0.0
 11
0.937
 21
-2.875
 31
0.0
  0
LINE
  8
BRACKET
 10
0.875
 20
-0.125
 30
0.0
 11
0.875
 21
-2.875
 31
0.0
  0
ARC
  8
BRACKET
 10
0.735
 20
-1.75
 30
0.0
 40
0.109
 50
90.0
 51
270.0
  0
LINE
  8
BRACKET
 10
-6.31
 20
0.063
 30
0.0
 11
-6.31
 21
-3.063
 31
0.0
  0
LINE
  8
BRACKET
 10
-6.123
 20
-3.25
 30
0.0
 11
0.311
 21
-3.25
 31
0.0
  0
LINE
  8
BRACKET
 10
-1.62
 20
-2.875
 30
0.0
 11
-2.74
 21
-2.875
 31
0.0
  0
LINE
  8
BRACKET
 10
-2.74
 20
-3.125
 30
0.0
 11
-1.62
 21
-3.125
 31
0.0
  0
LINE
  8
BRACKET
 10
-2.429087
 20
-2.257
 30
0.0
 11
-0.571333
 21
-2.257
 31
0.0
  0
LINE
  8
BRACKET
 10
-0.94271
 20
-2.58
 30
0.0
 11
-2.05771
 21
-2.58
 31
0.0
  0
ARC
  8
BRACKET
 10
-6.123
 20
-3.063
 30
0.0
 40
0.187
 50
180.0
 51
270.0
  0
LINE
  8
BRACKET
 10
-4.36
 20
-3.125
 30
0.0
 11
-3.24
 21
-3.125
 31
0.0
  0
LINE
  8
BRACKET
 10
-5.419087
 20
-2.257
 30
0.0
 11
-3.561333
 21
-2.257
 31
0.0
  0
ARC
  8
BRACKET
 10
-3.93271
 20
-2.205
 30
0.0
 40
0.375
 50
270.0
 51
353.107897
  0
LINE
  8
BRACKET
 10
-3.24
 20
-2.875
 30
0.0
 11
-4.36
 21
-2.875
 31
0.0
  0
LINE
  8
BRACKET
 10
-5.98
 20
-3.125
 30
0.0
 11
-4.86
 21
-3.125
 31
0.0
  0
ARC
  8
BRACKET
 10
-5.04771
 20
-2.205
 30
0.0
 40
0.375
 50
186.892103
 51
270.0
  0
LINE
  8
BRACKET
 10
-4.86
 20
-2.875
 30
0.0
 11
-5.98
 21
-2.875
 31
0.0
  0
ARC
  8
BRACKET
 10
-5.98
 20
-3.0
 30
0.0
 40
0.125
 50
90.0
 51
270.0
  0
ARC
  8
BRACKET
 10
-4.36
 20
-3.0
 30
0.0
 40
0.125
 50
90.0
 51
270.0
  0
LINE
  8
BRACKET
 10
-3.93271
 20
-2.58
 30
0.0
 11
-5.04771
 21
-2.58
 31
0.0
  0
ARC
  8
BRACKET
 10
-4.86
 20
-3.0
 30
0.0
 40
0.125
 50
270.0
 51
90.0
  0
ARC
  8
BRACKET
 10
-2.74
 20
-3.0
 30
0.0
 40
0.125
 50
90.0
 51
270.0
  0
ARC
  8
BRACKET
 10
-3.24
 20
-3.0
 30
0.0
 40
0.125
 50
270.0
 51
90.0
  0
ARC
  8
BRACKET
 10
-2.05771
 20
-2.205
 30
0.0
 40
0.375
 50
186.892103
 51
270.0
  0
LINE
  8
BRACKET
 10
0.937
 20
-2.875
 30
0.0
 11
0.686
 21
-2.875
 31
0.0
  0
LINE
  8
BRACKET
 10
0.875
 20
-2.484
 30
0.0
 11
0.735
 21
-2.484
 31
0.0
  0
LINE
  8
BRACKET
 10
0.875
 20
-2.266
 30
0.0
 11
0.735
 21
-2.266
 31
0.0
  0
ARC
  8
BRACKET
 10
0.735
 20
-2.375
 30
0.0
 40
0.109
 50
90.0
 51
270.0
  0
LINE
  8
BRACKET
 10
0.875
 20
-1.859
 30
0.0
 11
0.735
 21
-1.859
 31
0.0
  0
LINE
  8
BRACKET
 10
-1.12
 20
-3.125
 30
0.0
 11
0.0
 21
-3.125
 31
0.0
  0
LINE
  8
BRACKET
 10
0.0
 20
-2.875
 30
0.0
 11
-1.12
 21
-2.875
 31
0.0
  0
ARC
  8
BRACKET
 10
-1.62
 20
-3.0
 30
0.0
 40
0.125
 50
270.0
 51
90.0
  0
ARC
  8
BRACKET
 10
-1.12
 20
-3.0
 30
0.0
 40
0.125
 50
90.0
 51
270.0
  0
ARC
  8
BRACKET
 10
-0.94271
 20
-2.205
 30
0.0
 40
0.375
 50
270.0
 51
353.107897
  0
ARC
  8
BRACKET
 10
0.0
 20
-3.0
 30
0.0
 40
0.125
 50
270.0
 51
90.0
  0
LINE
  8
BRACKET
 10
0.311
 20
-3.25
 30
0.0
 11
0.686
 21
-2.875
 31
0.0
  0
LINE
  8
BRACKET
 10
0.1665
 20
-1.5935
 30
0.0
 11
-6.0365
 21
-1.5935
 31
0.0
  0
LINE
  8
BRACKET
 10
-6.0365
 20
-1.4065
 30
0.0
 11
0.1665
 21
-1.4065
 31
0.0
  0
LINE
  8
BRACKET
 10
0.311
 20
0.25
 30
0.0
 11
-6.123
 21
0.25
 31
0.0
  0
LINE
  8
BRACKET
 10
-2.429087
 20
-0.743
 30
0.0
 11
-0.571333
 21
-0.743
 31
0.0
  0
LINE
  8
BRACKET
 10
-2.74
 20
0.125
 30
0.0
 11
-1.62
 21
0.125
 31
0.0
  0
LINE
  8
BRACKET
 10
-1.62
 20
-0.125
 30
0.0
 11
-2.74
 21
-0.125
 31
0.0
  0
LINE
  8
BRACKET
 10
-0.94271
 20
-0.42
 30
0.0
 11
-2.05771
 21
-0.42
 31
0.0
  0
LINE
  8
BRACKET
 10
-5.419087
 20
-0.743
 30
0.0
 11
-3.561333
 21
-0.743
 31
0.0
  0
ARC
  8
BRACKET
 10
-3.93271
 20
-0.795
 30
0.0
 40
0.375
 50
6.892103
 51
90.0
  0
LINE
  8
BRACKET
 10
-4.36
 20
0.125
 30
0.0
 11
-3.24
 21
0.125
 31
0.0
  0
LINE
  8
BRACKET
 10
-3.24
 20
-0.125
 30
0.0
 11
-4.36
 21
-0.125
 31
0.0
  0
ARC
  8
BRACKET
 10
-5.04771
 20
-0.795
 30
0.0
 40
0.375
 50
90.0
 51
173.107897
  0
ARC
  8
BRACKET
 10
-6.0365
 20
-1.5
 30
0.0
 40
0.0935
 50
90.0
 51
270.0
  0
LINE
  8
BRACKET
 10
-4.86
 20
-0.125
 30
0.0
 11
-5.98
 21
-0.125
 31
0.0
  0
LINE
  8
BRACKET
 10
-5.98
 20
0.125
 30
0.0
 11
-4.86
 21
0.125
 31
0.0
  0
ARC
  8
BRACKET
 10
-5.98
 20
0.0
 30
0.0
 40
0.125
 50
90.0
 51
270.0
  0
ARC
  8
BRACKET
 10
-6.123
 20
0.063
 30
0.0
 40
0.187
 50
90.0
 51
180.0
  0
LINE
  8
BRACKET
 10
-3.93271
 20
-0.42
 30
0.0
 11
-5.04771
 21
-0.42
 31
0.0
  0
ARC
  8
BRACKET
 10
-4.36
 20
0.0
 30
0.0
 40
0.125
 50
90.0
 51
270.0
  0
ARC
  8
BRACKET
 10
-4.86
 20
0.0
 30
0.0
 40
0.125
 50
270.0
 51
90.0
  0
ARC
  8
BRACKET
 10
-2.05771
 20
-0.795
 30
0.0
 40
0.375
 50
90.0
 51
173.107897
  0
ARC
  8
BRACKET
 10
-2.74
 20
0.0
 30
0.0
 40
0.125
 50
90.0
 51
270.0
  0
ARC
  8
BRACKET
 10
-3.24
 20
0.0
 30
0.0
 40
0.125
 50
270.0
 51
90.0
  0
ARC
  8
BRACKET
 10
0.735
 20
-0.625
 30
0.0
 40
0.109
 50
90.0
 51
270.0
  0
LINE
  8
BRACKET
 10
0.875
 20
-0.734
 30
0.0
 11
0.735
 21
-0.734
 31
0.0
  0
LINE
  8
BRACKET
 10
0.875
 20
-1.641
 30
0.0
 11
0.735
 21
-1.641
 31
0.0
  0
LINE
  8
BRACKET
 10
0.875
 20
-1.359
 30
0.0
 11
0.735
 21
-1.359
 31
0.0
  0
LINE
  8
BRACKET
 10
0.875
 20
-1.141
 30
0.0
 11
0.735
 21
-1.141
 31
0.0
  0
ARC
  8
BRACKET
 10
0.735
 20
-1.25
 30
0.0
 40
0.109
 50
90.0
 51
270.0
  0
LINE
  8
BRACKET
 10
0.937
 20
-0.125
 30
0.0
 11
0.686
 21
-0.125
 31
0.0
  0
LINE
  8
BRACKET
 10
0.875
 20
-0.516
 30
0.0
 11
0.735
 21
-0.516
 31
0.0
  0
LINE
  8
BRACKET
 10
-1.12
 20
0.125
 30
0.0
 11
0.0
 21
0.125
 31
0.0
  0
LINE
  8
BRACKET
 10
0.0
 20
-0.125
 30
0.0
 11
-1.12
 21
-0.125
 31
0.0
  0
ARC
  8
BRACKET
 10
-0.94271
 20
-0.795
 30
0.0
 40
0.375
 50
6.892103
 51
90.0
  0
ARC
  8
BRACKET
 10
-1.62
 20
0.0
 30
0.0
 40
0.125
 50
270.0
 51
90.0
  0
ARC
  8
BRACKET
 10
-1.12
 20
0.0
 30
0.0
 40
0.125
 50
90.0
 51
270.0
  0
ARC
  8
BRACKET
 10
0.1665
 20
-1.5
 30
0.0
 40
0.0935
 50
270.0
 51
90.0
  0
ARC
  8
BRACKET
 10
0.0
 20
0.0
 30
0.0
 40
0.125
 50
270.0
 51
90.0
  0
LINE
  8
BRACKET
 10
0.311
 20
0.25
 30
0.0
 11
0.686
 21
-0.125
 31
0.0
  0
ENDBLK
  8
0
  0
BLOCK
  8
0
  2
BOMCHART
 70
     2
 10
0.0
 20
0.0
 30
0.0
  3
BOMCHART
  0
ATTDEF
  8
TEXT
 10
0.028755
 20
0.040837
 30
0.0
 40
0.125
  1

  3
ENTER ITEM #
  2
ITEM
 70
     4
 41
0.75
 72
     1
 11
0.185005
 21
0.040837
 31
0.0
  0
ATTDEF
  8
TEXT
 10
0.393148
 20
0.040837
 30
0.0
 40
0.125
  1

  3
ENTER # REQUIRED
  2
#REQ'D.
 70
     4
 41
0.75
 72
     1
 11
0.65096
 21
0.040837
 31
0.0
  0
ATTDEF
  8
TEXT
 10
1.445486
 20
0.040837
 30
0.0
 40
0.125
  1

  3
ENTER PART #
  2
PART#
 70
     4
 41
0.75
 72
     1
 11
1.664236
 21
0.040837
 31
0.0
  0
ATTDEF
  8
TEXT
 10
2.538435
 20
0.040837
 30
0.0
 40
0.125
  1

  3
ENTER PART DESCRIPTION
  2
DESCRIPTION
 70
     4
 41
0.75
  0
LINE
  8
TITLE
 10
0.0
 20
0.208
 30
0.0
 11
5.4995
 21
0.208
 31
0.0
  0
LINE
  8
TITLE
 62
     8
 10
0.0
 20
0.0
 30
0.0
 11
0.0
 21
0.208
 31
0.0
  0
LINE
  8
TITLE
 62
     8
 10
0.418796
 20
0.0
 30
0.0
 11
0.418796
 21
0.208
 31
0.0
  0
LINE
  8
TITLE
 62
     8
 10
0.937
 20
0.0
 30
0.0
 11
0.937
 21
0.208
 31
0.0
  0
LINE
  8
TITLE
 62
     8
 10
2.436
 20
0.0
 30
0.0
 11
2.436
 21
0.208
 31
0.0
  0
ENDBLK
  8
0
  0
BLOCK
  8
0
  2
BRKT-REAR
 70
    64
 10
0.0
 20
0.0
 30
0.0
  3
BRKT-REAR
  0
ARC
  8
BRACKET
 10
0.0
 20
-1.75
 30
0.0
 40
0.109
 50
90.0
 51
270.0
  0
LINE
  8
BRACKET
 10
-0.169
 20
-2.063
 30
0.0
 11
-0.169
 21
0.313
 31
0.0
  0
LINE
  8
BRACKET
 10
0.392
 20
0.875
 30
0.0
 11
0.392
 21
-2.625
 31
0.0
  0
LINE
  8
BRACKET
 10
0.33
 20
0.875
 30
0.0
 11
0.33
 21
-2.625
 31
0.0
  0
LINE
  8
BRACKET
 10
0.0
 20
-1.859
 30
0.0
 11
0.33
 21
-1.859
 31
0.0
  0
LINE
  8
BRACKET
 10
0.018
 20
-2.25
 30
0.0
 11
0.33
 21
-2.25
 31
0.0
  0
ARC
  8
BRACKET
 10
0.018
 20
-2.063
 30
0.0
 40
0.187
 50
180.0
 51
270.0
  0
LINE
  8
BRACKET
 10
0.392
 20
-2.625
 30
0.0
 11
0.33
 21
-2.625
 31
0.0
  0
LINE
  8
BRACKET
 10
0.0
 20
-0.516
 30
0.0
 11
0.33
 21
-0.516
 31
0.0
  0
LINE
  8
BRACKET
 10
0.0
 20
-0.734
 30
0.0
 11
0.33
 21
-0.734
 31
0.0
  0
LINE
  8
BRACKET
 10
0.0
 20
-1.016
 30
0.0
 11
0.33
 21
-1.016
 31
0.0
  0
LINE
  8
BRACKET
 10
0.0
 20
-1.234
 30
0.0
 11
0.33
 21
-1.234
 31
0.0
  0
LINE
  8
BRACKET
 10
0.0
 20
-1.641
 30
0.0
 11
0.33
 21
-1.641
 31
0.0
  0
ARC
  8
BRACKET
 10
0.0
 20
-0.625
 30
0.0
 40
0.109
 50
90.0
 51
270.0
  0
ARC
  8
BRACKET
 10
0.0
 20
-1.125
 30
0.0
 40
0.109
 50
90.0
 51
270.0
  0
LINE
  8
BRACKET
 10
0.742
 20
-1.632
 30
0.0
 11
0.742
 21
-1.57
 31
0.0
  0
LINE
  8
BRACKET
 10
0.392
 20
-1.632
 30
0.0
 11
0.742
 21
-1.632
 31
0.0
  0
LINE
  8
BRACKET
 10
0.392
 20
-1.57
 30
0.0
 11
0.742
 21
-1.57
 31
0.0
  0
LINE
  8
BRACKET
 10
0.018
 20
0.5
 30
0.0
 11
0.33
 21
0.5
 31
0.0
  0
LINE
  8
BRACKET
 10
0.0
 20
0.109
 30
0.0
 11
0.33
 21
0.109
 31
0.0
  0
LINE
  8
BRACKET
 10
0.0
 20
-0.109
 30
0.0
 11
0.33
 21
-0.109
 31
0.0
  0
ARC
  8
BRACKET
 10
0.018
 20
0.313
 30
0.0
 40
0.187
 50
90.0
 51
180.0
  0
ARC
  8
BRACKET
 10
0.0
 20
0.0
 30
0.0
 40
0.109
 50
90.0
 51
270.0
  0
LINE
  8
BRACKET
 10
0.33
 20
0.875
 30
0.0
 11
0.392
 21
0.875
 31
0.0
  0
LINE
  8
BRACKET
 10
0.392
 20
-0.118
 30
0.0
 11
0.742
 21
-0.118
 31
0.0
  0
LINE
  8
BRACKET
 10
0.392
 20
-0.18
 30
0.0
 11
0.742
 21
-0.18
 31
0.0
  0
LINE
  8
BRACKET
 10
0.742
 20
-0.118
 30
0.0
 11
0.742
 21
-0.18
 31
0.0
  0
ENDBLK
  8
0
  0
BLOCK
  8
0
  2
HEXNUTEL
 70
    64
 10
0.0
 20
0.0
 30
0.0
  3
HEXNUTEL
  0
ARC
  8
0
  6
BYBLOCK
 62
     0
 10
1.208395
 20
0.0
 30
0.0
 40
1.208395
 50
159.0
 51
201.0
  0
ARC
  8
0
  6
BYBLOCK
 62
     0
 10
-0.533339
 20
0.0
 30
0.0
 40
1.208395
 50
339.0
 51
21.0
  0
LINE
  8
0
  6
BYBLOCK
 62
     0
 10
0.670861
 20
0.69977
 30
0.0
 11
0.670861
 21
-0.69977
 31
0.0
  0
LINE
  8
0
  6
BYBLOCK
 62
     0
 10
0.004194
 20
0.6495
 30
0.0
 11
0.004194
 21
-0.69977
 31
0.0
  0
LINE
  8
0
  6
BYBLOCK
 62
     0
 10
0.594794
 20
-0.43305
 30
0.0
 11
0.080261
 21
-0.43305
 31
0.0
  0
LINE
  8
0
  6
BYBLOCK
 62
     0
 10
0.594794
 20
-0.86605
 30
0.0
 11
0.080261
 21
-0.86605
 31
0.0
  0
ARC
  8
0
  6
BYBLOCK
 62
     0
 10
0.33375
 20
-0.64955
 30
0.0
 40
0.33336
 50
139.5
 51
220.5
  0
ARC
  8
0
  6
BYBLOCK
 62
     0
 10
0.341305
 20
-0.64955
 30
0.0
 40
0.33336
 50
319.5
 51
40.5
  0
LINE
  8
0
  6
BYBLOCK
 62
     0
 10
0.080261
 20
0.86605
 30
0.0
 11
0.594794
 21
0.86605
 31
0.0
  0
LINE
  8
0
  6
BYBLOCK
 62
     0
 10
0.594794
 20
0.43305
 30
0.0
 11
0.080261
 21
0.43305
 31
0.0
  0
ARC
  8
0
  6
BYBLOCK
 62
     0
 10
0.33375
 20
0.64955
 30
0.0
 40
0.33336
 50
139.5
 51
220.5
  0
ARC
  8
0
  6
BYBLOCK
 62
     0
 10
0.341305
 20
0.64955
 30
0.0
 40
0.33336
 50
319.5
 51
40.5
  0
ENDBLK
  8
0
  0
BLOCK
  8
0
  2
*D46
 70
    65
 10
0.0
 20
0.0
 30
0.0
  3
*D
  0
LINE
  8
0
  6
BYBLOCK
 62
     0
 10
22.667881
 20
120.004619
 30
0.0
 11
22.667881
 21
120.214619
 31
0.0
  0
LINE
  8
0
  6
BYBLOCK
 62
     0
 10
36.167881
 20
120.004619
 30
0.0
 11
36.167881
 21
120.214619
 31
0.0
  0
LINE
  8
0
  6
BYBLOCK
 62
     0
 10
23.927881
 20
119.563619
 30
0.0
 11
25.287881
 21
119.563619
 31
0.0
  0
LINE
  8
0
  6
BYBLOCK
 62
     0
 10
34.907881
 20
119.563619
 30
0.0
 11
33.547881
 21
119.563619
 31
0.0
  0
SOLID
  8
0
  6
BYBLOCK
 62
     0
 10
23.927881
 20
119.773619
 30
0.0
 11
23.927881
 21
119.353619
 31
0.0
 12
22.667881
 22
119.563619
 32
0.0
 13
22.667881
 23
119.563619
 33
0.0
  0
SOLID
  8
0
  6
BYBLOCK
 62
     0
 10
34.907881
 20
119.773619
 30
0.0
 11
34.907881
 21
119.353619
 31
0.0
 12
36.167881
 22
119.563619
 32
0.0
 13
36.167881
 23
119.563619
 33
0.0
  0
TEXT
  8
0
  6
BYBLOCK
 62
     0
 10
28.980381
 20
119.126119
 30
0.0
 40
0.875
  1
 INSIDE
 41
0.75
  7
TXT
 72
     1
 11
30.949131
 21
119.563619
 31
0.0
 73
     2
  0
TEXT
  8
0
  6
BYBLOCK
 62
     0
 10
25.917881
 20
119.126119
 30
0.0
 40
0.875
  1
13.500
 41
0.75
  7
TXT
 72
     1
 11
27.339756
 21
119.563619
 31
0.0
 73
     2
  0
POINT
  8
DEFPOINTS
  6
BYBLOCK
 62
     0
 10
22.667881
 20
119.563619
 30
0.047
  0
POINT
  8
DEFPOINTS
  6
BYBLOCK
 62
     0
 10
36.167881
 20
119.563619
 30
0.047
  0
POINT
  8
DEFPOINTS
  6
BYBLOCK
 62
     0
 10
36.167881
 20
119.563619
 30
0.0
  0
ENDBLK
  8
0
  0
BLOCK
  8
0
  2
*D53
 70
    65
 10
0.0
 20
0.0
 30
0.0
  3
*D
  0
LINE
  8
0
  6
BYBLOCK
 62
     0
 10
90.499669
 20
14.805664
 30
0.0
 11
97.504114
 21
14.805664
 31
0.0
  0
LINE
  8
0
  6
BYBLOCK
 62
     0
 10
90.810669
 20
14.555664
 30
0.0
 11
97.504114
 21
14.555664
 31
0.0
  0
LINE
  8
0
  6
BYBLOCK
 62
     0
 10
96.853114
 20
16.065664
 30
0.0
 11
96.853114
 21
17.325664
 31
0.0
  0
LINE
  8
0
  6
BYBLOCK
 62
     0
 10
96.853114
 20
13.295664
 30
0.0
 11
96.853114
 21
12.035664
 31
0.0
  0
LINE
  8
0
  6
BYBLOCK
 62
     0
 10
96.853114
 20
12.035664
 30
0.0
 11
95.593114
 21
12.035664
 31
0.0
  0
SOLID
  8
0
  6
BYBLOCK
 62
     0
 10
96.643114
 20
16.065664
 30
0.0
 11
97.063114
 21
16.065664
 31
0.0
 12
96.853114
 22
14.805664
 32
0.0
 13
96.853114
 23
14.805664
 33
0.0
  0
SOLID
  8
0
  6
BYBLOCK
 62
     0
 10
96.643114
 20
13.295664
 30
0.0
 11
97.063114
 21
13.295664
 31
0.0
 12
96.853114
 22
14.555664
 32
0.0
 13
96.853114
 23
14.555664
 33
0.0
  0
TEXT
  8
0
  6
BYBLOCK
 62
     0
 10
92.556864
 20
11.598164
 30
0.0
 40
0.875
  1
0.250
 41
0.75
  7
TXT
 72
     1
 11
93.759989
 21
12.035664
 31
0.0
 73
     2
  0
POINT
  8
DEFPOINTS
  6
BYBLOCK
 62
     0
 10
90.058669
 20
14.805664
 30
0.0
  0
POINT
  8
DEFPOINTS
  6
BYBLOCK
 62
     0
 10
90.369669
 20
14.555664
 30
0.0
  0
POINT
  8
DEFPOINTS
  6
BYBLOCK
 62
     0
 10
96.853114
 20
14.555664
 30
0.0
  0
ENDBLK
  8
0
  0
BLOCK
  8
0
  2
*D54
 70
    65
 10
0.0
 20
0.0
 30
0.0
  3
*D
  0
LINE
  8
0
  6
BYBLOCK
 62
     0
 10
90.666169
 20
16.305664
 30
0.0
 11
94.664527
 21
16.305664
 31
0.0
  0
LINE
  8
0
  6
BYBLOCK
 62
     0
 10
90.810669
 20
18.055664
 30
0.0
 11
94.664527
 21
18.055664
 31
0.0
  0
LINE
  8
0
  6
BYBLOCK
 62
     0
 10
94.013527
 20
15.045664
 30
0.0
 11
94.013527
 21
13.785664
 31
0.0
  0
LINE
  8
0
  6
BYBLOCK
 62
     0
 10
94.013527
 20
19.315664
 30
0.0
 11
94.013527
 21
20.575664
 31
0.0
  0
SOLID
  8
0
  6
BYBLOCK
 62
     0
 10
93.803527
 20
15.045664
 30
0.0
 11
94.223527
 21
15.045664
 31
0.0
 12
94.013527
 22
16.305664
 32
0.0
 13
94.013527
 23
16.305664
 33
0.0
  0
SOLID
  8
0
  6
BYBLOCK
 62
     0
 10
93.803527
 20
19.315664
 30
0.0
 11
94.223527
 21
19.315664
 31
0.0
 12
94.013527
 22
18.055664
 32
0.0
 13
94.013527
 23
18.055664
 33
0.0
  0
TEXT
  8
0
  6
BYBLOCK
 62
     0
 10
92.865089
 20
16.743164
 30
0.0
 40
0.875
  1
1.750
 41
0.75
  7
TXT
 72
     1
 11
94.013527
 21
17.180664
 31
0.0
 73
     2
  0
POINT
  8
DEFPOINTS
  6
BYBLOCK
 62
     0
 10
90.225169
 20
16.305664
 30
0.0
  0
POINT
  8
DEFPOINTS
  6
BYBLOCK
 62
     0
 10
90.369669
 20
18.055664
 30
0.0
  0
POINT
  8
DEFPOINTS
  6
BYBLOCK
 62
     0
 10
94.013527
 20
18.055664
 30
0.0
  0
ENDBLK
  8
0
  0
BLOCK
  8
0
  2
*D55
 70
    65
 10
0.0
 20
0.0
 30
0.0
  3
*D
  0
LINE
  8
0
  6
BYBLOCK
 62
     0
 10
90.499669
 20
14.805664
 30
0.0
 11
100.391161
 21
14.805664
 31
0.0
  0
LINE
  8
0
  6
BYBLOCK
 62
     0
 10
90.499669
 20
17.805664
 30
0.0
 11
100.391161
 21
17.805664
 31
0.0
  0
LINE
  8
0
  6
BYBLOCK
 62
     0
 10
99.740161
 20
13.545664
 30
0.0
 11
99.740161
 21
12.285664
 31
0.0
  0
LINE
  8
0
  6
BYBLOCK
 62
     0
 10
99.740161
 20
19.065664
 30
0.0
 11
99.740161
 21
20.325664
 31
0.0
  0
SOLID
  8
0
  6
BYBLOCK
 62
     0
 10
99.530161
 20
13.545664
 30
0.0
 11
99.950161
 21
13.545664
 31
0.0
 12
99.740161
 22
14.805664
 32
0.0
 13
99.740161
 23
14.805664
 33
0.0
  0
SOLID
  8
0
  6
BYBLOCK
 62
     0
 10
99.530161
 20
19.065664
 30
0.0
 11
99.950161
 21
19.065664
 31
0.0
 12
99.740161
 22
17.805664
 32
0.0
 13
99.740161
 23
17.805664
 33
0.0
  0
TEXT
  8
0
  6
BYBLOCK
 62
     0
 10
98.591724
 20
15.868164
 30
0.0
 40
0.875
  1
3.000
 41
0.75
  7
TXT
 72
     1
 11
99.740161
 21
16.305664
 31
0.0
 73
     2
  0
POINT
  8
DEFPOINTS
  6
BYBLOCK
 62
     0
 10
90.058669
 20
14.805664
 30
0.0
  0
POINT
  8
DEFPOINTS
  6
BYBLOCK
 62
     0
 10
90.058669
 20
17.805664
 30
0.0
  0
POINT
  8
DEFPOINTS
  6
BYBLOCK
 62
     0
 10
99.740161
 20
17.805664
 30
0.0
  0
ENDBLK
  8
0
  0
BLOCK
  8
0
  2
*D56
 70
    65
 10
0.0
 20
0.0
 30
0.0
  3
*D
  0
LINE
  8
0
  6
BYBLOCK
 62
     0
 10
90.810669
 20
18.055664
 30
0.0
 11
103.657891
 21
18.055664
 31
0.0
  0
LINE
  8
0
  6
BYBLOCK
 62
     0
 10
90.810669
 20
14.555664
 30
0.0
 11
103.657891
 21
14.555664
 31
0.0
  0
LINE
  8
0
  6
BYBLOCK
 62
     0
 10
103.006891
 20
19.315664
 30
0.0
 11
103.006891
 21
20.575664
 31
0.0
  0
LINE
  8
0
  6
BYBLOCK
 62
     0
 10
103.006891
 20
13.295664
 30
0.0
 11
103.006891
 21
12.035664
 31
0.0
  0
SOLID
  8
0
  6
BYBLOCK
 62
     0
 10
102.796891
 20
19.315664
 30
0.0
 11
103.216891
 21
19.315664
 31
0.0
 12
103.006891
 22
18.055664
 32
0.0
 13
103.006891
 23
18.055664
 33
0.0
  0
SOLID
  8
0
  6
BYBLOCK
 62
     0
 10
102.796891
 20
13.295664
 30
0.0
 11
103.216891
 21
13.295664
 31
0.0
 12
103.006891
 22
14.555664
 32
0.0
 13
103.006891
 23
14.555664
 33
0.0
  0
TEXT
  8
0
  6
BYBLOCK
 62
     0
 10
101.803766
 20
15.868164
 30
0.0
 40
0.875
  1
3.500
 41
0.75
  7
TXT
 72
     1
 11
103.006891
 21
16.305664
 31
0.0
 73
     2
  0
POINT
  8
DEFPOINTS
  6
BYBLOCK
 62
     0
 10
90.369669
 20
18.055664
 30
0.0
  0
POINT
  8
DEFPOINTS
  6
BYBLOCK
 62
     0
 10
90.369669
 20
14.555664
 30
0.0
  0
POINT
  8
DEFPOINTS
  6
BYBLOCK
 62
     0
 10
103.006891
 20
14.555664
 30
0.0
  0
ENDBLK
  8
0
  0
BLOCK
  8
0
  2
*D57
 70
    65
 10
0.0
 20
0.0
 30
0.0
  3
*D
  0
LINE
  8
0
  6
BYBLOCK
 62
     0
 10
70.995669
 20
15.169664
 30
0.0
 11
70.995669
 21
11.336274
 31
0.0
  0
LINE
  8
0
  6
BYBLOCK
 62
     0
 10
90.995669
 20
15.169664
 30
0.0
 11
90.995669
 21
11.336274
 31
0.0
  0
LINE
  8
0
  6
BYBLOCK
 62
     0
 10
72.255669
 20
11.987274
 30
0.0
 11
77.084419
 21
11.987274
 31
0.0
  0
LINE
  8
0
  6
BYBLOCK
 62
     0
 10
89.735669
 20
11.987274
 30
0.0
 11
84.906919
 21
11.987274
 31
0.0
  0
SOLID
  8
0
  6
BYBLOCK
 62
     0
 10
72.255669
 20
12.197274
 30
0.0
 11
72.255669
 21
11.777274
 31
0.0
 12
70.995669
 22
11.987274
 32
0.0
 13
70.995669
 23
11.987274
 33
0.0
  0
SOLID
  8
0
  6
BYBLOCK
 62
     0
 10
89.735669
 20
12.197274
 30
0.0
 11
89.735669
 21
11.777274
 31
0.0
 12
90.995669
 22
11.987274
 32
0.0
 13
90.995669
 23
11.987274
 33
0.0
  0
TEXT
  8
0
  6
BYBLOCK
 62
     0
 10
80.776919
 20
11.549774
 30
0.0
 40
0.875
  1
 SLIDE
 41
0.75
  7
TXT
 72
     1
 11
82.526919
 21
11.987274
 31
0.0
 73
     2
  0
TEXT
  8
0
  6
BYBLOCK
 62
     0
 10
77.714419
 20
11.549774
 30
0.0
 40
0.875
  1
20.000
 41
0.75
  7
TXT
 72
     1
 11
79.136294
 21
11.987274
 31
0.0
 73
     2
  0
POINT
  8
DEFPOINTS
  6
BYBLOCK
 62
     0
 10
70.995669
 20
15.610664
 30
0.0
  0
POINT
  8
DEFPOINTS
  6
BYBLOCK
 62
     0
 10
90.995669
 20
15.610664
 30
0.0
  0
POINT
  8
DEFPOINTS
  6
BYBLOCK
 62
     0
 10
90.995669
 20
11.987274
 30
0.0
  0
ENDBLK
  8
0
  0
BLOCK
  8
0
  2
*D58
 70
    65
 10
0.0
 20
0.0
 30
0.0
  3
*D
  0
LINE
  8
0
  6
BYBLOCK
 62
     0
 10
70.995669
 20
15.169664
 30
0.0
 11
70.995669
 21
11.336274
 31
0.0
  0
LINE
  8
0
  6
BYBLOCK
 62
     0
 10
55.995669
 20
15.364583
 30
0.0
 11
55.995669
 21
11.336274
 31
0.0
  0
LINE
  8
0
  6
BYBLOCK
 62
     0
 10
72.255669
 20
11.987274
 30
0.0
 11
73.515669
 21
11.987274
 31
0.0
  0
LINE
  8
0
  6
BYBLOCK
 62
     0
 10
54.735669
 20
11.987274
 30
0.0
 11
53.475669
 21
11.987274
 31
0.0
  0
SOLID
  8
0
  6
BYBLOCK
 62
     0
 10
72.255669
 20
12.197274
 30
0.0
 11
72.255669
 21
11.777274
 31
0.0
 12
70.995669
 22
11.987274
 32
0.0
 13
70.995669
 23
11.987274
 33
0.0
  0
SOLID
  8
0
  6
BYBLOCK
 62
     0
 10
54.735669
 20
12.197274
 30
0.0
 11
54.735669
 21
11.777274
 31
0.0
 12
55.995669
 22
11.987274
 32
0.0
 13
55.995669
 23
11.987274
 33
0.0
  0
TEXT
  8
0
  6
BYBLOCK
 62
     0
 10
60.815981
 20
11.549774
 30
0.0
 40
0.875
  1
 SLIDE TRAVEL
 41
0.75
  7
TXT
 72
     1
 11
64.972231
 21
11.987274
 31
0.0
 73
     2
  0
TEXT
  8
0
  6
BYBLOCK
 62
     0
 10
57.862856
 20
11.549774
 30
0.0
 40
0.875
  1
15.000
 41
0.75
  7
TXT
 72
     1
 11
59.230044
 21
11.987274
 31
0.0
 73
     2
  0
POINT
  8
DEFPOINTS
  6
BYBLOCK
 62
     0
 10
70.995669
 20
15.610664
 30
0.0
  0
POINT
  8
DEFPOINTS
  6
BYBLOCK
 62
     0
 10
55.995669
 20
15.805583
 30
0.0
  0
POINT
  8
DEFPOINTS
  6
BYBLOCK
 62
     0
 10
55.995669
 20
11.987274
 30
0.0
  0
ENDBLK
  8
0
  0
BLOCK
  8
0
  2
*D59
 70
    65
 10
0.0
 20
0.0
 30
0.0
  3
*D
  0
LINE
  8
0
  6
BYBLOCK
 62
     0
 10
55.995669
 20
15.364583
 30
0.0
 11
55.995669
 21
9.372556
 31
0.0
  0
LINE
  8
0
  6
BYBLOCK
 62
     0
 10
55.824669
 20
14.130664
 30
0.0
 11
55.824669
 21
9.372556
 31
0.0
  0
LINE
  8
0
  6
BYBLOCK
 62
     0
 10
57.255669
 20
10.023556
 30
0.0
 11
58.515669
 21
10.023556
 31
0.0
  0
LINE
  8
0
  6
BYBLOCK
 62
     0
 10
54.564669
 20
10.023556
 30
0.0
 11
53.304669
 21
10.023556
 31
0.0
  0
SOLID
  8
0
  6
BYBLOCK
 62
     0
 10
57.255669
 20
10.233556
 30
0.0
 11
57.255669
 21
9.813556
 31
0.0
 12
55.995669
 22
10.023556
 32
0.0
 13
55.995669
 23
10.023556
 33
0.0
  0
SOLID
  8
0
  6
BYBLOCK
 62
     0
 10
54.564669
 20
10.233556
 30
0.0
 11
54.564669
 21
9.813556
 31
0.0
 12
55.824669
 22
10.023556
 32
0.0
 13
55.824669
 23
10.023556
 33
0.0
  0
TEXT
  8
0
  6
BYBLOCK
 62
     0
 10
50.596544
 20
9.586056
 30
0.0
 40
0.875
  1
0.171
 41
0.75
  7
TXT
 72
     1
 11
51.635606
 21
10.023556
 31
0.0
 73
     2
  0
POINT
  8
DEFPOINTS
  6
BYBLOCK
 62
     0
 10
55.995669
 20
15.805583
 30
0.0
  0
POINT
  8
DEFPOINTS
  6
BYBLOCK
 62
     0
 10
55.824669
 20
14.571664
 30
0.0
  0
POINT
  8
DEFPOINTS
  6
BYBLOCK
 62
     0
 10
55.824669
 20
10.023556
 30
0.0
  0
ENDBLK
  8
0
  0
BLOCK
  8
0
  2
*D60
 70
    65
 10
0.0
 20
0.0
 30
0.0
  3
*D
  0
LINE
  8
0
  6
BYBLOCK
 62
     0
 10
55.824669
 20
14.130664
 30
0.0
 11
55.824669
 21
7.332199
 31
0.0
  0
LINE
  8
0
  6
BYBLOCK
 62
     0
 10
90.995669
 20
14.489664
 30
0.0
 11
90.995669
 21
7.332199
 31
0.0
  0
LINE
  8
0
  6
BYBLOCK
 62
     0
 10
57.084669
 20
7.983199
 30
0.0
 11
71.358294
 21
7.983199
 31
0.0
  0
LINE
  8
0
  6
BYBLOCK
 62
     0
 10
89.735669
 20
7.983199
 30
0.0
 11
75.462044
 21
7.983199
 31
0.0
  0
SOLID
  8
0
  6
BYBLOCK
 62
     0
 10
57.084669
 20
8.193199
 30
0.0
 11
57.084669
 21
7.773199
 31
0.0
 12
55.824669
 22
7.983199
 32
0.0
 13
55.824669
 23
7.983199
 33
0.0
  0
SOLID
  8
0
  6
BYBLOCK
 62
     0
 10
89.735669
 20
8.193199
 30
0.0
 11
89.735669
 21
7.773199
 31
0.0
 12
90.995669
 22
7.983199
 32
0.0
 13
90.995669
 23
7.983199
 33
0.0
  0
TEXT
  8
0
  6
BYBLOCK
 62
     0
 10
71.988294
 20
7.545699
 30
0.0
 40
0.875
  1
35.171
 41
0.75
  7
TXT
 72
     1
 11
73.410169
 21
7.983199
 31
0.0
 73
     2
  0
POINT
  8
DEFPOINTS
  6
BYBLOCK
 62
     0
 10
55.824669
 20
14.571664
 30
0.0
  0
POINT
  8
DEFPOINTS
  6
BYBLOCK
 62
     0
 10
90.995669
 20
14.930664
 30
0.0
  0
POINT
  8
DEFPOINTS
  6
BYBLOCK
 62
     0
 10
90.995669
 20
7.983199
 30
0.0
  0
ENDBLK
  8
0
  0
BLOCK
  8
0
  2
*D61
 70
    65
 10
0.0
 20
0.0
 30
0.0
  3
*D
  0
LINE
  8
0
  6
BYBLOCK
 62
     0
 10
36.569926
 20
18.039664
 30
0.0
 11
39.899445
 21
18.039664
 31
0.0
  0
LINE
  8
0
  6
BYBLOCK
 62
     0
 10
36.569926
 20
14.571664
 30
0.0
 11
39.899445
 21
14.571664
 31
0.0
  0
LINE
  8
0
  6
BYBLOCK
 62
     0
 10
39.248445
 20
19.299664
 30
0.0
 11
39.248445
 21
20.559664
 31
0.0
  0
LINE
  8
0
  6
BYBLOCK
 62
     0
 10
39.248445
 20
13.311664
 30
0.0
 11
39.248445
 21
12.051664
 31
0.0
  0
SOLID
  8
0
  6
BYBLOCK
 62
     0
 10
39.038445
 20
19.299664
 30
0.0
 11
39.458445
 21
19.299664
 31
0.0
 12
39.248445
 22
18.039664
 32
0.0
 13
39.248445
 23
18.039664
 33
0.0
  0
SOLID
  8
0
  6
BYBLOCK
 62
     0
 10
39.038445
 20
13.311664
 30
0.0
 11
39.458445
 21
13.311664
 31
0.0
 12
39.248445
 22
14.571664
 32
0.0
 13
39.248445
 23
14.571664
 33
0.0
  0
TEXT
  8
0
  6
BYBLOCK
 62
     0
 10
37.935945
 20
15.868164
 30
0.0
 40
0.875
  1
3.468
 41
0.75
  7
TXT
 72
     1
 11
39.248445
 21
16.305664
 31
0.0
 73
     2
  0
POINT
  8
DEFPOINTS
  6
BYBLOCK
 62
     0
 10
36.128926
 20
18.039664
 30
0.0
  0
POINT
  8
DEFPOINTS
  6
BYBLOCK
 62
     0
 10
36.128926
 20
14.571664
 30
0.0
  0
POINT
  8
DEFPOINTS
  6
BYBLOCK
 62
     0
 10
39.248445
 20
14.571664
 30
0.0
  0
ENDBLK
  8
0
  0
BLOCK
  8
0
  2
*D62
 70
    65
 10
0.0
 20
0.0
 30
0.0
  3
*D
  0
LINE
  8
0
  6
BYBLOCK
 62
     0
 10
17.128926
 20
14.130664
 30
0.0
 11
17.128926
 21
11.336274
 31
0.0
  0
LINE
  8
0
  6
BYBLOCK
 62
     0
 10
36.128926
 20
14.130664
 30
0.0
 11
36.128926
 21
11.336274
 31
0.0
  0
LINE
  8
0
  6
BYBLOCK
 62
     0
 10
18.388926
 20
11.987274
 30
0.0
 11
24.631739
 21
11.987274
 31
0.0
  0
LINE
  8
0
  6
BYBLOCK
 62
     0
 10
34.868926
 20
11.987274
 30
0.0
 11
28.626114
 21
11.987274
 31
0.0
  0
SOLID
  8
0
  6
BYBLOCK
 62
     0
 10
18.388926
 20
12.197274
 30
0.0
 11
18.388926
 21
11.777274
 31
0.0
 12
17.128926
 22
11.987274
 32
0.0
 13
17.128926
 23
11.987274
 33
0.0
  0
SOLID
  8
0
  6
BYBLOCK
 62
     0
 10
34.868926
 20
12.197274
 30
0.0
 11
34.868926
 21
11.777274
 31
0.0
 12
36.128926
 22
11.987274
 32
0.0
 13
36.128926
 23
11.987274
 33
0.0
  0
TEXT
  8
0
  6
BYBLOCK
 62
     0
 10
25.261739
 20
11.549774
 30
0.0
 40
0.875
  1
19.000
 41
0.75
  7
TXT
 72
     1
 11
26.628926
 21
11.987274
 31
0.0
 73
     2
  0
POINT
  8
DEFPOINTS
  6
BYBLOCK
 62
     0
 10
17.128926
 20
14.571664
 30
0.0
  0
POINT
  8
DEFPOINTS
  6
BYBLOCK
 62
     0
 10
36.128926
 20
14.571664
 30
0.0
  0
POINT
  8
DEFPOINTS
  6
BYBLOCK
 62
     0
 10
36.128926
 20
11.987274
 30
0.0
  0
ENDBLK
  8
0
  0
BLOCK
  8
0
  2
*D63
 70
    65
 10
0.0
 20
0.0
 30
0.0
  3
*D
  0
LINE
  8
0
  6
BYBLOCK
 62
     0
 10
55.492669
 20
14.742664
 30
0.0
 11
51.993183
 21
14.742664
 31
0.0
  0
LINE
  8
0
  6
BYBLOCK
 62
     0
 10
56.194669
 20
16.305664
 30
0.0
 11
51.993183
 21
16.305664
 31
0.0
  0
LINE
  8
0
  6
BYBLOCK
 62
     0
 10
52.644183
 20
13.482664
 30
0.0
 11
52.644183
 21
12.222664
 31
0.0
  0
LINE
  8
0
  6
BYBLOCK
 62
     0
 10
52.644183
 20
17.565664
 30
0.0
 11
52.644183
 21
18.825664
 31
0.0
  0
SOLID
  8
0
  6
BYBLOCK
 62
     0
 10
52.434183
 20
13.482664
 30
0.0
 11
52.854183
 21
13.482664
 31
0.0
 12
52.644183
 22
14.742664
 32
0.0
 13
52.644183
 23
14.742664
 33
0.0
  0
SOLID
  8
0
  6
BYBLOCK
 62
     0
 10
52.434183
 20
17.565664
 30
0.0
 11
52.854183
 21
17.565664
 31
0.0
 12
52.644183
 22
16.305664
 32
0.0
 13
52.644183
 23
16.305664
 33
0.0
  0
TEXT
  8
0
  6
BYBLOCK
 62
     0
 10
51.441058
 20
15.086664
 30
0.0
 40
0.875
  1
1.563
 41
0.75
  7
TXT
 72
     1
 11
52.644183
 21
15.524164
 31
0.0
 73
     2
  0
POINT
  8
DEFPOINTS
  6
BYBLOCK
 62
     0
 10
55.933669
 20
14.742664
 30
0.0
  0
POINT
  8
DEFPOINTS
  6
BYBLOCK
 62
     0
 10
56.635669
 20
16.305664
 30
0.0
  0
POINT
  8
DEFPOINTS
  6
BYBLOCK
 62
     0
 10
52.644183
 20
16.305664
 30
0.0
  0
ENDBLK
  8
0
  0
BLOCK
  8
0
  2
*D64
 70
    65
 10
0.0
 20
0.0
 30
0.0
  3
*D
  0
LINE
  8
0
  6
BYBLOCK
 62
     0
 10
55.492669
 20
14.742664
 30
0.0
 11
46.173004
 21
14.742664
 31
0.0
  0
LINE
  8
0
  6
BYBLOCK
 62
     0
 10
55.492669
 20
17.742664
 30
0.0
 11
46.173004
 21
17.742664
 31
0.0
  0
LINE
  8
0
  6
BYBLOCK
 62
     0
 10
46.824004
 20
13.482664
 30
0.0
 11
46.824004
 21
12.222664
 31
0.0
  0
LINE
  8
0
  6
BYBLOCK
 62
     0
 10
46.824004
 20
19.002664
 30
0.0
 11
46.824004
 21
20.262664
 31
0.0
  0
SOLID
  8
0
  6
BYBLOCK
 62
     0
 10
46.614004
 20
13.482664
 30
0.0
 11
47.034004
 21
13.482664
 31
0.0
 12
46.824004
 22
14.742664
 32
0.0
 13
46.824004
 23
14.742664
 33
0.0
  0
SOLID
  8
0
  6
BYBLOCK
 62
     0
 10
46.614004
 20
19.002664
 30
0.0
 11
47.034004
 21
19.002664
 31
0.0
 12
46.824004
 22
17.742664
 32
0.0
 13
46.824004
 23
17.742664
 33
0.0
  0
TEXT
  8
0
  6
BYBLOCK
 62
     0
 10
45.675567
 20
15.805164
 30
0.0
 40
0.875
  1
3.000
 41
0.75
  7
TXT
 72
     1
 11
46.824004
 21
16.242664
 31
0.0
 73
     2
  0
POINT
  8
DEFPOINTS
  6
BYBLOCK
 62
     0
 10
55.933669
 20
14.742664
 30
0.0
  0
POINT
  8
DEFPOINTS
  6
BYBLOCK
 62
     0
 10
55.933669
 20
17.742664
 30
0.0
  0
POINT
  8
DEFPOINTS
  6
BYBLOCK
 62
     0
 10
46.824004
 20
17.742664
 30
0.0
  0
ENDBLK
  8
0
  0
BLOCK
  8
0
  2
*D65
 70
    65
 10
0.0
 20
0.0
 30
0.0
  3
*D
  0
LINE
  8
0
  6
BYBLOCK
 62
     0
 10
55.492669
 20
17.742664
 30
0.0
 11
49.124074
 21
17.742664
 31
0.0
  0
LINE
  8
0
  6
BYBLOCK
 62
     0
 10
55.383669
 20
18.039664
 30
0.0
 11
49.124074
 21
18.039664
 31
0.0
  0
LINE
  8
0
  6
BYBLOCK
 62
     0
 10
49.775074
 20
16.482664
 30
0.0
 11
49.775074
 21
15.222664
 31
0.0
  0
LINE
  8
0
  6
BYBLOCK
 62
     0
 10
49.775074
 20
19.299664
 30
0.0
 11
49.775074
 21
20.559664
 31
0.0
  0
LINE
  8
0
  6
BYBLOCK
 62
     0
 10
49.775074
 20
20.559664
 30
0.0
 11
51.035074
 21
20.559664
 31
0.0
  0
SOLID
  8
0
  6
BYBLOCK
 62
     0
 10
49.565074
 20
16.482664
 30
0.0
 11
49.985074
 21
16.482664
 31
0.0
 12
49.775074
 22
17.742664
 32
0.0
 13
49.775074
 23
17.742664
 33
0.0
  0
SOLID
  8
0
  6
BYBLOCK
 62
     0
 10
49.565074
 20
19.299664
 30
0.0
 11
49.985074
 21
19.299664
 31
0.0
 12
49.775074
 22
18.039664
 32
0.0
 13
49.775074
 23
18.039664
 33
0.0
  0
TEXT
  8
0
  6
BYBLOCK
 62
     0
 10
51.665074
 20
20.122164
 30
0.0
 40
0.875
  1
0.297
 41
0.75
  7
TXT
 72
     1
 11
52.922886
 21
20.559664
 31
0.0
 73
     2
  0
POINT
  8
DEFPOINTS
  6
BYBLOCK
 62
     0
 10
55.933669
 20
17.742664
 30
0.0
  0
POINT
  8
DEFPOINTS
  6
BYBLOCK
 62
     0
 10
55.824669
 20
18.039664
 30
0.0
  0
POINT
  8
DEFPOINTS
  6
BYBLOCK
 62
     0
 10
49.775074
 20
18.039664
 30
0.0
  0
ENDBLK
  8
0
  0
BLOCK
  8
0
  2
*D66
 70
    65
 10
0.0
 20
0.0
 30
0.0
  3
*D
  0
LINE
  8
0
  6
BYBLOCK
 62
     0
 10
83.839983
 20
37.733277
 30
0.0
 11
81.530992
 21
37.733277
 31
0.0
  0
LINE
  8
0
  6
BYBLOCK
 62
     0
 10
83.839983
 20
44.733277
 30
0.0
 11
81.530992
 21
44.733277
 31
0.0
  0
LINE
  8
0
  6
BYBLOCK
 62
     0
 10
82.181992
 20
38.993277
 30
0.0
 11
82.181992
 21
40.165777
 31
0.0
  0
LINE
  8
0
  6
BYBLOCK
 62
     0
 10
82.181992
 20
43.473277
 30
0.0
 11
82.181992
 21
42.300777
 31
0.0
  0
SOLID
  8
0
  6
BYBLOCK
 62
     0
 10
81.971992
 20
38.993277
 30
0.0
 11
82.391992
 21
38.993277
 31
0.0
 12
82.181992
 22
37.733277
 32
0.0
 13
82.181992
 23
37.733277
 33
0.0
  0
SOLID
  8
0
  6
BYBLOCK
 62
     0
 10
81.971992
 20
43.473277
 30
0.0
 11
82.391992
 21
43.473277
 31
0.0
 12
82.181992
 22
44.733277
 32
0.0
 13
82.181992
 23
44.733277
 33
0.0
  0
TEXT
  8
0
  6
BYBLOCK
 62
     0
 10
81.033554
 20
40.795777
 30
0.0
 40
0.875
  1
7.000
 41
0.75
  7
TXT
 72
     1
 11
82.181992
 21
41.233277
 31
0.0
 73
     2
  0
POINT
  8
DEFPOINTS
  6
BYBLOCK
 62
     0
 10
84.280983
 20
37.733277
 30
0.0
  0
POINT
  8
DEFPOINTS
  6
BYBLOCK
 62
     0
 10
84.280983
 20
44.733277
 30
0.0
  0
POINT
  8
DEFPOINTS
  6
BYBLOCK
 62
     0
 10
82.181992
 20
44.733277
 30
0.0
  0
ENDBLK
  8
0
  0
BLOCK
  8
0
  2
*D67
 70
    65
 10
0.0
 20
0.0
 30
0.0
  3
*D
  0
LINE
  8
0
  6
BYBLOCK
 62
     0
 10
59.281719
 20
37.417277
 30
0.0
 11
59.281719
 21
35.148221
 31
0.0
  0
LINE
  8
0
  6
BYBLOCK
 62
     0
 10
76.281719
 20
37.417277
 30
0.0
 11
76.281719
 21
35.148221
 31
0.0
  0
LINE
  8
0
  6
BYBLOCK
 62
     0
 10
60.541719
 20
35.799221
 30
0.0
 11
65.784532
 21
35.799221
 31
0.0
  0
LINE
  8
0
  6
BYBLOCK
 62
     0
 10
75.021719
 20
35.799221
 30
0.0
 11
69.778907
 21
35.799221
 31
0.0
  0
SOLID
  8
0
  6
BYBLOCK
 62
     0
 10
60.541719
 20
36.009221
 30
0.0
 11
60.541719
 21
35.589221
 31
0.0
 12
59.281719
 22
35.799221
 32
0.0
 13
59.281719
 23
35.799221
 33
0.0
  0
SOLID
  8
0
  6
BYBLOCK
 62
     0
 10
75.021719
 20
36.009221
 30
0.0
 11
75.021719
 21
35.589221
 31
0.0
 12
76.281719
 22
35.799221
 32
0.0
 13
76.281719
 23
35.799221
 33
0.0
  0
TEXT
  8
0
  6
BYBLOCK
 62
     0
 10
66.414532
 20
35.361721
 30
0.0
 40
0.875
  1
17.000
 41
0.75
  7
TXT
 72
     1
 11
67.781719
 21
35.799221
 31
0.0
 73
     2
  0
POINT
  8
DEFPOINTS
  6
BYBLOCK
 62
     0
 10
59.281719
 20
37.858277
 30
0.0
  0
POINT
  8
DEFPOINTS
  6
BYBLOCK
 62
     0
 10
76.281719
 20
37.858277
 30
0.0
  0
POINT
  8
DEFPOINTS
  6
BYBLOCK
 62
     0
 10
76.281719
 20
35.799221
 30
0.0
  0
ENDBLK
  8
0
  0
BLOCK
  8
0
  2
*D68
 70
    65
 10
0.0
 20
0.0
 30
0.0
  3
*D
  0
LINE
  8
0
  6
BYBLOCK
 62
     0
 10
84.780983
 20
37.292277
 30
0.0
 11
84.780983
 21
35.148221
 31
0.0
  0
LINE
  8
0
  6
BYBLOCK
 62
     0
 10
84.280983
 20
37.292277
 30
0.0
 11
84.280983
 21
35.148221
 31
0.0
  0
LINE
  8
0
  6
BYBLOCK
 62
     0
 10
86.040983
 20
35.799221
 30
0.0
 11
87.300983
 21
35.799221
 31
0.0
  0
LINE
  8
0
  6
BYBLOCK
 62
     0
 10
83.020983
 20
35.799221
 30
0.0
 11
81.760983
 21
35.799221
 31
0.0
  0
SOLID
  8
0
  6
BYBLOCK
 62
     0
 10
86.040983
 20
36.009221
 30
0.0
 11
86.040983
 21
35.589221
 31
0.0
 12
84.780983
 22
35.799221
 32
0.0
 13
84.780983
 23
35.799221
 33
0.0
  0
SOLID
  8
0
  6
BYBLOCK
 62
     0
 10
83.020983
 20
36.009221
 30
0.0
 11
83.020983
 21
35.589221
 31
0.0
 12
84.280983
 22
35.799221
 32
0.0
 13
84.280983
 23
35.799221
 33
0.0
  0
TEXT
  8
0
  6
BYBLOCK
 62
     0
 10
78.834108
 20
35.361721
 30
0.0
 40
0.875
  1
0.500
 41
0.75
  7
TXT
 72
     1
 11
79.982546
 21
35.799221
 31
0.0
 73
     2
  0
POINT
  8
DEFPOINTS
  6
BYBLOCK
 62
     0
 10
84.780983
 20
37.733277
 30
0.0
  0
POINT
  8
DEFPOINTS
  6
BYBLOCK
 62
     0
 10
84.280983
 20
37.733277
 30
0.0
  0
POINT
  8
DEFPOINTS
  6
BYBLOCK
 62
     0
 10
84.280983
 20
35.799221
 30
0.0
  0
ENDBLK
  8
0
  0
BLOCK
  8
0
  2
*D69
 70
    65
 10
0.0
 20
0.0
 30
0.0
  3
*D
  0
LINE
  8
0
  6
BYBLOCK
 62
     0
 10
60.812719
 20
31.323699
 30
0.0
 11
60.812719
 21
29.274223
 31
0.0
  0
LINE
  8
0
  6
BYBLOCK
 62
     0
 10
59.281719
 20
31.651699
 30
0.0
 11
59.281719
 21
29.274223
 31
0.0
  0
LINE
  8
0
  6
BYBLOCK
 62
     0
 10
62.072719
 20
29.925223
 30
0.0
 11
63.332719
 21
29.925223
 31
0.0
  0
LINE
  8
0
  6
BYBLOCK
 62
     0
 10
58.021719
 20
29.925223
 30
0.0
 11
56.761719
 21
29.925223
 31
0.0
  0
SOLID
  8
0
  6
BYBLOCK
 62
     0
 10
62.072719
 20
30.135223
 30
0.0
 11
62.072719
 21
29.715223
 31
0.0
 12
60.812719
 22
29.925223
 32
0.0
 13
60.812719
 23
29.925223
 33
0.0
  0
SOLID
  8
0
  6
BYBLOCK
 62
     0
 10
58.021719
 20
30.135223
 30
0.0
 11
58.021719
 21
29.715223
 31
0.0
 12
59.281719
 22
29.925223
 32
0.0
 13
59.281719
 23
29.925223
 33
0.0
  0
TEXT
  8
0
  6
BYBLOCK
 62
     0
 10
53.944219
 20
29.487723
 30
0.0
 40
0.875
  1
1.531
 41
0.75
  7
TXT
 72
     1
 11
55.037969
 21
29.925223
 31
0.0
 73
     2
  0
POINT
  8
DEFPOINTS
  6
BYBLOCK
 62
     0
 10
60.812719
 20
31.764699
 30
0.0
  0
POINT
  8
DEFPOINTS
  6
BYBLOCK
 62
     0
 10
59.281719
 20
32.092699
 30
0.0
  0
POINT
  8
DEFPOINTS
  6
BYBLOCK
 62
     0
 10
59.281719
 20
29.925223
 30
0.0
  0
ENDBLK
  8
0
  0
BLOCK
  8
0
  2
*D70
 70
    65
 10
0.0
 20
0.0
 30
0.0
  3
*D
  0
LINE
  8
0
  6
BYBLOCK
 62
     0
 10
61.781719
 20
31.323699
 30
0.0
 11
61.781719
 21
27.052319
 31
0.0
  0
LINE
  8
0
  6
BYBLOCK
 62
     0
 10
59.281719
 20
31.651699
 30
0.0
 11
59.281719
 21
27.052319
 31
0.0
  0
LINE
  8
0
  6
BYBLOCK
 62
     0
 10
63.041719
 20
27.703319
 30
0.0
 11
64.301719
 21
27.703319
 31
0.0
  0
LINE
  8
0
  6
BYBLOCK
 62
     0
 10
58.021719
 20
27.703319
 30
0.0
 11
56.761719
 21
27.703319
 31
0.0
  0
SOLID
  8
0
  6
BYBLOCK
 62
     0
 10
63.041719
 20
27.913319
 30
0.0
 11
63.041719
 21
27.493319
 31
0.0
 12
61.781719
 22
27.703319
 32
0.0
 13
61.781719
 23
27.703319
 33
0.0
  0
SOLID
  8
0
  6
BYBLOCK
 62
     0
 10
58.021719
 20
27.913319
 30
0.0
 11
58.021719
 21
27.493319
 31
0.0
 12
59.281719
 22
27.703319
 32
0.0
 13
59.281719
 23
27.703319
 33
0.0
  0
TEXT
  8
0
  6
BYBLOCK
 62
     0
 10
53.725469
 20
27.265819
 30
0.0
 40
0.875
  1
2.500
 41
0.75
  7
TXT
 72
     1
 11
54.928594
 21
27.703319
 31
0.0
 73
     2
  0
POINT
  8
DEFPOINTS
  6
BYBLOCK
 62
     0
 10
61.781719
 20
31.764699
 30
0.0
  0
POINT
  8
DEFPOINTS
  6
BYBLOCK
 62
     0
 10
59.281719
 20
32.092699
 30
0.0
  0
POINT
  8
DEFPOINTS
  6
BYBLOCK
 62
     0
 10
59.281719
 20
27.703319
 30
0.0
  0
ENDBLK
  8
0
  0
BLOCK
  8
0
  2
*D71
 70
    65
 10
0.0
 20
0.0
 30
0.0
  3
*D
  0
LINE
  8
0
  6
BYBLOCK
 62
     0
 10
74.750719
 20
31.323699
 30
0.0
 11
74.750719
 21
29.274223
 31
0.0
  0
LINE
  8
0
  6
BYBLOCK
 62
     0
 10
76.281719
 20
31.651699
 30
0.0
 11
76.281719
 21
29.274223
 31
0.0
  0
LINE
  8
0
  6
BYBLOCK
 62
     0
 10
73.490719
 20
29.925223
 30
0.0
 11
72.230719
 21
29.925223
 31
0.0
  0
LINE
  8
0
  6
BYBLOCK
 62
     0
 10
77.541719
 20
29.925223
 30
0.0
 11
78.801719
 21
29.925223
 31
0.0
  0
SOLID
  8
0
  6
BYBLOCK
 62
     0
 10
73.490719
 20
30.135223
 30
0.0
 11
73.490719
 21
29.715223
 31
0.0
 12
74.750719
 22
29.925223
 32
0.0
 13
74.750719
 23
29.925223
 33
0.0
  0
SOLID
  8
0
  6
BYBLOCK
 62
     0
 10
77.541719
 20
30.135223
 30
0.0
 11
77.541719
 21
29.715223
 31
0.0
 12
76.281719
 22
29.925223
 32
0.0
 13
76.281719
 23
29.925223
 33
0.0
  0
TEXT
  8
0
  6
BYBLOCK
 62
     0
 10
79.431719
 20
29.487723
 30
0.0
 40
0.875
  1
1.531
 41
0.75
  7
TXT
 72
     1
 11
80.525469
 21
29.925223
 31
0.0
 73
     2
  0
POINT
  8
DEFPOINTS
  6
BYBLOCK
 62
     0
 10
74.750719
 20
31.764699
 30
0.0
  0
POINT
  8
DEFPOINTS
  6
BYBLOCK
 62
     0
 10
76.281719
 20
32.092699
 30
0.0
  0
POINT
  8
DEFPOINTS
  6
BYBLOCK
 62
     0
 10
76.281719
 20
29.925223
 30
0.0
  0
ENDBLK
  8
0
  0
BLOCK
  8
0
  2
*D72
 70
    65
 10
0.0
 20
0.0
 30
0.0
  3
*D
  0
LINE
  8
0
  6
BYBLOCK
 62
     0
 10
73.781719
 20
31.323699
 30
0.0
 11
73.781719
 21
27.052319
 31
0.0
  0
LINE
  8
0
  6
BYBLOCK
 62
     0
 10
76.281719
 20
31.651699
 30
0.0
 11
76.281719
 21
27.052319
 31
0.0
  0
LINE
  8
0
  6
BYBLOCK
 62
     0
 10
72.521719
 20
27.703319
 30
0.0
 11
71.261719
 21
27.703319
 31
0.0
  0
LINE
  8
0
  6
BYBLOCK
 62
     0
 10
77.541719
 20
27.703319
 30
0.0
 11
78.801719
 21
27.703319
 31
0.0
  0
SOLID
  8
0
  6
BYBLOCK
 62
     0
 10
72.521719
 20
27.913319
 30
0.0
 11
72.521719
 21
27.493319
 31
0.0
 12
73.781719
 22
27.703319
 32
0.0
 13
73.781719
 23
27.703319
 33
0.0
  0
SOLID
  8
0
  6
BYBLOCK
 62
     0
 10
77.541719
 20
27.913319
 30
0.0
 11
77.541719
 21
27.493319
 31
0.0
 12
76.281719
 22
27.703319
 32
0.0
 13
76.281719
 23
27.703319
 33
0.0
  0
TEXT
  8
0
  6
BYBLOCK
 62
     0
 10
79.431719
 20
27.265819
 30
0.0
 40
0.875
  1
2.500
 41
0.75
  7
TXT
 72
     1
 11
80.634844
 21
27.703319
 31
0.0
 73
     2
  0
POINT
  8
DEFPOINTS
  6
BYBLOCK
 62
     0
 10
73.781719
 20
31.764699
 30
0.0
  0
POINT
  8
DEFPOINTS
  6
BYBLOCK
 62
     0
 10
76.281719
 20
32.092699
 30
0.0
  0
POINT
  8
DEFPOINTS
  6
BYBLOCK
 62
     0
 10
76.281719
 20
27.703319
 30
0.0
  0
ENDBLK
  8
0
  0
BLOCK
  8
0
  2
*D73
 70
    65
 10
0.0
 20
0.0
 30
0.0
  3
*D
  0
LINE
  8
0
  6
BYBLOCK
 62
     0
 10
18.128926
 20
55.111184
 30
0.0
 11
18.128926
 21
52.144444
 31
0.0
  0
LINE
  8
0
  6
BYBLOCK
 62
     0
 10
35.128926
 20
55.111184
 30
0.0
 11
35.128926
 21
52.144444
 31
0.0
  0
LINE
  8
0
  6
BYBLOCK
 62
     0
 10
19.388926
 20
52.795444
 30
0.0
 11
24.631739
 21
52.795444
 31
0.0
  0
LINE
  8
0
  6
BYBLOCK
 62
     0
 10
33.868926
 20
52.795444
 30
0.0
 11
28.626114
 21
52.795444
 31
0.0
  0
SOLID
  8
0
  6
BYBLOCK
 62
     0
 10
19.388926
 20
53.005444
 30
0.0
 11
19.388926
 21
52.585444
 31
0.0
 12
18.128926
 22
52.795444
 32
0.0
 13
18.128926
 23
52.795444
 33
0.0
  0
SOLID
  8
0
  6
BYBLOCK
 62
     0
 10
33.868926
 20
53.005444
 30
0.0
 11
33.868926
 21
52.585444
 31
0.0
 12
35.128926
 22
52.795444
 32
0.0
 13
35.128926
 23
52.795444
 33
0.0
  0
TEXT
  8
0
  6
BYBLOCK
 62
     0
 10
25.261739
 20
52.357944
 30
0.0
 40
0.875
  1
17.000
 41
0.75
  7
TXT
 72
     1
 11
26.628926
 21
52.795444
 31
0.0
 73
     2
  0
POINT
  8
DEFPOINTS
  6
BYBLOCK
 62
     0
 10
18.128926
 20
55.552184
 30
0.0
  0
POINT
  8
DEFPOINTS
  6
BYBLOCK
 62
     0
 10
35.128926
 20
55.552184
 30
0.0
  0
POINT
  8
DEFPOINTS
  6
BYBLOCK
 62
     0
 10
35.128926
 20
52.795444
 30
0.0
  0
ENDBLK
  8
0
  0
BLOCK
  8
0
  2
*D74
 70
    65
 10
0.0
 20
0.0
 30
0.0
  3
*D
  0
LINE
  8
0
  6
BYBLOCK
 62
     0
 10
17.691926
 20
54.735684
 30
0.0
 11
17.691926
 21
49.863161
 31
0.0
  0
LINE
  8
0
  6
BYBLOCK
 62
     0
 10
35.565926
 20
54.735684
 30
0.0
 11
35.565926
 21
49.863161
 31
0.0
  0
LINE
  8
0
  6
BYBLOCK
 62
     0
 10
18.951926
 20
50.514161
 30
0.0
 11
24.467676
 21
50.514161
 31
0.0
  0
LINE
  8
0
  6
BYBLOCK
 62
     0
 10
34.305926
 20
50.514161
 30
0.0
 11
28.790176
 21
50.514161
 31
0.0
  0
SOLID
  8
0
  6
BYBLOCK
 62
     0
 10
18.951926
 20
50.724161
 30
0.0
 11
18.951926
 21
50.304161
 31
0.0
 12
17.691926
 22
50.514161
 32
0.0
 13
17.691926
 23
50.514161
 33
0.0
  0
SOLID
  8
0
  6
BYBLOCK
 62
     0
 10
34.305926
 20
50.724161
 30
0.0
 11
34.305926
 21
50.304161
 31
0.0
 12
35.565926
 22
50.514161
 32
0.0
 13
35.565926
 23
50.514161
 33
0.0
  0
TEXT
  8
0
  6
BYBLOCK
 62
     0
 10
25.097676
 20
50.076661
 30
0.0
 40
0.875
  1
17.874
 41
0.75
  7
TXT
 72
     1
 11
26.628926
 21
50.514161
 31
0.0
 73
     2
  0
POINT
  8
DEFPOINTS
  6
BYBLOCK
 62
     0
 10
17.691926
 20
55.176684
 30
0.0
  0
POINT
  8
DEFPOINTS
  6
BYBLOCK
 62
     0
 10
35.565926
 20
55.176684
 30
0.0
  0
POINT
  8
DEFPOINTS
  6
BYBLOCK
 62
     0
 10
35.565926
 20
50.514161
 30
0.0
  0
ENDBLK
  8
0
  0
BLOCK
  8
0
  2
*D75
 70
    65
 10
0.0
 20
0.0
 30
0.0
  3
*D
  0
LINE
  8
0
  6
BYBLOCK
 62
     0
 10
36.336926
 20
57.176684
 30
0.0
 11
39.899445
 21
57.176684
 31
0.0
  0
LINE
  8
0
  6
BYBLOCK
 62
     0
 10
36.336926
 20
57.801684
 30
0.0
 11
39.899445
 21
57.801684
 31
0.0
  0
LINE
  8
0
  6
BYBLOCK
 62
     0
 10
39.248445
 20
55.916684
 30
0.0
 11
39.248445
 21
54.656684
 31
0.0
  0
LINE
  8
0
  6
BYBLOCK
 62
     0
 10
39.248445
 20
59.061684
 30
0.0
 11
39.248445
 21
60.321684
 31
0.0
  0
LINE
  8
0
  6
BYBLOCK
 62
     0
 10
39.248445
 20
60.321684
 30
0.0
 11
40.508445
 21
60.321684
 31
0.0
  0
SOLID
  8
0
  6
BYBLOCK
 62
     0
 10
39.038445
 20
55.916684
 30
0.0
 11
39.458445
 21
55.916684
 31
0.0
 12
39.248445
 22
57.176684
 32
0.0
 13
39.248445
 23
57.176684
 33
0.0
  0
SOLID
  8
0
  6
BYBLOCK
 62
     0
 10
39.038445
 20
59.061684
 30
0.0
 11
39.458445
 21
59.061684
 31
0.0
 12
39.248445
 22
57.801684
 32
0.0
 13
39.248445
 23
57.801684
 33
0.0
  0
TEXT
  8
0
  6
BYBLOCK
 62
     0
 10
41.138445
 20
59.884184
 30
0.0
 40
0.875
  1
0.625
 41
0.75
  7
TXT
 72
     1
 11
42.396258
 21
60.321684
 31
0.0
 73
     2
  0
POINT
  8
DEFPOINTS
  6
BYBLOCK
 62
     0
 10
35.895926
 20
57.176684
 30
0.0
  0
POINT
  8
DEFPOINTS
  6
BYBLOCK
 62
     0
 10
35.895926
 20
57.801684
 30
0.0
  0
POINT
  8
DEFPOINTS
  6
BYBLOCK
 62
     0
 10
39.248445
 20
57.801684
 30
0.0
  0
ENDBLK
  8
0
  0
BLOCK
  8
0
  2
*D76
 70
    65
 10
0.0
 20
0.0
 30
0.0
  3
*D
  0
LINE
  8
0
  6
BYBLOCK
 62
     0
 10
36.336926
 20
56.676684
 30
0.0
 11
44.52278
 21
56.676684
 31
0.0
  0
LINE
  8
0
  6
BYBLOCK
 62
     0
 10
36.336926
 20
57.176684
 30
0.0
 11
44.52278
 21
57.176684
 31
0.0
  0
LINE
  8
0
  6
BYBLOCK
 62
     0
 10
43.87178
 20
55.416684
 30
0.0
 11
43.87178
 21
54.156684
 31
0.0
  0
LINE
  8
0
  6
BYBLOCK
 62
     0
 10
43.87178
 20
58.436684
 30
0.0
 11
43.87178
 21
59.696684
 31
0.0
  0
LINE
  8
0
  6
BYBLOCK
 62
     0
 10
43.87178
 20
59.696684
 30
0.0
 11
45.13178
 21
59.696684
 31
0.0
  0
SOLID
  8
0
  6
BYBLOCK
 62
     0
 10
43.66178
 20
55.416684
 30
0.0
 11
44.08178
 21
55.416684
 31
0.0
 12
43.87178
 22
56.676684
 32
0.0
 13
43.87178
 23
56.676684
 33
0.0
  0
SOLID
  8
0
  6
BYBLOCK
 62
     0
 10
43.66178
 20
58.436684
 30
0.0
 11
44.08178
 21
58.436684
 31
0.0
 12
43.87178
 22
57.176684
 32
0.0
 13
43.87178
 23
57.176684
 33
0.0
  0
TEXT
  8
0
  6
BYBLOCK
 62
     0
 10
45.76178
 20
59.259184
 30
0.0
 40
0.875
  1
0.500
 41
0.75
  7
TXT
 72
     1
 11
46.910218
 21
59.696684
 31
0.0
 73
     2
  0
POINT
  8
DEFPOINTS
  6
BYBLOCK
 62
     0
 10
35.895926
 20
56.676684
 30
0.0
  0
POINT
  8
DEFPOINTS
  6
BYBLOCK
 62
     0
 10
35.895926
 20
57.176684
 30
0.0
  0
POINT
  8
DEFPOINTS
  6
BYBLOCK
 62
     0
 10
43.87178
 20
57.176684
 30
0.0
  0
ENDBLK
  8
0
  0
BLOCK
  8
0
  2
*D77
 70
    65
 10
0.0
 20
0.0
 30
0.0
  3
*D
  0
LINE
  8
0
  6
BYBLOCK
 62
     0
 10
36.336926
 20
56.676684
 30
0.0
 11
49.198395
 21
56.676684
 31
0.0
  0
LINE
  8
0
  6
BYBLOCK
 62
     0
 10
36.336926
 20
56.051684
 30
0.0
 11
49.198395
 21
56.051684
 31
0.0
  0
LINE
  8
0
  6
BYBLOCK
 62
     0
 10
48.547395
 20
57.936684
 30
0.0
 11
48.547395
 21
59.196684
 31
0.0
  0
LINE
  8
0
  6
BYBLOCK
 62
     0
 10
48.547395
 20
54.791684
 30
0.0
 11
48.547395
 21
53.531684
 31
0.0
  0
LINE
  8
0
  6
BYBLOCK
 62
     0
 10
48.547395
 20
53.531684
 30
0.0
 11
47.287395
 21
53.531684
 31
0.0
  0
SOLID
  8
0
  6
BYBLOCK
 62
     0
 10
48.337395
 20
57.936684
 30
0.0
 11
48.757395
 21
57.936684
 31
0.0
 12
48.547395
 22
56.676684
 32
0.0
 13
48.547395
 23
56.676684
 33
0.0
  0
SOLID
  8
0
  6
BYBLOCK
 62
     0
 10
48.337395
 20
54.791684
 30
0.0
 11
48.757395
 21
54.791684
 31
0.0
 12
48.547395
 22
56.051684
 32
0.0
 13
48.547395
 23
56.051684
 33
0.0
  0
TEXT
  8
0
  6
BYBLOCK
 62
     0
 10
44.14177
 20
53.094184
 30
0.0
 40
0.875
  1
0.625
 41
0.75
  7
TXT
 72
     1
 11
45.399582
 21
53.531684
 31
0.0
 73
     2
  0
POINT
  8
DEFPOINTS
  6
BYBLOCK
 62
     0
 10
35.895926
 20
56.676684
 30
0.0
  0
POINT
  8
DEFPOINTS
  6
BYBLOCK
 62
     0
 10
35.895926
 20
56.051684
 30
0.0
  0
POINT
  8
DEFPOINTS
  6
BYBLOCK
 62
     0
 10
48.547395
 20
56.051684
 30
0.0
  0
ENDBLK
  8
0
  0
BLOCK
  8
0
  2
*D78
 70
    65
 10
0.0
 20
0.0
 30
0.0
  3
*D
  0
LINE
  8
0
  6
BYBLOCK
 62
     0
 10
36.336926
 20
56.051684
 30
0.0
 11
54.187682
 21
56.051684
 31
0.0
  0
LINE
  8
0
  6
BYBLOCK
 62
     0
 10
36.569926
 20
55.192684
 30
0.0
 11
54.187682
 21
55.192684
 31
0.0
  0
LINE
  8
0
  6
BYBLOCK
 62
     0
 10
53.536682
 20
57.311684
 30
0.0
 11
53.536682
 21
58.571684
 31
0.0
  0
LINE
  8
0
  6
BYBLOCK
 62
     0
 10
53.536682
 20
53.932684
 30
0.0
 11
53.536682
 21
52.672684
 31
0.0
  0
LINE
  8
0
  6
BYBLOCK
 62
     0
 10
53.536682
 20
52.672684
 30
0.0
 11
52.276682
 21
52.672684
 31
0.0
  0
SOLID
  8
0
  6
BYBLOCK
 62
     0
 10
53.326682
 20
57.311684
 30
0.0
 11
53.746682
 21
57.311684
 31
0.0
 12
53.536682
 22
56.051684
 32
0.0
 13
53.536682
 23
56.051684
 33
0.0
  0
SOLID
  8
0
  6
BYBLOCK
 62
     0
 10
53.326682
 20
53.932684
 30
0.0
 11
53.746682
 21
53.932684
 31
0.0
 12
53.536682
 22
55.192684
 32
0.0
 13
53.536682
 23
55.192684
 33
0.0
  0
TEXT
  8
0
  6
BYBLOCK
 62
     0
 10
49.131057
 20
52.235184
 30
0.0
 40
0.875
  1
0.859
 41
0.75
  7
TXT
 72
     1
 11
50.38887
 21
52.672684
 31
0.0
 73
     2
  0
POINT
  8
DEFPOINTS
  6
BYBLOCK
 62
     0
 10
35.895926
 20
56.051684
 30
0.0
  0
POINT
  8
DEFPOINTS
  6
BYBLOCK
 62
     0
 10
36.128926
 20
55.192684
 30
0.0
  0
POINT
  8
DEFPOINTS
  6
BYBLOCK
 62
     0
 10
53.536682
 20
55.192684
 30
0.0
  0
ENDBLK
  8
0
  0
BLOCK
  8
0
  2
*D79
 70
    65
 10
0.0
 20
0.0
 30
0.0
  3
*D
  0
LINE
  8
0
  6
BYBLOCK
 62
     0
 10
35.569926
 20
43.498994
 30
0.0
 11
39.899445
 21
43.498994
 31
0.0
  0
LINE
  8
0
  6
BYBLOCK
 62
     0
 10
36.569926
 20
19.498994
 30
0.0
 11
39.899445
 21
19.498994
 31
0.0
  0
LINE
  8
0
  6
BYBLOCK
 62
     0
 10
39.248445
 20
42.238994
 30
0.0
 11
39.248445
 21
33.149494
 31
0.0
  0
LINE
  8
0
  6
BYBLOCK
 62
     0
 10
39.248445
 20
20.758994
 30
0.0
 11
39.248445
 21
31.014494
 31
0.0
  0
SOLID
  8
0
  6
BYBLOCK
 62
     0
 10
39.038445
 20
42.238994
 30
0.0
 11
39.458445
 21
42.238994
 31
0.0
 12
39.248445
 22
43.498994
 32
0.0
 13
39.248445
 23
43.498994
 33
0.0
  0
SOLID
  8
0
  6
BYBLOCK
 62
     0
 10
39.038445
 20
20.758994
 30
0.0
 11
39.458445
 21
20.758994
 31
0.0
 12
39.248445
 22
19.498994
 32
0.0
 13
39.248445
 23
19.498994
 33
0.0
  0
TEXT
  8
0
  6
BYBLOCK
 62
     0
 10
37.771883
 20
31.644494
 30
0.0
 40
0.875
  1
24.000
 41
0.75
  7
TXT
 72
     1
 11
39.248445
 21
32.081994
 31
0.0
 73
     2
  0
POINT
  8
DEFPOINTS
  6
BYBLOCK
 62
     0
 10
35.128926
 20
43.498994
 30
0.0
  0
POINT
  8
DEFPOINTS
  6
BYBLOCK
 62
     0
 10
36.128926
 20
19.498994
 30
0.0
  0
POINT
  8
DEFPOINTS
  6
BYBLOCK
 62
     0
 10
39.248445
 20
19.498994
 30
0.0
  0
ENDBLK
  8
0
  0
BLOCK
  8
0
  2
*D80
 70
    65
 10
0.0
 20
0.0
 30
0.0
  3
*D
  0
LINE
  8
0
  6
BYBLOCK
 62
     0
 10
35.569926
 20
43.498994
 30
0.0
 11
43.112407
 21
43.498994
 31
0.0
  0
LINE
  8
0
  6
BYBLOCK
 62
     0
 10
29.319926
 20
19.408994
 30
0.0
 11
43.112407
 21
19.408994
 31
0.0
  0
LINE
  8
0
  6
BYBLOCK
 62
     0
 10
42.461407
 20
42.238994
 30
0.0
 11
42.461407
 21
31.304494
 31
0.0
  0
LINE
  8
0
  6
BYBLOCK
 62
     0
 10
42.461407
 20
20.668994
 30
0.0
 11
42.461407
 21
29.169494
 31
0.0
  0
SOLID
  8
0
  6
BYBLOCK
 62
     0
 10
42.251407
 20
42.238994
 30
0.0
 11
42.671407
 21
42.238994
 31
0.0
 12
42.461407
 22
43.498994
 32
0.0
 13
42.461407
 23
43.498994
 33
0.0
  0
SOLID
  8
0
  6
BYBLOCK
 62
     0
 10
42.251407
 20
20.668994
 30
0.0
 11
42.671407
 21
20.668994
 31
0.0
 12
42.461407
 22
19.408994
 32
0.0
 13
42.461407
 23
19.408994
 33
0.0
  0
TEXT
  8
0
  6
BYBLOCK
 62
     0
 10
40.930157
 20
29.799494
 30
0.0
 40
0.875
  1
24.090
 41
0.75
  7
TXT
 72
     1
 11
42.461407
 21
30.236994
 31
0.0
 73
     2
  0
POINT
  8
DEFPOINTS
  6
BYBLOCK
 62
     0
 10
35.128926
 20
43.498994
 30
0.0
  0
POINT
  8
DEFPOINTS
  6
BYBLOCK
 62
     0
 10
28.878926
 20
19.408994
 30
0.0
  0
POINT
  8
DEFPOINTS
  6
BYBLOCK
 62
     0
 10
42.461407
 20
19.408994
 30
0.0
  0
ENDBLK
  8
0
  0
BLOCK
  8
0
  2
*D81
 70
    65
 10
0.0
 20
0.0
 30
0.0
  3
*D
  0
LINE
  8
0
  6
BYBLOCK
 62
     0
 10
28.878926
 20
21.52127
 30
0.0
 11
28.878926
 21
19.198212
 31
0.0
  0
LINE
  8
0
  6
BYBLOCK
 62
     0
 10
24.378926
 20
21.52127
 30
0.0
 11
24.378926
 21
19.198212
 31
0.0
  0
LINE
  8
0
  6
BYBLOCK
 62
     0
 10
30.138926
 20
19.849212
 30
0.0
 11
31.398926
 21
19.849212
 31
0.0
  0
LINE
  8
0
  6
BYBLOCK
 62
     0
 10
23.118926
 20
19.849212
 30
0.0
 11
21.858926
 21
19.849212
 31
0.0
  0
SOLID
  8
0
  6
BYBLOCK
 62
     0
 10
30.138926
 20
20.059212
 30
0.0
 11
30.138926
 21
19.639212
 31
0.0
 12
28.878926
 22
19.849212
 32
0.0
 13
28.878926
 23
19.849212
 33
0.0
  0
SOLID
  8
0
  6
BYBLOCK
 62
     0
 10
23.118926
 20
20.059212
 30
0.0
 11
23.118926
 21
19.639212
 31
0.0
 12
24.378926
 22
19.849212
 32
0.0
 13
24.378926
 23
19.849212
 33
0.0
  0
TEXT
  8
0
  6
BYBLOCK
 62
     0
 10
25.425801
 20
19.411712
 30
0.0
 40
0.875
  1
4.500
 41
0.75
  7
TXT
 72
     1
 11
26.628926
 21
19.849212
 31
0.0
 73
     2
  0
POINT
  8
DEFPOINTS
  6
BYBLOCK
 62
     0
 10
28.878926
 20
21.96227
 30
0.0
  0
POINT
  8
DEFPOINTS
  6
BYBLOCK
 62
     0
 10
24.378926
 20
21.96227
 30
0.0
  0
POINT
  8
DEFPOINTS
  6
BYBLOCK
 62
     0
 10
24.378926
 20
19.849212
 30
0.0
  0
ENDBLK
  8
0
  0
BLOCK
  8
0
  2
*D88
 70
    65
 10
0.0
 20
0.0
 30
0.0
  3
*D
  0
LINE
  8
0
  6
BYBLOCK
 62
     0
 10
19.628926
 20
32.78927
 30
0.0
 11
19.628926
 21
36.598885
 31
0.0
  0
LINE
  8
0
  6
BYBLOCK
 62
     0
 10
19.878926
 20
32.78927
 30
0.0
 11
19.878926
 21
36.598885
 31
0.0
  0
LINE
  8
0
  6
BYBLOCK
 62
     0
 10
18.368926
 20
35.947885
 30
0.0
 11
17.108926
 21
35.947885
 31
0.0
  0
LINE
  8
0
  6
BYBLOCK
 62
     0
 10
21.138926
 20
35.947885
 30
0.0
 11
22.398926
 21
35.947885
 31
0.0
  0
SOLID
  8
0
  6
BYBLOCK
 62
     0
 10
18.368926
 20
36.157885
 30
0.0
 11
18.368926
 21
35.737885
 31
0.0
 12
19.628926
 22
35.947885
 32
0.0
 13
19.628926
 23
35.947885
 33
0.0
  0
SOLID
  8
0
  6
BYBLOCK
 62
     0
 10
21.138926
 20
36.157885
 30
0.0
 11
21.138926
 21
35.737885
 31
0.0
 12
19.878926
 22
35.947885
 32
0.0
 13
19.878926
 23
35.947885
 33
0.0
  0
TEXT
  8
0
  6
BYBLOCK
 62
     0
 10
25.653926
 20
35.510385
 30
0.0
 40
0.875
  1
 NOTCH
 41
0.75
  7
TXT
 72
     1
 11
27.513301
 21
35.947885
 31
0.0
 73
     2
  0
TEXT
  8
0
  6
BYBLOCK
 62
     0
 10
23.028926
 20
35.510385
 30
0.0
 40
0.875
  1
0.250
 41
0.75
  7
TXT
 72
     1
 11
24.232051
 21
35.947885
 31
0.0
 73
     2
  0
POINT
  8
DEFPOINTS
  6
BYBLOCK
 62
     0
 10
19.628926
 20
32.34827
 30
0.047
  0
POINT
  8
DEFPOINTS
  6
BYBLOCK
 62
     0
 10
19.878926
 20
32.34827
 30
0.047
  0
POINT
  8
DEFPOINTS
  6
BYBLOCK
 62
     0
 10
19.878926
 20
35.947885
 30
0.0
  0
ENDBLK
  8
0
  0
BLOCK
  8
0
  2
*D89
 70
    65
 10
0.0
 20
0.0
 30
0.0
  3
*D
  0
LINE
  8
0
  6
BYBLOCK
 62
     0
 10
18.616926
 20
22.20827
 30
0.0
 11
24.242292
 21
22.20827
 31
0.0
  0
LINE
  8
0
  6
BYBLOCK
 62
     0
 10
20.319926
 20
29.27027
 30
0.0
 11
24.242292
 21
29.27027
 31
0.0
  0
LINE
  8
0
  6
BYBLOCK
 62
     0
 10
23.591292
 20
23.46827
 30
0.0
 11
23.591292
 21
24.67177
 31
0.0
  0
LINE
  8
0
  6
BYBLOCK
 62
     0
 10
23.591292
 20
28.01027
 30
0.0
 11
23.591292
 21
26.80677
 31
0.0
  0
SOLID
  8
0
  6
BYBLOCK
 62
     0
 10
23.381292
 20
23.46827
 30
0.0
 11
23.801292
 21
23.46827
 31
0.0
 12
23.591292
 22
22.20827
 32
0.0
 13
23.591292
 23
22.20827
 33
0.0
  0
SOLID
  8
0
  6
BYBLOCK
 62
     0
 10
23.381292
 20
28.01027
 30
0.0
 11
23.801292
 21
28.01027
 31
0.0
 12
23.591292
 22
29.27027
 32
0.0
 13
23.591292
 23
29.27027
 33
0.0
  0
TEXT
  8
0
  6
BYBLOCK
 62
     0
 10
22.989729
 20
25.30177
 30
0.0
 40
0.875
  1
 INSIDE
 41
0.75
  7
TXT
 72
     1
 11
24.958479
 21
25.73927
 31
0.0
 73
     2
  0
TEXT
  8
0
  6
BYBLOCK
 62
     0
 10
20.255354
 20
25.30177
 30
0.0
 40
0.875
  1
7.062
 41
0.75
  7
TXT
 72
     1
 11
21.513167
 21
25.73927
 31
0.0
 73
     2
  0
POINT
  8
DEFPOINTS
  6
BYBLOCK
 62
     0
 10
18.175926
 20
22.20827
 30
0.047
  0
POINT
  8
DEFPOINTS
  6
BYBLOCK
 62
     0
 10
19.878926
 20
29.27027
 30
0.047
  0
POINT
  8
DEFPOINTS
  6
BYBLOCK
 62
     0
 10
23.591292
 20
29.27027
 30
0.0
  0
ENDBLK
  8
0
  0
BLOCK
  8
0
  2
*D103
 70
    65
 10
0.0
 20
0.0
 30
0.0
  3
*D
  0
LINE
  8
0
  6
BYBLOCK
 62
     0
 10
22.459968
 20
32.27027
 30
0.0
 11
5.435426
 21
32.27027
 31
0.0
  0
LINE
  8
0
  6
BYBLOCK
 62
     0
 10
22.459968
 20
32.34827
 30
0.0
 11
5.435426
 21
32.34827
 31
0.0
  0
LINE
  8
0
  6
BYBLOCK
 62
     0
 10
6.086426
 20
31.01027
 30
0.0
 11
6.086426
 21
29.75027
 31
0.0
  0
LINE
  8
0
  6
BYBLOCK
 62
     0
 10
6.086426
 20
33.60827
 30
0.0
 11
6.086426
 21
34.86827
 31
0.0
  0
LINE
  8
0
  6
BYBLOCK
 62
     0
 10
6.086426
 20
34.86827
 30
0.0
 11
7.346426
 21
34.86827
 31
0.0
  0
SOLID
  8
0
  6
BYBLOCK
 62
     0
 10
5.876426
 20
31.01027
 30
0.0
 11
6.296426
 21
31.01027
 31
0.0
 12
6.086426
 22
32.27027
 32
0.0
 13
6.086426
 23
32.27027
 33
0.0
  0
SOLID
  8
0
  6
BYBLOCK
 62
     0
 10
5.876426
 20
33.60827
 30
0.0
 11
6.296426
 21
33.60827
 31
0.0
 12
6.086426
 22
32.34827
 32
0.0
 13
6.086426
 23
32.34827
 33
0.0
  0
TEXT
  8
0
  6
BYBLOCK
 62
     0
 10
10.601426
 20
34.43077
 30
0.0
 40
0.875
  1
 NOTCH TYP.
 41
0.75
  7
TXT
 72
     1
 11
13.882676
 21
34.86827
 31
0.0
 73
     2
  0
TEXT
  8
0
  6
BYBLOCK
 62
     0
 10
7.976426
 20
34.43077
 30
0.0
 40
0.875
  1
0.078
 41
0.75
  7
TXT
 72
     1
 11
9.179551
 21
34.86827
 31
0.0
 73
     2
  0
POINT
  8
DEFPOINTS
  6
BYBLOCK
 62
     0
 10
22.900968
 20
32.27027
 30
0.047
  0
POINT
  8
DEFPOINTS
  6
BYBLOCK
 62
     0
 10
22.900968
 20
32.34827
 30
0.047
  0
POINT
  8
DEFPOINTS
  6
BYBLOCK
 62
     0
 10
6.086426
 20
32.34827
 30
0.0
  0
ENDBLK
  8
0
  0
BLOCK
  8
0
  2
*D104
 70
    65
 10
0.0
 20
0.0
 30
0.0
  3
*D
  0
LINE
  8
0
  6
BYBLOCK
 62
     0
 10
22.459968
 20
31.27027
 30
0.0
 11
13.504923
 21
31.27027
 31
0.0
  0
LINE
  8
0
  6
BYBLOCK
 62
     0
 10
22.459968
 20
29.27027
 30
0.0
 11
13.504923
 21
29.27027
 31
0.0
  0
LINE
  8
0
  6
BYBLOCK
 62
     0
 10
14.155923
 20
32.53027
 30
0.0
 11
14.155923
 21
33.79027
 31
0.0
  0
LINE
  8
0
  6
BYBLOCK
 62
     0
 10
14.155923
 20
28.01027
 30
0.0
 11
14.155923
 21
26.75027
 31
0.0
  0
SOLID
  8
0
  6
BYBLOCK
 62
     0
 10
13.945923
 20
32.53027
 30
0.0
 11
14.365923
 21
32.53027
 31
0.0
 12
14.155923
 22
31.27027
 32
0.0
 13
14.155923
 23
31.27027
 33
0.0
  0
SOLID
  8
0
  6
BYBLOCK
 62
     0
 10
13.945923
 20
28.01027
 30
0.0
 11
14.365923
 21
28.01027
 31
0.0
 12
14.155923
 22
29.27027
 32
0.0
 13
14.155923
 23
29.27027
 33
0.0
  0
TEXT
  8
0
  6
BYBLOCK
 62
     0
 10
13.007486
 20
29.83277
 30
0.0
 40
0.875
  1
2.000
 41
0.75
  7
TXT
 72
     1
 11
14.155923
 21
30.27027
 31
0.0
 73
     2
  0
POINT
  8
DEFPOINTS
  6
BYBLOCK
 62
     0
 10
22.900968
 20
31.27027
 30
-0.047
  0
POINT
  8
DEFPOINTS
  6
BYBLOCK
 62
     0
 10
22.900968
 20
29.27027
 30
-0.047
  0
POINT
  8
DEFPOINTS
  6
BYBLOCK
 62
     0
 10
14.155923
 20
29.27027
 30
0.0
  0
ENDBLK
  8
0
  0
BLOCK
  8
0
  2
*D105
 70
    65
 10
0.0
 20
0.0
 30
0.0
  3
*D
  0
LINE
  8
0
  6
BYBLOCK
 62
     0
 10
22.459968
 20
32.27027
 30
0.0
 11
9.980229
 21
32.27027
 31
0.0
  0
LINE
  8
0
  6
BYBLOCK
 62
     0
 10
22.459968
 20
29.27027
 30
0.0
 11
9.980229
 21
29.27027
 31
0.0
  0
LINE
  8
0
  6
BYBLOCK
 62
     0
 10
10.631229
 20
33.53027
 30
0.0
 11
10.631229
 21
34.79027
 31
0.0
  0
LINE
  8
0
  6
BYBLOCK
 62
     0
 10
10.631229
 20
28.01027
 30
0.0
 11
10.631229
 21
26.75027
 31
0.0
  0
SOLID
  8
0
  6
BYBLOCK
 62
     0
 10
10.421229
 20
33.53027
 30
0.0
 11
10.841229
 21
33.53027
 31
0.0
 12
10.631229
 22
32.27027
 32
0.0
 13
10.631229
 23
32.27027
 33
0.0
  0
SOLID
  8
0
  6
BYBLOCK
 62
     0
 10
10.421229
 20
28.01027
 30
0.0
 11
10.841229
 21
28.01027
 31
0.0
 12
10.631229
 22
29.27027
 32
0.0
 13
10.631229
 23
29.27027
 33
0.0
  0
TEXT
  8
0
  6
BYBLOCK
 62
     0
 10
9.482792
 20
30.33277
 30
0.0
 40
0.875
  1
3.000
 41
0.75
  7
TXT
 72
     1
 11
10.631229
 21
30.77027
 31
0.0
 73
     2
  0
POINT
  8
DEFPOINTS
  6
BYBLOCK
 62
     0
 10
22.900968
 20
32.27027
 30
-0.047
  0
POINT
  8
DEFPOINTS
  6
BYBLOCK
 62
     0
 10
22.900968
 20
29.27027
 30
-0.047
  0
POINT
  8
DEFPOINTS
  6
BYBLOCK
 62
     0
 10
10.631229
 20
29.27027
 30
0.0
  0
ENDBLK
  8
0
  0
BLOCK
  8
0
  2
*D106
 70
    65
 10
0.0
 20
0.0
 30
0.0
  3
*D
  0
LINE
  8
0
  6
BYBLOCK
 62
     0
 10
22.459968
 20
30.27027
 30
0.0
 11
18.010498
 21
30.27027
 31
0.0
  0
LINE
  8
0
  6
BYBLOCK
 62
     0
 10
22.459968
 20
29.27027
 30
0.0
 11
18.010498
 21
29.27027
 31
0.0
  0
LINE
  8
0
  6
BYBLOCK
 62
     0
 10
18.661498
 20
31.53027
 30
0.0
 11
18.661498
 21
32.79027
 31
0.0
  0
LINE
  8
0
  6
BYBLOCK
 62
     0
 10
18.661498
 20
28.01027
 30
0.0
 11
18.661498
 21
26.75027
 31
0.0
  0
LINE
  8
0
  6
BYBLOCK
 62
     0
 10
18.661498
 20
26.75027
 30
0.0
 11
17.401498
 21
26.75027
 31
0.0
  0
SOLID
  8
0
  6
BYBLOCK
 62
     0
 10
18.451498
 20
31.53027
 30
0.0
 11
18.871498
 21
31.53027
 31
0.0
 12
18.661498
 22
30.27027
 32
0.0
 13
18.661498
 23
30.27027
 33
0.0
  0
SOLID
  8
0
  6
BYBLOCK
 62
     0
 10
18.451498
 20
28.01027
 30
0.0
 11
18.871498
 21
28.01027
 31
0.0
 12
18.661498
 22
29.27027
 32
0.0
 13
18.661498
 23
29.27027
 33
0.0
  0
TEXT
  8
0
  6
BYBLOCK
 62
     0
 10
14.693373
 20
26.31277
 30
0.0
 40
0.875
  1
1.000
 41
0.75
  7
TXT
 72
     1
 11
15.732436
 21
26.75027
 31
0.0
 73
     2
  0
POINT
  8
DEFPOINTS
  6
BYBLOCK
 62
     0
 10
22.900968
 20
30.27027
 30
-0.047
  0
POINT
  8
DEFPOINTS
  6
BYBLOCK
 62
     0
 10
22.900968
 20
29.27027
 30
-0.047
  0
POINT
  8
DEFPOINTS
  6
BYBLOCK
 62
     0
 10
18.661498
 20
29.27027
 30
0.0
  0
ENDBLK
  8
0
  0
BLOCK
  8
0
  2
*D107
 70
    65
 10
0.0
 20
0.0
 30
0.0
  3
*D
  0
LINE
  8
0
  6
BYBLOCK
 62
     0
 10
33.732857
 20
22.20827
 30
0.0
 11
33.522857
 21
22.20827
 31
0.0
  0
LINE
  8
0
  6
BYBLOCK
 62
     0
 10
33.732857
 20
46.00527
 30
0.0
 11
33.522857
 21
46.00527
 31
0.0
  0
LINE
  8
0
  6
BYBLOCK
 62
     0
 10
34.173857
 20
23.46827
 30
0.0
 11
34.173857
 21
33.03927
 31
0.0
  0
LINE
  8
0
  6
BYBLOCK
 62
     0
 10
34.173857
 20
44.74527
 30
0.0
 11
34.173857
 21
35.17427
 31
0.0
  0
SOLID
  8
0
  6
BYBLOCK
 62
     0
 10
33.963857
 20
23.46827
 30
0.0
 11
34.383857
 21
23.46827
 31
0.0
 12
34.173857
 22
22.20827
 32
0.0
 13
34.173857
 23
22.20827
 33
0.0
  0
SOLID
  8
0
  6
BYBLOCK
 62
     0
 10
33.963857
 20
44.74527
 30
0.0
 11
34.383857
 21
44.74527
 31
0.0
 12
34.173857
 22
46.00527
 32
0.0
 13
34.173857
 23
46.00527
 33
0.0
  0
TEXT
  8
0
  6
BYBLOCK
 62
     0
 10
32.533232
 20
33.66927
 30
0.0
 40
0.875
  1
23.797
 41
0.75
  7
TXT
 72
     1
 11
34.173857
 21
34.10677
 31
0.0
 73
     2
  0
POINT
  8
DEFPOINTS
  6
BYBLOCK
 62
     0
 10
34.173857
 20
22.20827
 30
0.047
  0
POINT
  8
DEFPOINTS
  6
BYBLOCK
 62
     0
 10
34.173857
 20
46.00527
 30
0.047
  0
POINT
  8
DEFPOINTS
  6
BYBLOCK
 62
     0
 10
34.173857
 20
46.00527
 30
0.0
  0
ENDBLK
  8
0
  0
ENDSEC
  0
SECTION
  2
ENTITIES
  0
TEXT
  8
DIM
 10
54.283802
 20
85.329805
 30
0.0
 40
1.0
  1

  0
TEXT
  8
DIM
 10
54.033802
 20
74.95506
 30
0.0
 40
1.0
  1

  0
TEXT
  8
DIM
 10
54.200469
 20
68.670722
 30
0.0
 40
1.0
  1

  0
TEXT
  8
DIM
 10
36.322149
 20
70.07532
 30
0.0
 40
1.0
  1

  0
TEXT
  8
DIM
 10
70.364649
 20
70.07532
 30
0.0
 40
1.0
  1

  0
TEXT
  8
DIM
 10
120.885741
 20
68.607925
 30
0.0
 40
1.0
  1

  0
TEXT
  8
DIM
 10
110.137421
 20
82.33032
 30
0.0
 40
1.0
  1

  0
TEXT
  8
DIM
 10
112.394859
 20
85.615361
 30
0.0
 40
1.0
  1

  0
TEXT
  8
DIM
 10
162.279927
 20
63.097799
 30
0.0
 40
0.5
  1

  0
TEXT
  8
DIM
 10
144.857927
 20
80.994492
 30
0.0
 40
0.5
  1

  0
TEXT
  8
DIM
 10
177.927106
 20
75.512779
 30
0.0
 40
0.5
  1

  0
TEXT
  8
DIM
 10
180.454384
 20
73.769296
 30
0.0
 40
0.5
  1

  0
TEXT
  8
DIM
 10
122.221362
 20
54.144122
 30
0.0
 40
0.5
  1

  0
TEXT
  8
DIM
 10
132.280489
 20
58.060143
 30
0.0
 40
0.5
  1

  0
TEXT
  8
DIM
 10
161.551544
 20
68.166372
 30
0.0
 40
0.5
  1

  0
TEXT
  8
DIM
 10
142.801544
 20
68.166372
 30
0.0
 40
0.5
  1

  0
TEXT
  8
DIM
 10
158.384877
 20
60.022686
 30
0.0
 40
0.5
  1

  0
TEXT
  8
DIM
 10
389.448679
 20
111.615896
 30
0.0
 40
0.5
  1

  0
TEXT
  8
DIM
 10
372.026679
 20
129.51259
 30
0.0
 40
0.5
  1

  0
TEXT
  8
DIM
 10
405.095858
 20
124.030877
 30
0.0
 40
0.5
  1

  0
TEXT
  8
DIM
 10
407.623136
 20
122.287394
 30
0.0
 40
0.5
  1

  0
TEXT
  8
DIM
 10
349.390114
 20
102.66222
 30
0.0
 40
0.5
  1

  0
TEXT
  8
DIM
 10
359.449241
 20
106.57824
 30
0.0
 40
0.5
  1

  0
TEXT
  8
DIM
 10
388.720296
 20
116.684469
 30
0.0
 40
0.5
  1

  0
TEXT
  8
DIM
 10
369.970296
 20
116.684469
 30
0.0
 40
0.5
  1

  0
TEXT
  8
DIM
 10
385.553629
 20
108.540783
 30
0.0
 40
0.5
  1

  0
TEXT
  8
DIM
 10
276.326179
 20
101.845171
 30
0.0
 40
0.875
  1

 41
0.75
  7
TXT
 72
     2
 11
276.326179
 21
102.282671
 31
0.0
 73
     2
  0
LINE
  8
TITLE
 10
108.066
 20
70.406
 30
0.0
 11
108.066
 21
0.434
 31
0.0
  0
LINE
  8
TITLE
 10
0.434
 20
70.406
 30
0.0
 11
108.066
 21
70.406
 31
0.0
  0
LINE
  8
TITLE
 10
0.434
 20
0.434
 30
0.0
 11
0.434
 21
70.406
 31
0.0
  0
LINE
  8
TITLE
 10
108.066
 20
0.434
 30
0.0
 11
0.434
 21
0.434
 31
0.0
  0
LINE
  8
TITLE
 10
108.5
 20
0.0
 30
0.0
 11
0.0
 21
0.0
 31
0.0
  0
LINE
  8
TITLE
 10
108.5
 20
70.84
 30
0.0
 11
108.5
 21
0.0
 31
0.0
  0
LINE
  8
TITLE
 10
0.0
 20
70.84
 30
0.0
 11
108.5
 21
70.84
 31
0.0
  0
LINE
  8
TITLE
 10
0.0
 20
0.0
 30
0.0
 11
0.0
 21
70.84
 31
0.0
  0
LINE
  8
TITLE
 10
0.434
 20
67.48
 30
0.0
 11
108.066
 21
67.48
 31
0.0
  0
LINE
  8
TITLE
 10
54.033
 20
67.48
 30
0.0
 11
54.033
 21
70.406
 31
0.0
  0
LINE
  8
TITLE
 10
54.467
 20
67.48
 30
0.0
 11
54.467
 21
70.406
 31
0.0
  0
TEXT
  8
TEXT
 10
56.308001
 20
68.986262
 30
0.0
 40
0.875
  1
PART
 41
0.75
  7
TXT
  0
TEXT
  8
TEXT
 10
56.744729
 20
67.789875
 30
0.0
 40
0.875
  1
NO.
 41
0.75
  7
TXT
  0
LINE
  8
TITLE
 10
60.319155
 20
67.48
 30
0.0
 11
60.319155
 21
70.406
 31
0.0
  0
TEXT
  8
TEXT
 10
2.233227
 20
67.789875
 30
0.0
 40
0.875
  1
NAME
 41
0.75
  7
TXT
  0
TEXT
  8
TEXT
 10
2.275001
 20
68.986262
 30
0.0
 40
0.875
  1
PART
 41
0.75
  7
TXT
  0
LINE
  8
TITLE
 10
6.286155
 20
67.48
 30
0.0
 11
6.286155
 21
70.406
 31
0.0
  0
TEXT
  8
TEXT
 10
18.170002
 20
68.219827
 30
0.0
 40
1.312
  1
SLIDING KEYBOARD SHELF
 41
0.75
  7
TXT
 72
     1
 11
28.502002
 21
68.219827
 31
0.0
  0
TEXT
  8
TEXT
 10
82.078672
 20
68.219827
 30
0.0
 40
1.312
  1
KS-1788
 41
0.75
  7
TXT
 72
     1
 11
85.194672
 21
68.219827
 31
0.0
  0
TEXT
  8
DIM
 10
82.887458
 20
180.290872
 30
0.0
 40
1.25
  1

  0
TEXT
  8
DIM
 10
83.949958
 20
176.197114
 30
0.0
 40
1.0
  1

  0
TEXT
  8
OBJECT
 10
84.806702
 20
226.893771
 30
0.0
 40
1.25
  1

  0
TEXT
  8
DIM
 10
82.887458
 20
515.810872
 30
0.0
 40
1.25
  1

  0
TEXT
  8
DIM
 10
83.949958
 20
511.717114
 30
0.0
 40
1.0
  1

  0
TEXT
  8
OBJECT
 10
84.806702
 20
562.413771
 30
0.0
 40
1.25
  1

  0
TEXT
  8
DIM
 10
101.219888
 20
720.4774
 30
0.0
 40
1.25
  1

  0
TEXT
  8
DIM
 10
102.282388
 20
716.383641
 30
0.0
 40
1.0
  1

  0
TEXT
  8
DIM
 10
108.333965
 20
721.024637
 30
0.0
 40
1.25
  1

  0
TEXT
  8
DIM
 10
109.396465
 20
716.930878
 30
0.0
 40
1.0
  1

  0
TEXT
  8
OBJECT
 10
110.253209
 20
767.627536
 30
0.0
 40
1.25
  1

  0
TEXT
  8
DIM
 10
82.887458
 20
515.810872
 30
0.0
 40
1.25
  1

  0
TEXT
  8
DIM
 10
83.949958
 20
511.717114
 30
0.0
 40
1.0
  1

  0
TEXT
  8
OBJECT
 10
84.806702
 20
562.413771
 30
0.0
 40
1.25
  1

  0
TEXT
  8
DIM
 10
101.219888
 20
720.4774
 30
0.0
 40
1.25
  1

  0
TEXT
  8
DIM
 10
102.282388
 20
716.383641
 30
0.0
 40
1.0
  1

  0
TEXT
  8
DIM
 10
108.333965
 20
721.024637
 30
0.0
 40
1.25
  1

  0
TEXT
  8
DIM
 10
109.396465
 20
716.930878
 30
0.0
 40
1.0
  1

  0
TEXT
  8
OBJECT
 10
110.253209
 20
767.627536
 30
0.0
 40
1.25
  1

  0
TEXT
  8
DIM
 10
190.609758
 20
386.914188
 30
0.0
 40
1.25
  1

  0
TEXT
  8
DIM
 10
191.672258
 20
382.820429
 30
0.0
 40
1.0
  1

  0
TEXT
  8
DIM
 10
354.609758
 20
386.914188
 30
0.0
 40
1.25
  1

  0
TEXT
  8
DIM
 10
355.672258
 20
382.820429
 30
0.0
 40
1.0
  1

  0
TEXT
  8
OBJECT
 10
356.529002
 20
433.517087
 30
0.0
 40
1.25
  1

  0
TEXT
  8
DIM
 10
372.942188
 20
591.580715
 30
0.0
 40
1.25
  1

  0
TEXT
  8
DIM
 10
374.004688
 20
587.486957
 30
0.0
 40
1.0
  1

  0
TEXT
  8
DIM
 10
380.056265
 20
592.127952
 30
0.0
 40
1.25
  1

  0
TEXT
  8
DIM
 10
381.118765
 20
588.034194
 30
0.0
 40
1.0
  1

  0
TEXT
  8
OBJECT
 10
381.975508
 20
638.730851
 30
0.0
 40
1.25
  1

  0
TEXT
  8
DIM
 10
508.724945
 20
410.328404
 30
0.0
 40
1.25
  1

  0
TEXT
  8
DIM
 10
509.787445
 20
406.234645
 30
0.0
 40
1.0
  1

  0
TEXT
  8
DIM
 10
231.910586
 20
218.639879
 30
0.0
 40
0.5
  1

  0
TEXT
  8
DIM
 10
214.488586
 20
236.536573
 30
0.0
 40
0.5
  1

  0
TEXT
  8
DIM
 10
247.557765
 20
231.054859
 30
0.0
 40
0.5
  1

  0
TEXT
  8
DIM
 10
250.085043
 20
229.311377
 30
0.0
 40
0.5
  1

  0
TEXT
  8
DIM
 10
191.852021
 20
209.686202
 30
0.0
 40
0.5
  1

  0
TEXT
  8
DIM
 10
201.911148
 20
213.602223
 30
0.0
 40
0.5
  1

  0
TEXT
  8
DIM
 10
231.182203
 20
223.708452
 30
0.0
 40
0.5
  1

  0
TEXT
  8
DIM
 10
212.432203
 20
223.708452
 30
0.0
 40
0.5
  1

  0
TEXT
  8
DIM
 10
228.015536
 20
215.564766
 30
0.0
 40
0.5
  1

  0
TEXT
  8
DIM
 10
118.788086
 20
208.869154
 30
0.0
 40
0.875
  1

 41
0.75
  7
TXT
 72
     2
 11
118.788086
 21
209.306654
 31
0.0
 73
     2
  0
TEXT
  8
DIM
 10
293.910586
 20
218.639879
 30
0.0
 40
0.5
  1

  0
TEXT
  8
DIM
 10
276.488586
 20
236.536573
 30
0.0
 40
0.5
  1

  0
TEXT
  8
DIM
 10
309.557765
 20
231.054859
 30
0.0
 40
0.5
  1

  0
TEXT
  8
DIM
 10
312.085043
 20
229.311377
 30
0.0
 40
0.5
  1

  0
TEXT
  8
DIM
 10
253.852021
 20
209.686202
 30
0.0
 40
0.5
  1

  0
TEXT
  8
DIM
 10
263.911148
 20
213.602223
 30
0.0
 40
0.5
  1

  0
TEXT
  8
DIM
 10
293.182203
 20
223.708452
 30
0.0
 40
0.5
  1

  0
TEXT
  8
DIM
 10
274.432203
 20
223.708452
 30
0.0
 40
0.5
  1

  0
TEXT
  8
DIM
 10
290.015536
 20
215.564766
 30
0.0
 40
0.5
  1

  0
TEXT
  8
DIM
 10
180.788086
 20
208.869154
 30
0.0
 40
0.875
  1

 41
0.75
  7
TXT
 72
     2
 11
180.788086
 21
209.306654
 31
0.0
 73
     2
  0
TEXT
  8
DIM
 10
86.765023
 20
328.015194
 30
0.0
 40
0.5
  1

  0
TEXT
  8
DIM
 10
69.343023
 20
345.911888
 30
0.0
 40
0.5
  1

  0
TEXT
  8
DIM
 10
102.412202
 20
340.430175
 30
0.0
 40
0.5
  1

  0
TEXT
  8
DIM
 10
104.93948
 20
338.686692
 30
0.0
 40
0.5
  1

  0
TEXT
  8
DIM
 10
46.706458
 20
319.061518
 30
0.0
 40
0.5
  1

  0
TEXT
  8
DIM
 10
56.765585
 20
322.977538
 30
0.0
 40
0.5
  1

  0
TEXT
  8
DIM
 10
86.03664
 20
333.083768
 30
0.0
 40
0.5
  1

  0
TEXT
  8
DIM
 10
67.28664
 20
333.083768
 30
0.0
 40
0.5
  1

  0
TEXT
  8
DIM
 10
82.869973
 20
324.940082
 30
0.0
 40
0.5
  1

  0
TEXT
  8
DIM
 10
313.933775
 20
376.533292
 30
0.0
 40
0.5
  1

  0
TEXT
  8
DIM
 10
296.511775
 20
394.429986
 30
0.0
 40
0.5
  1

  0
TEXT
  8
DIM
 10
329.580954
 20
388.948273
 30
0.0
 40
0.5
  1

  0
TEXT
  8
DIM
 10
332.108232
 20
387.20479
 30
0.0
 40
0.5
  1

  0
TEXT
  8
DIM
 10
273.87521
 20
367.579616
 30
0.0
 40
0.5
  1

  0
TEXT
  8
DIM
 10
283.934337
 20
371.495636
 30
0.0
 40
0.5
  1

  0
TEXT
  8
DIM
 10
313.205392
 20
381.601865
 30
0.0
 40
0.5
  1

  0
TEXT
  8
DIM
 10
294.455392
 20
381.601865
 30
0.0
 40
0.5
  1

  0
TEXT
  8
DIM
 10
310.038725
 20
373.458179
 30
0.0
 40
0.5
  1

  0
TEXT
  8
DIM
 10
200.811275
 20
366.762567
 30
0.0
 40
0.875
  1

 41
0.75
  7
TXT
 72
     2
 11
200.811275
 21
367.200067
 31
0.0
 73
     2
  0
TEXT
  8
DIM
 10
86.765023
 20
203.285194
 30
0.0
 40
0.5
  1

  0
TEXT
  8
DIM
 10
69.343023
 20
221.181888
 30
0.0
 40
0.5
  1

  0
TEXT
  8
DIM
 10
102.412202
 20
215.700175
 30
0.0
 40
0.5
  1

  0
TEXT
  8
DIM
 10
104.93948
 20
213.956692
 30
0.0
 40
0.5
  1

  0
TEXT
  8
DIM
 10
46.706458
 20
194.331518
 30
0.0
 40
0.5
  1

  0
TEXT
  8
DIM
 10
56.765585
 20
198.247538
 30
0.0
 40
0.5
  1

  0
TEXT
  8
DIM
 10
86.03664
 20
208.353768
 30
0.0
 40
0.5
  1

  0
TEXT
  8
DIM
 10
67.28664
 20
208.353768
 30
0.0
 40
0.5
  1

  0
TEXT
  8
DIM
 10
82.869973
 20
200.210082
 30
0.0
 40
0.5
  1

  0
TEXT
  8
DIM
 10
313.933775
 20
251.803292
 30
0.0
 40
0.5
  1

  0
TEXT
  8
DIM
 10
296.511775
 20
269.699986
 30
0.0
 40
0.5
  1

  0
TEXT
  8
DIM
 10
329.580954
 20
264.218273
 30
0.0
 40
0.5
  1

  0
TEXT
  8
DIM
 10
332.108232
 20
262.47479
 30
0.0
 40
0.5
  1

  0
TEXT
  8
DIM
 10
273.87521
 20
242.849616
 30
0.0
 40
0.5
  1

  0
TEXT
  8
DIM
 10
283.934337
 20
246.765636
 30
0.0
 40
0.5
  1

  0
TEXT
  8
DIM
 10
313.205392
 20
256.871865
 30
0.0
 40
0.5
  1

  0
TEXT
  8
DIM
 10
294.455392
 20
256.871865
 30
0.0
 40
0.5
  1

  0
TEXT
  8
DIM
 10
310.038725
 20
248.728179
 30
0.0
 40
0.5
  1

  0
TEXT
  8
DIM
 10
200.811275
 20
242.032567
 30
0.0
 40
0.875
  1

 41
0.75
  7
TXT
 72
     2
 11
200.811275
 21
242.470067
 31
0.0
 73
     2
  0
TEXT
  8
DIM
 10
259.681761
 20
198.719651
 30
-0.047
 40
0.5
  1

  0
TEXT
  8
DIM
 10
242.259761
 20
216.616345
 30
-0.047
 40
0.5
  1

  0
TEXT
  8
DIM
 10
275.32894
 20
211.134632
 30
-0.047
 40
0.5
  1

  0
TEXT
  8
DIM
 10
277.856218
 20
209.391149
 30
-0.047
 40
0.5
  1

  0
TEXT
  8
DIM
 10
219.623196
 20
189.765975
 30
-0.047
 40
0.5
  1

  0
TEXT
  8
DIM
 10
229.682323
 20
193.681995
 30
-0.047
 40
0.5
  1

  0
TEXT
  8
DIM
 10
258.953378
 20
203.788224
 30
-0.047
 40
0.5
  1

  0
TEXT
  8
DIM
 10
240.203378
 20
203.788224
 30
-0.047
 40
0.5
  1

  0
TEXT
  8
DIM
 10
255.786711
 20
195.644538
 30
-0.047
 40
0.5
  1

  0
TEXT
  8
DIM
 10
146.559261
 20
188.948926
 30
-0.047
 40
0.875
  1

 41
0.75
  7
TXT
 72
     2
 11
146.559261
 21
189.386426
 31
-0.047
 73
     2
  0
TEXT
  8
DIM
 10
321.681761
 20
198.719651
 30
-0.047
 40
0.5
  1

  0
TEXT
  8
DIM
 10
304.259761
 20
216.616345
 30
-0.047
 40
0.5
  1

  0
TEXT
  8
DIM
 10
337.32894
 20
211.134632
 30
-0.047
 40
0.5
  1

  0
TEXT
  8
DIM
 10
339.856218
 20
209.391149
 30
-0.047
 40
0.5
  1

  0
TEXT
  8
DIM
 10
281.623196
 20
189.765975
 30
-0.047
 40
0.5
  1

  0
TEXT
  8
DIM
 10
291.682323
 20
193.681995
 30
-0.047
 40
0.5
  1

  0
TEXT
  8
DIM
 10
320.953378
 20
203.788224
 30
-0.047
 40
0.5
  1

  0
TEXT
  8
DIM
 10
302.203378
 20
203.788224
 30
-0.047
 40
0.5
  1

  0
TEXT
  8
DIM
 10
317.786711
 20
195.644538
 30
-0.047
 40
0.5
  1

  0
TEXT
  8
DIM
 10
208.559261
 20
188.948926
 30
-0.047
 40
0.875
  1

 41
0.75
  7
TXT
 72
     2
 11
208.559261
 21
189.386426
 31
-0.047
 73
     2
  0
TEXT
  8
DIM
 10
86.765023
 20
187.285194
 30
0.0
 40
0.5
  1

  0
TEXT
  8
DIM
 10
69.343023
 20
205.181888
 30
0.0
 40
0.5
  1

  0
TEXT
  8
DIM
 10
102.412202
 20
199.700175
 30
0.0
 40
0.5
  1

  0
TEXT
  8
DIM
 10
104.93948
 20
197.956692
 30
0.0
 40
0.5
  1

  0
TEXT
  8
DIM
 10
46.706458
 20
178.331518
 30
0.0
 40
0.5
  1

  0
TEXT
  8
DIM
 10
56.765585
 20
182.247538
 30
0.0
 40
0.5
  1

  0
TEXT
  8
DIM
 10
86.03664
 20
192.353768
 30
0.0
 40
0.5
  1

  0
TEXT
  8
DIM
 10
67.28664
 20
192.353768
 30
0.0
 40
0.5
  1

  0
TEXT
  8
DIM
 10
82.869973
 20
184.210082
 30
0.0
 40
0.5
  1

  0
TEXT
  8
DIM
 10
313.933775
 20
235.803292
 30
0.0
 40
0.5
  1

  0
TEXT
  8
DIM
 10
296.511775
 20
253.699986
 30
0.0
 40
0.5
  1

  0
TEXT
  8
DIM
 10
329.580954
 20
248.218273
 30
0.0
 40
0.5
  1

  0
TEXT
  8
DIM
 10
332.108232
 20
246.47479
 30
0.0
 40
0.5
  1

  0
TEXT
  8
DIM
 10
273.87521
 20
226.849616
 30
0.0
 40
0.5
  1

  0
TEXT
  8
DIM
 10
283.934337
 20
230.765636
 30
0.0
 40
0.5
  1

  0
TEXT
  8
DIM
 10
313.205392
 20
240.871865
 30
0.0
 40
0.5
  1

  0
TEXT
  8
DIM
 10
294.455392
 20
240.871865
 30
0.0
 40
0.5
  1

  0
TEXT
  8
DIM
 10
310.038725
 20
232.728179
 30
0.0
 40
0.5
  1

  0
TEXT
  8
DIM
 10
200.811275
 20
226.032567
 30
0.0
 40
0.875
  1

 41
0.75
  7
TXT
 72
     2
 11
200.811275
 21
226.470067
 31
0.0
 73
     2
  0
TEXT
  8
DIM
 10
86.765023
 20
203.285194
 30
0.0
 40
0.5
  1

  0
TEXT
  8
DIM
 10
69.343023
 20
221.181888
 30
0.0
 40
0.5
  1

  0
TEXT
  8
DIM
 10
102.412202
 20
215.700175
 30
0.0
 40
0.5
  1

  0
TEXT
  8
DIM
 10
104.93948
 20
213.956692
 30
0.0
 40
0.5
  1

  0
TEXT
  8
DIM
 10
46.706458
 20
194.331518
 30
0.0
 40
0.5
  1

  0
TEXT
  8
DIM
 10
56.765585
 20
198.247538
 30
0.0
 40
0.5
  1

  0
TEXT
  8
DIM
 10
86.03664
 20
208.353768
 30
0.0
 40
0.5
  1

  0
TEXT
  8
DIM
 10
67.28664
 20
208.353768
 30
0.0
 40
0.5
  1

  0
TEXT
  8
DIM
 10
82.869973
 20
200.210082
 30
0.0
 40
0.5
  1

  0
TEXT
  8
DIM
 10
313.933775
 20
251.803292
 30
0.0
 40
0.5
  1

  0
TEXT
  8
DIM
 10
296.511775
 20
269.699986
 30
0.0
 40
0.5
  1

  0
TEXT
  8
DIM
 10
329.580954
 20
264.218273
 30
0.0
 40
0.5
  1

  0
TEXT
  8
DIM
 10
332.108232
 20
262.47479
 30
0.0
 40
0.5
  1

  0
TEXT
  8
DIM
 10
273.87521
 20
242.849616
 30
0.0
 40
0.5
  1

  0
TEXT
  8
DIM
 10
283.934337
 20
246.765636
 30
0.0
 40
0.5
  1

  0
TEXT
  8
DIM
 10
313.205392
 20
256.871865
 30
0.0
 40
0.5
  1

  0
TEXT
  8
DIM
 10
294.455392
 20
256.871865
 30
0.0
 40
0.5
  1

  0
TEXT
  8
DIM
 10
310.038725
 20
248.728179
 30
0.0
 40
0.5
  1

  0
TEXT
  8
DIM
 10
200.811275
 20
242.032567
 30
0.0
 40
0.875
  1

 41
0.75
  7
TXT
 72
     2
 11
200.811275
 21
242.470067
 31
0.0
 73
     2
  0
TEXT
  8
DIM
 10
313.910586
 20
218.639879
 30
0.0
 40
0.5
  1

  0
TEXT
  8
DIM
 10
296.488586
 20
236.536573
 30
0.0
 40
0.5
  1

  0
TEXT
  8
DIM
 10
329.557765
 20
231.054859
 30
0.0
 40
0.5
  1

  0
TEXT
  8
DIM
 10
332.085043
 20
229.311377
 30
0.0
 40
0.5
  1

  0
TEXT
  8
DIM
 10
273.852021
 20
209.686202
 30
0.0
 40
0.5
  1

  0
TEXT
  8
DIM
 10
283.911148
 20
213.602223
 30
0.0
 40
0.5
  1

  0
TEXT
  8
DIM
 10
313.182203
 20
223.708452
 30
0.0
 40
0.5
  1

  0
TEXT
  8
DIM
 10
294.432203
 20
223.708452
 30
0.0
 40
0.5
  1

  0
TEXT
  8
DIM
 10
310.015536
 20
215.564766
 30
0.0
 40
0.5
  1

  0
TEXT
  8
DIM
 10
200.788086
 20
208.869154
 30
0.0
 40
0.875
  1

 41
0.75
  7
TXT
 72
     2
 11
200.788086
 21
209.306654
 31
0.0
 73
     2
  0
TEXT
  8
DIM
 10
375.910586
 20
218.639879
 30
0.0
 40
0.5
  1

  0
TEXT
  8
DIM
 10
358.488586
 20
236.536573
 30
0.0
 40
0.5
  1

  0
TEXT
  8
DIM
 10
391.557765
 20
231.054859
 30
0.0
 40
0.5
  1

  0
TEXT
  8
DIM
 10
394.085043
 20
229.311377
 30
0.0
 40
0.5
  1

  0
TEXT
  8
DIM
 10
335.852021
 20
209.686202
 30
0.0
 40
0.5
  1

  0
TEXT
  8
DIM
 10
345.911148
 20
213.602223
 30
0.0
 40
0.5
  1

  0
TEXT
  8
DIM
 10
375.182203
 20
223.708452
 30
0.0
 40
0.5
  1

  0
TEXT
  8
DIM
 10
356.432203
 20
223.708452
 30
0.0
 40
0.5
  1

  0
TEXT
  8
DIM
 10
372.015536
 20
215.564766
 30
0.0
 40
0.5
  1

  0
TEXT
  8
DIM
 10
262.788086
 20
208.869154
 30
0.0
 40
0.875
  1

 41
0.75
  7
TXT
 72
     2
 11
262.788086
 21
209.306654
 31
0.0
 73
     2
  0
TEXT
  8
DIM
 10
337.584515
 20
218.238765
 30
0.0
 40
0.5
  1

  0
TEXT
  8
DIM
 10
320.162515
 20
236.135459
 30
0.0
 40
0.5
  1

  0
TEXT
  8
DIM
 10
353.231694
 20
230.653745
 30
0.0
 40
0.5
  1

  0
TEXT
  8
DIM
 10
355.758972
 20
228.910263
 30
0.0
 40
0.5
  1

  0
TEXT
  8
DIM
 10
297.52595
 20
209.285088
 30
0.0
 40
0.5
  1

  0
TEXT
  8
DIM
 10
307.585078
 20
213.201109
 30
0.0
 40
0.5
  1

  0
TEXT
  8
DIM
 10
336.856132
 20
223.307338
 30
0.0
 40
0.5
  1

  0
TEXT
  8
DIM
 10
318.106132
 20
223.307338
 30
0.0
 40
0.5
  1

  0
TEXT
  8
DIM
 10
333.689466
 20
215.163652
 30
0.0
 40
0.5
  1

  0
TEXT
  8
DIM
 10
224.462015
 20
208.46804
 30
0.0
 40
0.875
  1

 41
0.75
  7
TXT
 72
     2
 11
224.462015
 21
208.90554
 31
0.0
 73
     2
  0
TEXT
  8
DIM
 10
399.584515
 20
218.238765
 30
0.0
 40
0.5
  1

  0
TEXT
  8
DIM
 10
382.162515
 20
236.135459
 30
0.0
 40
0.5
  1

  0
TEXT
  8
DIM
 10
415.231694
 20
230.653745
 30
0.0
 40
0.5
  1

  0
TEXT
  8
DIM
 10
417.758972
 20
228.910263
 30
0.0
 40
0.5
  1

  0
TEXT
  8
DIM
 10
359.52595
 20
209.285088
 30
0.0
 40
0.5
  1

  0
TEXT
  8
DIM
 10
369.585078
 20
213.201109
 30
0.0
 40
0.5
  1

  0
TEXT
  8
DIM
 10
398.856132
 20
223.307338
 30
0.0
 40
0.5
  1

  0
TEXT
  8
DIM
 10
380.106132
 20
223.307338
 30
0.0
 40
0.5
  1

  0
TEXT
  8
DIM
 10
395.689466
 20
215.163652
 30
0.0
 40
0.5
  1

  0
TEXT
  8
DIM
 10
286.462015
 20
208.46804
 30
0.0
 40
0.875
  1

 41
0.75
  7
TXT
 72
     2
 11
286.462015
 21
208.90554
 31
0.0
 73
     2
  0
TEXT
  8
DIM
 10
399.584515
 20
218.238765
 30
0.0
 40
0.5
  1

  0
TEXT
  8
DIM
 10
382.162515
 20
236.135459
 30
0.0
 40
0.5
  1

  0
TEXT
  8
DIM
 10
415.231694
 20
230.653745
 30
0.0
 40
0.5
  1

  0
TEXT
  8
DIM
 10
417.758972
 20
228.910263
 30
0.0
 40
0.5
  1

  0
TEXT
  8
DIM
 10
359.52595
 20
209.285088
 30
0.0
 40
0.5
  1

  0
TEXT
  8
DIM
 10
369.585078
 20
213.201109
 30
0.0
 40
0.5
  1

  0
TEXT
  8
DIM
 10
398.856132
 20
223.307338
 30
0.0
 40
0.5
  1

  0
TEXT
  8
DIM
 10
380.106132
 20
223.307338
 30
0.0
 40
0.5
  1

  0
TEXT
  8
DIM
 10
395.689466
 20
215.163652
 30
0.0
 40
0.5
  1

  0
TEXT
  8
DIM
 10
286.462015
 20
208.46804
 30
0.0
 40
0.875
  1

 41
0.75
  7
TXT
 72
     2
 11
286.462015
 21
208.90554
 31
0.0
 73
     2
  0
TEXT
  8
DIM
 10
158.515023
 20
187.285194
 30
0.0
 40
0.5
  1

  0
TEXT
  8
DIM
 10
141.093023
 20
205.181888
 30
0.0
 40
0.5
  1

  0
TEXT
  8
DIM
 10
174.162202
 20
199.700175
 30
0.0
 40
0.5
  1

  0
TEXT
  8
DIM
 10
176.68948
 20
197.956692
 30
0.0
 40
0.5
  1

  0
TEXT
  8
DIM
 10
118.456458
 20
178.331518
 30
0.0
 40
0.5
  1

  0
TEXT
  8
DIM
 10
128.515585
 20
182.247538
 30
0.0
 40
0.5
  1

  0
TEXT
  8
DIM
 10
157.78664
 20
192.353768
 30
0.0
 40
0.5
  1

  0
TEXT
  8
DIM
 10
139.03664
 20
192.353768
 30
0.0
 40
0.5
  1

  0
TEXT
  8
DIM
 10
154.619973
 20
184.210082
 30
0.0
 40
0.5
  1

  0
TEXT
  8
DIM
 10
385.683775
 20
235.803292
 30
0.0
 40
0.5
  1

  0
TEXT
  8
DIM
 10
368.261775
 20
253.699986
 30
0.0
 40
0.5
  1

  0
TEXT
  8
DIM
 10
401.330954
 20
248.218273
 30
0.0
 40
0.5
  1

  0
TEXT
  8
DIM
 10
403.858232
 20
246.47479
 30
0.0
 40
0.5
  1

  0
TEXT
  8
DIM
 10
345.62521
 20
226.849616
 30
0.0
 40
0.5
  1

  0
TEXT
  8
DIM
 10
355.684337
 20
230.765636
 30
0.0
 40
0.5
  1

  0
TEXT
  8
DIM
 10
384.955392
 20
240.871865
 30
0.0
 40
0.5
  1

  0
TEXT
  8
DIM
 10
366.205392
 20
240.871865
 30
0.0
 40
0.5
  1

  0
TEXT
  8
DIM
 10
381.788725
 20
232.728179
 30
0.0
 40
0.5
  1

  0
TEXT
  8
DIM
 10
272.561275
 20
226.032567
 30
0.0
 40
0.875
  1

 41
0.75
  7
TXT
 72
     2
 11
272.561275
 21
226.470067
 31
0.0
 73
     2
  0
TEXT
  8
DIM
 10
158.515023
 20
203.285194
 30
0.0
 40
0.5
  1

  0
TEXT
  8
DIM
 10
141.093023
 20
221.181888
 30
0.0
 40
0.5
  1

  0
TEXT
  8
DIM
 10
174.162202
 20
215.700175
 30
0.0
 40
0.5
  1

  0
TEXT
  8
DIM
 10
176.68948
 20
213.956692
 30
0.0
 40
0.5
  1

  0
TEXT
  8
DIM
 10
118.456458
 20
194.331518
 30
0.0
 40
0.5
  1

  0
TEXT
  8
DIM
 10
128.515585
 20
198.247538
 30
0.0
 40
0.5
  1

  0
TEXT
  8
DIM
 10
157.78664
 20
208.353768
 30
0.0
 40
0.5
  1

  0
TEXT
  8
DIM
 10
139.03664
 20
208.353768
 30
0.0
 40
0.5
  1

  0
TEXT
  8
DIM
 10
154.619973
 20
200.210082
 30
0.0
 40
0.5
  1

  0
TEXT
  8
DIM
 10
385.683775
 20
251.803292
 30
0.0
 40
0.5
  1

  0
TEXT
  8
DIM
 10
368.261775
 20
269.699986
 30
0.0
 40
0.5
  1

  0
TEXT
  8
DIM
 10
401.330954
 20
264.218273
 30
0.0
 40
0.5
  1

  0
TEXT
  8
DIM
 10
403.858232
 20
262.47479
 30
0.0
 40
0.5
  1

  0
TEXT
  8
DIM
 10
345.62521
 20
242.849616
 30
0.0
 40
0.5
  1

  0
TEXT
  8
DIM
 10
355.684337
 20
246.765636
 30
0.0
 40
0.5
  1

  0
TEXT
  8
DIM
 10
384.955392
 20
256.871865
 30
0.0
 40
0.5
  1

  0
TEXT
  8
DIM
 10
366.205392
 20
256.871865
 30
0.0
 40
0.5
  1

  0
TEXT
  8
DIM
 10
381.788725
 20
248.728179
 30
0.0
 40
0.5
  1

  0
TEXT
  8
DIM
 10
272.561275
 20
242.032567
 30
0.0
 40
0.875
  1

 41
0.75
  7
TXT
 72
     2
 11
272.561275
 21
242.470067
 31
0.0
 73
     2
  0
TEXT
  8
DIM
 10
385.660586
 20
218.639879
 30
0.0
 40
0.5
  1

  0
TEXT
  8
DIM
 10
368.238586
 20
236.536573
 30
0.0
 40
0.5
  1

  0
TEXT
  8
DIM
 10
401.307765
 20
231.054859
 30
0.0
 40
0.5
  1

  0
TEXT
  8
DIM
 10
403.835043
 20
229.311377
 30
0.0
 40
0.5
  1

  0
TEXT
  8
DIM
 10
345.602021
 20
209.686202
 30
0.0
 40
0.5
  1

  0
TEXT
  8
DIM
 10
355.661148
 20
213.602223
 30
0.0
 40
0.5
  1

  0
TEXT
  8
DIM
 10
384.932203
 20
223.708452
 30
0.0
 40
0.5
  1

  0
TEXT
  8
DIM
 10
366.182203
 20
223.708452
 30
0.0
 40
0.5
  1

  0
TEXT
  8
DIM
 10
381.765536
 20
215.564766
 30
0.0
 40
0.5
  1

  0
TEXT
  8
DIM
 10
272.538086
 20
208.869154
 30
0.0
 40
0.875
  1

 41
0.75
  7
TXT
 72
     2
 11
272.538086
 21
209.306654
 31
0.0
 73
     2
  0
TEXT
  8
DIM
 10
447.660586
 20
218.639879
 30
0.0
 40
0.5
  1

  0
TEXT
  8
DIM
 10
430.238586
 20
236.536573
 30
0.0
 40
0.5
  1

  0
TEXT
  8
DIM
 10
463.307765
 20
231.054859
 30
0.0
 40
0.5
  1

  0
TEXT
  8
DIM
 10
465.835043
 20
229.311377
 30
0.0
 40
0.5
  1

  0
TEXT
  8
DIM
 10
407.602021
 20
209.686202
 30
0.0
 40
0.5
  1

  0
TEXT
  8
DIM
 10
417.661148
 20
213.602223
 30
0.0
 40
0.5
  1

  0
TEXT
  8
DIM
 10
446.932203
 20
223.708452
 30
0.0
 40
0.5
  1

  0
TEXT
  8
DIM
 10
428.182203
 20
223.708452
 30
0.0
 40
0.5
  1

  0
TEXT
  8
DIM
 10
443.765536
 20
215.564766
 30
0.0
 40
0.5
  1

  0
TEXT
  8
DIM
 10
334.538086
 20
208.869154
 30
0.0
 40
0.875
  1

 41
0.75
  7
TXT
 72
     2
 11
334.538086
 21
209.306654
 31
0.0
 73
     2
  0
TEXT
  8
DIM
 10
406.213658
 20
214.940714
 30
0.0
 40
0.5
  1

  0
TEXT
  8
DIM
 10
388.791658
 20
232.837408
 30
0.0
 40
0.5
  1

  0
TEXT
  8
DIM
 10
421.860837
 20
227.355695
 30
0.0
 40
0.5
  1

  0
TEXT
  8
DIM
 10
424.388115
 20
225.612212
 30
0.0
 40
0.5
  1

  0
TEXT
  8
DIM
 10
366.155093
 20
205.987038
 30
0.0
 40
0.5
  1

  0
TEXT
  8
DIM
 10
376.214221
 20
209.903058
 30
0.0
 40
0.5
  1

  0
TEXT
  8
DIM
 10
405.485275
 20
220.009288
 30
0.0
 40
0.5
  1

  0
TEXT
  8
DIM
 10
386.735275
 20
220.009288
 30
0.0
 40
0.5
  1

  0
TEXT
  8
DIM
 10
402.318609
 20
211.865602
 30
0.0
 40
0.5
  1

  0
TEXT
  8
DIM
 10
293.091158
 20
205.169989
 30
0.0
 40
0.875
  1

 41
0.75
  7
TXT
 72
     2
 11
293.091158
 21
205.607489
 31
0.0
 73
     2
  0
TEXT
  8
DIM
 10
468.213658
 20
214.940714
 30
0.0
 40
0.5
  1

  0
TEXT
  8
DIM
 10
450.791658
 20
232.837408
 30
0.0
 40
0.5
  1

  0
TEXT
  8
DIM
 10
483.860837
 20
227.355695
 30
0.0
 40
0.5
  1

  0
TEXT
  8
DIM
 10
486.388115
 20
225.612212
 30
0.0
 40
0.5
  1

  0
TEXT
  8
DIM
 10
428.155093
 20
205.987038
 30
0.0
 40
0.5
  1

  0
TEXT
  8
DIM
 10
438.214221
 20
209.903058
 30
0.0
 40
0.5
  1

  0
TEXT
  8
DIM
 10
467.485275
 20
220.009288
 30
0.0
 40
0.5
  1

  0
TEXT
  8
DIM
 10
448.735275
 20
220.009288
 30
0.0
 40
0.5
  1

  0
TEXT
  8
DIM
 10
464.318609
 20
211.865602
 30
0.0
 40
0.5
  1

  0
TEXT
  8
DIM
 10
355.091158
 20
205.169989
 30
0.0
 40
0.875
  1

 41
0.75
  7
TXT
 72
     2
 11
355.091158
 21
205.607489
 31
0.0
 73
     2
  0
TEXT
  8
DIM
 10
56.24886
 20
173.15414
 30
-0.047
 40
0.5
  1

  0
TEXT
  8
DIM
 10
38.82686
 20
191.050834
 30
-0.047
 40
0.5
  1

  0
TEXT
  8
DIM
 10
71.896039
 20
185.569121
 30
-0.047
 40
0.5
  1

  0
TEXT
  8
DIM
 10
74.423317
 20
183.825638
 30
-0.047
 40
0.5
  1

  0
TEXT
  8
DIM
 10
16.190295
 20
164.200464
 30
-0.047
 40
0.5
  1

  0
TEXT
  8
DIM
 10
26.249422
 20
168.116484
 30
-0.047
 40
0.5
  1

  0
TEXT
  8
DIM
 10
55.520477
 20
178.222714
 30
-0.047
 40
0.5
  1

  0
TEXT
  8
DIM
 10
36.770477
 20
178.222714
 30
-0.047
 40
0.5
  1

  0
TEXT
  8
DIM
 10
52.35381
 20
170.079027
 30
-0.047
 40
0.5
  1

  0
TEXT
  8
DIM
 10
283.417612
 20
221.672238
 30
-0.047
 40
0.5
  1

  0
TEXT
  8
DIM
 10
265.995612
 20
239.568932
 30
-0.047
 40
0.5
  1

  0
TEXT
  8
DIM
 10
299.064791
 20
234.087218
 30
-0.047
 40
0.5
  1

  0
TEXT
  8
DIM
 10
301.592069
 20
232.343736
 30
-0.047
 40
0.5
  1

  0
TEXT
  8
DIM
 10
243.359047
 20
212.718562
 30
-0.047
 40
0.5
  1

  0
TEXT
  8
DIM
 10
253.418174
 20
216.634582
 30
-0.047
 40
0.5
  1

  0
TEXT
  8
DIM
 10
282.689229
 20
226.740811
 30
-0.047
 40
0.5
  1

  0
TEXT
  8
DIM
 10
263.939229
 20
226.740811
 30
-0.047
 40
0.5
  1

  0
TEXT
  8
DIM
 10
279.522562
 20
218.597125
 30
-0.047
 40
0.5
  1

  0
TEXT
  8
DIM
 10
170.295112
 20
211.901513
 30
-0.047
 40
0.875
  1

 41
0.75
  7
TXT
 72
     2
 11
170.295112
 21
212.339013
 31
-0.047
 73
     2
  0
TEXT
  8
DIM
 10
86.765023
 20
181.225194
 30
0.0
 40
0.5
  1

  0
TEXT
  8
DIM
 10
69.343023
 20
199.121888
 30
0.0
 40
0.5
  1

  0
TEXT
  8
DIM
 10
102.412202
 20
193.640175
 30
0.0
 40
0.5
  1

  0
TEXT
  8
DIM
 10
104.93948
 20
191.896692
 30
0.0
 40
0.5
  1

  0
TEXT
  8
DIM
 10
46.706458
 20
172.271518
 30
0.0
 40
0.5
  1

  0
TEXT
  8
DIM
 10
56.765585
 20
176.187538
 30
0.0
 40
0.5
  1

  0
TEXT
  8
DIM
 10
86.03664
 20
186.293768
 30
0.0
 40
0.5
  1

  0
TEXT
  8
DIM
 10
67.28664
 20
186.293768
 30
0.0
 40
0.5
  1

  0
TEXT
  8
DIM
 10
82.869973
 20
178.150082
 30
0.0
 40
0.5
  1

  0
TEXT
  8
DIM
 10
313.933775
 20
229.743292
 30
0.0
 40
0.5
  1

  0
TEXT
  8
DIM
 10
296.511775
 20
247.639986
 30
0.0
 40
0.5
  1

  0
TEXT
  8
DIM
 10
329.580954
 20
242.158273
 30
0.0
 40
0.5
  1

  0
TEXT
  8
DIM
 10
332.108232
 20
240.41479
 30
0.0
 40
0.5
  1

  0
TEXT
  8
DIM
 10
273.87521
 20
220.789616
 30
0.0
 40
0.5
  1

  0
TEXT
  8
DIM
 10
283.934337
 20
224.705636
 30
0.0
 40
0.5
  1

  0
TEXT
  8
DIM
 10
313.205392
 20
234.811865
 30
0.0
 40
0.5
  1

  0
TEXT
  8
DIM
 10
294.455392
 20
234.811865
 30
0.0
 40
0.5
  1

  0
TEXT
  8
DIM
 10
310.038725
 20
226.668179
 30
0.0
 40
0.5
  1

  0
TEXT
  8
DIM
 10
200.811275
 20
219.972567
 30
0.0
 40
0.875
  1

 41
0.75
  7
TXT
 72
     2
 11
200.811275
 21
220.410067
 31
0.0
 73
     2
  0
TEXT
  8
DIM
 10
226.188727
 20
180.016553
 30
0.047
 40
1.25
  1

  0
TEXT
  8
DIM
 10
227.251227
 20
175.922794
 30
0.047
 40
1.0
  1

  0
TEXT
  8
OBJECT
 10
228.10797
 20
226.619452
 30
0.047
 40
1.25
  1

  0
TEXT
  8
DIM
 10
226.188727
 20
515.536553
 30
0.047
 40
1.25
  1

  0
TEXT
  8
DIM
 10
227.251227
 20
511.442794
 30
0.047
 40
1.0
  1

  0
TEXT
  8
OBJECT
 10
228.10797
 20
562.139452
 30
0.047
 40
1.25
  1

  0
TEXT
  8
DIM
 10
244.521157
 20
720.20308
 30
0.047
 40
1.25
  1

  0
TEXT
  8
DIM
 10
245.583657
 20
716.109322
 30
0.047
 40
1.0
  1

  0
TEXT
  8
DIM
 10
251.635234
 20
720.750317
 30
0.047
 40
1.25
  1

  0
TEXT
  8
DIM
 10
252.697734
 20
716.656559
 30
0.047
 40
1.0
  1

  0
TEXT
  8
OBJECT
 10
253.554477
 20
767.353216
 30
0.047
 40
1.25
  1

  0
TEXT
  8
DIM
 10
226.188727
 20
515.536553
 30
0.047
 40
1.25
  1

  0
TEXT
  8
DIM
 10
227.251227
 20
511.442794
 30
0.047
 40
1.0
  1

  0
TEXT
  8
OBJECT
 10
228.10797
 20
562.139452
 30
0.047
 40
1.25
  1

  0
TEXT
  8
DIM
 10
244.521157
 20
720.20308
 30
0.047
 40
1.25
  1

  0
TEXT
  8
DIM
 10
245.583657
 20
716.109322
 30
0.047
 40
1.0
  1

  0
TEXT
  8
DIM
 10
251.635234
 20
720.750317
 30
0.047
 40
1.25
  1

  0
TEXT
  8
DIM
 10
252.697734
 20
716.656559
 30
0.047
 40
1.0
  1

  0
TEXT
  8
OBJECT
 10
253.554477
 20
767.353216
 30
0.047
 40
1.25
  1

  0
TEXT
  8
DIM
 10
333.911027
 20
386.639868
 30
0.047
 40
1.25
  1

  0
TEXT
  8
DIM
 10
334.973527
 20
382.54611
 30
0.047
 40
1.0
  1

  0
TEXT
  8
DIM
 10
497.911027
 20
386.639868
 30
0.047
 40
1.25
  1

  0
TEXT
  8
DIM
 10
498.973527
 20
382.54611
 30
0.047
 40
1.0
  1

  0
TEXT
  8
OBJECT
 10
499.83027
 20
433.242768
 30
0.047
 40
1.25
  1

  0
TEXT
  8
DIM
 10
516.243456
 20
591.306396
 30
0.047
 40
1.25
  1

  0
TEXT
  8
DIM
 10
517.305956
 20
587.212637
 30
0.047
 40
1.0
  1

  0
TEXT
  8
DIM
 10
523.357533
 20
591.853633
 30
0.047
 40
1.25
  1

  0
TEXT
  8
DIM
 10
524.420033
 20
587.759874
 30
0.047
 40
1.0
  1

  0
TEXT
  8
OBJECT
 10
525.276777
 20
638.456532
 30
0.047
 40
1.25
  1

  0
TEXT
  8
DIM
 10
652.026213
 20
410.054084
 30
0.047
 40
1.25
  1

  0
TEXT
  8
DIM
 10
653.088713
 20
405.960326
 30
0.047
 40
1.0
  1

  0
TEXT
  8
DIM
 10
375.211854
 20
218.365559
 30
0.047
 40
0.5
  1

  0
TEXT
  8
DIM
 10
357.789854
 20
236.262253
 30
0.047
 40
0.5
  1

  0
TEXT
  8
DIM
 10
390.859033
 20
230.78054
 30
0.047
 40
0.5
  1

  0
TEXT
  8
DIM
 10
393.386312
 20
229.037057
 30
0.047
 40
0.5
  1

  0
TEXT
  8
DIM
 10
335.153289
 20
209.411883
 30
0.047
 40
0.5
  1

  0
TEXT
  8
DIM
 10
345.212417
 20
213.327903
 30
0.047
 40
0.5
  1

  0
TEXT
  8
DIM
 10
374.483472
 20
223.434133
 30
0.047
 40
0.5
  1

  0
TEXT
  8
DIM
 10
355.733472
 20
223.434133
 30
0.047
 40
0.5
  1

  0
TEXT
  8
DIM
 10
371.316805
 20
215.290447
 30
0.047
 40
0.5
  1

  0
TEXT
  8
DIM
 10
262.089354
 20
208.594834
 30
0.047
 40
0.875
  1

 41
0.75
  7
TXT
 72
     2
 11
262.089354
 21
209.032334
 31
0.047
 73
     2
  0
TEXT
  8
DIM
 10
437.211854
 20
218.365559
 30
0.047
 40
0.5
  1

  0
TEXT
  8
DIM
 10
419.789854
 20
236.262253
 30
0.047
 40
0.5
  1

  0
TEXT
  8
DIM
 10
452.859033
 20
230.78054
 30
0.047
 40
0.5
  1

  0
TEXT
  8
DIM
 10
455.386312
 20
229.037057
 30
0.047
 40
0.5
  1

  0
TEXT
  8
DIM
 10
397.153289
 20
209.411883
 30
0.047
 40
0.5
  1

  0
TEXT
  8
DIM
 10
407.212417
 20
213.327903
 30
0.047
 40
0.5
  1

  0
TEXT
  8
DIM
 10
436.483472
 20
223.434133
 30
0.047
 40
0.5
  1

  0
TEXT
  8
DIM
 10
417.733472
 20
223.434133
 30
0.047
 40
0.5
  1

  0
TEXT
  8
DIM
 10
433.316805
 20
215.290447
 30
0.047
 40
0.5
  1

  0
TEXT
  8
DIM
 10
324.089354
 20
208.594834
 30
0.047
 40
0.875
  1

 41
0.75
  7
TXT
 72
     2
 11
324.089354
 21
209.032334
 31
0.047
 73
     2
  0
TEXT
  8
DIM
 10
230.066291
 20
327.740875
 30
0.047
 40
0.5
  1

  0
TEXT
  8
DIM
 10
212.644291
 20
345.637569
 30
0.047
 40
0.5
  1

  0
TEXT
  8
DIM
 10
245.713471
 20
340.155856
 30
0.047
 40
0.5
  1

  0
TEXT
  8
DIM
 10
248.240749
 20
338.412373
 30
0.047
 40
0.5
  1

  0
TEXT
  8
DIM
 10
190.007726
 20
318.787199
 30
0.047
 40
0.5
  1

  0
TEXT
  8
DIM
 10
200.066854
 20
322.703219
 30
0.047
 40
0.5
  1

  0
TEXT
  8
DIM
 10
229.337909
 20
332.809448
 30
0.047
 40
0.5
  1

  0
TEXT
  8
DIM
 10
210.587909
 20
332.809448
 30
0.047
 40
0.5
  1

  0
TEXT
  8
DIM
 10
226.171242
 20
324.665762
 30
0.047
 40
0.5
  1

  0
TEXT
  8
DIM
 10
457.235043
 20
376.258973
 30
0.047
 40
0.5
  1

  0
TEXT
  8
DIM
 10
439.813043
 20
394.155666
 30
0.047
 40
0.5
  1

  0
TEXT
  8
DIM
 10
472.882223
 20
388.673953
 30
0.047
 40
0.5
  1

  0
TEXT
  8
DIM
 10
475.409501
 20
386.93047
 30
0.047
 40
0.5
  1

  0
TEXT
  8
DIM
 10
417.176478
 20
367.305296
 30
0.047
 40
0.5
  1

  0
TEXT
  8
DIM
 10
427.235606
 20
371.221317
 30
0.047
 40
0.5
  1

  0
TEXT
  8
DIM
 10
456.506661
 20
381.327546
 30
0.047
 40
0.5
  1

  0
TEXT
  8
DIM
 10
437.756661
 20
381.327546
 30
0.047
 40
0.5
  1

  0
TEXT
  8
DIM
 10
453.339994
 20
373.18386
 30
0.047
 40
0.5
  1

  0
TEXT
  8
DIM
 10
344.112543
 20
366.488248
 30
0.047
 40
0.875
  1

 41
0.75
  7
TXT
 72
     2
 11
344.112543
 21
366.925748
 31
0.047
 73
     2
  0
TEXT
  8
DIM
 10
230.066291
 20
203.010875
 30
0.047
 40
0.5
  1

  0
TEXT
  8
DIM
 10
212.644291
 20
220.907569
 30
0.047
 40
0.5
  1

  0
TEXT
  8
DIM
 10
245.713471
 20
215.425856
 30
0.047
 40
0.5
  1

  0
TEXT
  8
DIM
 10
248.240749
 20
213.682373
 30
0.047
 40
0.5
  1

  0
TEXT
  8
DIM
 10
190.007726
 20
194.057199
 30
0.047
 40
0.5
  1

  0
TEXT
  8
DIM
 10
200.066854
 20
197.973219
 30
0.047
 40
0.5
  1

  0
TEXT
  8
DIM
 10
229.337909
 20
208.079448
 30
0.047
 40
0.5
  1

  0
TEXT
  8
DIM
 10
210.587909
 20
208.079448
 30
0.047
 40
0.5
  1

  0
TEXT
  8
DIM
 10
226.171242
 20
199.935762
 30
0.047
 40
0.5
  1

  0
TEXT
  8
DIM
 10
457.235043
 20
251.528973
 30
0.047
 40
0.5
  1

  0
TEXT
  8
DIM
 10
439.813043
 20
269.425666
 30
0.047
 40
0.5
  1

  0
TEXT
  8
DIM
 10
472.882223
 20
263.943953
 30
0.047
 40
0.5
  1

  0
TEXT
  8
DIM
 10
475.409501
 20
262.20047
 30
0.047
 40
0.5
  1

  0
TEXT
  8
DIM
 10
417.176478
 20
242.575296
 30
0.047
 40
0.5
  1

  0
TEXT
  8
DIM
 10
427.235606
 20
246.491317
 30
0.047
 40
0.5
  1

  0
TEXT
  8
DIM
 10
456.506661
 20
256.597546
 30
0.047
 40
0.5
  1

  0
TEXT
  8
DIM
 10
437.756661
 20
256.597546
 30
0.047
 40
0.5
  1

  0
TEXT
  8
DIM
 10
453.339994
 20
248.45386
 30
0.047
 40
0.5
  1

  0
TEXT
  8
DIM
 10
344.112543
 20
241.758248
 30
0.047
 40
0.875
  1

 41
0.75
  7
TXT
 72
     2
 11
344.112543
 21
242.195748
 31
0.047
 73
     2
  0
TEXT
  8
DIM
 10
402.983029
 20
198.445332
 30
0.0
 40
0.5
  1

  0
TEXT
  8
DIM
 10
385.561029
 20
216.342025
 30
0.0
 40
0.5
  1

  0
TEXT
  8
DIM
 10
418.630208
 20
210.860312
 30
0.0
 40
0.5
  1

  0
TEXT
  8
DIM
 10
421.157487
 20
209.116829
 30
0.0
 40
0.5
  1

  0
TEXT
  8
DIM
 10
362.924464
 20
189.491655
 30
0.0
 40
0.5
  1

  0
TEXT
  8
DIM
 10
372.983592
 20
193.407676
 30
0.0
 40
0.5
  1

  0
TEXT
  8
DIM
 10
402.254647
 20
203.513905
 30
0.0
 40
0.5
  1

  0
TEXT
  8
DIM
 10
383.504647
 20
203.513905
 30
0.0
 40
0.5
  1

  0
TEXT
  8
DIM
 10
399.08798
 20
195.370219
 30
0.0
 40
0.5
  1

  0
TEXT
  8
DIM
 10
289.860529
 20
188.674607
 30
0.0
 40
0.875
  1

 41
0.75
  7
TXT
 72
     2
 11
289.860529
 21
189.112107
 31
0.0
 73
     2
  0
TEXT
  8
DIM
 10
464.983029
 20
198.445332
 30
0.0
 40
0.5
  1

  0
TEXT
  8
DIM
 10
447.561029
 20
216.342025
 30
0.0
 40
0.5
  1

  0
TEXT
  8
DIM
 10
480.630208
 20
210.860312
 30
0.0
 40
0.5
  1

  0
TEXT
  8
DIM
 10
483.157487
 20
209.116829
 30
0.0
 40
0.5
  1

  0
TEXT
  8
DIM
 10
424.924464
 20
189.491655
 30
0.0
 40
0.5
  1

  0
TEXT
  8
DIM
 10
434.983592
 20
193.407676
 30
0.0
 40
0.5
  1

  0
TEXT
  8
DIM
 10
464.254647
 20
203.513905
 30
0.0
 40
0.5
  1

  0
TEXT
  8
DIM
 10
445.504647
 20
203.513905
 30
0.0
 40
0.5
  1

  0
TEXT
  8
DIM
 10
461.08798
 20
195.370219
 30
0.0
 40
0.5
  1

  0
TEXT
  8
DIM
 10
351.860529
 20
188.674607
 30
0.0
 40
0.875
  1

 41
0.75
  7
TXT
 72
     2
 11
351.860529
 21
189.112107
 31
0.0
 73
     2
  0
TEXT
  8
DIM
 10
216.998227
 20
184.147553
 30
0.047
 40
1.25
  1

  0
TEXT
  8
DIM
 10
218.060727
 20
180.053794
 30
0.047
 40
1.0
  1

  0
TEXT
  8
OBJECT
 10
218.91747
 20
230.750452
 30
0.047
 40
1.25
  1

  0
TEXT
  8
DIM
 10
216.998227
 20
519.667553
 30
0.047
 40
1.25
  1

  0
TEXT
  8
DIM
 10
218.060727
 20
515.573794
 30
0.047
 40
1.0
  1

  0
TEXT
  8
OBJECT
 10
218.91747
 20
566.270452
 30
0.047
 40
1.25
  1

  0
TEXT
  8
DIM
 10
235.330657
 20
724.33408
 30
0.047
 40
1.25
  1

  0
TEXT
  8
DIM
 10
236.393157
 20
720.240322
 30
0.047
 40
1.0
  1

  0
TEXT
  8
DIM
 10
242.444734
 20
724.881317
 30
0.047
 40
1.25
  1

  0
TEXT
  8
DIM
 10
243.507234
 20
720.787559
 30
0.047
 40
1.0
  1

  0
TEXT
  8
OBJECT
 10
244.363977
 20
771.484216
 30
0.047
 40
1.25
  1

  0
TEXT
  8
DIM
 10
216.998227
 20
519.667553
 30
0.047
 40
1.25
  1

  0
TEXT
  8
DIM
 10
218.060727
 20
515.573794
 30
0.047
 40
1.0
  1

  0
TEXT
  8
OBJECT
 10
218.91747
 20
566.270452
 30
0.047
 40
1.25
  1

  0
TEXT
  8
DIM
 10
235.330657
 20
724.33408
 30
0.047
 40
1.25
  1

  0
TEXT
  8
DIM
 10
236.393157
 20
720.240322
 30
0.047
 40
1.0
  1

  0
TEXT
  8
DIM
 10
242.444734
 20
724.881317
 30
0.047
 40
1.25
  1

  0
TEXT
  8
DIM
 10
243.507234
 20
720.787559
 30
0.047
 40
1.0
  1

  0
TEXT
  8
OBJECT
 10
244.363977
 20
771.484216
 30
0.047
 40
1.25
  1

  0
TEXT
  8
DIM
 10
324.720527
 20
390.770868
 30
0.047
 40
1.25
  1

  0
TEXT
  8
DIM
 10
325.783027
 20
386.67711
 30
0.047
 40
1.0
  1

  0
TEXT
  8
DIM
 10
488.720527
 20
390.770868
 30
0.047
 40
1.25
  1

  0
TEXT
  8
DIM
 10
489.783027
 20
386.67711
 30
0.047
 40
1.0
  1

  0
TEXT
  8
OBJECT
 10
490.63977
 20
437.373768
 30
0.047
 40
1.25
  1

  0
TEXT
  8
DIM
 10
507.052956
 20
595.437396
 30
0.047
 40
1.25
  1

  0
TEXT
  8
DIM
 10
508.115456
 20
591.343637
 30
0.047
 40
1.0
  1

  0
TEXT
  8
DIM
 10
514.167033
 20
595.984633
 30
0.047
 40
1.25
  1

  0
TEXT
  8
DIM
 10
515.229533
 20
591.890874
 30
0.047
 40
1.0
  1

  0
TEXT
  8
OBJECT
 10
516.086277
 20
642.587532
 30
0.047
 40
1.25
  1

  0
TEXT
  8
DIM
 10
642.835713
 20
414.185084
 30
0.047
 40
1.25
  1

  0
TEXT
  8
DIM
 10
643.898213
 20
410.091326
 30
0.047
 40
1.0
  1

  0
TEXT
  8
DIM
 10
366.021354
 20
222.496559
 30
0.047
 40
0.5
  1

  0
TEXT
  8
DIM
 10
348.599354
 20
240.393253
 30
0.047
 40
0.5
  1

  0
TEXT
  8
DIM
 10
381.668533
 20
234.91154
 30
0.047
 40
0.5
  1

  0
TEXT
  8
DIM
 10
384.195812
 20
233.168057
 30
0.047
 40
0.5
  1

  0
TEXT
  8
DIM
 10
325.962789
 20
213.542883
 30
0.047
 40
0.5
  1

  0
TEXT
  8
DIM
 10
336.021917
 20
217.458903
 30
0.047
 40
0.5
  1

  0
TEXT
  8
DIM
 10
365.292972
 20
227.565133
 30
0.047
 40
0.5
  1

  0
TEXT
  8
DIM
 10
346.542972
 20
227.565133
 30
0.047
 40
0.5
  1

  0
TEXT
  8
DIM
 10
362.126305
 20
219.421447
 30
0.047
 40
0.5
  1

  0
TEXT
  8
DIM
 10
252.898854
 20
212.725834
 30
0.047
 40
0.875
  1

 41
0.75
  7
TXT
 72
     2
 11
252.898854
 21
213.163334
 31
0.047
 73
     2
  0
TEXT
  8
DIM
 10
428.021354
 20
222.496559
 30
0.047
 40
0.5
  1

  0
TEXT
  8
DIM
 10
410.599354
 20
240.393253
 30
0.047
 40
0.5
  1

  0
TEXT
  8
DIM
 10
443.668533
 20
234.91154
 30
0.047
 40
0.5
  1

  0
TEXT
  8
DIM
 10
446.195812
 20
233.168057
 30
0.047
 40
0.5
  1

  0
TEXT
  8
DIM
 10
387.962789
 20
213.542883
 30
0.047
 40
0.5
  1

  0
TEXT
  8
DIM
 10
398.021917
 20
217.458903
 30
0.047
 40
0.5
  1

  0
TEXT
  8
DIM
 10
427.292972
 20
227.565133
 30
0.047
 40
0.5
  1

  0
TEXT
  8
DIM
 10
408.542972
 20
227.565133
 30
0.047
 40
0.5
  1

  0
TEXT
  8
DIM
 10
424.126305
 20
219.421447
 30
0.047
 40
0.5
  1

  0
TEXT
  8
DIM
 10
314.898854
 20
212.725834
 30
0.047
 40
0.875
  1

 41
0.75
  7
TXT
 72
     2
 11
314.898854
 21
213.163334
 31
0.047
 73
     2
  0
TEXT
  8
DIM
 10
220.875791
 20
331.871875
 30
0.047
 40
0.5
  1

  0
TEXT
  8
DIM
 10
203.453791
 20
349.768569
 30
0.047
 40
0.5
  1

  0
TEXT
  8
DIM
 10
236.522971
 20
344.286856
 30
0.047
 40
0.5
  1

  0
TEXT
  8
DIM
 10
239.050249
 20
342.543373
 30
0.047
 40
0.5
  1

  0
TEXT
  8
DIM
 10
180.817226
 20
322.918199
 30
0.047
 40
0.5
  1

  0
TEXT
  8
DIM
 10
190.876354
 20
326.834219
 30
0.047
 40
0.5
  1

  0
TEXT
  8
DIM
 10
220.147409
 20
336.940448
 30
0.047
 40
0.5
  1

  0
TEXT
  8
DIM
 10
201.397409
 20
336.940448
 30
0.047
 40
0.5
  1

  0
TEXT
  8
DIM
 10
216.980742
 20
328.796762
 30
0.047
 40
0.5
  1

  0
TEXT
  8
DIM
 10
448.044543
 20
380.389973
 30
0.047
 40
0.5
  1

  0
TEXT
  8
DIM
 10
430.622543
 20
398.286666
 30
0.047
 40
0.5
  1

  0
TEXT
  8
DIM
 10
463.691723
 20
392.804953
 30
0.047
 40
0.5
  1

  0
TEXT
  8
DIM
 10
466.219001
 20
391.06147
 30
0.047
 40
0.5
  1

  0
TEXT
  8
DIM
 10
407.985978
 20
371.436296
 30
0.047
 40
0.5
  1

  0
TEXT
  8
DIM
 10
418.045106
 20
375.352317
 30
0.047
 40
0.5
  1

  0
TEXT
  8
DIM
 10
447.316161
 20
385.458546
 30
0.047
 40
0.5
  1

  0
TEXT
  8
DIM
 10
428.566161
 20
385.458546
 30
0.047
 40
0.5
  1

  0
TEXT
  8
DIM
 10
444.149494
 20
377.31486
 30
0.047
 40
0.5
  1

  0
TEXT
  8
DIM
 10
334.922043
 20
370.619248
 30
0.047
 40
0.875
  1

 41
0.75
  7
TXT
 72
     2
 11
334.922043
 21
371.056748
 31
0.047
 73
     2
  0
TEXT
  8
DIM
 10
220.875791
 20
207.141875
 30
0.047
 40
0.5
  1

  0
TEXT
  8
DIM
 10
203.453791
 20
225.038569
 30
0.047
 40
0.5
  1

  0
TEXT
  8
DIM
 10
236.522971
 20
219.556856
 30
0.047
 40
0.5
  1

  0
TEXT
  8
DIM
 10
239.050249
 20
217.813373
 30
0.047
 40
0.5
  1

  0
TEXT
  8
DIM
 10
180.817226
 20
198.188199
 30
0.047
 40
0.5
  1

  0
TEXT
  8
DIM
 10
190.876354
 20
202.104219
 30
0.047
 40
0.5
  1

  0
TEXT
  8
DIM
 10
220.147409
 20
212.210448
 30
0.047
 40
0.5
  1

  0
TEXT
  8
DIM
 10
201.397409
 20
212.210448
 30
0.047
 40
0.5
  1

  0
TEXT
  8
DIM
 10
216.980742
 20
204.066762
 30
0.047
 40
0.5
  1

  0
TEXT
  8
DIM
 10
448.044543
 20
255.659973
 30
0.047
 40
0.5
  1

  0
TEXT
  8
DIM
 10
430.622543
 20
273.556666
 30
0.047
 40
0.5
  1

  0
TEXT
  8
DIM
 10
463.691723
 20
268.074953
 30
0.047
 40
0.5
  1

  0
TEXT
  8
DIM
 10
466.219001
 20
266.33147
 30
0.047
 40
0.5
  1

  0
TEXT
  8
DIM
 10
407.985978
 20
246.706296
 30
0.047
 40
0.5
  1

  0
TEXT
  8
DIM
 10
418.045106
 20
250.622317
 30
0.047
 40
0.5
  1

  0
TEXT
  8
DIM
 10
447.316161
 20
260.728546
 30
0.047
 40
0.5
  1

  0
TEXT
  8
DIM
 10
428.566161
 20
260.728546
 30
0.047
 40
0.5
  1

  0
TEXT
  8
DIM
 10
444.149494
 20
252.58486
 30
0.047
 40
0.5
  1

  0
TEXT
  8
DIM
 10
334.922043
 20
245.889248
 30
0.047
 40
0.875
  1

 41
0.75
  7
TXT
 72
     2
 11
334.922043
 21
246.326748
 31
0.047
 73
     2
  0
TEXT
  8
DIM
 10
393.792529
 20
202.576332
 30
0.0
 40
0.5
  1

  0
TEXT
  8
DIM
 10
376.370529
 20
220.473025
 30
0.0
 40
0.5
  1

  0
TEXT
  8
DIM
 10
409.439708
 20
214.991312
 30
0.0
 40
0.5
  1

  0
TEXT
  8
DIM
 10
411.966987
 20
213.247829
 30
0.0
 40
0.5
  1

  0
TEXT
  8
DIM
 10
353.733964
 20
193.622655
 30
0.0
 40
0.5
  1

  0
TEXT
  8
DIM
 10
363.793092
 20
197.538676
 30
0.0
 40
0.5
  1

  0
TEXT
  8
DIM
 10
393.064147
 20
207.644905
 30
0.0
 40
0.5
  1

  0
TEXT
  8
DIM
 10
374.314147
 20
207.644905
 30
0.0
 40
0.5
  1

  0
TEXT
  8
DIM
 10
389.89748
 20
199.501219
 30
0.0
 40
0.5
  1

  0
TEXT
  8
DIM
 10
280.670029
 20
192.805607
 30
0.0
 40
0.875
  1

 41
0.75
  7
TXT
 72
     2
 11
280.670029
 21
193.243107
 31
0.0
 73
     2
  0
TEXT
  8
DIM
 10
455.792529
 20
202.576332
 30
0.0
 40
0.5
  1

  0
TEXT
  8
DIM
 10
438.370529
 20
220.473025
 30
0.0
 40
0.5
  1

  0
TEXT
  8
DIM
 10
471.439708
 20
214.991312
 30
0.0
 40
0.5
  1

  0
TEXT
  8
DIM
 10
473.966987
 20
213.247829
 30
0.0
 40
0.5
  1

  0
TEXT
  8
DIM
 10
415.733964
 20
193.622655
 30
0.0
 40
0.5
  1

  0
TEXT
  8
DIM
 10
425.793092
 20
197.538676
 30
0.0
 40
0.5
  1

  0
TEXT
  8
DIM
 10
455.064147
 20
207.644905
 30
0.0
 40
0.5
  1

  0
TEXT
  8
DIM
 10
436.314147
 20
207.644905
 30
0.0
 40
0.5
  1

  0
TEXT
  8
DIM
 10
451.89748
 20
199.501219
 30
0.0
 40
0.5
  1

  0
TEXT
  8
DIM
 10
342.670029
 20
192.805607
 30
0.0
 40
0.875
  1

 41
0.75
  7
TXT
 72
     2
 11
342.670029
 21
193.243107
 31
0.0
 73
     2
  0
TEXT
  8
DIM
 10
49.409961
 20
173.924625
 30
-0.047
 40
0.5
  1

  0
TEXT
  8
DIM
 10
31.987961
 20
191.821319
 30
-0.047
 40
0.5
  1

  0
TEXT
  8
DIM
 10
65.05714
 20
186.339606
 30
-0.047
 40
0.5
  1

  0
TEXT
  8
DIM
 10
67.584418
 20
184.596123
 30
-0.047
 40
0.5
  1

  0
TEXT
  8
DIM
 10
9.351396
 20
164.970949
 30
-0.047
 40
0.5
  1

  0
TEXT
  8
DIM
 10
19.410523
 20
168.886969
 30
-0.047
 40
0.5
  1

  0
TEXT
  8
DIM
 10
48.681578
 20
178.993199
 30
-0.047
 40
0.5
  1

  0
TEXT
  8
DIM
 10
29.931578
 20
178.993199
 30
-0.047
 40
0.5
  1

  0
TEXT
  8
DIM
 10
45.514911
 20
170.849513
 30
-0.047
 40
0.5
  1

  0
TEXT
  8
DIM
 10
276.578713
 20
222.442723
 30
-0.047
 40
0.5
  1

  0
TEXT
  8
DIM
 10
259.156713
 20
240.339417
 30
-0.047
 40
0.5
  1

  0
TEXT
  8
DIM
 10
292.225892
 20
234.857704
 30
-0.047
 40
0.5
  1

  0
TEXT
  8
DIM
 10
294.75317
 20
233.114221
 30
-0.047
 40
0.5
  1

  0
TEXT
  8
DIM
 10
236.520148
 20
213.489047
 30
-0.047
 40
0.5
  1

  0
TEXT
  8
DIM
 10
246.579275
 20
217.405067
 30
-0.047
 40
0.5
  1

  0
TEXT
  8
DIM
 10
275.85033
 20
227.511296
 30
-0.047
 40
0.5
  1

  0
TEXT
  8
DIM
 10
257.10033
 20
227.511296
 30
-0.047
 40
0.5
  1

  0
TEXT
  8
DIM
 10
272.683663
 20
219.36761
 30
-0.047
 40
0.5
  1

  0
TEXT
  8
DIM
 10
163.456213
 20
212.671998
 30
-0.047
 40
0.875
  1

 41
0.75
  7
TXT
 72
     2
 11
163.456213
 21
213.109498
 31
-0.047
 73
     2
  0
DIMENSION
  8
DIM
  2
*D64
 10
46.824004
 20
15.080913
 30
-0.047
 11
46.824004
 21
13.580913
 31
-0.047
 12
0.0
 22
-2.661751
 32
-0.047
  1
<>
 13
55.933669
 23
12.080913
 33
-0.047
 14
55.933669
 24
15.080913
 34
-0.047
 50
270.0
  3
23NSTDI
1001
AD_SKETCHDIM
1005
0
1000
d3
1001
ACAD
1000
DSTYLE
1002
{
1070
   340
1005
E
1070
   272
1070
     4
1070
   287
1070
     3
1070
   271
1070
     4
1002
}
1001
MCAD_NO_VIS
1070
     1
  0
DIMENSION
  8
DIM
  2
*D63
 10
52.644183
 20
13.643913
 30
-0.047
 11
52.644183
 21
12.862413
 31
-0.047
 12
0.0
 22
-2.661751
 32
-0.047
  1
<>
 13
55.933669
 23
12.080913
 33
-0.047
 14
56.635669
 24
13.643913
 34
-0.047
 50
90.0
  3
23NSTDI
1001
AD_SKETCHDIM
1005
0
1000
d14
1001
ACAD
1000
DSTYLE
1002
{
1070
   340
1005
E
1070
   272
1070
     4
1070
   287
1070
     3
1070
   271
1070
     4
1002
}
1001
MCAD_NO_VIS
1070
     1
  0
LINE
  8
OBJECT
 10
36.923892
 20
41.09527
 30
-0.047
 11
36.924005
 21
41.09527
 31
-0.047
  0
LINE
  8
HIDDEN
 10
36.877005
 20
41.09527
 30
-0.047
 11
36.923892
 21
41.09527
 31
-0.047
  0
LINE
  8
HIDDEN
 10
36.923892
 20
41.25927
 30
-0.047
 11
36.877005
 21
41.25927
 31
-0.047
  0
LINE
  8
OBJECT
 10
36.924005
 20
41.25927
 30
-0.047
 11
36.923892
 21
41.25927
 31
-0.047
  0
LINE
  8
HIDDEN
 10
19.924005
 20
41.09527
 30
-0.047
 11
19.971005
 21
41.09527
 31
-0.047
  0
LINE
  8
HIDDEN
 10
19.971005
 20
41.25927
 30
-0.047
 11
19.924005
 21
41.25927
 31
-0.047
  0
LINE
  8
OBJECT
 10
36.923892
 20
38.59527
 30
-0.047
 11
36.924005
 21
38.59527
 31
-0.047
  0
LINE
  8
HIDDEN
 10
36.877005
 20
38.59527
 30
-0.047
 11
36.923892
 21
38.59527
 31
-0.047
  0
LINE
  8
HIDDEN
 10
36.923892
 20
38.75927
 30
-0.047
 11
36.877005
 21
38.75927
 31
-0.047
  0
LINE
  8
OBJECT
 10
36.924005
 20
38.75927
 30
-0.047
 11
36.923892
 21
38.75927
 31
-0.047
  0
LINE
  8
HIDDEN
 10
19.924005
 20
38.59527
 30
-0.047
 11
19.971005
 21
38.59527
 31
-0.047
  0
LINE
  8
HIDDEN
 10
19.971005
 20
38.75927
 30
-0.047
 11
19.924005
 21
38.75927
 31
-0.047
  0
LINE
  8
OBJECT
 10
36.923892
 20
32.09527
 30
-0.047
 11
36.924005
 21
32.09527
 31
-0.047
  0
LINE
  8
HIDDEN
 10
36.877005
 20
32.09527
 30
-0.047
 11
36.923892
 21
32.09527
 31
-0.047
  0
LINE
  8
HIDDEN
 10
36.923892
 20
32.25927
 30
-0.047
 11
36.877005
 21
32.25927
 31
-0.047
  0
LINE
  8
OBJECT
 10
36.924005
 20
32.25927
 30
-0.047
 11
36.923892
 21
32.25927
 31
-0.047
  0
LINE
  8
HIDDEN
 10
19.924005
 20
32.09527
 30
-0.047
 11
19.971005
 21
32.09527
 31
-0.047
  0
LINE
  8
HIDDEN
 10
19.971005
 20
32.25927
 30
-0.047
 11
19.924005
 21
32.25927
 31
-0.047
  0
LINE
  8
OBJECT
 10
36.923892
 20
27.09527
 30
-0.047
 11
36.924005
 21
27.09527
 31
-0.047
  0
LINE
  8
HIDDEN
 10
36.877005
 20
27.09527
 30
-0.047
 11
36.923892
 21
27.09527
 31
-0.047
  0
LINE
  8
HIDDEN
 10
36.923892
 20
27.25927
 30
-0.047
 11
36.877005
 21
27.25927
 31
-0.047
  0
LINE
  8
OBJECT
 10
36.924005
 20
27.25927
 30
-0.047
 11
36.923892
 21
27.25927
 31
-0.047
  0
LINE
  8
HIDDEN
 10
19.924005
 20
27.09527
 30
-0.047
 11
19.971005
 21
27.09527
 31
-0.047
  0
LINE
  8
HIDDEN
 10
19.971005
 20
27.25927
 30
-0.047
 11
19.924005
 21
27.25927
 31
-0.047
  0
LINE
  8
OBJECT
 10
36.923892
 20
23.09527
 30
-0.047
 11
36.924005
 21
23.09527
 31
-0.047
  0
LINE
  8
HIDDEN
 10
36.877005
 20
23.09527
 30
-0.047
 11
36.923892
 21
23.09527
 31
-0.047
  0
LINE
  8
HIDDEN
 10
36.923892
 20
23.25927
 30
-0.047
 11
36.877005
 21
23.25927
 31
-0.047
  0
LINE
  8
OBJECT
 10
36.924005
 20
23.25927
 30
-0.047
 11
36.923892
 21
23.25927
 31
-0.047
  0
LINE
  8
HIDDEN
 10
19.924005
 20
23.09527
 30
-0.047
 11
19.971005
 21
23.09527
 31
-0.047
  0
LINE
  8
HIDDEN
 10
19.971005
 20
23.25927
 30
-0.047
 11
19.924005
 21
23.25927
 31
-0.047
  0
TEXT
  8
DIM
 10
164.688727
 20
180.016553
 30
0.047
 40
1.25
  1

  0
TEXT
  8
DIM
 10
165.751227
 20
175.922794
 30
0.047
 40
1.0
  1

  0
TEXT
  8
OBJECT
 10
166.60797
 20
226.619452
 30
0.047
 40
1.25
  1

  0
TEXT
  8
DIM
 10
164.688727
 20
515.536553
 30
0.047
 40
1.25
  1

  0
TEXT
  8
DIM
 10
165.751227
 20
511.442794
 30
0.047
 40
1.0
  1

  0
TEXT
  8
OBJECT
 10
166.60797
 20
562.139452
 30
0.047
 40
1.25
  1

  0
TEXT
  8
DIM
 10
183.021157
 20
720.20308
 30
0.047
 40
1.25
  1

  0
TEXT
  8
DIM
 10
184.083657
 20
716.109322
 30
0.047
 40
1.0
  1

  0
TEXT
  8
DIM
 10
190.135234
 20
720.750317
 30
0.047
 40
1.25
  1

  0
TEXT
  8
DIM
 10
191.197734
 20
716.656559
 30
0.047
 40
1.0
  1

  0
TEXT
  8
OBJECT
 10
192.054477
 20
767.353216
 30
0.047
 40
1.25
  1

  0
TEXT
  8
DIM
 10
164.688727
 20
515.536553
 30
0.047
 40
1.25
  1

  0
TEXT
  8
DIM
 10
165.751227
 20
511.442794
 30
0.047
 40
1.0
  1

  0
TEXT
  8
OBJECT
 10
166.60797
 20
562.139452
 30
0.047
 40
1.25
  1

  0
TEXT
  8
DIM
 10
183.021157
 20
720.20308
 30
0.047
 40
1.25
  1

  0
TEXT
  8
DIM
 10
184.083657
 20
716.109322
 30
0.047
 40
1.0
  1

  0
TEXT
  8
DIM
 10
190.135234
 20
720.750317
 30
0.047
 40
1.25
  1

  0
TEXT
  8
DIM
 10
191.197734
 20
716.656559
 30
0.047
 40
1.0
  1

  0
TEXT
  8
OBJECT
 10
192.054477
 20
767.353216
 30
0.047
 40
1.25
  1

  0
TEXT
  8
DIM
 10
272.411027
 20
386.639868
 30
0.047
 40
1.25
  1

  0
TEXT
  8
DIM
 10
273.473527
 20
382.54611
 30
0.047
 40
1.0
  1

  0
TEXT
  8
DIM
 10
436.411027
 20
386.639868
 30
0.047
 40
1.25
  1

  0
TEXT
  8
DIM
 10
437.473527
 20
382.54611
 30
0.047
 40
1.0
  1

  0
TEXT
  8
OBJECT
 10
438.33027
 20
433.242768
 30
0.047
 40
1.25
  1

  0
TEXT
  8
DIM
 10
454.743456
 20
591.306396
 30
0.047
 40
1.25
  1

  0
TEXT
  8
DIM
 10
455.805956
 20
587.212637
 30
0.047
 40
1.0
  1

  0
TEXT
  8
DIM
 10
461.857533
 20
591.853633
 30
0.047
 40
1.25
  1

  0
TEXT
  8
DIM
 10
462.920033
 20
587.759874
 30
0.047
 40
1.0
  1

  0
TEXT
  8
OBJECT
 10
463.776777
 20
638.456532
 30
0.047
 40
1.25
  1

  0
TEXT
  8
DIM
 10
590.526213
 20
410.054084
 30
0.047
 40
1.25
  1

  0
TEXT
  8
DIM
 10
591.588713
 20
405.960326
 30
0.047
 40
1.0
  1

  0
LINE
  8
CENTER
 10
65.635669
 20
13.643913
 30
-0.047
 11
66.355669
 21
13.643913
 31
-0.047
  0
LINE
  8
CENTER
 10
65.995669
 20
13.283913
 30
-0.047
 11
65.995669
 21
14.003913
 31
-0.047
  0
LINE
  8
CENTER
 10
72.135669
 20
13.643913
 30
-0.047
 11
72.855669
 21
13.643913
 31
-0.047
  0
LINE
  8
CENTER
 10
72.495669
 20
13.283913
 30
-0.047
 11
72.495669
 21
14.003913
 31
-0.047
  0
LINE
  8
CENTER
 10
74.635669
 20
13.643913
 30
-0.047
 11
75.355669
 21
13.643913
 31
-0.047
  0
LINE
  8
CENTER
 10
74.995669
 20
13.283913
 30
-0.047
 11
74.995669
 21
14.003913
 31
-0.047
  0
LINE
  8
CENTER
 10
60.635669
 20
13.643913
 30
-0.047
 11
61.355669
 21
13.643913
 31
-0.047
  0
LINE
  8
CENTER
 10
60.995669
 20
13.283913
 30
-0.047
 11
60.995669
 21
14.003913
 31
-0.047
  0
LINE
  8
CENTER
 10
56.635669
 20
13.643913
 30
-0.047
 11
57.355669
 21
13.643913
 31
-0.047
  0
LINE
  8
CENTER
 10
56.995669
 20
13.283913
 30
-0.047
 11
56.995669
 21
14.003913
 31
-0.047
  0
TEXT
  8
DIM
 10
313.711854
 20
218.365559
 30
0.047
 40
0.5
  1

  0
TEXT
  8
DIM
 10
296.289854
 20
236.262253
 30
0.047
 40
0.5
  1

  0
TEXT
  8
DIM
 10
329.359033
 20
230.78054
 30
0.047
 40
0.5
  1

  0
TEXT
  8
DIM
 10
331.886312
 20
229.037057
 30
0.047
 40
0.5
  1

  0
TEXT
  8
DIM
 10
273.653289
 20
209.411883
 30
0.047
 40
0.5
  1

  0
TEXT
  8
DIM
 10
283.712417
 20
213.327903
 30
0.047
 40
0.5
  1

  0
TEXT
  8
DIM
 10
312.983472
 20
223.434133
 30
0.047
 40
0.5
  1

  0
TEXT
  8
DIM
 10
294.233472
 20
223.434133
 30
0.047
 40
0.5
  1

  0
TEXT
  8
DIM
 10
309.816805
 20
215.290447
 30
0.047
 40
0.5
  1

  0
TEXT
  8
DIM
 10
200.589354
 20
208.594834
 30
0.047
 40
0.875
  1

 41
0.75
  7
TXT
 72
     2
 11
200.589354
 21
209.032334
 31
0.047
 73
     2
  0
TEXT
  8
DIM
 10
375.711854
 20
218.365559
 30
0.047
 40
0.5
  1

  0
TEXT
  8
DIM
 10
358.289854
 20
236.262253
 30
0.047
 40
0.5
  1

  0
TEXT
  8
DIM
 10
391.359033
 20
230.78054
 30
0.047
 40
0.5
  1

  0
TEXT
  8
DIM
 10
393.886312
 20
229.037057
 30
0.047
 40
0.5
  1

  0
TEXT
  8
DIM
 10
335.653289
 20
209.411883
 30
0.047
 40
0.5
  1

  0
TEXT
  8
DIM
 10
345.712417
 20
213.327903
 30
0.047
 40
0.5
  1

  0
TEXT
  8
DIM
 10
374.983472
 20
223.434133
 30
0.047
 40
0.5
  1

  0
TEXT
  8
DIM
 10
356.233472
 20
223.434133
 30
0.047
 40
0.5
  1

  0
TEXT
  8
DIM
 10
371.816805
 20
215.290447
 30
0.047
 40
0.5
  1

  0
TEXT
  8
DIM
 10
262.589354
 20
208.594834
 30
0.047
 40
0.875
  1

 41
0.75
  7
TXT
 72
     2
 11
262.589354
 21
209.032334
 31
0.047
 73
     2
  0
CIRCLE
  8
SLIDES
 10
56.620669
 20
13.643913
 30
-0.047
 40
0.1875
  0
ARC
  8
SLIDES
 10
70.120669
 20
13.786101
 30
-0.047
 40
0.1
 50
80.755478
 51
180.0
  0
ARC
  8
SLIDES-HID
 10
72.510669
 20
13.643913
 30
-0.047
 40
0.09
 50
270.0
 51
90.0
  0
ARC
  8
SLIDES-HID
 10
72.480669
 20
13.643913
 30
-0.047
 40
0.09
 50
90.0
 51
270.0
  0
LINE
  8
SLIDES-HID
 10
72.480669
 20
13.553913
 30
-0.047
 11
72.510669
 21
13.553913
 31
-0.047
  0
LINE
  8
SLIDES-HID
 10
72.480669
 20
13.733913
 30
-0.047
 11
72.510669
 21
13.733913
 31
-0.047
  0
LINE
  8
SLIDES-HID
 10
70.220669
 20
13.786101
 30
-0.047
 11
70.220669
 21
13.501726
 31
-0.047
  0
LINE
  8
SLIDES
 10
70.020669
 20
13.786101
 30
-0.047
 11
70.020669
 21
13.501726
 31
-0.047
  0
ARC
  8
SLIDES-HID
 10
70.120669
 20
13.501726
 30
-0.047
 40
0.1
 50
279.244522
 51
0.0
  0
POLYLINE
  8
SLIDES-HID
 66
     1
 10
0.0
 20
0.0
 30
-0.047
 75
     6
  0
VERTEX
  8
SLIDES-HID
 10
37.170839
 20
14.100825
 30
-0.047
  0
VERTEX
  8
SLIDES-HID
 10
37.200374
 20
14.045177
 30
-0.047
 42
-0.33823
  0
VERTEX
  8
SLIDES-HID
 10
37.012938
 20
14.076264
 30
-0.047
 42
0.679543
  0
VERTEX
  8
SLIDES-HID
 10
36.987005
 20
14.065994
 30
-0.047
  0
VERTEX
  8
SLIDES-HID
 10
36.987005
 20
13.221832
 30
-0.047
 42
0.679543
  0
VERTEX
  8
SLIDES-HID
 10
37.012938
 20
13.211562
 30
-0.047
 42
-0.33823
  0
VERTEX
  8
SLIDES-HID
 10
37.200374
 20
13.242649
 30
-0.047
  0
VERTEX
  8
SLIDES-HID
 10
37.170836
 20
13.186996
 30
-0.047
 42
0.340971
  0
VERTEX
  8
SLIDES-HID
 10
37.058223
 20
13.167763
 30
-0.047
 42
-0.675247
  0
VERTEX
  8
SLIDES-HID
 10
36.924005
 20
13.221832
 30
-0.047
  0
VERTEX
  8
SLIDES-HID
 10
36.924005
 20
14.065994
 30
-0.047
 42
-0.675247
  0
VERTEX
  8
SLIDES-HID
 10
37.058223
 20
14.120063
 30
-0.047
 42
0.340971
  0
VERTEX
  8
SLIDES-HID
 10
37.170836
 20
14.10083
 30
-0.047
  0
SEQEND
  8
SLIDES-HID
  0
LINE
  8
SLIDES-HID
 10
70.995669
 20
13.186996
 30
-0.047
 11
75.761209
 21
13.186996
 31
-0.047
  0
LINE
  8
SLIDES-HID
 10
70.995669
 20
13.242649
 30
-0.047
 11
75.818553
 21
13.242649
 31
-0.047
  0
LINE
  8
SLIDES-HID
 10
70.995669
 20
13.260913
 30
-0.047
 11
75.830944
 21
13.260913
 31
-0.047
  0
LINE
  8
SLIDES-HID
 10
70.995669
 20
14.026913
 30
-0.047
 11
75.830944
 21
14.026913
 31
-0.047
  0
LINE
  8
SLIDES-HID
 10
70.995669
 20
14.045177
 30
-0.047
 11
75.818553
 21
14.045177
 31
-0.047
  0
LINE
  8
SLIDES-HID
 10
70.995669
 20
14.10083
 30
-0.047
 11
75.761209
 21
14.10083
 31
-0.047
  0
POLYLINE
  8
SLIDES-HID
 66
     1
 10
0.0
 20
0.0
 30
-0.047
 70
     1
 75
     6
  0
VERTEX
  8
SLIDES-HID
 10
37.202738
 20
14.161413
 30
-0.047
 42
0.414214
  0
VERTEX
  8
SLIDES-HID
 10
37.180738
 20
14.183413
 30
-0.047
  0
VERTEX
  8
SLIDES-HID
 10
36.988513
 20
14.183413
 30
-0.047
  0
VERTEX
  8
SLIDES-HID
 10
36.988513
 20
14.208413
 30
-0.047
  0
VERTEX
  8
SLIDES-HID
 10
37.180738
 20
14.208413
 30
-0.047
 42
-0.414214
  0
VERTEX
  8
SLIDES-HID
 10
37.227738
 20
14.161413
 30
-0.047
  0
VERTEX
  8
SLIDES-HID
 10
37.227738
 20
13.865335
 30
-0.047
 42
-0.414214
  0
VERTEX
  8
SLIDES-HID
 10
37.180738
 20
13.818335
 30
-0.047
  0
VERTEX
  8
SLIDES-HID
 10
37.134221
 20
13.818335
 30
-0.047
 42
0.414214
  0
VERTEX
  8
SLIDES-HID
 10
37.112221
 20
13.796335
 30
-0.047
  0
VERTEX
  8
SLIDES-HID
 10
37.112221
 20
13.491491
 30
-0.047
 42
0.414214
  0
VERTEX
  8
SLIDES-HID
 10
37.134221
 20
13.469491
 30
-0.047
  0
VERTEX
  8
SLIDES-HID
 10
37.180738
 20
13.469491
 30
-0.047
 42
-0.414214
  0
VERTEX
  8
SLIDES-HID
 10
37.227738
 20
13.422491
 30
-0.047
  0
VERTEX
  8
SLIDES-HID
 10
37.227738
 20
13.126413
 30
-0.047
 42
-0.414214
  0
VERTEX
  8
SLIDES-HID
 10
37.180738
 20
13.079413
 30
-0.047
  0
VERTEX
  8
SLIDES-HID
 10
36.988513
 20
13.079413
 30
-0.047
  0
VERTEX
  8
SLIDES-HID
 10
36.988513
 20
13.104413
 30
-0.047
  0
VERTEX
  8
SLIDES-HID
 10
37.180738
 20
13.104413
 30
-0.047
 42
0.414214
  0
VERTEX
  8
SLIDES-HID
 10
37.202738
 20
13.126413
 30
-0.047
  0
VERTEX
  8
SLIDES-HID
 10
37.202738
 20
13.422491
 30
-0.047
 42
0.414214
  0
VERTEX
  8
SLIDES-HID
 10
37.180738
 20
13.444491
 30
-0.047
  0
VERTEX
  8
SLIDES-HID
 10
37.134221
 20
13.444491
 30
-0.047
 42
-0.414214
  0
VERTEX
  8
SLIDES-HID
 10
37.087221
 20
13.491491
 30
-0.047
  0
VERTEX
  8
SLIDES-HID
 10
37.087221
 20
13.796335
 30
-0.047
 42
-0.414214
  0
VERTEX
  8
SLIDES-HID
 10
37.134221
 20
13.843335
 30
-0.047
  0
VERTEX
  8
SLIDES-HID
 10
37.180738
 20
13.843335
 30
-0.047
 42
0.414214
  0
VERTEX
  8
SLIDES-HID
 10
37.202738
 20
13.865335
 30
-0.047
  0
SEQEND
  8
SLIDES-HID
  0
ARC
  8
SLIDES-HID
 10
37.127005
 20
13.104413
 30
-0.047
 40
0.0935
 50
35.905824
 51
180.0
  0
ARC
  8
SLIDES-HID
 10
37.127005
 20
13.104413
 30
-0.047
 40
0.0935
 50
195.508402
 51
358.078271
  0
ARC
  8
SLIDES-HID
 10
37.127005
 20
14.183413
 30
-0.047
 40
0.0935
 50
180.0
 51
324.094176
  0
POLYLINE
  8
SLIDES-HID
 66
     1
 10
0.0
 20
0.0
 30
-0.047
 70
     1
 75
     6
  0
VERTEX
  8
SLIDES-HID
 10
36.988513
 20
13.018913
 30
-0.047
 42
0.238363
  0
VERTEX
  8
SLIDES-HID
 10
37.127005
 20
12.948913
 30
-0.047
 42
0.414214
  0
VERTEX
  8
SLIDES-HID
 10
37.299005
 20
13.120913
 30
-0.047
  0
VERTEX
  8
SLIDES-HID
 10
37.299005
 20
14.166913
 30
-0.047
 42
0.414214
  0
VERTEX
  8
SLIDES-HID
 10
37.127005
 20
14.338913
 30
-0.047
 42
0.238363
  0
VERTEX
  8
SLIDES-HID
 10
36.988513
 20
14.268913
 30
-0.047
  0
VERTEX
  8
SLIDES-HID
 10
37.035697
 20
14.235129
 30
-0.047
 42
-0.241913
  0
VERTEX
  8
SLIDES-HID
 10
37.117005
 20
14.276913
 30
-0.047
  0
VERTEX
  8
SLIDES-HID
 10
37.127005
 20
14.276913
 30
-0.047
 42
-0.414214
  0
VERTEX
  8
SLIDES-HID
 10
37.237005
 20
14.166913
 30
-0.047
  0
VERTEX
  8
SLIDES-HID
 10
37.237005
 20
13.120913
 30
-0.047
 42
-0.414214
  0
VERTEX
  8
SLIDES-HID
 10
37.127005
 20
13.010913
 30
-0.047
  0
VERTEX
  8
SLIDES-HID
 10
37.117005
 20
13.010913
 30
-0.047
 42
-0.241913
  0
VERTEX
  8
SLIDES-HID
 10
37.035697
 20
13.052697
 30
-0.047
  0
SEQEND
  8
SLIDES-HID
  0
ARC
  8
SLIDES-HID
 10
37.127005
 20
14.183413
 30
-0.047
 40
0.0935
 50
1.921729
 51
164.491598
  0
INSERT
  8
BRACKET-HID
  2
BRKT-FR
 10
37.691005
 20
12.768913
 30
-0.047
 50
180.0
  0
TEXT
  8
DIM
 10
168.566291
 20
327.740875
 30
0.047
 40
0.5
  1

  0
TEXT
  8
DIM
 10
151.144291
 20
345.637569
 30
0.047
 40
0.5
  1

  0
TEXT
  8
DIM
 10
184.213471
 20
340.155856
 30
0.047
 40
0.5
  1

  0
TEXT
  8
DIM
 10
186.740749
 20
338.412373
 30
0.047
 40
0.5
  1

  0
TEXT
  8
DIM
 10
128.507726
 20
318.787199
 30
0.047
 40
0.5
  1

  0
TEXT
  8
DIM
 10
138.566854
 20
322.703219
 30
0.047
 40
0.5
  1

  0
TEXT
  8
DIM
 10
167.837909
 20
332.809448
 30
0.047
 40
0.5
  1

  0
TEXT
  8
DIM
 10
149.087909
 20
332.809448
 30
0.047
 40
0.5
  1

  0
TEXT
  8
DIM
 10
164.671242
 20
324.665762
 30
0.047
 40
0.5
  1

  0
TEXT
  8
DIM
 10
395.735043
 20
376.258973
 30
0.047
 40
0.5
  1

  0
TEXT
  8
DIM
 10
378.313043
 20
394.155666
 30
0.047
 40
0.5
  1

  0
TEXT
  8
DIM
 10
411.382223
 20
388.673953
 30
0.047
 40
0.5
  1

  0
TEXT
  8
DIM
 10
413.909501
 20
386.93047
 30
0.047
 40
0.5
  1

  0
TEXT
  8
DIM
 10
355.676478
 20
367.305296
 30
0.047
 40
0.5
  1

  0
TEXT
  8
DIM
 10
365.735606
 20
371.221317
 30
0.047
 40
0.5
  1

  0
TEXT
  8
DIM
 10
395.006661
 20
381.327546
 30
0.047
 40
0.5
  1

  0
TEXT
  8
DIM
 10
376.256661
 20
381.327546
 30
0.047
 40
0.5
  1

  0
TEXT
  8
DIM
 10
391.839994
 20
373.18386
 30
0.047
 40
0.5
  1

  0
TEXT
  8
DIM
 10
282.612543
 20
366.488248
 30
0.047
 40
0.875
  1

 41
0.75
  7
TXT
 72
     2
 11
282.612543
 21
366.925748
 31
0.047
 73
     2
  0
POLYLINE
  8
SLIDES-HID
 66
     1
 10
0.0
 20
0.0
 30
-0.047
 70
     1
 75
     6
  0
VERTEX
  8
SLIDES-HID
 10
19.859497
 20
13.018913
 30
-0.047
 42
-0.238363
  0
VERTEX
  8
SLIDES-HID
 10
19.721005
 20
12.948913
 30
-0.047
 42
-0.414214
  0
VERTEX
  8
SLIDES-HID
 10
19.549005
 20
13.120913
 30
-0.047
  0
VERTEX
  8
SLIDES-HID
 10
19.549005
 20
14.166913
 30
-0.047
 42
-0.414214
  0
VERTEX
  8
SLIDES-HID
 10
19.721005
 20
14.338913
 30
-0.047
 42
-0.238363
  0
VERTEX
  8
SLIDES-HID
 10
19.859497
 20
14.268913
 30
-0.047
  0
VERTEX
  8
SLIDES-HID
 10
19.812312
 20
14.235129
 30
-0.047
 42
0.241913
  0
VERTEX
  8
SLIDES-HID
 10
19.731005
 20
14.276913
 30
-0.047
  0
VERTEX
  8
SLIDES-HID
 10
19.721005
 20
14.276913
 30
-0.047
 42
0.414214
  0
VERTEX
  8
SLIDES-HID
 10
19.611005
 20
14.166913
 30
-0.047
  0
VERTEX
  8
SLIDES-HID
 10
19.611005
 20
13.120913
 30
-0.047
 42
0.414214
  0
VERTEX
  8
SLIDES-HID
 10
19.721005
 20
13.010913
 30
-0.047
  0
VERTEX
  8
SLIDES-HID
 10
19.731005
 20
13.010913
 30
-0.047
 42
0.241913
  0
VERTEX
  8
SLIDES-HID
 10
19.812312
 20
13.052697
 30
-0.047
  0
SEQEND
  8
SLIDES-HID
  0
POLYLINE
  8
SLIDES-HID
 66
     1
 10
0.0
 20
0.0
 30
-0.047
 75
     6
  0
VERTEX
  8
SLIDES-HID
 10
19.677171
 20
14.100825
 30
-0.047
  0
VERTEX
  8
SLIDES-HID
 10
19.647636
 20
14.045177
 30
-0.047
 42
0.33823
  0
VERTEX
  8
SLIDES-HID
 10
19.835072
 20
14.076264
 30
-0.047
 42
-0.679543
  0
VERTEX
  8
SLIDES-HID
 10
19.861005
 20
14.065994
 30
-0.047
  0
VERTEX
  8
SLIDES-HID
 10
19.861005
 20
13.221832
 30
-0.047
 42
-0.679543
  0
VERTEX
  8
SLIDES-HID
 10
19.835072
 20
13.211562
 30
-0.047
 42
0.33823
  0
VERTEX
  8
SLIDES-HID
 10
19.647636
 20
13.242649
 30
-0.047
  0
VERTEX
  8
SLIDES-HID
 10
19.677174
 20
13.186996
 30
-0.047
 42
-0.340971
  0
VERTEX
  8
SLIDES-HID
 10
19.789787
 20
13.167763
 30
-0.047
 42
0.675247
  0
VERTEX
  8
SLIDES-HID
 10
19.924005
 20
13.221832
 30
-0.047
  0
VERTEX
  8
SLIDES-HID
 10
19.924005
 20
14.065994
 30
-0.047
 42
0.675247
  0
VERTEX
  8
SLIDES-HID
 10
19.789787
 20
14.120063
 30
-0.047
 42
-0.340971
  0
VERTEX
  8
SLIDES-HID
 10
19.677174
 20
14.10083
 30
-0.047
  0
SEQEND
  8
SLIDES-HID
  0
ARC
  8
SLIDES-HID
 10
19.721005
 20
14.183413
 30
-0.047
 40
0.0935
 50
215.905824
 51
0.0
  0
ARC
  8
SLIDES-HID
 10
19.721005
 20
14.183413
 30
-0.047
 40
0.0935
 50
15.508402
 51
178.078271
  0
POLYLINE
  8
SLIDES-HID
 66
     1
 10
0.0
 20
0.0
 30
-0.047
 70
     1
 75
     6
  0
VERTEX
  8
SLIDES-HID
 10
19.645272
 20
14.161413
 30
-0.047
 42
-0.414214
  0
VERTEX
  8
SLIDES-HID
 10
19.667272
 20
14.183413
 30
-0.047
  0
VERTEX
  8
SLIDES-HID
 10
19.859497
 20
14.183413
 30
-0.047
  0
VERTEX
  8
SLIDES-HID
 10
19.859497
 20
14.208413
 30
-0.047
  0
VERTEX
  8
SLIDES-HID
 10
19.667272
 20
14.208413
 30
-0.047
 42
0.414214
  0
VERTEX
  8
SLIDES-HID
 10
19.620272
 20
14.161413
 30
-0.047
  0
VERTEX
  8
SLIDES-HID
 10
19.620272
 20
13.865335
 30
-0.047
 42
0.414214
  0
VERTEX
  8
SLIDES-HID
 10
19.667272
 20
13.818335
 30
-0.047
  0
VERTEX
  8
SLIDES-HID
 10
19.713789
 20
13.818335
 30
-0.047
 42
-0.414214
  0
VERTEX
  8
SLIDES-HID
 10
19.735789
 20
13.796335
 30
-0.047
  0
VERTEX
  8
SLIDES-HID
 10
19.735789
 20
13.491491
 30
-0.047
 42
-0.414214
  0
VERTEX
  8
SLIDES-HID
 10
19.713789
 20
13.469491
 30
-0.047
  0
VERTEX
  8
SLIDES-HID
 10
19.667272
 20
13.469491
 30
-0.047
 42
0.414214
  0
VERTEX
  8
SLIDES-HID
 10
19.620272
 20
13.422491
 30
-0.047
  0
VERTEX
  8
SLIDES-HID
 10
19.620272
 20
13.126413
 30
-0.047
 42
0.414214
  0
VERTEX
  8
SLIDES-HID
 10
19.667272
 20
13.079413
 30
-0.047
  0
VERTEX
  8
SLIDES-HID
 10
19.859497
 20
13.079413
 30
-0.047
  0
VERTEX
  8
SLIDES-HID
 10
19.859497
 20
13.104413
 30
-0.047
  0
VERTEX
  8
SLIDES-HID
 10
19.667272
 20
13.104413
 30
-0.047
 42
-0.414214
  0
VERTEX
  8
SLIDES-HID
 10
19.645272
 20
13.126413
 30
-0.047
  0
VERTEX
  8
SLIDES-HID
 10
19.645272
 20
13.422491
 30
-0.047
 42
-0.414214
  0
VERTEX
  8
SLIDES-HID
 10
19.667272
 20
13.444491
 30
-0.047
  0
VERTEX
  8
SLIDES-HID
 10
19.713789
 20
13.444491
 30
-0.047
 42
0.414214
  0
VERTEX
  8
SLIDES-HID
 10
19.760789
 20
13.491491
 30
-0.047
  0
VERTEX
  8
SLIDES-HID
 10
19.760789
 20
13.796335
 30
-0.047
 42
0.414214
  0
VERTEX
  8
SLIDES-HID
 10
19.713789
 20
13.843335
 30
-0.047
  0
VERTEX
  8
SLIDES-HID
 10
19.667272
 20
13.843335
 30
-0.047
 42
-0.414214
  0
VERTEX
  8
SLIDES-HID
 10
19.645272
 20
13.865335
 30
-0.047
  0
SEQEND
  8
SLIDES-HID
  0
ARC
  8
SLIDES-HID
 10
19.721005
 20
13.104413
 30
-0.047
 40
0.0935
 50
181.921729
 51
344.491598
  0
ARC
  8
SLIDES-HID
 10
19.721005
 20
13.104413
 30
-0.047
 40
0.0935
 50
0.0
 51
144.094176
  0
INSERT
  8
BRACKET-HID
  2
BRKT-FR
 10
19.157005
 20
12.768913
 30
-0.047
 41
-1.0
 50
180.0
  0
DIMENSION
  8
DIM
  2
*D74
 10
37.361005
 20
50.514161
 30
-0.047
 11
28.424005
 21
50.514161
 31
-0.047
 12
1.795079
 22
0.0
 32
-0.047
 13
19.487005
 23
55.176684
 33
-0.047
 14
37.361005
 24
55.176684
 34
-0.047
 50
180.0
  3
23NSTD
  0
DIMENSION
  8
DIM
  2
*D62
 10
37.924005
 20
9.325523
 30
-0.047
 11
28.424005
 21
9.325523
 31
-0.047
 12
1.795079
 22
-2.661751
 32
-0.047
 13
18.924005
 23
11.909913
 33
-0.047
 14
37.924005
 24
11.909913
 34
-0.047
 50
180.0
  3
23NSTD
  0
DIMENSION
  8
DIM
  2
*D73
 10
36.924005
 20
52.795444
 30
-0.047
 11
28.424005
 21
52.795444
 31
-0.047
 12
1.795079
 22
0.0
 32
-0.047
 13
19.924005
 23
55.552184
 33
-0.047
 14
36.924005
 24
55.552184
 34
-0.047
 50
180.0
  3
23NSTD
  0
DIMENSION
  8
DIM
  2
*D61
 10
41.043524
 20
11.909913
 30
-0.047
 11
41.043524
 21
13.643913
 31
-0.047
 12
1.795079
 22
-2.661751
 32
-0.047
 13
37.924005
 23
15.377913
 33
-0.047
 14
37.924005
 24
11.909913
 34
-0.047
 50
270.0
  3
23NSTDI
  0
DIMENSION
  8
DIM
  2
*D65
 10
49.775074
 20
15.377913
 30
-0.047
 11
52.922886
 21
17.897913
 31
-0.047
 12
0.0
 22
-2.661751
 32
-0.047
 13
55.933669
 23
15.080913
 33
-0.047
 14
55.824669
 24
15.377913
 34
-0.047
 50
270.0
  3
23NSTD
  0
TEXT
  8
DIM
 10
168.566291
 20
203.010875
 30
0.047
 40
0.5
  1

  0
TEXT
  8
DIM
 10
151.144291
 20
220.907569
 30
0.047
 40
0.5
  1

  0
TEXT
  8
DIM
 10
184.213471
 20
215.425856
 30
0.047
 40
0.5
  1

  0
TEXT
  8
DIM
 10
186.740749
 20
213.682373
 30
0.047
 40
0.5
  1

  0
TEXT
  8
DIM
 10
128.507726
 20
194.057199
 30
0.047
 40
0.5
  1

  0
TEXT
  8
DIM
 10
138.566854
 20
197.973219
 30
0.047
 40
0.5
  1

  0
TEXT
  8
DIM
 10
167.837909
 20
208.079448
 30
0.047
 40
0.5
  1

  0
TEXT
  8
DIM
 10
149.087909
 20
208.079448
 30
0.047
 40
0.5
  1

  0
TEXT
  8
DIM
 10
164.671242
 20
199.935762
 30
0.047
 40
0.5
  1

  0
TEXT
  8
DIM
 10
395.735043
 20
251.528973
 30
0.047
 40
0.5
  1

  0
TEXT
  8
DIM
 10
378.313043
 20
269.425666
 30
0.047
 40
0.5
  1

  0
TEXT
  8
DIM
 10
411.382223
 20
263.943953
 30
0.047
 40
0.5
  1

  0
TEXT
  8
DIM
 10
413.909501
 20
262.20047
 30
0.047
 40
0.5
  1

  0
TEXT
  8
DIM
 10
355.676478
 20
242.575296
 30
0.047
 40
0.5
  1

  0
TEXT
  8
DIM
 10
365.735606
 20
246.491317
 30
0.047
 40
0.5
  1

  0
TEXT
  8
DIM
 10
395.006661
 20
256.597546
 30
0.047
 40
0.5
  1

  0
TEXT
  8
DIM
 10
376.256661
 20
256.597546
 30
0.047
 40
0.5
  1

  0
TEXT
  8
DIM
 10
391.839994
 20
248.45386
 30
0.047
 40
0.5
  1

  0
TEXT
  8
DIM
 10
282.612543
 20
241.758248
 30
0.047
 40
0.875
  1

 41
0.75
  7
TXT
 72
     2
 11
282.612543
 21
242.195748
 31
0.047
 73
     2
  0
TEXT
  8
DIM
 10
341.483029
 20
198.445332
 30
0.0
 40
0.5
  1

  0
TEXT
  8
DIM
 10
324.061029
 20
216.342025
 30
0.0
 40
0.5
  1

  0
TEXT
  8
DIM
 10
357.130208
 20
210.860312
 30
0.0
 40
0.5
  1

  0
TEXT
  8
DIM
 10
359.657487
 20
209.116829
 30
0.0
 40
0.5
  1

  0
TEXT
  8
DIM
 10
301.424464
 20
189.491655
 30
0.0
 40
0.5
  1

  0
TEXT
  8
DIM
 10
311.483592
 20
193.407676
 30
0.0
 40
0.5
  1

  0
TEXT
  8
DIM
 10
340.754647
 20
203.513905
 30
0.0
 40
0.5
  1

  0
TEXT
  8
DIM
 10
322.004647
 20
203.513905
 30
0.0
 40
0.5
  1

  0
TEXT
  8
DIM
 10
337.58798
 20
195.370219
 30
0.0
 40
0.5
  1

  0
TEXT
  8
DIM
 10
228.360529
 20
188.674607
 30
0.0
 40
0.875
  1

 41
0.75
  7
TXT
 72
     2
 11
228.360529
 21
189.112107
 31
0.0
 73
     2
  0
TEXT
  8
DIM
 10
403.483029
 20
198.445332
 30
0.0
 40
0.5
  1

  0
TEXT
  8
DIM
 10
386.061029
 20
216.342025
 30
0.0
 40
0.5
  1

  0
TEXT
  8
DIM
 10
419.130208
 20
210.860312
 30
0.0
 40
0.5
  1

  0
TEXT
  8
DIM
 10
421.657487
 20
209.116829
 30
0.0
 40
0.5
  1

  0
TEXT
  8
DIM
 10
363.424464
 20
189.491655
 30
0.0
 40
0.5
  1

  0
TEXT
  8
DIM
 10
373.483592
 20
193.407676
 30
0.0
 40
0.5
  1

  0
TEXT
  8
DIM
 10
402.754647
 20
203.513905
 30
0.0
 40
0.5
  1

  0
TEXT
  8
DIM
 10
384.004647
 20
203.513905
 30
0.0
 40
0.5
  1

  0
TEXT
  8
DIM
 10
399.58798
 20
195.370219
 30
0.0
 40
0.5
  1

  0
TEXT
  8
DIM
 10
290.360529
 20
188.674607
 30
0.0
 40
0.875
  1

 41
0.75
  7
TXT
 72
     2
 11
290.360529
 21
189.112107
 31
0.0
 73
     2
  0
LINE
  8
SLIDES
 10
55.995669
 20
14.143994
 30
-0.047
 11
55.995669
 21
13.143832
 31
-0.047
  0
POLYLINE
  8
SLIDES
 66
     1
 10
0.0
 20
0.0
 30
-0.047
  0
VERTEX
  8
SLIDES
 10
70.995669
 20
13.501413
 30
-0.047
  0
VERTEX
  8
SLIDES
 10
70.890669
 20
13.501413
 30
-0.047
  0
VERTEX
  8
SLIDES
 10
70.890669
 20
13.338913
 30
-0.047
  0
VERTEX
  8
SLIDES
 10
70.440669
 20
13.338913
 30
-0.047
  0
VERTEX
  8
SLIDES
 10
70.120669
 20
13.406413
 30
-0.047
  0
VERTEX
  8
SLIDES
 10
70.120669
 20
13.881413
 30
-0.047
  0
VERTEX
  8
SLIDES
 10
70.440669
 20
13.948913
 30
-0.047
  0
VERTEX
  8
SLIDES
 10
70.890669
 20
13.948913
 30
-0.047
  0
VERTEX
  8
SLIDES
 10
70.890669
 20
13.786413
 30
-0.047
  0
VERTEX
  8
SLIDES
 10
70.995669
 20
13.786413
 30
-0.047
  0
SEQEND
  8
SLIDES
  0
POLYLINE
  8
SLIDES-HID
 66
     1
 10
0.0
 20
0.0
 30
-0.047
 70
     1
  0
VERTEX
  8
SLIDES-HID
 10
71.530669
 20
13.658913
 30
-0.047
 42
-1.0
  0
VERTEX
  8
SLIDES-HID
 10
71.710669
 20
13.658913
 30
-0.047
  0
VERTEX
  8
SLIDES-HID
 10
71.710669
 20
13.628913
 30
-0.047
 42
-1.0
  0
VERTEX
  8
SLIDES-HID
 10
71.530669
 20
13.628913
 30
-0.047
  0
SEQEND
  8
SLIDES-HID
  0
POLYLINE
  8
SLIDES
 66
     1
 10
0.0
 20
0.0
 30
-0.047
 70
     1
  0
VERTEX
  8
SLIDES
 10
72.030669
 20
13.658913
 30
-0.047
  0
VERTEX
  8
SLIDES
 10
72.030669
 20
13.628913
 30
-0.047
 42
1.0
  0
VERTEX
  8
SLIDES
 10
72.210669
 20
13.628913
 30
-0.047
  0
VERTEX
  8
SLIDES
 10
72.210669
 20
13.658913
 30
-0.047
 42
1.0
  0
SEQEND
  8
SLIDES
  0
POLYLINE
  8
SLIDES-HID
 66
     1
 10
0.0
 20
0.0
 30
-0.047
 70
     1
  0
VERTEX
  8
SLIDES-HID
 10
72.605669
 20
13.733913
 30
-0.047
 42
1.0
  0
VERTEX
  8
SLIDES-HID
 10
72.605669
 20
13.553913
 30
-0.047
  0
VERTEX
  8
SLIDES-HID
 10
72.635669
 20
13.553913
 30
-0.047
 42
1.0
  0
VERTEX
  8
SLIDES-HID
 10
72.635669
 20
13.733913
 30
-0.047
  0
SEQEND
  8
SLIDES-HID
  0
POLYLINE
  8
SLIDES-HID
 66
     1
 10
0.0
 20
0.0
 30
-0.047
 70
     1
  0
VERTEX
  8
SLIDES-HID
 10
76.010669
 20
13.733913
 30
-0.047
  0
VERTEX
  8
SLIDES-HID
 10
75.980669
 20
13.733913
 30
-0.047
 42
1.0
  0
VERTEX
  8
SLIDES-HID
 10
75.980669
 20
13.553913
 30
-0.047
  0
VERTEX
  8
SLIDES-HID
 10
76.010669
 20
13.553913
 30
-0.047
 42
1.0
  0
SEQEND
  8
SLIDES-HID
  0
POLYLINE
  8
SLIDES
 66
     1
 10
0.0
 20
0.0
 30
-0.047
 70
     1
  0
VERTEX
  8
SLIDES
 10
80.980669
 20
13.553913
 30
-0.047
  0
VERTEX
  8
SLIDES
 10
81.010669
 20
13.553913
 30
-0.047
 42
1.0
  0
VERTEX
  8
SLIDES
 10
81.010669
 20
13.733913
 30
-0.047
  0
VERTEX
  8
SLIDES
 10
80.980669
 20
13.733913
 30
-0.047
 42
1.0
  0
SEQEND
  8
SLIDES
  0
POLYLINE
  8
SLIDES-HID
 66
     1
 10
0.0
 20
0.0
 30
-0.047
 70
     1
  0
VERTEX
  8
SLIDES-HID
 10
85.510669
 20
13.733913
 30
-0.047
  0
VERTEX
  8
SLIDES-HID
 10
85.480669
 20
13.733913
 30
-0.047
 42
1.0
  0
VERTEX
  8
SLIDES-HID
 10
85.480669
 20
13.553913
 30
-0.047
  0
VERTEX
  8
SLIDES-HID
 10
85.510669
 20
13.553913
 30
-0.047
 42
1.0
  0
SEQEND
  8
SLIDES-HID
  0
POLYLINE
  8
SLIDES-HID
 66
     1
 10
0.0
 20
0.0
 30
-0.047
 70
     1
  0
VERTEX
  8
SLIDES-HID
 10
89.780669
 20
13.658913
 30
-0.047
  0
VERTEX
  8
SLIDES-HID
 10
89.780669
 20
13.628913
 30
-0.047
 42
1.0
  0
VERTEX
  8
SLIDES-HID
 10
89.960669
 20
13.628913
 30
-0.047
  0
VERTEX
  8
SLIDES-HID
 10
89.960669
 20
13.658913
 30
-0.047
 42
1.0
  0
SEQEND
  8
SLIDES-HID
  0
POLYLINE
  8
SLIDES-HID
 66
     1
 10
0.0
 20
0.0
 30
-0.047
 70
     1
  0
VERTEX
  8
SLIDES-HID
 10
90.460669
 20
13.628913
 30
-0.047
  0
VERTEX
  8
SLIDES-HID
 10
90.460669
 20
13.658913
 30
-0.047
 42
1.0
  0
VERTEX
  8
SLIDES-HID
 10
90.280669
 20
13.658913
 30
-0.047
  0
VERTEX
  8
SLIDES-HID
 10
90.280669
 20
13.628913
 30
-0.047
 42
1.0
  0
SEQEND
  8
SLIDES-HID
  0
POLYLINE
  8
SLIDES-HID
 66
     1
 10
0.0
 20
0.0
 30
-0.047
  0
VERTEX
  8
SLIDES-HID
 10
70.995669
 20
14.143994
 30
-0.047
  0
VERTEX
  8
SLIDES-HID
 10
75.649641
 20
14.143994
 30
-0.047
 42
-0.236205
  0
VERTEX
  8
SLIDES-HID
 10
75.835669
 20
14.018913
 30
-0.047
  0
VERTEX
  8
SLIDES-HID
 10
75.835669
 20
13.956413
 30
-0.047
  0
VERTEX
  8
SLIDES-HID
 10
75.585669
 20
13.956413
 30
-0.047
  0
VERTEX
  8
SLIDES-HID
 10
75.585669
 20
13.926413
 30
-0.047
  0
VERTEX
  8
SLIDES-HID
 10
75.835669
 20
13.926413
 30
-0.047
  0
VERTEX
  8
SLIDES-HID
 10
75.835669
 20
13.361413
 30
-0.047
  0
VERTEX
  8
SLIDES-HID
 10
75.585669
 20
13.361413
 30
-0.047
  0
VERTEX
  8
SLIDES-HID
 10
75.585669
 20
13.331413
 30
-0.047
  0
VERTEX
  8
SLIDES-HID
 10
75.835669
 20
13.331413
 30
-0.047
  0
VERTEX
  8
SLIDES-HID
 10
75.835669
 20
13.268913
 30
-0.047
 42
-0.236205
  0
VERTEX
  8
SLIDES-HID
 10
75.649641
 20
13.143832
 30
-0.047
  0
VERTEX
  8
SLIDES-HID
 10
70.995669
 20
13.143832
 30
-0.047
  0
SEQEND
  8
SLIDES-HID
  0
LINE
  8
SLIDES
 10
55.995669
 20
13.186996
 30
-0.047
 11
70.995669
 21
13.186996
 31
-0.047
  0
LINE
  8
SLIDES
 10
55.995669
 20
13.242649
 30
-0.047
 11
70.995669
 21
13.242649
 31
-0.047
  0
LINE
  8
SLIDES
 10
55.995669
 20
13.260913
 30
-0.047
 11
70.995669
 21
13.260913
 31
-0.047
  0
LINE
  8
SLIDES
 10
55.995669
 20
14.026913
 30
-0.047
 11
70.995669
 21
14.026913
 31
-0.047
  0
LINE
  8
SLIDES
 10
55.995669
 20
14.045177
 30
-0.047
 11
70.995669
 21
14.045177
 31
-0.047
  0
LINE
  8
SLIDES
 10
55.995669
 20
14.10083
 30
-0.047
 11
70.995669
 21
14.10083
 31
-0.047
  0
LINE
  8
SLIDES
 10
70.995669
 20
14.143994
 30
-0.047
 11
55.995669
 21
14.143994
 31
-0.047
  0
LINE
  8
SLIDES
 10
70.995669
 20
13.143832
 30
-0.047
 11
55.995669
 21
13.143832
 31
-0.047
  0
ARC
  8
SLIDES-HID
 10
74.995669
 20
13.658913
 30
-0.047
 40
0.09
 50
0.0
 51
180.0
  0
ARC
  8
SLIDES-HID
 10
74.995669
 20
13.628913
 30
-0.047
 40
0.09
 50
180.0
 51
360.0
  0
LINE
  8
SLIDES-HID
 10
75.085669
 20
13.658913
 30
-0.047
 11
75.085669
 21
13.628913
 31
-0.047
  0
LINE
  8
SLIDES-HID
 10
74.905669
 20
13.658913
 30
-0.047
 11
74.905669
 21
13.628913
 31
-0.047
  0
LINE
  8
CENTER
 10
74.995669
 20
13.829318
 30
-0.047
 11
74.995669
 21
13.458508
 31
-0.047
  0
INSERT
  8
OBJECT
  2
BRKT-SIDE
 10
90.058669
 20
15.143913
 30
-0.047
  0
LINE
  8
SLIDES
 10
36.924005
 20
22.21227
 30
-0.047
 11
36.924005
 21
42.05227
 31
-0.047
  0
LINE
  8
SLIDES
 10
37.299005
 20
22.21227
 30
-0.047
 11
37.299005
 21
42.21227
 31
-0.047
  0
LINE
  8
SLIDES
 10
36.988513
 20
22.21227
 30
-0.047
 11
36.988513
 21
42.21227
 31
-0.047
  0
LINE
  8
SLIDES-HID
 10
37.199005
 20
23.032783
 30
-0.047
 11
37.199005
 21
42.05227
 31
-0.047
  0
LINE
  8
SLIDES-HID
 10
37.237005
 20
23.032783
 30
-0.047
 11
37.237005
 21
42.21227
 31
-0.047
  0
LINE
  8
SLIDES
 10
37.299005
 20
22.21227
 30
-0.047
 11
36.924005
 21
22.21227
 31
-0.047
  0
LINE
  8
SLIDES
 10
37.299005
 20
42.21227
 30
-0.047
 11
36.988513
 21
42.21227
 31
-0.047
  0
LINE
  8
SLIDES-HID
 10
36.924005
 20
42.05227
 30
-0.047
 11
37.199005
 21
42.05227
 31
-0.047
  0
INSERT
  8
BRACKET
  2
BRKT-TOP
 10
37.361005
 20
22.46327
 30
-0.047
 50
270.0
  0
INSERT
  8
BRACKET
  2
BRKT-TOP
 10
37.361005
 20
41.96127
 30
-0.047
 41
-1.0
 50
270.0
  0
INSERT
  8
BRACKET
  2
BRKT-TOP
 10
19.487005
 20
22.46327
 30
-0.047
 41
-1.0
 50
90.0
  0
LINE
  8
SLIDES
 10
19.549005
 20
22.21227
 30
-0.047
 11
19.549005
 21
42.21227
 31
-0.047
  0
LINE
  8
SLIDES
 10
19.924005
 20
22.21227
 30
-0.047
 11
19.924005
 21
42.05227
 31
-0.047
  0
LINE
  8
SLIDES
 10
19.859497
 20
22.21227
 30
-0.047
 11
19.859497
 21
42.21227
 31
-0.047
  0
LINE
  8
SLIDES-HID
 10
19.649005
 20
23.032783
 30
-0.047
 11
19.649005
 21
42.05227
 31
-0.047
  0
LINE
  8
SLIDES-HID
 10
19.611005
 20
23.032783
 30
-0.047
 11
19.611005
 21
42.21227
 31
-0.047
  0
LINE
  8
SLIDES
 10
19.549005
 20
22.21227
 30
-0.047
 11
19.924005
 21
22.21227
 31
-0.047
  0
LINE
  8
OBJECT
 10
19.924005
 20
23.25927
 30
-0.047
 11
19.924118
 21
23.25927
 31
-0.047
  0
LINE
  8
OBJECT
 10
19.924118
 20
23.09527
 30
-0.047
 11
19.924005
 21
23.09527
 31
-0.047
  0
LINE
  8
OBJECT
 10
19.924005
 20
27.25927
 30
-0.047
 11
19.924118
 21
27.25927
 31
-0.047
  0
LINE
  8
OBJECT
 10
19.924118
 20
27.09527
 30
-0.047
 11
19.924005
 21
27.09527
 31
-0.047
  0
LINE
  8
OBJECT
 10
19.924005
 20
32.25927
 30
-0.047
 11
19.924118
 21
32.25927
 31
-0.047
  0
LINE
  8
OBJECT
 10
19.924118
 20
32.09527
 30
-0.047
 11
19.924005
 21
32.09527
 31
-0.047
  0
INSERT
  8
BRACKET
  2
BRKT-TOP
 10
19.487005
 20
41.96127
 30
-0.047
 50
90.0
  0
LINE
  8
OBJECT
 10
19.924005
 20
38.75927
 30
-0.047
 11
19.924118
 21
38.75927
 31
-0.047
  0
LINE
  8
OBJECT
 10
19.924118
 20
38.59527
 30
-0.047
 11
19.924005
 21
38.59527
 31
-0.047
  0
LINE
  8
SLIDES
 10
19.549005
 20
42.21227
 30
-0.047
 11
19.859497
 21
42.21227
 31
-0.047
  0
LINE
  8
SLIDES-HID
 10
19.924005
 20
42.05227
 30
-0.047
 11
19.649005
 21
42.05227
 31
-0.047
  0
LINE
  8
OBJECT
 10
19.924005
 20
41.25927
 30
-0.047
 11
19.924118
 21
41.25927
 31
-0.047
  0
LINE
  8
OBJECT
 10
19.924118
 20
41.09527
 30
-0.047
 11
19.924005
 21
41.09527
 31
-0.047
  0
CIRCLE
  8
OBJECT
 10
56.995669
 20
13.643913
 30
-0.047
 40
0.156
  0
POLYLINE
  8
SLIDES-HID
 66
     1
 10
0.0
 20
0.0
 30
-0.047
 70
     1
  0
VERTEX
  8
SLIDES-HID
 10
56.905669
 20
13.658913
 30
-0.047
  0
VERTEX
  8
SLIDES-HID
 10
56.905669
 20
13.628913
 30
-0.047
 42
1.0
  0
VERTEX
  8
SLIDES-HID
 10
57.085669
 20
13.628913
 30
-0.047
  0
VERTEX
  8
SLIDES-HID
 10
57.085669
 20
13.658913
 30
-0.047
 42
1.0
  0
SEQEND
  8
SLIDES-HID
  0
CIRCLE
  8
OBJECT
 10
60.995669
 20
13.643913
 30
-0.047
 40
0.156
  0
POLYLINE
  8
SLIDES-HID
 66
     1
 10
0.0
 20
0.0
 30
-0.047
 70
     1
  0
VERTEX
  8
SLIDES-HID
 10
60.980669
 20
13.733913
 30
-0.047
 42
1.0
  0
VERTEX
  8
SLIDES-HID
 10
60.980669
 20
13.553913
 30
-0.047
  0
VERTEX
  8
SLIDES-HID
 10
61.010669
 20
13.553913
 30
-0.047
 42
1.0
  0
VERTEX
  8
SLIDES-HID
 10
61.010669
 20
13.733913
 30
-0.047
  0
SEQEND
  8
SLIDES-HID
  0
POLYLINE
  8
SLIDES-HID
 66
     1
 10
0.0
 20
0.0
 30
-0.047
 70
     1
  0
VERTEX
  8
SLIDES-HID
 10
65.980669
 20
13.553913
 30
-0.047
  0
VERTEX
  8
SLIDES-HID
 10
66.010669
 20
13.553913
 30
-0.047
 42
1.0
  0
VERTEX
  8
SLIDES-HID
 10
66.010669
 20
13.733913
 30
-0.047
  0
VERTEX
  8
SLIDES-HID
 10
65.980669
 20
13.733913
 30
-0.047
 42
1.0
  0
SEQEND
  8
SLIDES-HID
  0
CIRCLE
  8
OBJECT
 10
65.995669
 20
13.643913
 30
-0.047
 40
0.156
  0
CIRCLE
  8
HIDDEN
 10
72.495669
 20
13.643913
 30
-0.047
 40
0.156
  0
CIRCLE
  8
HIDDEN
 10
74.995669
 20
13.643913
 30
-0.047
 40
0.156
  0
DIMENSION
  8
DIM
  2
*D60
 10
90.995669
 20
5.321449
 30
-0.047
 11
73.410169
 21
5.321449
 31
-0.047
 12
0.0
 22
-2.661751
 32
-0.047
 13
55.824669
 23
11.909913
 33
-0.047
 14
90.995669
 24
12.268913
 34
-0.047
  3
23NSTD
  0
DIMENSION
  8
DIM
  2
*D58
 10
55.995669
 20
9.325523
 30
-0.047
 11
63.495669
 21
9.325523
 31
-0.047
 12
0.0
 22
-2.661751
 32
-0.047
  1
<> SLIDE TRAVEL
 13
70.995669
 23
12.948913
 33
-0.047
 14
55.995669
 24
13.143832
 34
-0.047
  3
23NSTDI
  0
DIMENSION
  8
DIM
  2
*D59
 10
55.824669
 20
7.361805
 30
-0.047
 11
51.635606
 21
7.361805
 31
-0.047
 12
0.0
 22
-2.661751
 32
-0.047
 13
55.995669
 23
13.143832
 33
-0.047
 14
55.824669
 24
11.909913
 34
-0.047
  3
23NSTD
  0
DIMENSION
  8
DIM
  2
*D79
 10
41.043524
 20
22.05227
 30
-0.047
 11
41.043524
 21
34.63527
 31
-0.047
 12
1.795079
 22
2.553276
 32
-0.047
 70
   128
 13
36.924005
 23
46.05227
 33
-0.047
 14
37.924005
 24
22.05227
 34
-0.047
 50
90.0
  3
23NSTD
  0
DIMENSION
  8
DIM
  2
*D80
 10
44.256485
 20
21.96227
 30
-0.047
 11
44.256485
 21
32.79027
 31
-0.047
 12
1.795079
 22
2.553276
 32
-0.047
 70
   128
 13
36.924005
 23
46.05227
 33
-0.047
 14
30.674005
 24
21.96227
 34
-0.047
 50
90.0
  3
23NSTD
  0
LINE
  8
CENTER
 10
57.607669
 20
13.643913
 30
-0.047
 11
60.383669
 21
13.643913
 31
-0.047
  0
LINE
  8
CENTER
 10
61.607669
 20
13.643913
 30
-0.047
 11
65.383669
 21
13.643913
 31
-0.047
  0
LINE
  8
CENTER
 10
66.607669
 20
13.643913
 30
-0.047
 11
71.883669
 21
13.643913
 31
-0.047
  0
LINE
  8
CENTER
 10
73.107669
 20
13.643913
 30
-0.047
 11
74.383669
 21
13.643913
 31
-0.047
  0
POLYLINE
  8
SLIDES
 66
     1
 10
0.0
 20
0.0
 30
-0.047
 70
     1
 75
     6
  0
VERTEX
  8
SLIDES
 10
19.859497
 20
57.551684
 30
-0.047
 42
0.238363
  0
VERTEX
  8
SLIDES
 10
19.721005
 20
57.621684
 30
-0.047
 42
0.414214
  0
VERTEX
  8
SLIDES
 10
19.549005
 20
57.449684
 30
-0.047
  0
VERTEX
  8
SLIDES
 10
19.549005
 20
56.403684
 30
-0.047
 42
0.414214
  0
VERTEX
  8
SLIDES
 10
19.721005
 20
56.231684
 30
-0.047
 42
0.238363
  0
VERTEX
  8
SLIDES
 10
19.859497
 20
56.301684
 30
-0.047
  0
VERTEX
  8
SLIDES
 10
19.812312
 20
56.335468
 30
-0.047
 42
-0.241913
  0
VERTEX
  8
SLIDES
 10
19.731005
 20
56.293684
 30
-0.047
  0
VERTEX
  8
SLIDES
 10
19.721005
 20
56.293684
 30
-0.047
 42
-0.414214
  0
VERTEX
  8
SLIDES
 10
19.611005
 20
56.403684
 30
-0.047
  0
VERTEX
  8
SLIDES
 10
19.611005
 20
57.449684
 30
-0.047
 42
-0.414214
  0
VERTEX
  8
SLIDES
 10
19.721005
 20
57.559684
 30
-0.047
  0
VERTEX
  8
SLIDES
 10
19.731005
 20
57.559684
 30
-0.047
 42
-0.241913
  0
VERTEX
  8
SLIDES
 10
19.812312
 20
57.5179
 30
-0.047
  0
SEQEND
  8
SLIDES
  0
POLYLINE
  8
SLIDES
 66
     1
 10
0.0
 20
0.0
 30
-0.047
 75
     6
  0
VERTEX
  8
SLIDES
 10
19.677171
 20
56.469772
 30
-0.047
  0
VERTEX
  8
SLIDES
 10
19.647636
 20
56.52542
 30
-0.047
 42
-0.33823
  0
VERTEX
  8
SLIDES
 10
19.835072
 20
56.494333
 30
-0.047
 42
0.679543
  0
VERTEX
  8
SLIDES
 10
19.861005
 20
56.504603
 30
-0.047
  0
VERTEX
  8
SLIDES
 10
19.861005
 20
57.348765
 30
-0.047
 42
0.679543
  0
VERTEX
  8
SLIDES
 10
19.835072
 20
57.359035
 30
-0.047
 42
-0.33823
  0
VERTEX
  8
SLIDES
 10
19.647636
 20
57.327948
 30
-0.047
  0
VERTEX
  8
SLIDES
 10
19.677174
 20
57.383601
 30
-0.047
 42
0.340971
  0
VERTEX
  8
SLIDES
 10
19.789787
 20
57.402834
 30
-0.047
 42
-0.675247
  0
VERTEX
  8
SLIDES
 10
19.924005
 20
57.348765
 30
-0.047
  0
VERTEX
  8
SLIDES
 10
19.924005
 20
56.504603
 30
-0.047
 42
-0.675247
  0
VERTEX
  8
SLIDES
 10
19.789787
 20
56.450534
 30
-0.047
 42
0.340971
  0
VERTEX
  8
SLIDES
 10
19.677174
 20
56.469767
 30
-0.047
  0
SEQEND
  8
SLIDES
  0
POLYLINE
  8
SLIDES
 66
     1
 10
0.0
 20
0.0
 30
-0.047
 70
     1
 75
     6
  0
VERTEX
  8
SLIDES
 10
19.645272
 20
56.409184
 30
-0.047
 42
0.414214
  0
VERTEX
  8
SLIDES
 10
19.667272
 20
56.387184
 30
-0.047
  0
VERTEX
  8
SLIDES
 10
19.859497
 20
56.387184
 30
-0.047
  0
VERTEX
  8
SLIDES
 10
19.859497
 20
56.362184
 30
-0.047
  0
VERTEX
  8
SLIDES
 10
19.667272
 20
56.362184
 30
-0.047
 42
-0.414214
  0
VERTEX
  8
SLIDES
 10
19.620272
 20
56.409184
 30
-0.047
  0
VERTEX
  8
SLIDES
 10
19.620272
 20
56.705262
 30
-0.047
 42
-0.414214
  0
VERTEX
  8
SLIDES
 10
19.667272
 20
56.752262
 30
-0.047
  0
VERTEX
  8
SLIDES
 10
19.713789
 20
56.752262
 30
-0.047
 42
0.414214
  0
VERTEX
  8
SLIDES
 10
19.735789
 20
56.774262
 30
-0.047
  0
VERTEX
  8
SLIDES
 10
19.735789
 20
57.079106
 30
-0.047
 42
0.414214
  0
VERTEX
  8
SLIDES
 10
19.713789
 20
57.101106
 30
-0.047
  0
VERTEX
  8
SLIDES
 10
19.667272
 20
57.101106
 30
-0.047
 42
-0.414214
  0
VERTEX
  8
SLIDES
 10
19.620272
 20
57.148106
 30
-0.047
  0
VERTEX
  8
SLIDES
 10
19.620272
 20
57.444184
 30
-0.047
 42
-0.414214
  0
VERTEX
  8
SLIDES
 10
19.667272
 20
57.491184
 30
-0.047
  0
VERTEX
  8
SLIDES
 10
19.859497
 20
57.491184
 30
-0.047
  0
VERTEX
  8
SLIDES
 10
19.859497
 20
57.466184
 30
-0.047
  0
VERTEX
  8
SLIDES
 10
19.667272
 20
57.466184
 30
-0.047
 42
0.414214
  0
VERTEX
  8
SLIDES
 10
19.645272
 20
57.444184
 30
-0.047
  0
VERTEX
  8
SLIDES
 10
19.645272
 20
57.148106
 30
-0.047
 42
0.414214
  0
VERTEX
  8
SLIDES
 10
19.667272
 20
57.126106
 30
-0.047
  0
VERTEX
  8
SLIDES
 10
19.713789
 20
57.126106
 30
-0.047
 42
-0.414214
  0
VERTEX
  8
SLIDES
 10
19.760789
 20
57.079106
 30
-0.047
  0
VERTEX
  8
SLIDES
 10
19.760789
 20
56.774262
 30
-0.047
 42
-0.414214
  0
VERTEX
  8
SLIDES
 10
19.713789
 20
56.727262
 30
-0.047
  0
VERTEX
  8
SLIDES
 10
19.667272
 20
56.727262
 30
-0.047
 42
0.414214
  0
VERTEX
  8
SLIDES
 10
19.645272
 20
56.705262
 30
-0.047
  0
SEQEND
  8
SLIDES
  0
ARC
  8
SLIDES
 10
19.721005
 20
57.466184
 30
-0.047
 40
0.0935
 50
215.905824
 51
0.0
  0
ARC
  8
SLIDES
 10
19.721005
 20
56.387184
 30
-0.047
 40
0.0935
 50
360.0
 51
144.094176
  0
ARC
  8
SLIDES
 10
19.721005
 20
57.466184
 30
-0.047
 40
0.0935
 50
15.508402
 51
178.078271
  0
ARC
  8
SLIDES
 10
19.721005
 20
56.387184
 30
-0.047
 40
0.0935
 50
181.921729
 51
344.491598
  0
ARC
  8
SLIDES
 10
37.127005
 20
56.387184
 30
-0.047
 40
0.0935
 50
35.905824
 51
180.0
  0
POLYLINE
  8
SLIDES
 66
     1
 10
0.0
 20
0.0
 30
-0.047
 75
     6
  0
VERTEX
  8
SLIDES
 10
37.170839
 20
56.469772
 30
-0.047
  0
VERTEX
  8
SLIDES
 10
37.200374
 20
56.52542
 30
-0.047
 42
0.33823
  0
VERTEX
  8
SLIDES
 10
37.012938
 20
56.494333
 30
-0.047
 42
-0.679543
  0
VERTEX
  8
SLIDES
 10
36.987005
 20
56.504603
 30
-0.047
  0
VERTEX
  8
SLIDES
 10
36.987005
 20
57.348765
 30
-0.047
 42
-0.679543
  0
VERTEX
  8
SLIDES
 10
37.012938
 20
57.359035
 30
-0.047
 42
0.33823
  0
VERTEX
  8
SLIDES
 10
37.200374
 20
57.327948
 30
-0.047
  0
VERTEX
  8
SLIDES
 10
37.170836
 20
57.383601
 30
-0.047
 42
-0.340971
  0
VERTEX
  8
SLIDES
 10
37.058223
 20
57.402834
 30
-0.047
 42
0.675247
  0
VERTEX
  8
SLIDES
 10
36.924005
 20
57.348765
 30
-0.047
  0
VERTEX
  8
SLIDES
 10
36.924005
 20
56.504603
 30
-0.047
 42
0.675247
  0
VERTEX
  8
SLIDES
 10
37.058223
 20
56.450534
 30
-0.047
 42
-0.340971
  0
VERTEX
  8
SLIDES
 10
37.170836
 20
56.469767
 30
-0.047
  0
SEQEND
  8
SLIDES
  0
POLYLINE
  8
SLIDES
 66
     1
 10
0.0
 20
0.0
 30
-0.047
 70
     1
 75
     6
  0
VERTEX
  8
SLIDES
 10
37.202738
 20
56.409184
 30
-0.047
 42
-0.414214
  0
VERTEX
  8
SLIDES
 10
37.180738
 20
56.387184
 30
-0.047
  0
VERTEX
  8
SLIDES
 10
36.988513
 20
56.387184
 30
-0.047
  0
VERTEX
  8
SLIDES
 10
36.988513
 20
56.362184
 30
-0.047
  0
VERTEX
  8
SLIDES
 10
37.180738
 20
56.362184
 30
-0.047
 42
0.414214
  0
VERTEX
  8
SLIDES
 10
37.227738
 20
56.409184
 30
-0.047
  0
VERTEX
  8
SLIDES
 10
37.227738
 20
56.705262
 30
-0.047
 42
0.414214
  0
VERTEX
  8
SLIDES
 10
37.180738
 20
56.752262
 30
-0.047
  0
VERTEX
  8
SLIDES
 10
37.134221
 20
56.752262
 30
-0.047
 42
-0.414214
  0
VERTEX
  8
SLIDES
 10
37.112221
 20
56.774262
 30
-0.047
  0
VERTEX
  8
SLIDES
 10
37.112221
 20
57.079106
 30
-0.047
 42
-0.414214
  0
VERTEX
  8
SLIDES
 10
37.134221
 20
57.101106
 30
-0.047
  0
VERTEX
  8
SLIDES
 10
37.180738
 20
57.101106
 30
-0.047
 42
0.414214
  0
VERTEX
  8
SLIDES
 10
37.227738
 20
57.148106
 30
-0.047
  0
VERTEX
  8
SLIDES
 10
37.227738
 20
57.444184
 30
-0.047
 42
0.414214
  0
VERTEX
  8
SLIDES
 10
37.180738
 20
57.491184
 30
-0.047
  0
VERTEX
  8
SLIDES
 10
36.988513
 20
57.491184
 30
-0.047
  0
VERTEX
  8
SLIDES
 10
36.988513
 20
57.466184
 30
-0.047
  0
VERTEX
  8
SLIDES
 10
37.180738
 20
57.466184
 30
-0.047
 42
-0.414214
  0
VERTEX
  8
SLIDES
 10
37.202738
 20
57.444184
 30
-0.047
  0
VERTEX
  8
SLIDES
 10
37.202738
 20
57.148106
 30
-0.047
 42
-0.414214
  0
VERTEX
  8
SLIDES
 10
37.180738
 20
57.126106
 30
-0.047
  0
VERTEX
  8
SLIDES
 10
37.134221
 20
57.126106
 30
-0.047
 42
0.414214
  0
VERTEX
  8
SLIDES
 10
37.087221
 20
57.079106
 30
-0.047
  0
VERTEX
  8
SLIDES
 10
37.087221
 20
56.774262
 30
-0.047
 42
0.414214
  0
VERTEX
  8
SLIDES
 10
37.134221
 20
56.727262
 30
-0.047
  0
VERTEX
  8
SLIDES
 10
37.180738
 20
56.727262
 30
-0.047
 42
-0.414214
  0
VERTEX
  8
SLIDES
 10
37.202738
 20
56.705262
 30
-0.047
  0
SEQEND
  8
SLIDES
  0
POLYLINE
  8
SLIDES
 66
     1
 10
0.0
 20
0.0
 30
-0.047
 70
     1
 75
     6
  0
VERTEX
  8
SLIDES
 10
36.988513
 20
57.551684
 30
-0.047
 42
-0.238363
  0
VERTEX
  8
SLIDES
 10
37.127005
 20
57.621684
 30
-0.047
 42
-0.414214
  0
VERTEX
  8
SLIDES
 10
37.299005
 20
57.449684
 30
-0.047
  0
VERTEX
  8
SLIDES
 10
37.299005
 20
56.403684
 30
-0.047
 42
-0.414214
  0
VERTEX
  8
SLIDES
 10
37.127005
 20
56.231684
 30
-0.047
 42
-0.238363
  0
VERTEX
  8
SLIDES
 10
36.988513
 20
56.301684
 30
-0.047
  0
VERTEX
  8
SLIDES
 10
37.035697
 20
56.335468
 30
-0.047
 42
0.241913
  0
VERTEX
  8
SLIDES
 10
37.117005
 20
56.293684
 30
-0.047
  0
VERTEX
  8
SLIDES
 10
37.127005
 20
56.293684
 30
-0.047
 42
0.414214
  0
VERTEX
  8
SLIDES
 10
37.237005
 20
56.403684
 30
-0.047
  0
VERTEX
  8
SLIDES
 10
37.237005
 20
57.449684
 30
-0.047
 42
0.414214
  0
VERTEX
  8
SLIDES
 10
37.127005
 20
57.559684
 30
-0.047
  0
VERTEX
  8
SLIDES
 10
37.117005
 20
57.559684
 30
-0.047
 42
0.241913
  0
VERTEX
  8
SLIDES
 10
37.035697
 20
57.5179
 30
-0.047
  0
SEQEND
  8
SLIDES
  0
ARC
  8
SLIDES
 10
37.127005
 20
57.466184
 30
-0.047
 40
0.0935
 50
180.0
 51
324.094176
  0
ARC
  8
SLIDES
 10
37.127005
 20
57.466184
 30
-0.047
 40
0.0935
 50
1.921729
 51
164.491598
  0
ARC
  8
SLIDES
 10
37.127005
 20
56.387184
 30
-0.047
 40
0.0935
 50
195.508402
 51
358.078271
  0
INSERT
  8
BRACKET
  2
BRKT-REAR
 10
19.157005
 20
57.801684
 30
-0.047
  0
INSERT
  8
BRACKET
  2
BRKT-REAR
 10
37.691005
 20
56.051684
 30
-0.047
 50
180.0
  0
DIMENSION
  8
DIM
  2
*D81
 10
26.174005
 20
19.849212
 30
-0.047
 11
28.424005
 21
19.849212
 31
-0.047
 12
1.795079
 22
0.0
 32
-0.047
 13
30.674005
 23
21.96227
 33
-0.047
 14
26.174005
 24
21.96227
 34
-0.047
  3
23NSTDI
  0
DIMENSION
  8
DIM
  2
*D57
 10
90.995669
 20
9.325523
 30
-0.047
 11
80.995669
 21
9.325523
 31
-0.047
 12
0.0
 22
-2.661751
 32
-0.047
  1
<> SLIDE
 13
70.995669
 23
12.948913
 33
-0.047
 14
90.995669
 24
12.948913
 34
-0.047
  3
23NSTD
  0
DIMENSION
  8
DIM
  2
*D54
 10
94.013527
 20
15.393913
 30
-0.047
 11
94.013527
 21
14.518913
 31
-0.047
 12
0.0
 22
-2.661751
 32
-0.047
 13
90.225169
 23
13.643913
 33
-0.047
 14
90.369669
 24
15.393913
 34
-0.047
 50
90.0
  3
23NSTDI
  0
DIMENSION
  8
DIM
  2
*D53
 10
96.853114
 20
11.893913
 30
-0.047
 11
93.759989
 21
9.373913
 31
-0.047
 12
0.0
 22
-2.661751
 32
-0.047
 13
90.058669
 23
12.143913
 33
-0.047
 14
90.369669
 24
11.893913
 34
-0.047
 50
90.0
  3
23NSTD
  0
DIMENSION
  8
DIM
  2
*D55
 10
99.740161
 20
15.143913
 30
-0.047
 11
99.740161
 21
13.643913
 31
-0.047
 12
0.0
 22
-2.661751
 32
-0.047
 13
90.058669
 23
12.143913
 33
-0.047
 14
90.058669
 24
15.143913
 34
-0.047
 50
90.0
  3
23NSTDI
  0
DIMENSION
  8
DIM
  2
*D56
 10
103.006891
 20
11.893913
 30
-0.047
 11
103.006891
 21
13.643913
 31
-0.047
 12
0.0
 22
-2.661751
 32
-0.047
 13
90.369669
 23
15.393913
 33
-0.047
 14
90.369669
 24
11.893913
 34
-0.047
 50
90.0
  3
23NSTDI
  0
DIMENSION
  8
DIM
  2
*D78
 10
55.331761
 20
55.192684
 30
-0.047
 11
52.183949
 21
52.672684
 31
-0.047
 12
1.795079
 22
0.0
 32
-0.047
 13
37.691005
 23
56.051684
 33
-0.047
 14
37.924005
 24
55.192684
 34
-0.047
 50
90.0
  3
23NSTD
  0
DIMENSION
  8
DIM
  2
*D77
 10
50.342474
 20
56.051684
 30
-0.047
 11
47.194661
 21
53.531684
 31
-0.047
 12
1.795079
 22
0.0
 32
-0.047
 13
37.691005
 23
56.676684
 33
-0.047
 14
37.691005
 24
56.051684
 34
-0.047
 50
90.0
  3
23NSTD
  0
DIMENSION
  8
DIM
  2
*D76
 10
45.666859
 20
57.176684
 30
-0.047
 11
48.705297
 21
59.696684
 31
-0.047
 12
1.795079
 22
0.0
 32
-0.047
 13
37.691005
 23
56.676684
 33
-0.047
 14
37.691005
 24
57.176684
 34
-0.047
 50
90.0
  3
23NSTD
  0
DIMENSION
  8
DIM
  2
*D75
 10
41.043524
 20
57.801684
 30
-0.047
 11
44.191336
 21
60.321684
 31
-0.047
 12
1.795079
 22
0.0
 32
-0.047
 13
37.691005
 23
57.176684
 33
-0.047
 14
37.691005
 24
57.801684
 34
-0.047
 50
90.0
  3
23NSTD
  0
POLYLINE
  8
SLIDES-HID
 66
     1
 10
0.0
 20
0.0
 30
-0.047
  0
VERTEX
  8
SLIDES-HID
 10
78.242669
 20
12.948913
 30
-0.047
  0
VERTEX
  8
SLIDES-HID
 10
70.995669
 20
12.948913
 30
-0.047
  0
VERTEX
  8
SLIDES-HID
 10
70.995669
 20
14.338913
 30
-0.047
  0
VERTEX
  8
SLIDES-HID
 10
78.242669
 20
14.338913
 30
-0.047
  0
SEQEND
  8
SLIDES-HID
  0
POLYLINE
  8
SLIDES-HID
 66
     1
 10
0.0
 20
0.0
 30
-0.047
 75
     6
  0
VERTEX
  8
SLIDES-HID
 10
90.995669
 20
13.206413
 30
-0.047
  0
VERTEX
  8
SLIDES-HID
 10
90.895669
 20
13.206413
 30
-0.047
 42
0.538557
  0
VERTEX
  8
SLIDES-HID
 10
90.943694
 20
13.055681
 30
-0.047
  0
VERTEX
  8
SLIDES-HID
 10
90.995669
 20
13.052697
 30
-0.047
  0
VERTEX
  8
SLIDES-HID
 10
90.995669
 20
12.948913
 30
-0.047
  0
VERTEX
  8
SLIDES-HID
 10
83.748669
 20
12.948913
 30
-0.047
  0
SEQEND
  8
SLIDES-HID
  0
POLYLINE
  8
SLIDES
 66
     1
 10
0.0
 20
0.0
 30
-0.047
 75
     6
  0
VERTEX
  8
SLIDES
 10
83.748669
 20
12.948913
 30
-0.047
  0
VERTEX
  8
SLIDES
 10
78.242669
 20
12.948913
 30
-0.047
  0
SEQEND
  8
SLIDES
  0
POLYLINE
  8
SLIDES
 66
     1
 10
0.0
 20
0.0
 30
-0.047
 75
     6
  0
VERTEX
  8
SLIDES
 10
78.242669
 20
14.338913
 30
-0.047
  0
VERTEX
  8
SLIDES
 10
83.748669
 20
14.338913
 30
-0.047
  0
SEQEND
  8
SLIDES
  0
POLYLINE
  8
SLIDES-HID
 66
     1
 10
0.0
 20
0.0
 30
-0.047
 75
     6
  0
VERTEX
  8
SLIDES-HID
 10
83.748669
 20
14.338913
 30
-0.047
  0
VERTEX
  8
SLIDES-HID
 10
90.995669
 20
14.338913
 30
-0.047
  0
VERTEX
  8
SLIDES-HID
 10
90.995669
 20
14.235129
 30
-0.047
  0
VERTEX
  8
SLIDES-HID
 10
90.959083
 20
14.235129
 30
-0.047
 42
0.593233
  0
VERTEX
  8
SLIDES-HID
 10
90.895669
 20
14.081413
 30
-0.047
  0
VERTEX
  8
SLIDES-HID
 10
90.995669
 20
14.081413
 30
-0.047
  0
VERTEX
  8
SLIDES-HID
 10
90.995669
 20
13.206413
 30
-0.047
  0
SEQEND
  8
SLIDES-HID
  0
ARC
  8
SLIDES
 10
70.120669
 20
13.501726
 30
-0.047
 40
0.1
 50
180.0
 51
279.244522
  0
ARC
  8
SLIDES-HID
 10
70.120669
 20
13.786101
 30
-0.047
 40
0.1
 50
0.0
 51
80.755478
  0
TEXT
  8
DIM
 10
168.566291
 20
187.010875
 30
0.047
 40
0.5
  1

  0
TEXT
  8
DIM
 10
151.144291
 20
204.907569
 30
0.047
 40
0.5
  1

  0
TEXT
  8
DIM
 10
184.213471
 20
199.425856
 30
0.047
 40
0.5
  1

  0
TEXT
  8
DIM
 10
186.740749
 20
197.682373
 30
0.047
 40
0.5
  1

  0
TEXT
  8
DIM
 10
128.507726
 20
178.057199
 30
0.047
 40
0.5
  1

  0
TEXT
  8
DIM
 10
138.566854
 20
181.973219
 30
0.047
 40
0.5
  1

  0
TEXT
  8
DIM
 10
167.837909
 20
192.079448
 30
0.047
 40
0.5
  1

  0
TEXT
  8
DIM
 10
149.087909
 20
192.079448
 30
0.047
 40
0.5
  1

  0
TEXT
  8
DIM
 10
164.671242
 20
183.935762
 30
0.047
 40
0.5
  1

  0
TEXT
  8
DIM
 10
395.735043
 20
235.528973
 30
0.047
 40
0.5
  1

  0
TEXT
  8
DIM
 10
378.313043
 20
253.425666
 30
0.047
 40
0.5
  1

  0
TEXT
  8
DIM
 10
411.382223
 20
247.943953
 30
0.047
 40
0.5
  1

  0
TEXT
  8
DIM
 10
413.909501
 20
246.20047
 30
0.047
 40
0.5
  1

  0
TEXT
  8
DIM
 10
355.676478
 20
226.575296
 30
0.047
 40
0.5
  1

  0
TEXT
  8
DIM
 10
365.735606
 20
230.491317
 30
0.047
 40
0.5
  1

  0
TEXT
  8
DIM
 10
395.006661
 20
240.597546
 30
0.047
 40
0.5
  1

  0
TEXT
  8
DIM
 10
376.256661
 20
240.597546
 30
0.047
 40
0.5
  1

  0
TEXT
  8
DIM
 10
391.839994
 20
232.45386
 30
0.047
 40
0.5
  1

  0
TEXT
  8
DIM
 10
282.612543
 20
225.758248
 30
0.047
 40
0.875
  1

 41
0.75
  7
TXT
 72
     2
 11
282.612543
 21
226.195748
 31
0.047
 73
     2
  0
TEXT
  8
DIM
 10
168.566291
 20
203.010875
 30
0.047
 40
0.5
  1

  0
TEXT
  8
DIM
 10
151.144291
 20
220.907569
 30
0.047
 40
0.5
  1

  0
TEXT
  8
DIM
 10
184.213471
 20
215.425856
 30
0.047
 40
0.5
  1

  0
TEXT
  8
DIM
 10
186.740749
 20
213.682373
 30
0.047
 40
0.5
  1

  0
TEXT
  8
DIM
 10
128.507726
 20
194.057199
 30
0.047
 40
0.5
  1

  0
TEXT
  8
DIM
 10
138.566854
 20
197.973219
 30
0.047
 40
0.5
  1

  0
TEXT
  8
DIM
 10
167.837909
 20
208.079448
 30
0.047
 40
0.5
  1

  0
TEXT
  8
DIM
 10
149.087909
 20
208.079448
 30
0.047
 40
0.5
  1

  0
TEXT
  8
DIM
 10
164.671242
 20
199.935762
 30
0.047
 40
0.5
  1

  0
TEXT
  8
DIM
 10
395.735043
 20
251.528973
 30
0.047
 40
0.5
  1

  0
TEXT
  8
DIM
 10
378.313043
 20
269.425666
 30
0.047
 40
0.5
  1

  0
TEXT
  8
DIM
 10
411.382223
 20
263.943953
 30
0.047
 40
0.5
  1

  0
TEXT
  8
DIM
 10
413.909501
 20
262.20047
 30
0.047
 40
0.5
  1

  0
TEXT
  8
DIM
 10
355.676478
 20
242.575296
 30
0.047
 40
0.5
  1

  0
TEXT
  8
DIM
 10
365.735606
 20
246.491317
 30
0.047
 40
0.5
  1

  0
TEXT
  8
DIM
 10
395.006661
 20
256.597546
 30
0.047
 40
0.5
  1

  0
TEXT
  8
DIM
 10
376.256661
 20
256.597546
 30
0.047
 40
0.5
  1

  0
TEXT
  8
DIM
 10
391.839994
 20
248.45386
 30
0.047
 40
0.5
  1

  0
TEXT
  8
DIM
 10
282.612543
 20
241.758248
 30
0.047
 40
0.875
  1

 41
0.75
  7
TXT
 72
     2
 11
282.612543
 21
242.195748
 31
0.047
 73
     2
  0
TEXT
  8
DIM
 10
395.711854
 20
218.365559
 30
0.047
 40
0.5
  1

  0
TEXT
  8
DIM
 10
378.289854
 20
236.262253
 30
0.047
 40
0.5
  1

  0
TEXT
  8
DIM
 10
411.359033
 20
230.78054
 30
0.047
 40
0.5
  1

  0
TEXT
  8
DIM
 10
413.886312
 20
229.037057
 30
0.047
 40
0.5
  1

  0
TEXT
  8
DIM
 10
355.653289
 20
209.411883
 30
0.047
 40
0.5
  1

  0
TEXT
  8
DIM
 10
365.712417
 20
213.327903
 30
0.047
 40
0.5
  1

  0
TEXT
  8
DIM
 10
394.983472
 20
223.434133
 30
0.047
 40
0.5
  1

  0
TEXT
  8
DIM
 10
376.233472
 20
223.434133
 30
0.047
 40
0.5
  1

  0
TEXT
  8
DIM
 10
391.816805
 20
215.290447
 30
0.047
 40
0.5
  1

  0
TEXT
  8
DIM
 10
282.589354
 20
208.594834
 30
0.047
 40
0.875
  1

 41
0.75
  7
TXT
 72
     2
 11
282.589354
 21
209.032334
 31
0.047
 73
     2
  0
TEXT
  8
DIM
 10
457.711854
 20
218.365559
 30
0.047
 40
0.5
  1

  0
TEXT
  8
DIM
 10
440.289854
 20
236.262253
 30
0.047
 40
0.5
  1

  0
TEXT
  8
DIM
 10
473.359033
 20
230.78054
 30
0.047
 40
0.5
  1

  0
TEXT
  8
DIM
 10
475.886312
 20
229.037057
 30
0.047
 40
0.5
  1

  0
TEXT
  8
DIM
 10
417.653289
 20
209.411883
 30
0.047
 40
0.5
  1

  0
TEXT
  8
DIM
 10
427.712417
 20
213.327903
 30
0.047
 40
0.5
  1

  0
TEXT
  8
DIM
 10
456.983472
 20
223.434133
 30
0.047
 40
0.5
  1

  0
TEXT
  8
DIM
 10
438.233472
 20
223.434133
 30
0.047
 40
0.5
  1

  0
TEXT
  8
DIM
 10
453.816805
 20
215.290447
 30
0.047
 40
0.5
  1

  0
TEXT
  8
DIM
 10
344.589354
 20
208.594834
 30
0.047
 40
0.875
  1

 41
0.75
  7
TXT
 72
     2
 11
344.589354
 21
209.032334
 31
0.047
 73
     2
  0
TEXT
  8
DIM
 10
419.385783
 20
217.964445
 30
0.047
 40
0.5
  1

  0
TEXT
  8
DIM
 10
401.963783
 20
235.861139
 30
0.047
 40
0.5
  1

  0
TEXT
  8
DIM
 10
435.032963
 20
230.379426
 30
0.047
 40
0.5
  1

  0
TEXT
  8
DIM
 10
437.560241
 20
228.635943
 30
0.047
 40
0.5
  1

  0
TEXT
  8
DIM
 10
379.327218
 20
209.010769
 30
0.047
 40
0.5
  1

  0
TEXT
  8
DIM
 10
389.386346
 20
212.926789
 30
0.047
 40
0.5
  1

  0
TEXT
  8
DIM
 10
418.657401
 20
223.033019
 30
0.047
 40
0.5
  1

  0
TEXT
  8
DIM
 10
399.907401
 20
223.033019
 30
0.047
 40
0.5
  1

  0
TEXT
  8
DIM
 10
415.490734
 20
214.889332
 30
0.047
 40
0.5
  1

  0
TEXT
  8
DIM
 10
306.263284
 20
208.19372
 30
0.047
 40
0.875
  1

 41
0.75
  7
TXT
 72
     2
 11
306.263284
 21
208.63122
 31
0.047
 73
     2
  0
TEXT
  8
DIM
 10
481.385783
 20
217.964445
 30
0.047
 40
0.5
  1

  0
TEXT
  8
DIM
 10
463.963783
 20
235.861139
 30
0.047
 40
0.5
  1

  0
TEXT
  8
DIM
 10
497.032963
 20
230.379426
 30
0.047
 40
0.5
  1

  0
TEXT
  8
DIM
 10
499.560241
 20
228.635943
 30
0.047
 40
0.5
  1

  0
TEXT
  8
DIM
 10
441.327218
 20
209.010769
 30
0.047
 40
0.5
  1

  0
TEXT
  8
DIM
 10
451.386346
 20
212.926789
 30
0.047
 40
0.5
  1

  0
TEXT
  8
DIM
 10
480.657401
 20
223.033019
 30
0.047
 40
0.5
  1

  0
TEXT
  8
DIM
 10
461.907401
 20
223.033019
 30
0.047
 40
0.5
  1

  0
TEXT
  8
DIM
 10
477.490734
 20
214.889332
 30
0.047
 40
0.5
  1

  0
TEXT
  8
DIM
 10
368.263284
 20
208.19372
 30
0.047
 40
0.875
  1

 41
0.75
  7
TXT
 72
     2
 11
368.263284
 21
208.63122
 31
0.047
 73
     2
  0
TEXT
  8
DIM
 10
481.385783
 20
217.964445
 30
0.047
 40
0.5
  1

  0
TEXT
  8
DIM
 10
463.963783
 20
235.861139
 30
0.047
 40
0.5
  1

  0
TEXT
  8
DIM
 10
497.032963
 20
230.379426
 30
0.047
 40
0.5
  1

  0
TEXT
  8
DIM
 10
499.560241
 20
228.635943
 30
0.047
 40
0.5
  1

  0
TEXT
  8
DIM
 10
441.327218
 20
209.010769
 30
0.047
 40
0.5
  1

  0
TEXT
  8
DIM
 10
451.386346
 20
212.926789
 30
0.047
 40
0.5
  1

  0
TEXT
  8
DIM
 10
480.657401
 20
223.033019
 30
0.047
 40
0.5
  1

  0
TEXT
  8
DIM
 10
461.907401
 20
223.033019
 30
0.047
 40
0.5
  1

  0
TEXT
  8
DIM
 10
477.490734
 20
214.889332
 30
0.047
 40
0.5
  1

  0
TEXT
  8
DIM
 10
368.263284
 20
208.19372
 30
0.047
 40
0.875
  1

 41
0.75
  7
TXT
 72
     2
 11
368.263284
 21
208.63122
 31
0.047
 73
     2
  0
TEXT
  8
DIM
 10
240.316291
 20
187.010875
 30
0.047
 40
0.5
  1

  0
TEXT
  8
DIM
 10
222.894291
 20
204.907569
 30
0.047
 40
0.5
  1

  0
TEXT
  8
DIM
 10
255.963471
 20
199.425856
 30
0.047
 40
0.5
  1

  0
TEXT
  8
DIM
 10
258.490749
 20
197.682373
 30
0.047
 40
0.5
  1

  0
TEXT
  8
DIM
 10
200.257726
 20
178.057199
 30
0.047
 40
0.5
  1

  0
TEXT
  8
DIM
 10
210.316854
 20
181.973219
 30
0.047
 40
0.5
  1

  0
TEXT
  8
DIM
 10
239.587909
 20
192.079448
 30
0.047
 40
0.5
  1

  0
TEXT
  8
DIM
 10
220.837909
 20
192.079448
 30
0.047
 40
0.5
  1

  0
TEXT
  8
DIM
 10
236.421242
 20
183.935762
 30
0.047
 40
0.5
  1

  0
TEXT
  8
DIM
 10
467.485043
 20
235.528973
 30
0.047
 40
0.5
  1

  0
TEXT
  8
DIM
 10
450.063043
 20
253.425666
 30
0.047
 40
0.5
  1

  0
TEXT
  8
DIM
 10
483.132223
 20
247.943953
 30
0.047
 40
0.5
  1

  0
TEXT
  8
DIM
 10
485.659501
 20
246.20047
 30
0.047
 40
0.5
  1

  0
TEXT
  8
DIM
 10
427.426478
 20
226.575296
 30
0.047
 40
0.5
  1

  0
TEXT
  8
DIM
 10
437.485606
 20
230.491317
 30
0.047
 40
0.5
  1

  0
TEXT
  8
DIM
 10
466.756661
 20
240.597546
 30
0.047
 40
0.5
  1

  0
TEXT
  8
DIM
 10
448.006661
 20
240.597546
 30
0.047
 40
0.5
  1

  0
TEXT
  8
DIM
 10
463.589994
 20
232.45386
 30
0.047
 40
0.5
  1

  0
TEXT
  8
DIM
 10
354.362543
 20
225.758248
 30
0.047
 40
0.875
  1

 41
0.75
  7
TXT
 72
     2
 11
354.362543
 21
226.195748
 31
0.047
 73
     2
  0
TEXT
  8
DIM
 10
240.316291
 20
203.010875
 30
0.047
 40
0.5
  1

  0
TEXT
  8
DIM
 10
222.894291
 20
220.907569
 30
0.047
 40
0.5
  1

  0
TEXT
  8
DIM
 10
255.963471
 20
215.425856
 30
0.047
 40
0.5
  1

  0
TEXT
  8
DIM
 10
258.490749
 20
213.682373
 30
0.047
 40
0.5
  1

  0
TEXT
  8
DIM
 10
200.257726
 20
194.057199
 30
0.047
 40
0.5
  1

  0
TEXT
  8
DIM
 10
210.316854
 20
197.973219
 30
0.047
 40
0.5
  1

  0
TEXT
  8
DIM
 10
239.587909
 20
208.079448
 30
0.047
 40
0.5
  1

  0
TEXT
  8
DIM
 10
220.837909
 20
208.079448
 30
0.047
 40
0.5
  1

  0
TEXT
  8
DIM
 10
236.421242
 20
199.935762
 30
0.047
 40
0.5
  1

  0
TEXT
  8
DIM
 10
467.485043
 20
251.528973
 30
0.047
 40
0.5
  1

  0
TEXT
  8
DIM
 10
450.063043
 20
269.425666
 30
0.047
 40
0.5
  1

  0
TEXT
  8
DIM
 10
483.132223
 20
263.943953
 30
0.047
 40
0.5
  1

  0
TEXT
  8
DIM
 10
485.659501
 20
262.20047
 30
0.047
 40
0.5
  1

  0
TEXT
  8
DIM
 10
427.426478
 20
242.575296
 30
0.047
 40
0.5
  1

  0
TEXT
  8
DIM
 10
437.485606
 20
246.491317
 30
0.047
 40
0.5
  1

  0
TEXT
  8
DIM
 10
466.756661
 20
256.597546
 30
0.047
 40
0.5
  1

  0
TEXT
  8
DIM
 10
448.006661
 20
256.597546
 30
0.047
 40
0.5
  1

  0
TEXT
  8
DIM
 10
463.589994
 20
248.45386
 30
0.047
 40
0.5
  1

  0
TEXT
  8
DIM
 10
354.362543
 20
241.758248
 30
0.047
 40
0.875
  1

 41
0.75
  7
TXT
 72
     2
 11
354.362543
 21
242.195748
 31
0.047
 73
     2
  0
TEXT
  8
DIM
 10
467.461854
 20
218.365559
 30
0.047
 40
0.5
  1

  0
TEXT
  8
DIM
 10
450.039854
 20
236.262253
 30
0.047
 40
0.5
  1

  0
TEXT
  8
DIM
 10
483.109033
 20
230.78054
 30
0.047
 40
0.5
  1

  0
TEXT
  8
DIM
 10
485.636312
 20
229.037057
 30
0.047
 40
0.5
  1

  0
TEXT
  8
DIM
 10
427.403289
 20
209.411883
 30
0.047
 40
0.5
  1

  0
TEXT
  8
DIM
 10
437.462417
 20
213.327903
 30
0.047
 40
0.5
  1

  0
TEXT
  8
DIM
 10
466.733472
 20
223.434133
 30
0.047
 40
0.5
  1

  0
TEXT
  8
DIM
 10
447.983472
 20
223.434133
 30
0.047
 40
0.5
  1

  0
TEXT
  8
DIM
 10
463.566805
 20
215.290447
 30
0.047
 40
0.5
  1

  0
TEXT
  8
DIM
 10
354.339354
 20
208.594834
 30
0.047
 40
0.875
  1

 41
0.75
  7
TXT
 72
     2
 11
354.339354
 21
209.032334
 31
0.047
 73
     2
  0
TEXT
  8
DIM
 10
529.461854
 20
218.365559
 30
0.047
 40
0.5
  1

  0
TEXT
  8
DIM
 10
512.039854
 20
236.262253
 30
0.047
 40
0.5
  1

  0
TEXT
  8
DIM
 10
545.109033
 20
230.78054
 30
0.047
 40
0.5
  1

  0
TEXT
  8
DIM
 10
547.636312
 20
229.037057
 30
0.047
 40
0.5
  1

  0
TEXT
  8
DIM
 10
489.403289
 20
209.411883
 30
0.047
 40
0.5
  1

  0
TEXT
  8
DIM
 10
499.462417
 20
213.327903
 30
0.047
 40
0.5
  1

  0
TEXT
  8
DIM
 10
528.733472
 20
223.434133
 30
0.047
 40
0.5
  1

  0
TEXT
  8
DIM
 10
509.983472
 20
223.434133
 30
0.047
 40
0.5
  1

  0
TEXT
  8
DIM
 10
525.566805
 20
215.290447
 30
0.047
 40
0.5
  1

  0
TEXT
  8
DIM
 10
416.339354
 20
208.594834
 30
0.047
 40
0.875
  1

 41
0.75
  7
TXT
 72
     2
 11
416.339354
 21
209.032334
 31
0.047
 73
     2
  0
TEXT
  8
DIM
 10
488.014926
 20
214.666395
 30
0.047
 40
0.5
  1

  0
TEXT
  8
DIM
 10
470.592926
 20
232.563089
 30
0.047
 40
0.5
  1

  0
TEXT
  8
DIM
 10
503.662106
 20
227.081376
 30
0.047
 40
0.5
  1

  0
TEXT
  8
DIM
 10
506.189384
 20
225.337893
 30
0.047
 40
0.5
  1

  0
TEXT
  8
DIM
 10
447.956361
 20
205.712719
 30
0.047
 40
0.5
  1

  0
TEXT
  8
DIM
 10
458.015489
 20
209.628739
 30
0.047
 40
0.5
  1

  0
TEXT
  8
DIM
 10
487.286544
 20
219.734968
 30
0.047
 40
0.5
  1

  0
TEXT
  8
DIM
 10
468.536544
 20
219.734968
 30
0.047
 40
0.5
  1

  0
TEXT
  8
DIM
 10
484.119877
 20
211.591282
 30
0.047
 40
0.5
  1

  0
TEXT
  8
DIM
 10
374.892427
 20
204.89567
 30
0.047
 40
0.875
  1

 41
0.75
  7
TXT
 72
     2
 11
374.892427
 21
205.33317
 31
0.047
 73
     2
  0
TEXT
  8
DIM
 10
550.014926
 20
214.666395
 30
0.047
 40
0.5
  1

  0
TEXT
  8
DIM
 10
532.592926
 20
232.563089
 30
0.047
 40
0.5
  1

  0
TEXT
  8
DIM
 10
565.662106
 20
227.081376
 30
0.047
 40
0.5
  1

  0
TEXT
  8
DIM
 10
568.189384
 20
225.337893
 30
0.047
 40
0.5
  1

  0
TEXT
  8
DIM
 10
509.956361
 20
205.712719
 30
0.047
 40
0.5
  1

  0
TEXT
  8
DIM
 10
520.015489
 20
209.628739
 30
0.047
 40
0.5
  1

  0
TEXT
  8
DIM
 10
549.286544
 20
219.734968
 30
0.047
 40
0.5
  1

  0
TEXT
  8
DIM
 10
530.536544
 20
219.734968
 30
0.047
 40
0.5
  1

  0
TEXT
  8
DIM
 10
546.119877
 20
211.591282
 30
0.047
 40
0.5
  1

  0
TEXT
  8
DIM
 10
436.892427
 20
204.89567
 30
0.047
 40
0.875
  1

 41
0.75
  7
TXT
 72
     2
 11
436.892427
 21
205.33317
 31
0.047
 73
     2
  0
CIRCLE
  8
OBJECT
 10
72.620669
 20
13.643913
 30
-0.047
 40
0.082
  0
POLYLINE
  8
OBJECT
 66
     1
 10
0.0
 20
0.0
 30
-0.047
 70
     1
  0
VERTEX
  8
OBJECT
 10
72.521365
 20
13.815913
 30
-0.047
  0
VERTEX
  8
OBJECT
 10
72.422061
 20
13.643913
 30
-0.047
  0
VERTEX
  8
OBJECT
 10
72.521365
 20
13.471913
 30
-0.047
  0
VERTEX
  8
OBJECT
 10
72.719973
 20
13.471913
 30
-0.047
  0
VERTEX
  8
OBJECT
 10
72.819277
 20
13.643913
 30
-0.047
  0
VERTEX
  8
OBJECT
 10
72.719973
 20
13.815913
 30
-0.047
  0
SEQEND
  8
OBJECT
  0
CIRCLE
  8
OBJECT
 10
75.995669
 20
13.643913
 30
-0.047
 40
0.082
  0
POLYLINE
  8
OBJECT
 66
     1
 10
0.0
 20
0.0
 30
-0.047
 70
     1
  0
VERTEX
  8
OBJECT
 10
75.896365
 20
13.815913
 30
-0.047
  0
VERTEX
  8
OBJECT
 10
75.797061
 20
13.643913
 30
-0.047
  0
VERTEX
  8
OBJECT
 10
75.896365
 20
13.471913
 30
-0.047
  0
VERTEX
  8
OBJECT
 10
76.094973
 20
13.471913
 30
-0.047
  0
VERTEX
  8
OBJECT
 10
76.194277
 20
13.643913
 30
-0.047
  0
VERTEX
  8
OBJECT
 10
76.094973
 20
13.815913
 30
-0.047
  0
SEQEND
  8
OBJECT
  0
CIRCLE
  8
OBJECT
 10
85.495669
 20
13.643913
 30
-0.047
 40
0.082
  0
POLYLINE
  8
OBJECT
 66
     1
 10
0.0
 20
0.0
 30
-0.047
 70
     1
  0
VERTEX
  8
OBJECT
 10
85.396365
 20
13.815913
 30
-0.047
  0
VERTEX
  8
OBJECT
 10
85.297061
 20
13.643913
 30
-0.047
  0
VERTEX
  8
OBJECT
 10
85.396365
 20
13.471913
 30
-0.047
  0
VERTEX
  8
OBJECT
 10
85.594973
 20
13.471913
 30
-0.047
  0
VERTEX
  8
OBJECT
 10
85.694277
 20
13.643913
 30
-0.047
  0
VERTEX
  8
OBJECT
 10
85.594973
 20
13.815913
 30
-0.047
  0
SEQEND
  8
OBJECT
  0
CIRCLE
  8
OBJECT
 10
89.870669
 20
13.643913
 30
-0.047
 40
0.082
  0
POLYLINE
  8
OBJECT
 66
     1
 10
0.0
 20
0.0
 30
-0.047
 70
     1
  0
VERTEX
  8
OBJECT
 10
89.771365
 20
13.815913
 30
-0.047
  0
VERTEX
  8
OBJECT
 10
89.672061
 20
13.643913
 30
-0.047
  0
VERTEX
  8
OBJECT
 10
89.771365
 20
13.471913
 30
-0.047
  0
VERTEX
  8
OBJECT
 10
89.969973
 20
13.471913
 30
-0.047
  0
VERTEX
  8
OBJECT
 10
90.069277
 20
13.643913
 30
-0.047
  0
VERTEX
  8
OBJECT
 10
89.969973
 20
13.815913
 30
-0.047
  0
SEQEND
  8
OBJECT
  0
TEXT
  8
TEXT
 10
67.386291
 20
64.016731
 30
-0.08225
 40
0.875
  1
%%UMATERIAL:
 41
0.75
  7
TXT
  0
TEXT
  8
TEXT
 10
68.501818
 20
62.558398
 30
-0.08225
 40
0.875
  1
FRONT PANEL
 41
0.75
  7
TXT
  0
TEXT
  8
TEXT
 10
68.501818
 20
61.100064
 30
-0.08225
 40
0.875
  1
MOUNTING BRACKETS
 41
0.75
  7
TXT
  0
TEXT
  8
TEXT
 10
68.501818
 20
59.641731
 30
-0.08225
 40
0.875
  1
SHELF & MOUSE PANEL
 41
0.75
  7
TXT
  0
TEXT
  8
TEXT
 10
88.359923
 20
59.644064
 30
-0.08225
 40
0.875
  1
18 GA. STEEL
 41
0.75
  7
TXT
  0
TEXT
  8
TEXT
 10
88.359923
 20
61.100064
 30
-0.08225
 40
0.875
  1
16 GA. STEEL
 41
0.75
  7
TXT
  0
TEXT
  8
TEXT
 10
88.359923
 20
62.558398
 30
-0.08225
 40
0.875
  1
12 GA. STEEL
 41
0.75
  7
TXT
  0
TEXT
  8
TEXT
 10
67.386291
 20
55.271398
 30
-0.08225
 40
0.875
  1
%%UFINISH:
 41
0.75
  7
TXT
  0
TEXT
  8
TEXT
 10
88.359923
 20
53.820064
 30
-0.08225
 40
0.875
  1
BLACK TEXTURE
 41
0.75
  7
TXT
  0
TEXT
  8
TEXT
 10
88.359923
 20
50.908064
 30
-0.08225
 40
0.875
  1
SMOOTH BLACK
 41
0.75
  7
TXT
  0
TEXT
  8
TEXT
 10
68.501818
 20
52.357064
 30
-0.08225
 40
0.875
  1
SHELF, MOUNTING BRACKETS
 41
0.75
  7
TXT
  0
TEXT
  8
DIM
 10
138.050128
 20
172.879821
 30
0.0
 40
0.5
  1

  0
TEXT
  8
DIM
 10
120.628128
 20
190.776515
 30
0.0
 40
0.5
  1

  0
TEXT
  8
DIM
 10
153.697307
 20
185.294802
 30
0.0
 40
0.5
  1

  0
TEXT
  8
DIM
 10
156.224586
 20
183.551319
 30
0.0
 40
0.5
  1

  0
TEXT
  8
DIM
 10
97.991563
 20
163.926145
 30
0.0
 40
0.5
  1

  0
TEXT
  8
DIM
 10
108.050691
 20
167.842165
 30
0.0
 40
0.5
  1

  0
TEXT
  8
DIM
 10
137.321746
 20
177.948394
 30
0.0
 40
0.5
  1

  0
TEXT
  8
DIM
 10
118.571746
 20
177.948394
 30
0.0
 40
0.5
  1

  0
TEXT
  8
DIM
 10
134.155079
 20
169.804708
 30
0.0
 40
0.5
  1

  0
TEXT
  8
DIM
 10
365.21888
 20
221.397918
 30
0.0
 40
0.5
  1

  0
TEXT
  8
DIM
 10
347.79688
 20
239.294612
 30
0.0
 40
0.5
  1

  0
TEXT
  8
DIM
 10
380.866059
 20
233.812899
 30
0.0
 40
0.5
  1

  0
TEXT
  8
DIM
 10
383.393338
 20
232.069416
 30
0.0
 40
0.5
  1

  0
TEXT
  8
DIM
 10
325.160315
 20
212.444242
 30
0.0
 40
0.5
  1

  0
TEXT
  8
DIM
 10
335.219443
 20
216.360262
 30
0.0
 40
0.5
  1

  0
TEXT
  8
DIM
 10
364.490498
 20
226.466492
 30
0.0
 40
0.5
  1

  0
TEXT
  8
DIM
 10
345.740498
 20
226.466492
 30
0.0
 40
0.5
  1

  0
TEXT
  8
DIM
 10
361.323831
 20
218.322806
 30
0.0
 40
0.5
  1

  0
TEXT
  8
DIM
 10
252.09638
 20
211.627193
 30
0.0
 40
0.875
  1

 41
0.75
  7
TXT
 72
     2
 11
252.09638
 21
212.064693
 31
0.0
 73
     2
  0
TEXT
  8
DIM
 10
168.566291
 20
180.950875
 30
0.047
 40
0.5
  1

  0
TEXT
  8
DIM
 10
151.144291
 20
198.847569
 30
0.047
 40
0.5
  1

  0
TEXT
  8
DIM
 10
184.213471
 20
193.365856
 30
0.047
 40
0.5
  1

  0
TEXT
  8
DIM
 10
186.740749
 20
191.622373
 30
0.047
 40
0.5
  1

  0
TEXT
  8
DIM
 10
128.507726
 20
171.997199
 30
0.047
 40
0.5
  1

  0
TEXT
  8
DIM
 10
138.566854
 20
175.913219
 30
0.047
 40
0.5
  1

  0
TEXT
  8
DIM
 10
167.837909
 20
186.019448
 30
0.047
 40
0.5
  1

  0
TEXT
  8
DIM
 10
149.087909
 20
186.019448
 30
0.047
 40
0.5
  1

  0
TEXT
  8
DIM
 10
164.671242
 20
177.875762
 30
0.047
 40
0.5
  1

  0
TEXT
  8
DIM
 10
395.735043
 20
229.468973
 30
0.047
 40
0.5
  1

  0
TEXT
  8
DIM
 10
378.313043
 20
247.365666
 30
0.047
 40
0.5
  1

  0
TEXT
  8
DIM
 10
411.382223
 20
241.883953
 30
0.047
 40
0.5
  1

  0
TEXT
  8
DIM
 10
413.909501
 20
240.14047
 30
0.047
 40
0.5
  1

  0
TEXT
  8
DIM
 10
355.676478
 20
220.515296
 30
0.047
 40
0.5
  1

  0
TEXT
  8
DIM
 10
365.735606
 20
224.431317
 30
0.047
 40
0.5
  1

  0
TEXT
  8
DIM
 10
395.006661
 20
234.537546
 30
0.047
 40
0.5
  1

  0
TEXT
  8
DIM
 10
376.256661
 20
234.537546
 30
0.047
 40
0.5
  1

  0
TEXT
  8
DIM
 10
391.839994
 20
226.39386
 30
0.047
 40
0.5
  1

  0
TEXT
  8
DIM
 10
282.612543
 20
219.698248
 30
0.047
 40
0.875
  1

 41
0.75
  7
TXT
 72
     2
 11
282.612543
 21
220.135748
 31
0.047
 73
     2
  0
TEXT
  8
DIM
 10
307.989996
 20
179.742233
 30
0.094
 40
1.25
  1

  0
TEXT
  8
DIM
 10
309.052496
 20
175.648475
 30
0.094
 40
1.0
  1

  0
TEXT
  8
OBJECT
 10
309.909239
 20
226.345133
 30
0.094
 40
1.25
  1

  0
TEXT
  8
DIM
 10
307.989996
 20
515.262233
 30
0.094
 40
1.25
  1

  0
TEXT
  8
DIM
 10
309.052496
 20
511.168475
 30
0.094
 40
1.0
  1

  0
TEXT
  8
OBJECT
 10
309.909239
 20
561.865133
 30
0.094
 40
1.25
  1

  0
TEXT
  8
DIM
 10
326.322425
 20
719.928761
 30
0.094
 40
1.25
  1

  0
TEXT
  8
DIM
 10
327.384925
 20
715.835003
 30
0.094
 40
1.0
  1

  0
TEXT
  8
DIM
 10
333.436502
 20
720.475998
 30
0.094
 40
1.25
  1

  0
TEXT
  8
DIM
 10
334.499002
 20
716.382239
 30
0.094
 40
1.0
  1

  0
TEXT
  8
OBJECT
 10
335.355746
 20
767.078897
 30
0.094
 40
1.25
  1

  0
TEXT
  8
DIM
 10
307.989996
 20
515.262233
 30
0.094
 40
1.25
  1

  0
TEXT
  8
DIM
 10
309.052496
 20
511.168475
 30
0.094
 40
1.0
  1

  0
TEXT
  8
OBJECT
 10
309.909239
 20
561.865133
 30
0.094
 40
1.25
  1

  0
TEXT
  8
DIM
 10
326.322425
 20
719.928761
 30
0.094
 40
1.25
  1

  0
TEXT
  8
DIM
 10
327.384925
 20
715.835003
 30
0.094
 40
1.0
  1

  0
TEXT
  8
DIM
 10
333.436502
 20
720.475998
 30
0.094
 40
1.25
  1

  0
TEXT
  8
DIM
 10
334.499002
 20
716.382239
 30
0.094
 40
1.0
  1

  0
TEXT
  8
OBJECT
 10
335.355746
 20
767.078897
 30
0.094
 40
1.25
  1

  0
TEXT
  8
DIM
 10
415.712295
 20
386.365549
 30
0.094
 40
1.25
  1

  0
TEXT
  8
DIM
 10
416.774795
 20
382.27179
 30
0.094
 40
1.0
  1

  0
TEXT
  8
DIM
 10
579.712295
 20
386.365549
 30
0.094
 40
1.25
  1

  0
TEXT
  8
DIM
 10
580.774795
 20
382.27179
 30
0.094
 40
1.0
  1

  0
TEXT
  8
OBJECT
 10
581.631539
 20
432.968448
 30
0.094
 40
1.25
  1

  0
TEXT
  8
DIM
 10
598.044725
 20
591.032077
 30
0.094
 40
1.25
  1

  0
TEXT
  8
DIM
 10
599.107225
 20
586.938318
 30
0.094
 40
1.0
  1

  0
TEXT
  8
DIM
 10
605.158802
 20
591.579313
 30
0.094
 40
1.25
  1

  0
TEXT
  8
DIM
 10
606.221302
 20
587.485555
 30
0.094
 40
1.0
  1

  0
TEXT
  8
OBJECT
 10
607.078045
 20
638.182213
 30
0.094
 40
1.25
  1

  0
TEXT
  8
DIM
 10
733.827482
 20
409.779765
 30
0.094
 40
1.25
  1

  0
TEXT
  8
DIM
 10
734.889982
 20
405.686006
 30
0.094
 40
1.0
  1

  0
TEXT
  8
DIM
 10
457.013123
 20
218.09124
 30
0.094
 40
0.5
  1

  0
TEXT
  8
DIM
 10
439.591123
 20
235.987934
 30
0.094
 40
0.5
  1

  0
TEXT
  8
DIM
 10
472.660302
 20
230.506221
 30
0.094
 40
0.5
  1

  0
TEXT
  8
DIM
 10
475.18758
 20
228.762738
 30
0.094
 40
0.5
  1

  0
TEXT
  8
DIM
 10
416.954558
 20
209.137564
 30
0.094
 40
0.5
  1

  0
TEXT
  8
DIM
 10
427.013685
 20
213.053584
 30
0.094
 40
0.5
  1

  0
TEXT
  8
DIM
 10
456.28474
 20
223.159813
 30
0.094
 40
0.5
  1

  0
TEXT
  8
DIM
 10
437.53474
 20
223.159813
 30
0.094
 40
0.5
  1

  0
TEXT
  8
DIM
 10
453.118073
 20
215.016127
 30
0.094
 40
0.5
  1

  0
TEXT
  8
DIM
 10
343.890623
 20
208.320515
 30
0.094
 40
0.875
  1

 41
0.75
  7
TXT
 72
     2
 11
343.890623
 21
208.758015
 31
0.094
 73
     2
  0
TEXT
  8
DIM
 10
519.013123
 20
218.09124
 30
0.094
 40
0.5
  1

  0
TEXT
  8
DIM
 10
501.591123
 20
235.987934
 30
0.094
 40
0.5
  1

  0
TEXT
  8
DIM
 10
534.660302
 20
230.506221
 30
0.094
 40
0.5
  1

  0
TEXT
  8
DIM
 10
537.18758
 20
228.762738
 30
0.094
 40
0.5
  1

  0
TEXT
  8
DIM
 10
478.954558
 20
209.137564
 30
0.094
 40
0.5
  1

  0
TEXT
  8
DIM
 10
489.013685
 20
213.053584
 30
0.094
 40
0.5
  1

  0
TEXT
  8
DIM
 10
518.28474
 20
223.159813
 30
0.094
 40
0.5
  1

  0
TEXT
  8
DIM
 10
499.53474
 20
223.159813
 30
0.094
 40
0.5
  1

  0
TEXT
  8
DIM
 10
515.118073
 20
215.016127
 30
0.094
 40
0.5
  1

  0
TEXT
  8
DIM
 10
405.890623
 20
208.320515
 30
0.094
 40
0.875
  1

 41
0.75
  7
TXT
 72
     2
 11
405.890623
 21
208.758015
 31
0.094
 73
     2
  0
TEXT
  8
DIM
 10
311.86756
 20
327.466556
 30
0.094
 40
0.5
  1

  0
TEXT
  8
DIM
 10
294.44556
 20
345.36325
 30
0.094
 40
0.5
  1

  0
TEXT
  8
DIM
 10
327.514739
 20
339.881536
 30
0.094
 40
0.5
  1

  0
TEXT
  8
DIM
 10
330.042017
 20
338.138054
 30
0.094
 40
0.5
  1

  0
TEXT
  8
DIM
 10
271.808995
 20
318.512879
 30
0.094
 40
0.5
  1

  0
TEXT
  8
DIM
 10
281.868123
 20
322.4289
 30
0.094
 40
0.5
  1

  0
TEXT
  8
DIM
 10
311.139177
 20
332.535129
 30
0.094
 40
0.5
  1

  0
TEXT
  8
DIM
 10
292.389177
 20
332.535129
 30
0.094
 40
0.5
  1

  0
TEXT
  8
DIM
 10
307.972511
 20
324.391443
 30
0.094
 40
0.5
  1

  0
TEXT
  8
DIM
 10
539.036312
 20
375.984653
 30
0.094
 40
0.5
  1

  0
TEXT
  8
DIM
 10
521.614312
 20
393.881347
 30
0.094
 40
0.5
  1

  0
TEXT
  8
DIM
 10
554.683491
 20
388.399634
 30
0.094
 40
0.5
  1

  0
TEXT
  8
DIM
 10
557.210769
 20
386.656151
 30
0.094
 40
0.5
  1

  0
TEXT
  8
DIM
 10
498.977747
 20
367.030977
 30
0.094
 40
0.5
  1

  0
TEXT
  8
DIM
 10
509.036875
 20
370.946997
 30
0.094
 40
0.5
  1

  0
TEXT
  8
DIM
 10
538.307929
 20
381.053227
 30
0.094
 40
0.5
  1

  0
TEXT
  8
DIM
 10
519.557929
 20
381.053227
 30
0.094
 40
0.5
  1

  0
TEXT
  8
DIM
 10
535.141263
 20
372.90954
 30
0.094
 40
0.5
  1

  0
TEXT
  8
DIM
 10
425.913812
 20
366.213928
 30
0.094
 40
0.875
  1

 41
0.75
  7
TXT
 72
     2
 11
425.913812
 21
366.651428
 31
0.094
 73
     2
  0
TEXT
  8
DIM
 10
311.86756
 20
202.736556
 30
0.094
 40
0.5
  1

  0
TEXT
  8
DIM
 10
294.44556
 20
220.63325
 30
0.094
 40
0.5
  1

  0
TEXT
  8
DIM
 10
327.514739
 20
215.151536
 30
0.094
 40
0.5
  1

  0
TEXT
  8
DIM
 10
330.042017
 20
213.408054
 30
0.094
 40
0.5
  1

  0
TEXT
  8
DIM
 10
271.808995
 20
193.782879
 30
0.094
 40
0.5
  1

  0
TEXT
  8
DIM
 10
281.868123
 20
197.6989
 30
0.094
 40
0.5
  1

  0
TEXT
  8
DIM
 10
311.139177
 20
207.805129
 30
0.094
 40
0.5
  1

  0
TEXT
  8
DIM
 10
292.389177
 20
207.805129
 30
0.094
 40
0.5
  1

  0
TEXT
  8
DIM
 10
307.972511
 20
199.661443
 30
0.094
 40
0.5
  1

  0
TEXT
  8
DIM
 10
539.036312
 20
251.254653
 30
0.094
 40
0.5
  1

  0
TEXT
  8
DIM
 10
521.614312
 20
269.151347
 30
0.094
 40
0.5
  1

  0
TEXT
  8
DIM
 10
554.683491
 20
263.669634
 30
0.094
 40
0.5
  1

  0
TEXT
  8
DIM
 10
557.210769
 20
261.926151
 30
0.094
 40
0.5
  1

  0
TEXT
  8
DIM
 10
498.977747
 20
242.300977
 30
0.094
 40
0.5
  1

  0
TEXT
  8
DIM
 10
509.036875
 20
246.216997
 30
0.094
 40
0.5
  1

  0
TEXT
  8
DIM
 10
538.307929
 20
256.323227
 30
0.094
 40
0.5
  1

  0
TEXT
  8
DIM
 10
519.557929
 20
256.323227
 30
0.094
 40
0.5
  1

  0
TEXT
  8
DIM
 10
535.141263
 20
248.17954
 30
0.094
 40
0.5
  1

  0
TEXT
  8
DIM
 10
425.913812
 20
241.483928
 30
0.094
 40
0.875
  1

 41
0.75
  7
TXT
 72
     2
 11
425.913812
 21
241.921428
 31
0.094
 73
     2
  0
TEXT
  8
DIM
 10
484.784298
 20
198.171012
 30
0.047
 40
0.5
  1

  0
TEXT
  8
DIM
 10
467.362298
 20
216.067706
 30
0.047
 40
0.5
  1

  0
TEXT
  8
DIM
 10
500.431477
 20
210.585993
 30
0.047
 40
0.5
  1

  0
TEXT
  8
DIM
 10
502.958755
 20
208.84251
 30
0.047
 40
0.5
  1

  0
TEXT
  8
DIM
 10
444.725733
 20
189.217336
 30
0.047
 40
0.5
  1

  0
TEXT
  8
DIM
 10
454.78486
 20
193.133356
 30
0.047
 40
0.5
  1

  0
TEXT
  8
DIM
 10
484.055915
 20
203.239586
 30
0.047
 40
0.5
  1

  0
TEXT
  8
DIM
 10
465.305915
 20
203.239586
 30
0.047
 40
0.5
  1

  0
TEXT
  8
DIM
 10
480.889248
 20
195.095899
 30
0.047
 40
0.5
  1

  0
TEXT
  8
DIM
 10
371.661798
 20
188.400287
 30
0.047
 40
0.875
  1

 41
0.75
  7
TXT
 72
     2
 11
371.661798
 21
188.837787
 31
0.047
 73
     2
  0
TEXT
  8
DIM
 10
546.784298
 20
198.171012
 30
0.047
 40
0.5
  1

  0
TEXT
  8
DIM
 10
529.362298
 20
216.067706
 30
0.047
 40
0.5
  1

  0
TEXT
  8
DIM
 10
562.431477
 20
210.585993
 30
0.047
 40
0.5
  1

  0
TEXT
  8
DIM
 10
564.958755
 20
208.84251
 30
0.047
 40
0.5
  1

  0
TEXT
  8
DIM
 10
506.725733
 20
189.217336
 30
0.047
 40
0.5
  1

  0
TEXT
  8
DIM
 10
516.78486
 20
193.133356
 30
0.047
 40
0.5
  1

  0
TEXT
  8
DIM
 10
546.055915
 20
203.239586
 30
0.047
 40
0.5
  1

  0
TEXT
  8
DIM
 10
527.305915
 20
203.239586
 30
0.047
 40
0.5
  1

  0
TEXT
  8
DIM
 10
542.889248
 20
195.095899
 30
0.047
 40
0.5
  1

  0
TEXT
  8
DIM
 10
433.661798
 20
188.400287
 30
0.047
 40
0.875
  1

 41
0.75
  7
TXT
 72
     2
 11
433.661798
 21
188.837787
 31
0.047
 73
     2
  0
TEXT
  8
DIM
 10
298.799496
 20
183.873233
 30
0.094
 40
1.25
  1

  0
TEXT
  8
DIM
 10
299.861996
 20
179.779475
 30
0.094
 40
1.0
  1

  0
TEXT
  8
OBJECT
 10
300.718739
 20
230.476133
 30
0.094
 40
1.25
  1

  0
TEXT
  8
DIM
 10
298.799496
 20
519.393233
 30
0.094
 40
1.25
  1

  0
TEXT
  8
DIM
 10
299.861996
 20
515.299475
 30
0.094
 40
1.0
  1

  0
TEXT
  8
OBJECT
 10
300.718739
 20
565.996133
 30
0.094
 40
1.25
  1

  0
TEXT
  8
DIM
 10
317.131925
 20
724.059761
 30
0.094
 40
1.25
  1

  0
TEXT
  8
DIM
 10
318.194425
 20
719.966003
 30
0.094
 40
1.0
  1

  0
TEXT
  8
DIM
 10
324.246002
 20
724.606998
 30
0.094
 40
1.25
  1

  0
TEXT
  8
DIM
 10
325.308502
 20
720.513239
 30
0.094
 40
1.0
  1

  0
TEXT
  8
OBJECT
 10
326.165246
 20
771.209897
 30
0.094
 40
1.25
  1

  0
TEXT
  8
DIM
 10
298.799496
 20
519.393233
 30
0.094
 40
1.25
  1

  0
TEXT
  8
DIM
 10
299.861996
 20
515.299475
 30
0.094
 40
1.0
  1

  0
TEXT
  8
OBJECT
 10
300.718739
 20
565.996133
 30
0.094
 40
1.25
  1

  0
TEXT
  8
DIM
 10
317.131925
 20
724.059761
 30
0.094
 40
1.25
  1

  0
TEXT
  8
DIM
 10
318.194425
 20
719.966003
 30
0.094
 40
1.0
  1

  0
TEXT
  8
DIM
 10
324.246002
 20
724.606998
 30
0.094
 40
1.25
  1

  0
TEXT
  8
DIM
 10
325.308502
 20
720.513239
 30
0.094
 40
1.0
  1

  0
TEXT
  8
OBJECT
 10
326.165246
 20
771.209897
 30
0.094
 40
1.25
  1

  0
TEXT
  8
DIM
 10
406.521795
 20
390.496549
 30
0.094
 40
1.25
  1

  0
TEXT
  8
DIM
 10
407.584295
 20
386.40279
 30
0.094
 40
1.0
  1

  0
TEXT
  8
DIM
 10
570.521795
 20
390.496549
 30
0.094
 40
1.25
  1

  0
TEXT
  8
DIM
 10
571.584295
 20
386.40279
 30
0.094
 40
1.0
  1

  0
TEXT
  8
OBJECT
 10
572.441039
 20
437.099448
 30
0.094
 40
1.25
  1

  0
TEXT
  8
DIM
 10
588.854225
 20
595.163077
 30
0.094
 40
1.25
  1

  0
TEXT
  8
DIM
 10
589.916725
 20
591.069318
 30
0.094
 40
1.0
  1

  0
TEXT
  8
DIM
 10
595.968302
 20
595.710313
 30
0.094
 40
1.25
  1

  0
TEXT
  8
DIM
 10
597.030802
 20
591.616555
 30
0.094
 40
1.0
  1

  0
TEXT
  8
OBJECT
 10
597.887545
 20
642.313213
 30
0.094
 40
1.25
  1

  0
TEXT
  8
DIM
 10
724.636982
 20
413.910765
 30
0.094
 40
1.25
  1

  0
TEXT
  8
DIM
 10
725.699482
 20
409.817006
 30
0.094
 40
1.0
  1

  0
TEXT
  8
DIM
 10
447.822623
 20
222.22224
 30
0.094
 40
0.5
  1

  0
TEXT
  8
DIM
 10
430.400623
 20
240.118934
 30
0.094
 40
0.5
  1

  0
TEXT
  8
DIM
 10
463.469802
 20
234.637221
 30
0.094
 40
0.5
  1

  0
TEXT
  8
DIM
 10
465.99708
 20
232.893738
 30
0.094
 40
0.5
  1

  0
TEXT
  8
DIM
 10
407.764058
 20
213.268564
 30
0.094
 40
0.5
  1

  0
TEXT
  8
DIM
 10
417.823185
 20
217.184584
 30
0.094
 40
0.5
  1

  0
TEXT
  8
DIM
 10
447.09424
 20
227.290813
 30
0.094
 40
0.5
  1

  0
TEXT
  8
DIM
 10
428.34424
 20
227.290813
 30
0.094
 40
0.5
  1

  0
TEXT
  8
DIM
 10
443.927573
 20
219.147127
 30
0.094
 40
0.5
  1

  0
TEXT
  8
DIM
 10
334.700123
 20
212.451515
 30
0.094
 40
0.875
  1

 41
0.75
  7
TXT
 72
     2
 11
334.700123
 21
212.889015
 31
0.094
 73
     2
  0
TEXT
  8
DIM
 10
509.822623
 20
222.22224
 30
0.094
 40
0.5
  1

  0
TEXT
  8
DIM
 10
492.400623
 20
240.118934
 30
0.094
 40
0.5
  1

  0
TEXT
  8
DIM
 10
525.469802
 20
234.637221
 30
0.094
 40
0.5
  1

  0
TEXT
  8
DIM
 10
527.99708
 20
232.893738
 30
0.094
 40
0.5
  1

  0
TEXT
  8
DIM
 10
469.764058
 20
213.268564
 30
0.094
 40
0.5
  1

  0
TEXT
  8
DIM
 10
479.823185
 20
217.184584
 30
0.094
 40
0.5
  1

  0
TEXT
  8
DIM
 10
509.09424
 20
227.290813
 30
0.094
 40
0.5
  1

  0
TEXT
  8
DIM
 10
490.34424
 20
227.290813
 30
0.094
 40
0.5
  1

  0
TEXT
  8
DIM
 10
505.927573
 20
219.147127
 30
0.094
 40
0.5
  1

  0
TEXT
  8
DIM
 10
396.700123
 20
212.451515
 30
0.094
 40
0.875
  1

 41
0.75
  7
TXT
 72
     2
 11
396.700123
 21
212.889015
 31
0.094
 73
     2
  0
TEXT
  8
DIM
 10
302.67706
 20
331.597556
 30
0.094
 40
0.5
  1

  0
TEXT
  8
DIM
 10
285.25506
 20
349.49425
 30
0.094
 40
0.5
  1

  0
TEXT
  8
DIM
 10
318.324239
 20
344.012536
 30
0.094
 40
0.5
  1

  0
TEXT
  8
DIM
 10
320.851517
 20
342.269054
 30
0.094
 40
0.5
  1

  0
TEXT
  8
DIM
 10
262.618495
 20
322.643879
 30
0.094
 40
0.5
  1

  0
TEXT
  8
DIM
 10
272.677623
 20
326.5599
 30
0.094
 40
0.5
  1

  0
TEXT
  8
DIM
 10
301.948677
 20
336.666129
 30
0.094
 40
0.5
  1

  0
TEXT
  8
DIM
 10
283.198677
 20
336.666129
 30
0.094
 40
0.5
  1

  0
TEXT
  8
DIM
 10
298.782011
 20
328.522443
 30
0.094
 40
0.5
  1

  0
TEXT
  8
DIM
 10
529.845812
 20
380.115653
 30
0.094
 40
0.5
  1

  0
TEXT
  8
DIM
 10
512.423812
 20
398.012347
 30
0.094
 40
0.5
  1

  0
TEXT
  8
DIM
 10
545.492991
 20
392.530634
 30
0.094
 40
0.5
  1

  0
TEXT
  8
DIM
 10
548.020269
 20
390.787151
 30
0.094
 40
0.5
  1

  0
TEXT
  8
DIM
 10
489.787247
 20
371.161977
 30
0.094
 40
0.5
  1

  0
TEXT
  8
DIM
 10
499.846375
 20
375.077997
 30
0.094
 40
0.5
  1

  0
TEXT
  8
DIM
 10
529.117429
 20
385.184227
 30
0.094
 40
0.5
  1

  0
TEXT
  8
DIM
 10
510.367429
 20
385.184227
 30
0.094
 40
0.5
  1

  0
TEXT
  8
DIM
 10
525.950763
 20
377.04054
 30
0.094
 40
0.5
  1

  0
TEXT
  8
DIM
 10
416.723312
 20
370.344928
 30
0.094
 40
0.875
  1

 41
0.75
  7
TXT
 72
     2
 11
416.723312
 21
370.782428
 31
0.094
 73
     2
  0
TEXT
  8
DIM
 10
302.67706
 20
206.867556
 30
0.094
 40
0.5
  1

  0
TEXT
  8
DIM
 10
285.25506
 20
224.76425
 30
0.094
 40
0.5
  1

  0
TEXT
  8
DIM
 10
318.324239
 20
219.282536
 30
0.094
 40
0.5
  1

  0
TEXT
  8
DIM
 10
320.851517
 20
217.539054
 30
0.094
 40
0.5
  1

  0
TEXT
  8
DIM
 10
262.618495
 20
197.913879
 30
0.094
 40
0.5
  1

  0
TEXT
  8
DIM
 10
272.677623
 20
201.8299
 30
0.094
 40
0.5
  1

  0
TEXT
  8
DIM
 10
301.948677
 20
211.936129
 30
0.094
 40
0.5
  1

  0
TEXT
  8
DIM
 10
283.198677
 20
211.936129
 30
0.094
 40
0.5
  1

  0
TEXT
  8
DIM
 10
298.782011
 20
203.792443
 30
0.094
 40
0.5
  1

  0
TEXT
  8
DIM
 10
529.845812
 20
255.385653
 30
0.094
 40
0.5
  1

  0
TEXT
  8
DIM
 10
512.423812
 20
273.282347
 30
0.094
 40
0.5
  1

  0
TEXT
  8
DIM
 10
545.492991
 20
267.800634
 30
0.094
 40
0.5
  1

  0
TEXT
  8
DIM
 10
548.020269
 20
266.057151
 30
0.094
 40
0.5
  1

  0
TEXT
  8
DIM
 10
489.787247
 20
246.431977
 30
0.094
 40
0.5
  1

  0
TEXT
  8
DIM
 10
499.846375
 20
250.347997
 30
0.094
 40
0.5
  1

  0
TEXT
  8
DIM
 10
529.117429
 20
260.454227
 30
0.094
 40
0.5
  1

  0
TEXT
  8
DIM
 10
510.367429
 20
260.454227
 30
0.094
 40
0.5
  1

  0
TEXT
  8
DIM
 10
525.950763
 20
252.31054
 30
0.094
 40
0.5
  1

  0
TEXT
  8
DIM
 10
416.723312
 20
245.614928
 30
0.094
 40
0.875
  1

 41
0.75
  7
TXT
 72
     2
 11
416.723312
 21
246.052428
 31
0.094
 73
     2
  0
TEXT
  8
DIM
 10
475.593798
 20
202.302012
 30
0.047
 40
0.5
  1

  0
TEXT
  8
DIM
 10
458.171798
 20
220.198706
 30
0.047
 40
0.5
  1

  0
TEXT
  8
DIM
 10
491.240977
 20
214.716993
 30
0.047
 40
0.5
  1

  0
TEXT
  8
DIM
 10
493.768255
 20
212.97351
 30
0.047
 40
0.5
  1

  0
TEXT
  8
DIM
 10
435.535233
 20
193.348336
 30
0.047
 40
0.5
  1

  0
TEXT
  8
DIM
 10
445.59436
 20
197.264356
 30
0.047
 40
0.5
  1

  0
TEXT
  8
DIM
 10
474.865415
 20
207.370586
 30
0.047
 40
0.5
  1

  0
TEXT
  8
DIM
 10
456.115415
 20
207.370586
 30
0.047
 40
0.5
  1

  0
TEXT
  8
DIM
 10
471.698748
 20
199.226899
 30
0.047
 40
0.5
  1

  0
TEXT
  8
DIM
 10
362.471298
 20
192.531287
 30
0.047
 40
0.875
  1

 41
0.75
  7
TXT
 72
     2
 11
362.471298
 21
192.968787
 31
0.047
 73
     2
  0
TEXT
  8
DIM
 10
537.593798
 20
202.302012
 30
0.047
 40
0.5
  1

  0
TEXT
  8
DIM
 10
520.171798
 20
220.198706
 30
0.047
 40
0.5
  1

  0
TEXT
  8
DIM
 10
553.240977
 20
214.716993
 30
0.047
 40
0.5
  1

  0
TEXT
  8
DIM
 10
555.768255
 20
212.97351
 30
0.047
 40
0.5
  1

  0
TEXT
  8
DIM
 10
497.535233
 20
193.348336
 30
0.047
 40
0.5
  1

  0
TEXT
  8
DIM
 10
507.59436
 20
197.264356
 30
0.047
 40
0.5
  1

  0
TEXT
  8
DIM
 10
536.865415
 20
207.370586
 30
0.047
 40
0.5
  1

  0
TEXT
  8
DIM
 10
518.115415
 20
207.370586
 30
0.047
 40
0.5
  1

  0
TEXT
  8
DIM
 10
533.698748
 20
199.226899
 30
0.047
 40
0.5
  1

  0
TEXT
  8
DIM
 10
424.471298
 20
192.531287
 30
0.047
 40
0.875
  1

 41
0.75
  7
TXT
 72
     2
 11
424.471298
 21
192.968787
 31
0.047
 73
     2
  0
POLYLINE
  8
OBJECT
 62
     7
 66
     1
 10
0.0
 20
0.0
 30
-0.047
 70
     1
  0
VERTEX
  8
OBJECT
 62
     7
 10
55.824669
 20
15.377913
 30
-0.047
  0
VERTEX
  8
OBJECT
 62
     7
 10
55.824669
 20
11.909913
 30
-0.047
  0
VERTEX
  8
OBJECT
 62
     7
 10
55.933669
 20
11.909913
 30
-0.047
  0
VERTEX
  8
OBJECT
 62
     7
 10
55.933669
 20
15.377913
 30
-0.047
  0
SEQEND
  8
OBJECT
 62
     7
  0
LINE
  8
DRAWER
 10
79.777669
 20
12.127913
 30
-0.047
 11
79.777669
 21
12.948913
 31
-0.047
  0
POLYLINE
  8
DRAW-HID
 66
     1
 10
0.0
 20
0.0
 30
-0.047
  0
VERTEX
  8
DRAW-HID
 10
79.738669
 20
14.877913
 30
-0.047
  0
VERTEX
  8
DRAW-HID
 10
79.730669
 20
14.877913
 30
-0.047
  0
VERTEX
  8
DRAW-HID
 10
79.730669
 20
12.283913
 30
-0.047
  0
VERTEX
  8
DRAW-HID
 10
79.738669
 20
12.283913
 30
-0.047
  0
SEQEND
  8
DRAW-HID
  0
POLYLINE
  8
DRAW-HID
 66
     1
 10
0.0
 20
0.0
 30
-0.047
  0
VERTEX
  8
DRAW-HID
 10
56.019669
 20
14.877913
 30
-0.047
  0
VERTEX
  8
DRAW-HID
 10
56.027669
 20
14.877913
 30
-0.047
  0
VERTEX
  8
DRAW-HID
 10
56.027669
 20
12.283913
 30
-0.047
  0
VERTEX
  8
DRAW-HID
 10
56.019669
 20
12.283913
 30
-0.047
  0
SEQEND
  8
DRAW-HID
  0
LINE
  8
DRAWER
 10
55.980669
 20
12.127913
 30
-0.047
 11
55.980669
 21
15.080913
 31
-0.047
  0
LINE
  8
DRAW-HID
 10
56.019669
 20
12.127913
 30
-0.047
 11
79.738669
 21
12.127913
 31
-0.047
  0
LINE
  8
DRAWER
 10
56.019669
 20
12.283913
 30
-0.047
 11
55.980669
 21
12.283913
 31
-0.047
  0
POLYLINE
  8
DRAWER
 66
     1
 10
0.0
 20
0.0
 30
-0.047
  0
VERTEX
  8
DRAWER
 10
56.019669
 20
12.080913
 30
-0.047
  0
VERTEX
  8
DRAWER
 10
56.019669
 20
12.283913
 30
-0.047
  0
SEQEND
  8
DRAWER
  0
LINE
  8
DRAWER
 10
56.019669
 20
12.127913
 30
-0.047
 11
55.980669
 21
12.127913
 31
-0.047
  0
POLYLINE
  8
DRAWER
 66
     1
 10
0.0
 20
0.0
 30
-0.047
  0
VERTEX
  8
DRAWER
 10
79.738669
 20
12.080913
 30
-0.047
  0
VERTEX
  8
DRAWER
 10
79.738669
 20
12.283913
 30
-0.047
  0
SEQEND
  8
DRAWER
  0
LINE
  8
DRAWER
 10
79.738669
 20
12.127913
 30
-0.047
 11
79.777669
 21
12.127913
 31
-0.047
  0
LINE
  8
DRAWER
 10
79.738669
 20
12.283913
 30
-0.047
 11
79.777669
 21
12.283913
 31
-0.047
  0
LINE
  8
DRAW-HID
 10
56.019669
 20
15.033913
 30
-0.047
 11
79.738669
 21
15.033913
 31
-0.047
  0
CIRCLE
  8
DRAWER
 10
56.995669
 20
13.643913
 30
-0.047
 40
0.082
  0
LINE
  8
DRAWER
 10
56.019669
 20
14.877913
 30
-0.047
 11
55.980669
 21
14.877913
 31
-0.047
  0
POLYLINE
  8
DRAWER
 66
     1
 10
0.0
 20
0.0
 30
-0.047
  0
VERTEX
  8
DRAWER
 10
56.019669
 20
14.877913
 30
-0.047
  0
VERTEX
  8
DRAWER
 10
56.019669
 20
15.080913
 30
-0.047
  0
SEQEND
  8
DRAWER
  0
CIRCLE
  8
DRAWER
 10
60.995669
 20
13.643913
 30
-0.047
 40
0.082
  0
CIRCLE
  8
DRAWER
 10
65.995669
 20
13.643913
 30
-0.047
 40
0.082
  0
CIRCLE
  8
DRAW-HID
 10
72.495669
 20
13.643913
 30
-0.047
 40
0.082
  0
CIRCLE
  8
DRAW-HID
 10
74.995669
 20
13.643913
 30
-0.047
 40
0.082
  0
LINE
  8
DRAWER
 10
79.738669
 20
14.877913
 30
-0.047
 11
79.777669
 21
14.877913
 31
-0.047
  0
POLYLINE
  8
DRAWER
 66
     1
 10
0.0
 20
0.0
 30
-0.047
  0
VERTEX
  8
DRAWER
 10
79.738669
 20
14.877913
 30
-0.047
  0
VERTEX
  8
DRAWER
 10
79.738669
 20
15.080913
 30
-0.047
  0
SEQEND
  8
DRAWER
  0
LINE
  8
DRAWER
 10
79.777669
 20
14.338913
 30
-0.047
 11
79.777669
 21
15.080913
 31
-0.047
  0
POLYLINE
  8
DRAWER
 66
     1
 10
0.0
 20
0.0
 30
-0.047
  0
VERTEX
  8
DRAWER
 10
79.824669
 20
15.080913
 30
-0.047
  0
VERTEX
  8
DRAWER
 10
79.824669
 20
14.338913
 30
-0.047
  0
SEQEND
  8
DRAWER
  0
LINE
  8
DRAW-HID
 10
79.777669
 20
14.338913
 30
-0.047
 11
79.777669
 21
12.948913
 31
-0.047
  0
LINE
  8
DRAW-HID
 10
79.824669
 20
12.948913
 30
-0.047
 11
79.824669
 21
14.338913
 31
-0.047
  0
LINE
  8
BRACKET
 10
70.995669
 20
12.268913
 30
-0.047
 11
70.995669
 21
15.018913
 31
-0.047
  0
LINE
  8
BRACKET
 10
71.057669
 20
12.268913
 30
-0.047
 11
71.057669
 21
15.018913
 31
-0.047
  0
ARC
  8
BRACKET
 10
71.197669
 20
13.893913
 30
-0.047
 40
0.109
 50
270.0
 51
90.0
  0
LINE
  8
BRACKET
 10
78.242669
 20
12.080913
 30
-0.047
 11
78.242669
 21
15.206913
 31
-0.047
  0
LINE
  8
BRACKET
 10
78.055669
 20
15.393913
 30
-0.047
 11
71.621669
 21
15.393913
 31
-0.047
  0
LINE
  8
BRACKET
 10
73.552669
 20
15.018913
 30
-0.047
 11
74.672669
 21
15.018913
 31
-0.047
  0
LINE
  8
BRACKET
 10
74.672669
 20
15.268913
 30
-0.047
 11
73.552669
 21
15.268913
 31
-0.047
  0
LINE
  8
BRACKET
 10
74.361756
 20
14.400913
 30
-0.047
 11
72.504002
 21
14.400913
 31
-0.047
  0
LINE
  8
BRACKET
 10
72.875379
 20
14.723913
 30
-0.047
 11
73.990379
 21
14.723913
 31
-0.047
  0
ARC
  8
BRACKET
 10
78.055669
 20
15.206913
 30
-0.047
 40
0.187
 50
0.0
 51
90.0
  0
LINE
  8
BRACKET
 10
76.292669
 20
15.268913
 30
-0.047
 11
75.172669
 21
15.268913
 31
-0.047
  0
LINE
  8
BRACKET
 10
77.351756
 20
14.400913
 30
-0.047
 11
75.494002
 21
14.400913
 31
-0.047
  0
ARC
  8
BRACKET
 10
75.865379
 20
14.348913
 30
-0.047
 40
0.375
 50
90.0
 51
173.107897
  0
LINE
  8
BRACKET
 10
75.172669
 20
15.018913
 30
-0.047
 11
76.292669
 21
15.018913
 31
-0.047
  0
LINE
  8
BRACKET
 10
77.912669
 20
15.268913
 30
-0.047
 11
76.792669
 21
15.268913
 31
-0.047
  0
ARC
  8
BRACKET
 10
76.980379
 20
14.348913
 30
-0.047
 40
0.375
 50
6.892103
 51
90.0
  0
LINE
  8
BRACKET
 10
76.792669
 20
15.018913
 30
-0.047
 11
77.912669
 21
15.018913
 31
-0.047
  0
ARC
  8
BRACKET
 10
77.912669
 20
15.143913
 30
-0.047
 40
0.125
 50
270.0
 51
90.0
  0
ARC
  8
BRACKET
 10
76.292669
 20
15.143913
 30
-0.047
 40
0.125
 50
270.0
 51
90.0
  0
LINE
  8
BRACKET
 10
75.865379
 20
14.723913
 30
-0.047
 11
76.980379
 21
14.723913
 31
-0.047
  0
ARC
  8
BRACKET
 10
76.792669
 20
15.143913
 30
-0.047
 40
0.125
 50
90.0
 51
270.0
  0
ARC
  8
BRACKET
 10
74.672669
 20
15.143913
 30
-0.047
 40
0.125
 50
270.0
 51
90.0
  0
ARC
  8
BRACKET
 10
75.172669
 20
15.143913
 30
-0.047
 40
0.125
 50
90.0
 51
270.0
  0
ARC
  8
BRACKET
 10
73.990379
 20
14.348913
 30
-0.047
 40
0.375
 50
6.892103
 51
90.0
  0
LINE
  8
BRACKET
 10
70.995669
 20
15.018913
 30
-0.047
 11
71.246669
 21
15.018913
 31
-0.047
  0
LINE
  8
BRACKET
 10
71.057669
 20
14.627913
 30
-0.047
 11
71.197669
 21
14.627913
 31
-0.047
  0
LINE
  8
BRACKET
 10
71.057669
 20
14.409913
 30
-0.047
 11
71.197669
 21
14.409913
 31
-0.047
  0
ARC
  8
BRACKET
 10
71.197669
 20
14.518913
 30
-0.047
 40
0.109
 50
270.0
 51
90.0
  0
LINE
  8
BRACKET
 10
71.057669
 20
14.002913
 30
-0.047
 11
71.197669
 21
14.002913
 31
-0.047
  0
LINE
  8
BRACKET
 10
73.052669
 20
15.268913
 30
-0.047
 11
71.932669
 21
15.268913
 31
-0.047
  0
LINE
  8
BRACKET
 10
71.932669
 20
15.018913
 30
-0.047
 11
73.052669
 21
15.018913
 31
-0.047
  0
ARC
  8
BRACKET
 10
73.552669
 20
15.143913
 30
-0.047
 40
0.125
 50
90.0
 51
270.0
  0
ARC
  8
BRACKET
 10
73.052669
 20
15.143913
 30
-0.047
 40
0.125
 50
270.0
 51
90.0
  0
ARC
  8
BRACKET
 10
72.875379
 20
14.348913
 30
-0.047
 40
0.375
 50
90.0
 51
173.107897
  0
ARC
  8
BRACKET
 10
71.932669
 20
15.143913
 30
-0.047
 40
0.125
 50
90.0
 51
270.0
  0
LINE
  8
BRACKET
 10
71.621669
 20
15.393913
 30
-0.047
 11
71.246669
 21
15.018913
 31
-0.047
  0
LINE
  8
BRACKET
 10
71.766169
 20
13.737413
 30
-0.047
 11
77.969169
 21
13.737413
 31
-0.047
  0
LINE
  8
BRACKET
 10
77.969169
 20
13.550413
 30
-0.047
 11
71.766169
 21
13.550413
 31
-0.047
  0
LINE
  8
BRACKET
 10
71.621669
 20
11.893913
 30
-0.047
 11
78.055669
 21
11.893913
 31
-0.047
  0
LINE
  8
BRACKET
 10
74.361756
 20
12.886913
 30
-0.047
 11
72.504002
 21
12.886913
 31
-0.047
  0
LINE
  8
BRACKET
 10
74.672669
 20
12.018913
 30
-0.047
 11
73.552669
 21
12.018913
 31
-0.047
  0
LINE
  8
BRACKET
 10
73.552669
 20
12.268913
 30
-0.047
 11
74.672669
 21
12.268913
 31
-0.047
  0
LINE
  8
BRACKET
 10
72.875379
 20
12.563913
 30
-0.047
 11
73.990379
 21
12.563913
 31
-0.047
  0
LINE
  8
BRACKET
 10
77.351756
 20
12.886913
 30
-0.047
 11
75.494002
 21
12.886913
 31
-0.047
  0
ARC
  8
BRACKET
 10
75.865379
 20
12.938913
 30
-0.047
 40
0.375
 50
186.892103
 51
270.0
  0
LINE
  8
BRACKET
 10
76.292669
 20
12.018913
 30
-0.047
 11
75.172669
 21
12.018913
 31
-0.047
  0
LINE
  8
BRACKET
 10
75.172669
 20
12.268913
 30
-0.047
 11
76.292669
 21
12.268913
 31
-0.047
  0
ARC
  8
BRACKET
 10
76.980379
 20
12.938913
 30
-0.047
 40
0.375
 50
270.0
 51
353.107897
  0
ARC
  8
BRACKET
 10
77.969169
 20
13.643913
 30
-0.047
 40
0.0935
 50
270.0
 51
90.0
  0
LINE
  8
BRACKET
 10
76.792669
 20
12.268913
 30
-0.047
 11
77.912669
 21
12.268913
 31
-0.047
  0
LINE
  8
BRACKET
 10
77.912669
 20
12.018913
 30
-0.047
 11
76.792669
 21
12.018913
 31
-0.047
  0
ARC
  8
BRACKET
 10
77.912669
 20
12.143913
 30
-0.047
 40
0.125
 50
270.0
 51
90.0
  0
ARC
  8
BRACKET
 10
78.055669
 20
12.080913
 30
-0.047
 40
0.187
 50
270.0
 51
0.0
  0
LINE
  8
BRACKET
 10
75.865379
 20
12.563913
 30
-0.047
 11
76.980379
 21
12.563913
 31
-0.047
  0
ARC
  8
BRACKET
 10
76.292669
 20
12.143913
 30
-0.047
 40
0.125
 50
270.0
 51
90.0
  0
ARC
  8
BRACKET
 10
76.792669
 20
12.143913
 30
-0.047
 40
0.125
 50
90.0
 51
270.0
  0
ARC
  8
BRACKET
 10
73.990379
 20
12.938913
 30
-0.047
 40
0.375
 50
270.0
 51
353.107897
  0
ARC
  8
BRACKET
 10
74.672669
 20
12.143913
 30
-0.047
 40
0.125
 50
270.0
 51
90.0
  0
ARC
  8
BRACKET
 10
75.172669
 20
12.143913
 30
-0.047
 40
0.125
 50
90.0
 51
270.0
  0
ARC
  8
BRACKET
 10
71.197669
 20
12.768913
 30
-0.047
 40
0.109
 50
270.0
 51
90.0
  0
LINE
  8
BRACKET
 10
71.057669
 20
12.877913
 30
-0.047
 11
71.197669
 21
12.877913
 31
-0.047
  0
LINE
  8
BRACKET
 10
71.057669
 20
13.784913
 30
-0.047
 11
71.197669
 21
13.784913
 31
-0.047
  0
LINE
  8
BRACKET
 10
71.057669
 20
13.502913
 30
-0.047
 11
71.197669
 21
13.502913
 31
-0.047
  0
LINE
  8
BRACKET
 10
71.057669
 20
13.284913
 30
-0.047
 11
71.197669
 21
13.284913
 31
-0.047
  0
ARC
  8
BRACKET
 10
71.197669
 20
13.393913
 30
-0.047
 40
0.109
 50
270.0
 51
90.0
  0
LINE
  8
BRACKET
 10
70.995669
 20
12.268913
 30
-0.047
 11
71.246669
 21
12.268913
 31
-0.047
  0
LINE
  8
BRACKET
 10
71.057669
 20
12.659913
 30
-0.047
 11
71.197669
 21
12.659913
 31
-0.047
  0
LINE
  8
BRACKET
 10
73.052669
 20
12.018913
 30
-0.047
 11
71.932669
 21
12.018913
 31
-0.047
  0
LINE
  8
BRACKET
 10
71.932669
 20
12.268913
 30
-0.047
 11
73.052669
 21
12.268913
 31
-0.047
  0
ARC
  8
BRACKET
 10
72.875379
 20
12.938913
 30
-0.047
 40
0.375
 50
186.892103
 51
270.0
  0
ARC
  8
BRACKET
 10
73.552669
 20
12.143913
 30
-0.047
 40
0.125
 50
90.0
 51
270.0
  0
ARC
  8
BRACKET
 10
73.052669
 20
12.143913
 30
-0.047
 40
0.125
 50
270.0
 51
90.0
  0
ARC
  8
BRACKET
 10
71.766169
 20
13.643913
 30
-0.047
 40
0.0935
 50
90.0
 51
270.0
  0
ARC
  8
BRACKET
 10
71.932669
 20
12.143913
 30
-0.047
 40
0.125
 50
90.0
 51
270.0
  0
LINE
  8
BRACKET
 10
71.621669
 20
11.893913
 30
-0.047
 11
71.246669
 21
12.268913
 31
-0.047
  0
POLYLINE
  8
DRAWER
 66
     1
 10
0.0
 20
0.0
 30
-0.047
  0
VERTEX
  8
DRAWER
 10
79.824669
 20
12.948913
 30
-0.047
  0
VERTEX
  8
DRAWER
 10
79.824669
 20
12.080913
 30
-0.047
  0
VERTEX
  8
DRAWER
 10
78.242669
 20
12.080913
 30
-0.047
  0
SEQEND
  8
DRAWER
  0
POLYLINE
  8
DRAWER
 66
     1
 10
0.0
 20
0.0
 30
-0.047
  0
VERTEX
  8
DRAWER
 10
78.020632
 20
12.080913
 30
-0.047
  0
VERTEX
  8
DRAWER
 10
76.684706
 20
12.080913
 30
-0.047
  0
SEQEND
  8
DRAWER
  0
POLYLINE
  8
DRAWER
 66
     1
 10
0.0
 20
0.0
 30
-0.047
  0
VERTEX
  8
DRAWER
 10
76.400632
 20
12.080913
 30
-0.047
  0
VERTEX
  8
DRAWER
 10
75.064706
 20
12.080913
 30
-0.047
  0
SEQEND
  8
DRAWER
  0
POLYLINE
  8
DRAWER
 66
     1
 10
0.0
 20
0.0
 30
-0.047
  0
VERTEX
  8
DRAWER
 10
74.780632
 20
12.080913
 30
-0.047
  0
VERTEX
  8
DRAWER
 10
73.444706
 20
12.080913
 30
-0.047
  0
SEQEND
  8
DRAWER
  0
POLYLINE
  8
DRAWER
 66
     1
 10
0.0
 20
0.0
 30
-0.047
  0
VERTEX
  8
DRAWER
 10
73.160632
 20
12.080913
 30
-0.047
  0
VERTEX
  8
DRAWER
 10
71.824706
 20
12.080913
 30
-0.047
  0
SEQEND
  8
DRAWER
  0
POLYLINE
  8
DRAWER
 66
     1
 10
0.0
 20
0.0
 30
-0.047
  0
VERTEX
  8
DRAWER
 10
78.242669
 20
15.080913
 30
-0.047
  0
VERTEX
  8
DRAWER
 10
79.824669
 20
15.080913
 30
-0.047
  0
SEQEND
  8
DRAWER
  0
POLYLINE
  8
DRAWER
 66
     1
 10
0.0
 20
0.0
 30
-0.047
  0
VERTEX
  8
DRAWER
 10
76.684706
 20
15.080913
 30
-0.047
  0
VERTEX
  8
DRAWER
 10
78.020632
 20
15.080913
 30
-0.047
  0
SEQEND
  8
DRAWER
  0
POLYLINE
  8
DRAWER
 66
     1
 10
0.0
 20
0.0
 30
-0.047
  0
VERTEX
  8
DRAWER
 10
75.064706
 20
15.080913
 30
-0.047
  0
VERTEX
  8
DRAWER
 10
76.400632
 20
15.080913
 30
-0.047
  0
SEQEND
  8
DRAWER
  0
POLYLINE
  8
DRAWER
 66
     1
 10
0.0
 20
0.0
 30
-0.047
  0
VERTEX
  8
DRAWER
 10
73.444706
 20
15.080913
 30
-0.047
  0
VERTEX
  8
DRAWER
 10
74.780632
 20
15.080913
 30
-0.047
  0
SEQEND
  8
DRAWER
  0
POLYLINE
  8
DRAWER
 66
     1
 10
0.0
 20
0.0
 30
-0.047
  0
VERTEX
  8
DRAWER
 10
71.434669
 20
12.080913
 30
-0.047
  0
VERTEX
  8
DRAWER
 10
55.933669
 20
12.080913
 30
-0.047
  0
VERTEX
  8
DRAWER
 10
55.933669
 20
15.080913
 30
-0.047
  0
VERTEX
  8
DRAWER
 10
71.308669
 20
15.080913
 30
-0.047
  0
SEQEND
  8
DRAWER
  0
POLYLINE
  8
DRAWER
 66
     1
 10
0.0
 20
0.0
 30
-0.047
  0
VERTEX
  8
DRAWER
 10
71.824706
 20
15.080913
 30
-0.047
  0
VERTEX
  8
DRAWER
 10
73.160632
 20
15.080913
 30
-0.047
  0
SEQEND
  8
DRAWER
  0
LINE
  8
DRAW-HID
 10
71.308669
 20
15.080913
 30
-0.047
 11
71.824706
 21
15.080913
 31
-0.047
  0
LINE
  8
DRAW-HID
 10
73.160632
 20
15.080913
 30
-0.047
 11
73.444706
 21
15.080913
 31
-0.047
  0
LINE
  8
DRAW-HID
 10
74.780632
 20
15.080913
 30
-0.047
 11
75.064706
 21
15.080913
 31
-0.047
  0
LINE
  8
DRAW-HID
 10
76.400632
 20
15.080913
 30
-0.047
 11
76.684706
 21
15.080913
 31
-0.047
  0
LINE
  8
DRAW-HID
 10
78.020632
 20
15.080913
 30
-0.047
 11
78.242669
 21
15.080913
 31
-0.047
  0
LINE
  8
DRAW-HID
 10
78.242669
 20
12.080913
 30
-0.047
 11
78.020632
 21
12.080913
 31
-0.047
  0
LINE
  8
DRAW-HID
 10
76.684706
 20
12.080913
 30
-0.047
 11
76.400632
 21
12.080913
 31
-0.047
  0
LINE
  8
DRAW-HID
 10
75.064706
 20
12.080913
 30
-0.047
 11
74.780632
 21
12.080913
 31
-0.047
  0
LINE
  8
DRAW-HID
 10
73.444706
 20
12.080913
 30
-0.047
 11
73.160632
 21
12.080913
 31
-0.047
  0
LINE
  8
DRAW-HID
 10
71.824706
 20
12.080913
 30
-0.047
 11
71.434669
 21
12.080913
 31
-0.047
  0
POLYLINE
  8
DRAW-HID
 66
     1
 10
0.0
 20
0.0
 30
-0.047
 70
     1
  0
VERTEX
  8
DRAW-HID
 10
19.924005
 20
15.080913
 30
-0.047
  0
VERTEX
  8
DRAW-HID
 10
36.924005
 20
15.080913
 30
-0.047
  0
VERTEX
  8
DRAW-HID
 10
36.924005
 20
12.080913
 30
-0.047
  0
VERTEX
  8
DRAW-HID
 10
19.924005
 20
12.080913
 30
-0.047
  0
SEQEND
  8
DRAW-HID
  0
POLYLINE
  8
DRAW-HID
 66
     1
 10
0.0
 20
0.0
 30
-0.047
 70
     1
  0
VERTEX
  8
DRAW-HID
 10
19.986505
 20
12.080913
 30
-0.047
 42
-0.414214
  0
VERTEX
  8
DRAW-HID
 10
19.924005
 20
12.143413
 30
-0.047
  0
VERTEX
  8
DRAW-HID
 10
19.924005
 20
15.018413
 30
-0.047
 42
-0.414214
  0
VERTEX
  8
DRAW-HID
 10
19.986505
 20
15.080913
 30
-0.047
  0
VERTEX
  8
DRAW-HID
 10
21.674005
 20
15.080913
 30
-0.047
  0
VERTEX
  8
DRAW-HID
 10
21.674005
 20
15.033913
 30
-0.047
  0
VERTEX
  8
DRAW-HID
 10
19.98663
 20
15.033913
 30
-0.047
 42
0.414214
  0
VERTEX
  8
DRAW-HID
 10
19.971005
 20
15.018288
 30
-0.047
  0
VERTEX
  8
DRAW-HID
 10
19.971005
 20
12.143538
 30
-0.047
 42
0.414214
  0
VERTEX
  8
DRAW-HID
 10
19.98663
 20
12.127913
 30
-0.047
  0
VERTEX
  8
DRAW-HID
 10
36.86138
 20
12.127913
 30
-0.047
 42
0.414214
  0
VERTEX
  8
DRAW-HID
 10
36.877005
 20
12.143538
 30
-0.047
  0
VERTEX
  8
DRAW-HID
 10
36.877005
 20
15.018288
 30
-0.047
 42
0.414214
  0
VERTEX
  8
DRAW-HID
 10
36.86138
 20
15.033913
 30
-0.047
  0
VERTEX
  8
DRAW-HID
 10
35.174005
 20
15.033913
 30
-0.047
  0
VERTEX
  8
DRAW-HID
 10
35.174005
 20
15.080913
 30
-0.047
  0
VERTEX
  8
DRAW-HID
 10
36.861505
 20
15.080913
 30
-0.047
 42
-0.414214
  0
VERTEX
  8
DRAW-HID
 10
36.924005
 20
15.018413
 30
-0.047
  0
VERTEX
  8
DRAW-HID
 10
36.924005
 20
12.143413
 30
-0.047
 42
-0.414214
  0
VERTEX
  8
DRAW-HID
 10
36.861505
 20
12.080913
 30
-0.047
  0
SEQEND
  8
DRAW-HID
  0
POLYLINE
  8
OBJECT
 66
     1
 10
0.0
 20
0.0
 30
-0.047
 70
     1
  0
VERTEX
  8
OBJECT
 10
18.924005
 20
15.377913
 30
-0.047
  0
VERTEX
  8
OBJECT
 10
18.924005
 20
11.909913
 30
-0.047
  0
VERTEX
  8
OBJECT
 10
37.924005
 20
11.909913
 30
-0.047
  0
VERTEX
  8
OBJECT
 10
37.924005
 20
15.377913
 30
-0.047
  0
SEQEND
  8
OBJECT
  0
POLYLINE
  8
DRAW-HID
 66
     1
 10
0.0
 20
0.0
 30
-0.047
  0
VERTEX
  8
DRAW-HID
 10
19.924005
 20
14.877913
 30
-0.047
  0
VERTEX
  8
DRAW-HID
 10
20.674005
 20
14.877913
 30
-0.047
  0
VERTEX
  8
DRAW-HID
 10
20.674005
 20
12.283913
 30
-0.047
  0
VERTEX
  8
DRAW-HID
 10
19.924005
 20
12.283913
 30
-0.047
  0
SEQEND
  8
DRAW-HID
  0
POLYLINE
  8
DRAW-HID
 66
     1
 10
0.0
 20
0.0
 30
-0.047
 70
     1
  0
VERTEX
  8
DRAW-HID
 10
30.674005
 20
14.393913
 30
-0.047
  0
VERTEX
  8
DRAW-HID
 10
30.674005
 20
12.518913
 30
-0.047
  0
VERTEX
  8
DRAW-HID
 10
26.174005
 20
12.518913
 30
-0.047
  0
VERTEX
  8
DRAW-HID
 10
26.174005
 20
14.393913
 30
-0.047
  0
SEQEND
  8
DRAW-HID
  0
POLYLINE
  8
DRAW-HID
 66
     1
 10
0.0
 20
0.0
 30
-0.047
  0
VERTEX
  8
DRAW-HID
 10
36.924005
 20
14.877913
 30
-0.047
  0
VERTEX
  8
DRAW-HID
 10
36.174005
 20
14.877913
 30
-0.047
  0
VERTEX
  8
DRAW-HID
 10
36.174005
 20
12.283913
 30
-0.047
  0
VERTEX
  8
DRAW-HID
 10
36.924005
 20
12.283913
 30
-0.047
  0
SEQEND
  8
DRAW-HID
  0
POLYLINE
  8
DRAW-HID
 66
     1
 10
0.0
 20
0.0
 30
-0.047
 70
     1
  0
VERTEX
  8
DRAW-HID
 10
30.674005
 20
12.534913
 30
-0.047
  0
VERTEX
  8
DRAW-HID
 10
30.674005
 20
14.034913
 30
-0.047
  0
VERTEX
  8
DRAW-HID
 10
26.174005
 20
14.034913
 30
-0.047
  0
VERTEX
  8
DRAW-HID
 10
26.174005
 20
12.534913
 30
-0.047
  0
SEQEND
  8
DRAW-HID
  0
CIRCLE
  8
DRAW-HID
 10
28.424005
 20
13.580913
 30
-0.047
 40
0.625
  0
POLYLINE
  8
DRAW-HID
 66
     1
 10
0.0
 20
0.0
 30
-0.047
 70
     1
  0
VERTEX
  8
DRAW-HID
 10
19.986505
 20
58.489684
 30
-0.047
 42
0.414214
  0
VERTEX
  8
DRAW-HID
 10
19.924005
 20
58.427184
 30
-0.047
  0
VERTEX
  8
DRAW-HID
 10
19.924005
 20
55.552184
 30
-0.047
 42
0.414214
  0
VERTEX
  8
DRAW-HID
 10
19.986505
 20
55.489684
 30
-0.047
  0
VERTEX
  8
DRAW-HID
 10
21.674005
 20
55.489684
 30
-0.047
  0
VERTEX
  8
DRAW-HID
 10
21.674005
 20
55.536684
 30
-0.047
  0
VERTEX
  8
DRAW-HID
 10
19.98663
 20
55.536684
 30
-0.047
 42
-0.414214
  0
VERTEX
  8
DRAW-HID
 10
19.971005
 20
55.552309
 30
-0.047
  0
VERTEX
  8
DRAW-HID
 10
19.971005
 20
58.427059
 30
-0.047
 42
-0.414214
  0
VERTEX
  8
DRAW-HID
 10
19.98663
 20
58.442684
 30
-0.047
  0
VERTEX
  8
DRAW-HID
 10
36.86138
 20
58.442684
 30
-0.047
 42
-0.414214
  0
VERTEX
  8
DRAW-HID
 10
36.877005
 20
58.427059
 30
-0.047
  0
VERTEX
  8
DRAW-HID
 10
36.877005
 20
55.552309
 30
-0.047
 42
-0.414214
  0
VERTEX
  8
DRAW-HID
 10
36.86138
 20
55.536684
 30
-0.047
  0
VERTEX
  8
DRAW-HID
 10
35.174005
 20
55.536684
 30
-0.047
  0
VERTEX
  8
DRAW-HID
 10
35.174005
 20
55.489684
 30
-0.047
  0
VERTEX
  8
DRAW-HID
 10
36.861505
 20
55.489684
 30
-0.047
 42
0.414214
  0
VERTEX
  8
DRAW-HID
 10
36.924005
 20
55.552184
 30
-0.047
  0
VERTEX
  8
DRAW-HID
 10
36.924005
 20
58.427184
 30
-0.047
 42
0.414214
  0
VERTEX
  8
DRAW-HID
 10
36.861505
 20
58.489684
 30
-0.047
  0
SEQEND
  8
DRAW-HID
  0
POLYLINE
  8
DRAWER
 66
     1
 10
0.0
 20
0.0
 30
-0.047
 70
     1
  0
VERTEX
  8
DRAWER
 10
19.924005
 20
55.489684
 30
-0.047
  0
VERTEX
  8
DRAWER
 10
36.924005
 20
55.489684
 30
-0.047
  0
VERTEX
  8
DRAWER
 10
36.924005
 20
58.489684
 30
-0.047
  0
VERTEX
  8
DRAWER
 10
19.924005
 20
58.489684
 30
-0.047
  0
SEQEND
  8
DRAWER
  0
POLYLINE
  8
OBJECT
 66
     1
 10
0.0
 20
0.0
 30
-0.047
 70
     1
  0
VERTEX
  8
OBJECT
 10
18.924005
 20
55.192684
 30
-0.047
  0
VERTEX
  8
OBJECT
 10
18.924005
 20
58.660684
 30
-0.047
  0
VERTEX
  8
OBJECT
 10
37.924005
 20
58.660684
 30
-0.047
  0
VERTEX
  8
OBJECT
 10
37.924005
 20
55.192684
 30
-0.047
  0
SEQEND
  8
OBJECT
  0
POLYLINE
  8
DRAW-HID
 66
     1
 10
0.0
 20
0.0
 30
-0.047
  0
VERTEX
  8
DRAW-HID
 10
19.924005
 20
55.692684
 30
-0.047
  0
VERTEX
  8
DRAW-HID
 10
20.674005
 20
55.692684
 30
-0.047
  0
VERTEX
  8
DRAW-HID
 10
20.674005
 20
58.286684
 30
-0.047
  0
VERTEX
  8
DRAW-HID
 10
19.924005
 20
58.286684
 30
-0.047
  0
SEQEND
  8
DRAW-HID
  0
POLYLINE
  8
DRAW-HID
 66
     1
 10
0.0
 20
0.0
 30
-0.047
  0
VERTEX
  8
DRAW-HID
 10
36.924005
 20
55.692684
 30
-0.047
  0
VERTEX
  8
DRAW-HID
 10
36.174005
 20
55.692684
 30
-0.047
  0
VERTEX
  8
DRAW-HID
 10
36.174005
 20
58.286684
 30
-0.047
  0
VERTEX
  8
DRAW-HID
 10
36.924005
 20
58.286684
 30
-0.047
  0
SEQEND
  8
DRAW-HID
  0
CIRCLE
  8
DRAWER
 10
28.424005
 20
56.989684
 30
-0.047
 40
0.625
  0
POLYLINE
  8
HIDDEN
 66
     1
 10
0.0
 20
0.0
 30
-0.047
 70
     1
  0
VERTEX
  8
HIDDEN
 10
30.674005
 20
58.035684
 30
-0.047
  0
VERTEX
  8
HIDDEN
 10
30.674005
 20
56.535684
 30
-0.047
  0
VERTEX
  8
HIDDEN
 10
26.174005
 20
56.535684
 30
-0.047
  0
VERTEX
  8
HIDDEN
 10
26.174005
 20
58.035684
 30
-0.047
  0
SEQEND
  8
HIDDEN
  0
POLYLINE
  8
DRAW-HID
 66
     1
 10
0.0
 20
0.0
 30
-0.047
 70
     1
  0
VERTEX
  8
DRAW-HID
 10
30.674005
 20
56.176684
 30
-0.047
  0
VERTEX
  8
DRAW-HID
 10
30.674005
 20
58.051684
 30
-0.047
  0
VERTEX
  8
DRAW-HID
 10
26.174005
 20
58.051684
 30
-0.047
  0
VERTEX
  8
DRAW-HID
 10
26.174005
 20
56.176684
 30
-0.047
  0
SEQEND
  8
DRAW-HID
  0
POLYLINE
  8
DRAWER
 66
     1
 10
0.0
 20
0.0
 30
-0.047
  0
VERTEX
  8
DRAWER
 10
19.971005
 20
46.00527
 30
-0.047
  0
VERTEX
  8
DRAWER
 10
36.877005
 20
46.00527
 30
-0.047
  0
VERTEX
  8
DRAWER
 10
36.877005
 20
45.96627
 30
-0.047
  0
SEQEND
  8
DRAWER
  0
POLYLINE
  8
DRAWER
 66
     1
 10
0.0
 20
0.0
 30
-0.047
  0
VERTEX
  8
DRAWER
 10
36.877005
 20
22.24727
 30
-0.047
  0
VERTEX
  8
DRAWER
 10
36.877005
 20
22.20827
 30
-0.047
  0
VERTEX
  8
DRAWER
 10
19.971005
 20
22.20827
 30
-0.047
  0
VERTEX
  8
DRAWER
 10
19.971005
 20
22.24727
 30
-0.047
  0
SEQEND
  8
DRAWER
  0
POLYLINE
  8
OBJECT
 66
     1
 10
0.0
 20
0.0
 30
-0.047
 70
     1
  0
VERTEX
  8
OBJECT
 10
18.924005
 20
22.16127
 30
-0.047
  0
VERTEX
  8
OBJECT
 10
18.924005
 20
22.05227
 30
-0.047
  0
VERTEX
  8
OBJECT
 10
37.924005
 20
22.05227
 30
-0.047
  0
VERTEX
  8
OBJECT
 10
37.924005
 20
22.16127
 30
-0.047
  0
SEQEND
  8
OBJECT
  0
POLYLINE
  8
DRAWER
 66
     1
 10
0.0
 20
0.0
 30
-0.047
 70
     1
  0
VERTEX
  8
DRAWER
 10
19.924005
 20
46.05227
 30
-0.047
  0
VERTEX
  8
DRAWER
 10
36.924005
 20
46.05227
 30
-0.047
  0
VERTEX
  8
DRAWER
 10
36.924005
 20
22.16127
 30
-0.047
  0
VERTEX
  8
DRAWER
 10
19.924005
 20
22.16127
 30
-0.047
  0
SEQEND
  8
DRAWER
  0
DIMENSION
  8
DIM
  2
*D107
 10
32.696894
 20
46.00527
 30
-0.094
 11
32.696894
 21
34.10677
 31
-0.094
 12
-1.476963
 22
0.0
 32
-0.094
  1
<>
 13
32.696894
 23
22.20827
 33
-0.047
 14
32.696894
 24
46.00527
 34
-0.047
 50
270.0
  3
23NSTD
  0
DIMENSION
  8
DIM
  2
*D46
 10
35.174005
 20
40.409793
 30
-0.094
 11
28.424005
 21
40.409793
 31
-0.094
 12
-0.993876
 22
-79.153826
 32
-0.094
  1
<> INSIDE
 13
21.674005
 23
40.409793
 33
-0.047
 14
35.174005
 24
40.409793
 34
-0.047
  3
23NSTD
  0
DIMENSION
  8
DIM
  2
*D103
 10
4.609463
 20
32.34827
 30
-0.094
 11
11.093213
 21
34.86827
 31
-0.094
 12
-1.476963
 22
0.0
 32
-0.094
  1
<> NOTCH TYP.
 13
21.424005
 23
32.27027
 33
-0.047
 14
21.424005
 24
32.34827
 34
-0.047
 50
90.0
  3
23NSTD
  0
LINE
  8
DRAW-HID
 10
19.971005
 20
45.96627
 30
-0.047
 11
19.971005
 21
22.24727
 31
-0.047
  0
LINE
  8
DRAWER
 10
20.674005
 20
22.20827
 30
-0.047
 11
20.674005
 21
22.24727
 31
-0.047
  0
LINE
  8
DRAWER
 10
20.674005
 20
46.00527
 30
-0.047
 11
20.674005
 21
45.96627
 31
-0.047
  0
POLYLINE
  8
DRAWER
 66
     1
 10
0.0
 20
0.0
 30
-0.047
  0
VERTEX
  8
DRAWER
 10
19.971005
 20
45.96627
 30
-0.047
  0
VERTEX
  8
DRAWER
 10
19.971005
 20
46.00527
 30
-0.047
  0
SEQEND
  8
DRAWER
  0
DIMENSION
  8
DIM
  2
*D89
 10
25.386371
 20
29.27027
 30
-0.094
 11
25.386371
 21
25.73927
 31
-0.094
 12
1.795079
 22
0.0
 32
-0.094
  1
<> INSIDE
 13
19.971005
 23
22.20827
 33
-0.047
 14
21.674005
 24
29.27027
 34
-0.047
 50
270.0
  3
23NSTD
  0
DIMENSION
  8
DIM
  2
*D88
 10
21.674005
 20
35.947885
 30
-0.094
 11
27.99588
 21
35.947885
 31
-0.094
 12
1.795079
 22
0.0
 32
-0.094
  1
<> NOTCH
 13
21.424005
 23
32.34827
 33
-0.047
 14
21.674005
 24
32.34827
 34
-0.047
  3
23NSTD
  0
LINE
  8
DRAW-HID
 10
36.877005
 20
22.24727
 30
-0.047
 11
36.877005
 21
45.96627
 31
-0.047
  0
LINE
  8
DRAWER
 10
36.174005
 20
22.20827
 30
-0.047
 11
36.174005
 21
22.24727
 31
-0.047
  0
LINE
  8
DRAWER
 10
36.174005
 20
46.00527
 30
-0.047
 11
36.174005
 21
45.96627
 31
-0.047
  0
TEXT
  8
DIM
 10
131.211229
 20
173.650306
 30
0.0
 40
0.5
  1

  0
TEXT
  8
DIM
 10
113.789229
 20
191.547
 30
0.0
 40
0.5
  1

  0
TEXT
  8
DIM
 10
146.858409
 20
186.065287
 30
0.0
 40
0.5
  1

  0
TEXT
  8
DIM
 10
149.385687
 20
184.321804
 30
0.0
 40
0.5
  1

  0
TEXT
  8
DIM
 10
91.152664
 20
164.69663
 30
0.0
 40
0.5
  1

  0
TEXT
  8
DIM
 10
101.211792
 20
168.61265
 30
0.0
 40
0.5
  1

  0
TEXT
  8
DIM
 10
130.482847
 20
178.718879
 30
0.0
 40
0.5
  1

  0
TEXT
  8
DIM
 10
111.732847
 20
178.718879
 30
0.0
 40
0.5
  1

  0
TEXT
  8
DIM
 10
127.31618
 20
170.575193
 30
0.0
 40
0.5
  1

  0
TEXT
  8
DIM
 10
358.379981
 20
222.168404
 30
0.0
 40
0.5
  1

  0
TEXT
  8
DIM
 10
340.957981
 20
240.065097
 30
0.0
 40
0.5
  1

  0
TEXT
  8
DIM
 10
374.027161
 20
234.583384
 30
0.0
 40
0.5
  1

  0
TEXT
  8
DIM
 10
376.554439
 20
232.839901
 30
0.0
 40
0.5
  1

  0
TEXT
  8
DIM
 10
318.321416
 20
213.214727
 30
0.0
 40
0.5
  1

  0
TEXT
  8
DIM
 10
328.380544
 20
217.130748
 30
0.0
 40
0.5
  1

  0
TEXT
  8
DIM
 10
357.651599
 20
227.236977
 30
0.0
 40
0.5
  1

  0
TEXT
  8
DIM
 10
338.901599
 20
227.236977
 30
0.0
 40
0.5
  1

  0
TEXT
  8
DIM
 10
354.484932
 20
219.093291
 30
0.0
 40
0.5
  1

  0
TEXT
  8
DIM
 10
245.257482
 20
212.397679
 30
0.0
 40
0.875
  1

 41
0.75
  7
TXT
 72
     2
 11
245.257482
 21
212.835179
 31
0.0
 73
     2
  0
LINE
  8
HANDLE
 10
30.224005
 20
12.983913
 30
-0.047
 11
26.624005
 21
12.983913
 31
-0.047
  0
POLYLINE
  8
HIDDEN
 66
     1
 10
0.0
 20
0.0
 30
-0.047
 70
     1
  0
VERTEX
  8
HIDDEN
 10
30.814005
 20
14.726913
 30
-0.047
  0
VERTEX
  8
HIDDEN
 10
30.814005
 20
12.572913
 30
-0.047
 42
-0.414214
  0
VERTEX
  8
HIDDEN
 10
30.626005
 20
12.384913
 30
-0.047
  0
VERTEX
  8
HIDDEN
 10
26.222005
 20
12.384913
 30
-0.047
 42
-0.414214
  0
VERTEX
  8
HIDDEN
 10
26.034005
 20
12.572913
 30
-0.047
  0
VERTEX
  8
HIDDEN
 10
26.034005
 20
14.726913
 30
-0.047
 42
-0.414214
  0
VERTEX
  8
HIDDEN
 10
26.222005
 20
14.914913
 30
-0.047
  0
VERTEX
  8
HIDDEN
 10
30.626005
 20
14.914913
 30
-0.047
 42
-0.414214
  0
SEQEND
  8
HIDDEN
  0
POLYLINE
  8
HIDDEN
 66
     1
 10
0.0
 20
0.0
 30
-0.047
 70
     1
  0
VERTEX
  8
HIDDEN
 10
30.724005
 20
14.726913
 30
-0.047
  0
VERTEX
  8
HIDDEN
 10
30.724005
 20
12.572913
 30
-0.047
 42
-0.414214
  0
VERTEX
  8
HIDDEN
 10
30.626005
 20
12.474913
 30
-0.047
  0
VERTEX
  8
HIDDEN
 10
26.222005
 20
12.474913
 30
-0.047
 42
-0.414214
  0
VERTEX
  8
HIDDEN
 10
26.124005
 20
12.572913
 30
-0.047
  0
VERTEX
  8
HIDDEN
 10
26.124005
 20
14.726913
 30
-0.047
 42
-0.414214
  0
VERTEX
  8
HIDDEN
 10
26.222005
 20
14.824913
 30
-0.047
  0
VERTEX
  8
HIDDEN
 10
30.626005
 20
14.824913
 30
-0.047
 42
-0.414214
  0
SEQEND
  8
HIDDEN
  0
POLYLINE
  8
HANDLE
 66
     1
 10
0.0
 20
0.0
 30
-0.047
 70
     1
  0
VERTEX
  8
HANDLE
 10
26.004005
 20
14.164913
 30
-0.047
  0
VERTEX
  8
HANDLE
 10
26.004005
 20
12.324913
 30
-0.047
  0
VERTEX
  8
HANDLE
 10
30.844005
 20
12.324913
 30
-0.047
  0
VERTEX
  8
HANDLE
 10
30.844005
 20
14.164913
 30
-0.047
  0
SEQEND
  8
HANDLE
  0
POLYLINE
  8
HANDLE
 66
     1
 10
0.0
 20
0.0
 30
-0.047
 70
     1
  0
VERTEX
  8
HANDLE
 10
30.224005
 20
13.883913
 30
-0.047
  0
VERTEX
  8
HANDLE
 10
30.224005
 20
12.539913
 30
-0.047
  0
VERTEX
  8
HANDLE
 10
26.624005
 20
12.539913
 30
-0.047
  0
VERTEX
  8
HANDLE
 10
26.624005
 20
13.883913
 30
-0.047
  0
SEQEND
  8
HANDLE
  0
LINE
  8
HANDLE
  6
HIDDEN
 10
26.174005
 20
21.96227
 30
-0.047
 11
26.174005
 21
22.05227
 31
-0.047
  0
LINE
  8
HANDLE
  6
HIDDEN
 10
30.674005
 20
21.96227
 30
-0.047
 11
30.674005
 21
22.05227
 31
-0.047
  0
LINE
  8
HIDDEN
  6
HIDDEN
 10
26.174005
 20
22.99027
 30
-0.047
 11
30.674005
 21
22.99027
 31
-0.047
  0
LINE
  8
HIDDEN
  6
HIDDEN
 10
30.224005
 20
22.99027
 30
-0.047
 11
30.224005
 21
22.27227
 31
-0.047
  0
LINE
  8
HIDDEN
  6
HIDDEN
 10
30.224005
 20
22.27227
 30
-0.047
 11
26.624005
 21
22.27227
 31
-0.047
  0
LINE
  8
HIDDEN
  6
HIDDEN
 10
26.624005
 20
22.27227
 30
-0.047
 11
26.624005
 21
22.99027
 31
-0.047
  0
LINE
  8
HANDLE
 10
30.674005
 20
21.96227
 30
-0.047
 11
26.174005
 21
21.96227
 31
-0.047
  0
LINE
  8
OBJECT
  6
HIDDEN
 10
30.674005
 20
22.05227
 30
-0.047
 11
26.174005
 21
22.05227
 31
-0.047
  0
LINE
  8
HIDDEN
  6
HIDDEN
 10
30.674005
 20
22.18227
 30
-0.047
 11
26.174005
 21
22.18227
 31
-0.047
  0
LINE
  8
HIDDEN
 10
55.734669
 20
12.551943
 30
-0.047
 11
56.185117
 21
12.983913
 31
-0.047
  0
LINE
  8
HIDDEN
 10
56.220669
 20
12.893913
 30
-0.047
 11
55.824669
 21
12.512913
 31
-0.047
  0
LINE
  8
HANDLE
 10
55.734669
 20
12.324913
 30
-0.047
 11
55.734669
 21
14.164913
 31
-0.047
  0
POLYLINE
  8
HIDDEN
 66
     1
 10
0.0
 20
0.0
 30
-0.047
 70
     1
  0
VERTEX
  8
HIDDEN
 10
56.843669
 20
14.726913
 30
-0.047
 42
0.414214
  0
VERTEX
  8
HIDDEN
 10
56.745669
 20
14.824913
 30
-0.047
  0
VERTEX
  8
HIDDEN
 10
55.933669
 20
14.824913
 30
-0.047
  0
VERTEX
  8
HIDDEN
 10
55.933669
 20
14.914913
 30
-0.047
  0
VERTEX
  8
HIDDEN
 10
56.745669
 20
14.914913
 30
-0.047
 42
-0.414214
  0
VERTEX
  8
HIDDEN
 10
56.933669
 20
14.726913
 30
-0.047
  0
VERTEX
  8
HIDDEN
 10
56.933669
 20
12.572913
 30
-0.047
 42
-0.414214
  0
VERTEX
  8
HIDDEN
 10
56.745669
 20
12.384913
 30
-0.047
  0
VERTEX
  8
HIDDEN
 10
55.933669
 20
12.384913
 30
-0.047
  0
VERTEX
  8
HIDDEN
 10
55.933669
 20
12.474913
 30
-0.047
  0
VERTEX
  8
HIDDEN
 10
56.745669
 20
12.474913
 30
-0.047
 42
0.414214
  0
VERTEX
  8
HIDDEN
 10
56.843669
 20
12.572913
 30
-0.047
  0
SEQEND
  8
HIDDEN
  0
LINE
  8
HANDLE
 10
55.824669
 20
12.324913
 30
-0.047
 11
55.734669
 21
12.324913
 31
-0.047
  0
LINE
  8
HANDLE
 10
55.824669
 20
12.512913
 30
-0.047
 11
55.824669
 21
12.324913
 31
-0.047
  0
LINE
  8
HIDDEN
 10
56.033669
 20
13.944913
 30
-0.047
 11
55.734669
 21
13.944913
 31
-0.047
  0
LINE
  8
HIDDEN
 10
55.943669
 20
14.164913
 30
-0.047
 11
56.751669
 21
14.164913
 31
-0.047
  0
LINE
  8
HIDDEN
 10
55.943669
 20
14.034913
 30
-0.047
 11
55.943669
 21
14.164913
 31
-0.047
  0
LINE
  8
HANDLE
 10
55.824669
 20
14.164913
 30
-0.047
 11
55.824669
 21
14.034913
 31
-0.047
  0
LINE
  8
HIDDEN
 10
55.824669
 20
14.034913
 30
-0.047
 11
55.943669
 21
14.034913
 31
-0.047
  0
LINE
  8
HANDLE
 10
55.734669
 20
14.164913
 30
-0.047
 11
55.824669
 21
14.164913
 31
-0.047
  0
LINE
  8
HIDDEN
 10
56.751669
 20
14.164913
 30
-0.047
 11
56.751669
 21
12.893913
 31
-0.047
  0
LINE
  8
HIDDEN
 10
56.185117
 20
12.983913
 30
-0.047
 11
56.751669
 21
12.983913
 31
-0.047
  0
LINE
  8
HIDDEN
 10
56.033669
 20
14.074913
 30
-0.047
 11
56.033669
 21
13.944913
 31
-0.047
  0
LINE
  8
HIDDEN
 10
56.751669
 20
14.074913
 30
-0.047
 11
56.033669
 21
14.074913
 31
-0.047
  0
LINE
  8
HIDDEN
 10
56.751669
 20
12.893913
 30
-0.047
 11
56.220669
 21
12.893913
 31
-0.047
  0
ARC
  8
HIDDEN
 10
30.626005
 20
23.02027
 30
-0.047
 40
0.098
 50
0.0
 51
90.0
  0
LINE
  8
HIDDEN
 10
30.724005
 20
23.02027
 30
-0.047
 11
30.724005
 21
22.20827
 31
-0.047
  0
LINE
  8
HANDLE
 10
30.814005
 20
22.20827
 30
-0.047
 11
30.814005
 21
23.02027
 31
-0.047
  0
ARC
  8
HANDLE
 10
30.626005
 20
23.02027
 30
-0.047
 40
0.188
 50
0.0
 51
90.0
  0
LINE
  8
HANDLE
 10
30.626005
 20
23.20827
 30
-0.047
 11
26.222005
 21
23.20827
 31
-0.047
  0
ARC
  8
HANDLE
 10
26.222005
 20
23.02027
 30
-0.047
 40
0.188
 50
90.0
 51
180.0
  0
LINE
  8
HANDLE
 10
26.034005
 20
23.02027
 30
-0.047
 11
26.034005
 21
22.20827
 31
-0.047
  0
LINE
  8
HANDLE
 10
26.034005
 20
22.20827
 30
-0.047
 11
30.814005
 21
22.20827
 31
-0.047
  0
LINE
  8
HIDDEN
 10
26.124005
 20
22.20827
 30
-0.047
 11
26.124005
 21
23.02027
 31
-0.047
  0
ARC
  8
HIDDEN
 10
26.222005
 20
23.02027
 30
-0.047
 40
0.098
 50
90.0
 51
180.0
  0
LINE
  8
HIDDEN
 10
26.222005
 20
23.11827
 30
-0.047
 11
30.626005
 21
23.11827
 31
-0.047
  0
LINE
  8
HIDDEN
 10
26.174005
 20
22.99027
 30
-0.047
 11
26.174005
 21
22.05227
 31
-0.047
  0
LINE
  8
HIDDEN
 10
30.674005
 20
22.99027
 30
-0.047
 11
30.674005
 21
22.05227
 31
-0.047
  0
POLYLINE
  8
HIDDEN
 66
     1
 10
0.0
 20
0.0
 30
-0.047
 70
     1
  0
VERTEX
  8
HIDDEN
 10
26.004005
 20
56.405684
 30
-0.047
  0
VERTEX
  8
HIDDEN
 10
26.004005
 20
58.245684
 30
-0.047
  0
VERTEX
  8
HIDDEN
 10
30.844005
 20
58.245684
 30
-0.047
  0
VERTEX
  8
HIDDEN
 10
30.844005
 20
56.405684
 30
-0.047
  0
SEQEND
  8
HIDDEN
  0
POLYLINE
  8
HIDDEN
 66
     1
 10
0.0
 20
0.0
 30
-0.047
 70
     1
  0
VERTEX
  8
HIDDEN
 10
30.224005
 20
56.686684
 30
-0.047
  0
VERTEX
  8
HIDDEN
 10
30.224005
 20
58.030684
 30
-0.047
  0
VERTEX
  8
HIDDEN
 10
26.624005
 20
58.030684
 30
-0.047
  0
VERTEX
  8
HIDDEN
 10
26.624005
 20
56.686684
 30
-0.047
  0
SEQEND
  8
HIDDEN
  0
LINE
  8
HIDDEN
 10
30.224005
 20
57.586684
 30
-0.047
 11
26.624005
 21
57.586684
 31
-0.047
  0
POLYLINE
  8
HIDDEN
 66
     1
 10
0.0
 20
0.0
 30
-0.047
 70
     1
  0
VERTEX
  8
HIDDEN
 10
30.814005
 20
55.843684
 30
-0.047
  0
VERTEX
  8
HIDDEN
 10
30.814005
 20
57.997684
 30
-0.047
 42
0.414214
  0
VERTEX
  8
HIDDEN
 10
30.626005
 20
58.185684
 30
-0.047
  0
VERTEX
  8
HIDDEN
 10
26.222005
 20
58.185684
 30
-0.047
 42
0.414214
  0
VERTEX
  8
HIDDEN
 10
26.034005
 20
57.997684
 30
-0.047
  0
VERTEX
  8
HIDDEN
 10
26.034005
 20
55.843684
 30
-0.047
 42
0.414214
  0
VERTEX
  8
HIDDEN
 10
26.222005
 20
55.655684
 30
-0.047
  0
VERTEX
  8
HIDDEN
 10
30.626005
 20
55.655684
 30
-0.047
 42
0.414214
  0
SEQEND
  8
HIDDEN
  0
POLYLINE
  8
HIDDEN
 66
     1
 10
0.0
 20
0.0
 30
-0.047
 70
     1
  0
VERTEX
  8
HIDDEN
 10
30.724005
 20
55.843684
 30
-0.047
  0
VERTEX
  8
HIDDEN
 10
30.724005
 20
57.997684
 30
-0.047
 42
0.414214
  0
VERTEX
  8
HIDDEN
 10
30.626005
 20
58.095684
 30
-0.047
  0
VERTEX
  8
HIDDEN
 10
26.222005
 20
58.095684
 30
-0.047
 42
0.414214
  0
VERTEX
  8
HIDDEN
 10
26.124005
 20
57.997684
 30
-0.047
  0
VERTEX
  8
HIDDEN
 10
26.124005
 20
55.843684
 30
-0.047
 42
0.414214
  0
VERTEX
  8
HIDDEN
 10
26.222005
 20
55.745684
 30
-0.047
  0
VERTEX
  8
HIDDEN
 10
30.626005
 20
55.745684
 30
-0.047
 42
0.414214
  0
SEQEND
  8
HIDDEN
  0
TEXT
  8
TEXT
 10
68.501818
 20
53.813064
 30
-0.08225
 40
0.875
  1
FRONT PANEL
 41
0.75
  7
TXT
  0
POLYLINE
  8
OBJECT
 66
     1
 10
0.0
 20
0.0
 30
-0.047
 70
     1
  0
VERTEX
  8
OBJECT
 10
93.43574
 20
40.434551
 30
-0.047
  0
VERTEX
  8
OBJECT
 10
93.88874
 20
40.434551
 30
-0.047
  0
VERTEX
  8
OBJECT
 10
93.88874
 20
40.481551
 30
-0.047
  0
VERTEX
  8
OBJECT
 10
93.38874
 20
40.481551
 30
-0.047
  0
VERTEX
  8
OBJECT
 10
93.38874
 20
33.481551
 30
-0.047
  0
VERTEX
  8
OBJECT
 10
93.88874
 20
33.481551
 30
-0.047
  0
VERTEX
  8
OBJECT
 10
93.88874
 20
33.528551
 30
-0.047
  0
VERTEX
  8
OBJECT
 10
93.43574
 20
33.528551
 30
-0.047
  0
SEQEND
  8
OBJECT
  0
DIMENSION
  8
DIM
  2
*D68
 10
93.38874
 20
31.547495
 30
-0.047
 11
89.090302
 21
31.547495
 31
-0.047
 12
9.107756
 22
-4.251726
 32
-0.047
 13
93.88874
 23
33.481551
 33
-0.047
 14
93.38874
 24
33.481551
 34
-0.047
  3
23NSTD
  0
DIMENSION
  8
DIM
  2
*D66
 10
91.289748
 20
40.481551
 30
-0.047
 11
91.289748
 21
36.981551
 31
-0.047
 12
9.107756
 22
-4.251726
 32
-0.047
 13
93.38874
 23
33.481551
 33
-0.047
 14
93.38874
 24
40.481551
 34
-0.047
 50
90.0
  3
23NSTD
  0
DIMENSION
  8
DIM
  2
*D70
 10
69.393237
 20
23.228619
 30
-0.047
 11
65.040112
 21
23.228619
 31
-0.047
 12
10.111518
 22
-4.4747
 32
-0.047
 13
71.893237
 23
27.289999
 33
-0.047
 14
69.393237
 24
27.617999
 34
-0.047
  3
23NSTD
  0
DIMENSION
  8
DIM
  2
*D72
 10
86.393237
 20
23.228619
 30
-0.047
 11
90.746362
 21
23.228619
 31
-0.047
 12
10.111518
 22
-4.4747
 32
-0.047
 13
83.893237
 23
27.289999
 33
-0.047
 14
86.393237
 24
27.617999
 34
-0.047
  3
23NSTD
  0
DIMENSION
  8
DIM
  2
*D67
 10
86.393237
 20
31.547495
 30
-0.047
 11
77.893237
 21
31.547495
 31
-0.047
 12
10.111518
 22
-4.251726
 32
-0.047
 13
69.393237
 23
33.606551
 33
-0.047
 14
86.393237
 24
33.606551
 34
-0.047
  3
23NSTD
  0
LINE
  8
OBJECT
 10
69.393237
 20
27.664999
 30
-0.047
 11
86.393237
 21
27.664999
 31
-0.047
  0
CIRCLE
  8
OBJECT
 10
72.143237
 20
27.414999
 30
-0.047
 40
0.09375
  0
CIRCLE
  8
OBJECT
 10
83.643237
 20
27.414999
 30
-0.047
 40
0.09375
  0
LINE
  8
OBJECT
 10
83.893237
 20
27.664999
 30
-0.047
 11
83.893237
 21
27.289999
 31
-0.047
  0
ARC
  8
OBJECT
 10
83.768237
 20
27.289999
 30
-0.047
 40
0.125
 50
270.0
 51
0.0
  0
LINE
  8
OBJECT
 10
84.737237
 20
27.164999
 30
-0.047
 11
71.049237
 21
27.164999
 31
-0.047
  0
ARC
  8
OBJECT
 10
72.018237
 20
27.289999
 30
-0.047
 40
0.125
 50
180.0
 51
270.0
  0
LINE
  8
OBJECT
 10
71.893237
 20
27.289999
 30
-0.047
 11
71.893237
 21
27.664999
 31
-0.047
  0
LINE
  8
OBJECT
 10
69.393237
 20
27.617999
 30
-0.047
 11
69.393237
 21
27.664999
 31
-0.047
  0
LINE
  8
OBJECT
 10
70.924237
 20
27.617999
 30
-0.047
 11
70.924237
 21
27.289999
 31
-0.047
  0
ARC
  8
OBJECT
 10
71.049237
 20
27.289999
 30
-0.047
 40
0.125
 50
180.0
 51
270.0
  0
ARC
  8
OBJECT
 10
84.737237
 20
27.289999
 30
-0.047
 40
0.125
 50
270.0
 51
0.0
  0
LINE
  8
OBJECT
 10
84.862237
 20
27.289999
 30
-0.047
 11
84.862237
 21
27.617999
 31
-0.047
  0
LINE
  8
OBJECT
 10
86.393237
 20
27.664999
 30
-0.047
 11
86.393237
 21
27.617999
 31
-0.047
  0
DIMENSION
  8
DIM
  2
*D71
 10
86.393237
 20
25.450523
 30
-0.047
 11
90.636987
 21
25.450523
 31
-0.047
 12
10.111518
 22
-4.4747
 32
-0.047
 13
84.862237
 23
27.289999
 33
-0.047
 14
86.393237
 24
27.617999
 34
-0.047
  3
23NSTD
  0
DIMENSION
  8
DIM
  2
*D69
 10
69.393237
 20
25.450523
 30
-0.047
 11
65.149487
 21
25.450523
 31
-0.047
 12
10.111518
 22
-4.4747
 32
-0.047
 13
70.924237
 23
27.289999
 33
-0.047
 14
69.393237
 24
27.617999
 34
-0.047
  3
23NSTD
  0
LINE
  8
HIDDEN
 10
83.893237
 20
33.528551
 30
-0.047
 11
83.893237
 21
33.481551
 31
-0.047
  0
LINE
  8
HIDDEN
 10
71.893237
 20
33.481551
 30
-0.047
 11
71.893237
 21
33.528551
 31
-0.047
  0
LINE
  8
OBJECT
 10
86.268237
 20
33.481551
 30
-0.047
 11
69.518237
 21
33.481551
 31
-0.047
  0
ARC
  8
OBJECT
 10
69.518237
 20
33.606551
 30
-0.047
 40
0.125
 50
180.0
 51
270.0
  0
LINE
  8
OBJECT
 10
69.393237
 20
33.606551
 30
-0.047
 11
69.393237
 21
40.356551
 31
-0.047
  0
ARC
  8
OBJECT
 10
69.518237
 20
40.356551
 30
-0.047
 40
0.125
 50
90.0
 51
180.0
  0
LINE
  8
OBJECT
 10
69.518237
 20
40.481551
 30
-0.047
 11
86.268237
 21
40.481551
 31
-0.047
  0
LINE
  8
HIDDEN
 10
70.924237
 20
40.434551
 30
-0.047
 11
70.924237
 21
40.481551
 31
-0.047
  0
LINE
  8
HIDDEN
 10
84.862237
 20
40.481551
 30
-0.047
 11
84.862237
 21
40.434551
 31
-0.047
  0
ARC
  8
OBJECT
 10
86.268237
 20
40.356551
 30
-0.047
 40
0.125
 50
0.0
 51
90.0
  0
LINE
  8
OBJECT
 10
86.393237
 20
40.356551
 30
-0.047
 11
86.393237
 21
33.606551
 31
-0.047
  0
ARC
  8
OBJECT
 10
86.268237
 20
33.606551
 30
-0.047
 40
0.125
 50
270.0
 51
0.0
  0
LINE
  8
HIDDEN
 10
83.893237
 20
33.528551
 30
-0.047
 11
71.893237
 21
33.528551
 31
-0.047
  0
LINE
  8
HIDDEN
 10
70.924237
 20
40.434551
 30
-0.047
 11
84.862237
 21
40.434551
 31
-0.047
  0
LINE
  8
OBJECT
 10
69.393237
 20
27.617999
 30
-0.047
 11
71.893237
 21
27.617999
 31
-0.047
  0
LINE
  8
OBJECT
 10
83.893237
 20
27.617999
 30
-0.047
 11
86.393237
 21
27.617999
 31
-0.047
  0
LINE
  8
HIDDEN
 10
71.893237
 20
27.617999
 30
-0.047
 11
83.893237
 21
27.617999
 31
-0.047
  0
TEXT
  8
TEXT
 10
88.359923
 20
58.188064
 30
-0.08225
 40
0.875
  1
MOLDED ABS
 41
0.75
  7
TXT
  0
TEXT
  8
TEXT
 10
68.501818
 20
58.185731
 30
-0.08225
 40
0.875
  1
HANDLE
 41
0.75
  7
TXT
  0
TEXT
  8
TEXT
 10
69.318019
 20
50.894064
 30
-0.08225
 40
0.875
  1
& MOUSE PANEL
 41
0.75
  7
TXT
  0
POLYLINE
  8
HIDDEN
  6
HIDDEN2
 66
     1
 10
0.0
 20
0.0
 30
-0.047
  0
VERTEX
  8
HIDDEN
  6
HIDDEN2
 10
21.519005
 20
22.16127
 30
-0.047
  0
VERTEX
  8
HIDDEN
  6
HIDDEN2
 10
21.519005
 20
22.53627
 30
-0.047
  0
VERTEX
  8
HIDDEN
  6
HIDDEN2
 10
21.329005
 20
22.53627
 30
-0.047
  0
VERTEX
  8
HIDDEN
  6
HIDDEN2
 10
21.329005
 20
22.16127
 30
-0.047
  0
SEQEND
  8
HIDDEN
  6
HIDDEN2
  0
INSERT
  8
HIDDEN
  6
HIDDEN2
  2
HEXNUTEL
 10
21.424005
 20
22.335734
 30
-0.047
 41
0.19
 42
0.19
 50
270.0
 43
0.19
  0
INSERT
  8
HIDDEN
  6
HIDDEN2
  2
HEXNUTEL
 10
35.424005
 20
22.335734
 30
-0.047
 41
0.19
 42
0.19
 50
270.0
 43
0.19
  0
POLYLINE
  8
HIDDEN
  6
HIDDEN2
 66
     1
 10
0.0
 20
0.0
 30
-0.047
  0
VERTEX
  8
HIDDEN
  6
HIDDEN2
 10
35.519005
 20
22.16127
 30
-0.047
  0
VERTEX
  8
HIDDEN
  6
HIDDEN2
 10
35.519005
 20
22.53627
 30
-0.047
  0
VERTEX
  8
HIDDEN
  6
HIDDEN2
 10
35.329005
 20
22.53627
 30
-0.047
  0
VERTEX
  8
HIDDEN
  6
HIDDEN2
 10
35.329005
 20
22.16127
 30
-0.047
  0
SEQEND
  8
HIDDEN
  6
HIDDEN2
  0
INSERT
  8
HIDDEN
  6
HIDDEN2
  2
HEXNUTEL
 10
56.108133
 20
14.377913
 30
-0.047
 41
0.19
 42
0.19
 50
180.0
 43
0.19
  0
POLYLINE
  8
HIDDEN
  6
HIDDEN2
 66
     1
 10
0.0
 20
0.0
 30
-0.047
  0
VERTEX
  8
HIDDEN
  6
HIDDEN2
 10
55.933669
 20
14.282913
 30
-0.047
  0
VERTEX
  8
HIDDEN
  6
HIDDEN2
 10
56.308669
 20
14.282913
 30
-0.047
  0
VERTEX
  8
HIDDEN
  6
HIDDEN2
 10
56.308669
 20
14.472913
 30
-0.047
  0
VERTEX
  8
HIDDEN
  6
HIDDEN2
 10
55.933669
 20
14.472913
 30
-0.047
  0
SEQEND
  8
HIDDEN
  6
HIDDEN2
  0
CIRCLE
  8
HIDDEN
  6
HIDDEN2
 10
21.424005
 20
14.377913
 30
-0.047
 40
0.095
  0
CIRCLE
  8
HIDDEN
  6
HIDDEN2
 10
21.424005
 20
12.909913
 30
-0.047
 40
0.095
  0
CIRCLE
  8
HIDDEN
  6
HIDDEN2
 10
35.424005
 20
14.377913
 30
-0.047
 40
0.095
  0
CIRCLE
  8
HIDDEN
  6
HIDDEN2
 10
35.424005
 20
12.909913
 30
-0.047
 40
0.095
  0
POLYLINE
  8
HIDDEN
  6
HIDDEN2
 66
     1
 10
0.0
 20
0.0
 30
-0.047
  0
VERTEX
  8
HIDDEN
  6
HIDDEN2
 10
55.933669
 20
12.814913
 30
-0.047
  0
VERTEX
  8
HIDDEN
  6
HIDDEN2
 10
56.308669
 20
12.814913
 30
-0.047
  0
VERTEX
  8
HIDDEN
  6
HIDDEN2
 10
56.308669
 20
13.004913
 30
-0.047
  0
VERTEX
  8
HIDDEN
  6
HIDDEN2
 10
55.933669
 20
13.004913
 30
-0.047
  0
SEQEND
  8
HIDDEN
  6
HIDDEN2
  0
INSERT
  8
HIDDEN
  6
HIDDEN2
  2
HEXNUTEL
 10
56.108133
 20
12.909913
 30
-0.047
 41
0.19
 42
0.19
 50
180.0
 43
0.19
  0
POLYLINE
  8
HIDDEN
  6
HIDDEN2
 66
     1
 10
0.0
 20
0.0
 30
-0.047
 70
     1
  0
VERTEX
  8
HIDDEN
  6
HIDDEN2
 10
35.341732
 20
14.520413
 30
-0.047
  0
VERTEX
  8
HIDDEN
  6
HIDDEN2
 10
35.25946
 20
14.377913
 30
-0.047
  0
VERTEX
  8
HIDDEN
  6
HIDDEN2
 10
35.341732
 20
14.235413
 30
-0.047
  0
VERTEX
  8
HIDDEN
  6
HIDDEN2
 10
35.506277
 20
14.235413
 30
-0.047
  0
VERTEX
  8
HIDDEN
  6
HIDDEN2
 10
35.58855
 20
14.377913
 30
-0.047
  0
VERTEX
  8
HIDDEN
  6
HIDDEN2
 10
35.506277
 20
14.520413
 30
-0.047
  0
SEQEND
  8
HIDDEN
  6
HIDDEN2
  0
CIRCLE
  8
HIDDEN
  6
HIDDEN2
 10
35.424005
 20
14.377913
 30
-0.047
 40
0.1425
  0
CIRCLE
  8
HIDDEN
  6
HIDDEN2
 10
35.424005
 20
12.909913
 30
-0.047
 40
0.1425
  0
POLYLINE
  8
HIDDEN
  6
HIDDEN2
 66
     1
 10
0.0
 20
0.0
 30
-0.047
 70
     1
  0
VERTEX
  8
HIDDEN
  6
HIDDEN2
 10
35.341732
 20
13.052413
 30
-0.047
  0
VERTEX
  8
HIDDEN
  6
HIDDEN2
 10
35.25946
 20
12.909913
 30
-0.047
  0
VERTEX
  8
HIDDEN
  6
HIDDEN2
 10
35.341732
 20
12.767413
 30
-0.047
  0
VERTEX
  8
HIDDEN
  6
HIDDEN2
 10
35.506277
 20
12.767413
 30
-0.047
  0
VERTEX
  8
HIDDEN
  6
HIDDEN2
 10
35.58855
 20
12.909913
 30
-0.047
  0
VERTEX
  8
HIDDEN
  6
HIDDEN2
 10
35.506277
 20
13.052413
 30
-0.047
  0
SEQEND
  8
HIDDEN
  6
HIDDEN2
  0
POLYLINE
  8
HIDDEN
  6
HIDDEN2
 66
     1
 10
0.0
 20
0.0
 30
-0.047
 70
     1
  0
VERTEX
  8
HIDDEN
  6
HIDDEN2
 10
21.341732
 20
13.052413
 30
-0.047
  0
VERTEX
  8
HIDDEN
  6
HIDDEN2
 10
21.25946
 20
12.909913
 30
-0.047
  0
VERTEX
  8
HIDDEN
  6
HIDDEN2
 10
21.341732
 20
12.767413
 30
-0.047
  0
VERTEX
  8
HIDDEN
  6
HIDDEN2
 10
21.506277
 20
12.767413
 30
-0.047
  0
VERTEX
  8
HIDDEN
  6
HIDDEN2
 10
21.58855
 20
12.909913
 30
-0.047
  0
VERTEX
  8
HIDDEN
  6
HIDDEN2
 10
21.506277
 20
13.052413
 30
-0.047
  0
SEQEND
  8
HIDDEN
  6
HIDDEN2
  0
CIRCLE
  8
HIDDEN
  6
HIDDEN2
 10
21.424005
 20
12.909913
 30
-0.047
 40
0.1425
  0
CIRCLE
  8
HIDDEN
  6
HIDDEN2
 10
21.424005
 20
14.377913
 30
-0.047
 40
0.1425
  0
POLYLINE
  8
HIDDEN
  6
HIDDEN2
 66
     1
 10
0.0
 20
0.0
 30
-0.047
 70
     1
  0
VERTEX
  8
HIDDEN
  6
HIDDEN2
 10
21.341732
 20
14.520413
 30
-0.047
  0
VERTEX
  8
HIDDEN
  6
HIDDEN2
 10
21.25946
 20
14.377913
 30
-0.047
  0
VERTEX
  8
HIDDEN
  6
HIDDEN2
 10
21.341732
 20
14.235413
 30
-0.047
  0
VERTEX
  8
HIDDEN
  6
HIDDEN2
 10
21.506277
 20
14.235413
 30
-0.047
  0
VERTEX
  8
HIDDEN
  6
HIDDEN2
 10
21.58855
 20
14.377913
 30
-0.047
  0
VERTEX
  8
HIDDEN
  6
HIDDEN2
 10
21.506277
 20
14.520413
 30
-0.047
  0
SEQEND
  8
HIDDEN
  6
HIDDEN2
  0
LINE
  8
TEXT
 10
76.106366
 20
53.813064
 30
-0.08225
 11
87.834969
 21
53.813064
 31
-0.08225
  0
LINE
  8
TEXT
 10
75.942586
 20
62.558398
 30
-0.08225
 11
87.834969
 21
62.558398
 31
-0.08225
  0
LINE
  8
TEXT
 10
79.872904
 20
61.100064
 30
-0.08225
 11
87.834969
 21
61.100064
 31
-0.08225
  0
LINE
  8
TEXT
 10
81.330926
 20
59.641731
 30
-0.08225
 11
87.834969
 21
59.641731
 31
-0.08225
  0
LINE
  8
TEXT
 10
72.836366
 20
58.185731
 30
-0.08225
 11
87.834969
 21
58.185731
 31
-0.08225
  0
LINE
  8
TEXT
 10
78.351906
 20
50.901064
 30
-0.08225
 11
87.834969
 21
50.901064
 31
-0.08225
  0
TEXT
  8
TEXT
 10
88.359923
 20
49.452064
 30
-0.08225
 40
0.875
  1
LOW GLOSS BLACK
 41
0.75
  7
TXT
  0
TEXT
  8
TEXT
 10
68.501818
 20
49.438064
 30
-0.08225
 40
0.875
  1
HANDLE
 41
0.75
  7
TXT
  0
LINE
  8
TEXT
 10
72.817618
 20
49.458588
 30
-0.08225
 11
87.834969
 21
49.458588
 31
-0.08225
  0
LINE
  8
DRAWER
 10
19.924005
 20
45.96627
 30
-0.047
 11
21.674005
 21
45.96627
 31
-0.047
  0
LINE
  8
DRAWER
 10
21.674005
 20
45.96627
 30
-0.047
 11
21.674005
 21
32.34827
 31
-0.047
  0
LINE
  8
DRAWER
 10
21.674005
 20
31.34827
 30
-0.047
 11
21.424005
 21
31.34827
 31
-0.047
  0
LINE
  8
DRAWER
 10
21.424005
 20
31.34827
 30
-0.047
 11
21.424005
 21
31.27027
 31
-0.047
  0
LINE
  8
DRAWER
 10
21.424005
 20
31.27027
 30
-0.047
 11
21.674005
 21
31.27027
 31
-0.047
  0
LINE
  8
DRAWER
 10
21.674005
 20
31.27027
 30
-0.047
 11
21.674005
 21
30.34827
 31
-0.047
  0
LINE
  8
DRAWER
 10
21.674005
 20
30.34827
 30
-0.047
 11
21.424005
 21
30.34827
 31
-0.047
  0
LINE
  8
DRAWER
 10
21.424005
 20
30.34827
 30
-0.047
 11
21.424005
 21
30.27027
 31
-0.047
  0
LINE
  8
DRAWER
 10
21.424005
 20
30.27027
 30
-0.047
 11
21.674005
 21
30.27027
 31
-0.047
  0
LINE
  8
DRAWER
 10
21.674005
 20
30.27027
 30
-0.047
 11
21.674005
 21
29.34827
 31
-0.047
  0
LINE
  8
DRAWER
 10
21.674005
 20
29.34827
 30
-0.047
 11
21.424005
 21
29.34827
 31
-0.047
  0
LINE
  8
DRAWER
 10
21.424005
 20
29.34827
 30
-0.047
 11
21.424005
 21
29.27027
 31
-0.047
  0
LINE
  8
DRAWER
 10
21.424005
 20
29.27027
 30
-0.047
 11
21.674005
 21
29.27027
 31
-0.047
  0
LINE
  8
DRAWER
 10
21.674005
 20
29.27027
 30
-0.047
 11
21.674005
 21
22.24727
 31
-0.047
  0
LINE
  8
DRAWER
 10
21.674005
 20
22.24727
 30
-0.047
 11
19.924005
 21
22.24727
 31
-0.047
  0
LINE
  8
DRAWER
 10
36.924005
 20
22.24727
 30
-0.047
 11
35.174005
 21
22.24727
 31
-0.047
  0
LINE
  8
DRAWER
 10
35.174005
 20
22.24727
 30
-0.047
 11
35.174005
 21
29.27027
 31
-0.047
  0
LINE
  8
DRAWER
 10
35.174005
 20
29.27027
 30
-0.047
 11
35.424005
 21
29.27027
 31
-0.047
  0
LINE
  8
DRAWER
 10
35.424005
 20
29.27027
 30
-0.047
 11
35.424005
 21
29.34827
 31
-0.047
  0
LINE
  8
DRAWER
 10
35.424005
 20
29.34827
 30
-0.047
 11
35.174005
 21
29.34827
 31
-0.047
  0
LINE
  8
DRAWER
 10
35.174005
 20
29.34827
 30
-0.047
 11
35.174005
 21
30.27027
 31
-0.047
  0
LINE
  8
DRAWER
 10
35.174005
 20
30.27027
 30
-0.047
 11
35.424005
 21
30.27027
 31
-0.047
  0
LINE
  8
DRAWER
 10
35.424005
 20
30.27027
 30
-0.047
 11
35.424005
 21
30.34827
 31
-0.047
  0
LINE
  8
DRAWER
 10
35.424005
 20
30.34827
 30
-0.047
 11
35.174005
 21
30.34827
 31
-0.047
  0
LINE
  8
DRAWER
 10
35.174005
 20
30.34827
 30
-0.047
 11
35.174005
 21
31.27027
 31
-0.047
  0
LINE
  8
DRAWER
 10
35.174005
 20
31.27027
 30
-0.047
 11
35.424005
 21
31.27027
 31
-0.047
  0
LINE
  8
DRAWER
 10
35.424005
 20
31.27027
 30
-0.047
 11
35.424005
 21
31.34827
 31
-0.047
  0
LINE
  8
DRAWER
 10
35.424005
 20
31.34827
 30
-0.047
 11
35.174005
 21
31.34827
 31
-0.047
  0
LINE
  8
DRAWER
 10
35.174005
 20
31.34827
 30
-0.047
 11
35.174005
 21
32.27027
 31
-0.047
  0
LINE
  8
DRAWER
 10
35.174005
 20
45.96627
 30
-0.047
 11
36.924005
 21
45.96627
 31
-0.047
  0
LINE
  8
DRAWER
 10
21.424005
 20
32.27027
 30
-0.047
 11
21.674005
 21
32.27027
 31
-0.047
  0
LINE
  8
DRAWER
 10
21.424005
 20
32.34827
 30
-0.047
 11
21.424005
 21
32.27027
 31
-0.047
  0
LINE
  8
DRAWER
 10
21.674005
 20
32.34827
 30
-0.047
 11
21.424005
 21
32.34827
 31
-0.047
  0
LINE
  8
DRAWER
 10
35.424005
 20
32.34827
 30
-0.047
 11
35.174005
 21
32.34827
 31
-0.047
  0
LINE
  8
DRAWER
 10
35.424005
 20
32.27027
 30
-0.047
 11
35.424005
 21
32.34827
 31
-0.047
  0
LINE
  8
DRAWER
 10
35.174005
 20
32.27027
 30
-0.047
 11
35.424005
 21
32.27027
 31
-0.047
  0
LINE
  8
DRAWER
 10
21.674005
 20
32.27027
 30
-0.047
 11
21.674005
 21
31.34827
 31
-0.047
  0
LINE
  8
DRAWER
 10
35.174005
 20
32.34827
 30
-0.047
 11
35.174005
 21
45.96627
 31
-0.047
  0
TEXT
  8
TEXT
 10
68.501818
 20
45.690266
 30
-0.08225
 40
0.875
  1
UNIT SHIPPED UNASSEMBLED
 41
0.75
  7
TXT
  0
POLYLINE
  8
DIM
 66
     1
 10
0.0
 20
0.0
 30
0.0
 41
0.4725
  0
VERTEX
  8
DIM
 10
69.360471
 20
36.171932
 30
0.0
  0
VERTEX
  8
DIM
 10
68.365746
 20
36.945315
 30
0.0
 41
0.0
  0
VERTEX
  8
DIM
 10
66.292932
 20
38.556894
 30
0.0
 41
0.0
  0
VERTEX
  8
DIM
 10
65.032932
 20
38.556894
 30
0.0
 41
0.0
  0
SEQEND
  8
DIM
  0
TEXT
  8
DIM
 10
57.402932
 20
38.119394
 30
0.0
 40
0.875
  1
MOUSE PANEL
 41
0.75
  7
TXT
 72
     2
 11
64.402932
 21
38.556894
 31
0.0
 73
     2
  0
DIMENSION
  8
DIM
  2
*D106
 10
17.184535
 20
29.27027
 30
0.0
 11
14.255472
 21
26.75027
 31
0.0
 12
-1.476963
 22
0.0
 32
0.0
 13
21.424005
 23
30.27027
 33
-0.047
 14
21.424005
 24
29.27027
 34
-0.047
 50
90.0
  3
23NSTD
  0
DIMENSION
  8
DIM
  2
*D104
 10
12.67896
 20
29.27027
 30
0.0
 11
12.67896
 21
30.27027
 31
0.0
 12
-1.476963
 22
0.0
 32
0.0
 13
21.424005
 23
31.27027
 33
-0.047
 14
21.424005
 24
29.27027
 34
-0.047
 50
90.0
  3
23NSTDI
  0
DIMENSION
  8
DIM
  2
*D105
 10
9.154266
 20
29.27027
 30
0.0
 11
9.154266
 21
30.77027
 31
0.0
 12
-1.476963
 22
0.0
 32
0.0
 13
21.424005
 23
32.27027
 33
-0.047
 14
21.424005
 24
29.27027
 34
-0.047
 50
90.0
  3
23NSTDI
  0
TEXT
  8
DIM
 10
29.135554
 20
32.220371
 30
0.0
 40
0.875
  1
INSIDE
 41
0.75
  7
TXT
  0
ENDSEC
  0
EOF
