  0
SECTION
  2
HEADER
  9
$ACADVER
  1
AC1015
  9
$ACADMAINTVER
 70
     6
  9
$DWGCODEPAGE
  3
ANSI_1252
  9
$INSBASE
 10
0.0
 20
0.0
 30
0.0
  9
$EXTMIN
 10
-0.0027794137751158
 20
-0.0042570072642434
 30
-0.0000000349181948
  9
$EXTMAX
 10
45.54277983791233
 20
69.75425765688152
 30
0.0000000814935746
  9
$LIMMIN
 10
0.0
 20
0.0
  9
$LIMMAX
 10
45.54
 20
69.75
  9
$ORTHOMODE
 70
     1
  9
$REGENMODE
 70
     1
  9
$FILLMODE
 70
     1
  9
$QTEXTMODE
 70
     0
  9
$MIRRTEXT
 70
     0
  9
$LTSCALE
 40
3.0
  9
$ATTMODE
 70
     1
  9
$TEXTSIZE
 40
0.5
  9
$TRACEWID
 40
0.05
  9
$TEXTSTYLE
  7
TXT
  9
$CLAYER
  8
OBJECT
  9
$CELTYPE
  6
ByLayer
  9
$CECOLOR
 62
   256
  9
$CELTSCALE
 40
1.0
  9
$DISPSILH
 70
     0
  9
$DIMSCALE
 40
4.5
  9
$DIMASZ
 40
0.18
  9
$DIMEXO
 40
0.063
  9
$DIMDLI
 40
0.281
  9
$DIMRND
 40
0.0
  9
$DIMDLE
 40
0.0
  9
$DIMEXE
 40
0.093
  9
$DIMTP
 40
0.0
  9
$DIMTM
 40
0.0
  9
$DIMTXT
 40
0.125
  9
$DIMCEN
 40
0.09
  9
$DIMTSZ
 40
0.0
  9
$DIMTOL
 70
     0
  9
$DIMLIM
 70
     0
  9
$DIMTIH
 70
     1
  9
$DIMTOH
 70
     1
  9
$DIMSE1
 70
     0
  9
$DIMSE2
 70
     0
  9
$DIMTAD
 70
     0
  9
$DIMZIN
 70
     0
  9
$DIMBLK
  1

  9
$DIMASO
 70
     1
  9
$DIMSHO
 70
     1
  9
$DIMPOST
  1

  9
$DIMAPOST
  1

  9
$DIMALT
 70
     0
  9
$DIMALTD
 70
     2
  9
$DIMALTF
 40
25.4
  9
$DIMLFAC
 40
1.0
  9
$DIMTOFL
 70
     0
  9
$DIMTVP
 40
0.0
  9
$DIMTIX
 70
     0
  9
$DIMSOXD
 70
     0
  9
$DIMSAH
 70
     0
  9
$DIMBLK1
  1

  9
$DIMBLK2
  1

  9
$DIMSTYLE
  2
23NSTD
  9
$DIMCLRD
 70
     0
  9
$DIMCLRE
 70
     0
  9
$DIMCLRT
 70
     0
  9
$DIMTFAC
 40
1.0
  9
$DIMGAP
 40
0.09
  9
$DIMJUST
 70
     0
  9
$DIMSD1
 70
     0
  9
$DIMSD2
 70
     0
  9
$DIMTOLJ
 70
     1
  9
$DIMTZIN
 70
     0
  9
$DIMALTZ
 70
     0
  9
$DIMALTTZ
 70
     0
  9
$DIMUPT
 70
     0
  9
$DIMDEC
 70
     3
  9
$DIMTDEC
 70
     3
  9
$DIMALTU
 70
     2
  9
$DIMALTTD
 70
     2
  9
$DIMTXSTY
  7
TXT
  9
$DIMAUNIT
 70
     0
  9
$DIMADEC
 70
     0
  9
$DIMALTRND
 40
0.0
  9
$DIMAZIN
 70
     0
  9
$DIMDSEP
 70
    46
  9
$DIMATFIT
 70
     1
  9
$DIMFRAC
 70
     0
  9
$DIMLDRBLK
  1

  9
$DIMLUNIT
 70
     2
  9
$DIMLWD
 70
    -2
  9
$DIMLWE
 70
    -2
  9
$DIMTMOVE
 70
     0
  9
$LUNITS
 70
     2
  9
$LUPREC
 70
     3
  9
$SKETCHINC
 40
0.1
  9
$FILLETRAD
 40
0.0
  9
$AUNITS
 70
     0
  9
$AUPREC
 70
     0
  9
$MENU
  1
acad
  9
$ELEVATION
 40
0.0
  9
$PELEVATION
 40
0.0
  9
$THICKNESS
 40
0.0
  9
$LIMCHECK
 70
     0
  9
$CHAMFERA
 40
0.0
  9
$CHAMFERB
 40
0.0
  9
$CHAMFERC
 40
0.0
  9
$CHAMFERD
 40
0.0
  9
$SKPOLY
 70
     0
  9
$TDCREATE
 40
2448397.638680440
  9
$TDUCREATE
 40
2448397.805347106
  9
$TDUPDATE
 40
2454028.305058044
  9
$TDUUPDATE
 40
2454028.471724710
  9
$TDINDWG
 40
0.0318440625
  9
$TDUSRTIMER
 40
0.0318440625
  9
$USRTIMER
 70
     1
  9
$ANGBASE
 50
0.0
  9
$ANGDIR
 70
     0
  9
$PDMODE
 70
     0
  9
$PDSIZE
 40
0.0
  9
$PLINEWID
 40
0.0
  9
$SPLFRAME
 70
     0
  9
$SPLINETYPE
 70
     6
  9
$SPLINESEGS
 70
     8
  9
$HANDSEED
  5
5D9
  9
$SURFTAB1
 70
     6
  9
$SURFTAB2
 70
     6
  9
$SURFTYPE
 70
     6
  9
$SURFU
 70
     6
  9
$SURFV
 70
     6
  9
$UCSBASE
  2

  9
$UCSNAME
  2

  9
$UCSORG
 10
0.0
 20
0.0
 30
0.0
  9
$UCSXDIR
 10
1.0
 20
0.0
 30
0.0
  9
$UCSYDIR
 10
0.0
 20
1.0
 30
0.0
  9
$UCSORTHOREF
  2

  9
$UCSORTHOVIEW
 70
     0
  9
$UCSORGTOP
 10
0.0
 20
0.0
 30
0.0
  9
$UCSORGBOTTOM
 10
0.0
 20
0.0
 30
0.0
  9
$UCSORGLEFT
 10
0.0
 20
0.0
 30
0.0
  9
$UCSORGRIGHT
 10
0.0
 20
0.0
 30
0.0
  9
$UCSORGFRONT
 10
0.0
 20
0.0
 30
0.0
  9
$UCSORGBACK
 10
0.0
 20
0.0
 30
0.0
  9
$PUCSBASE
  2

  9
$PUCSNAME
  2

  9
$PUCSORG
 10
0.0
 20
0.0
 30
0.0
  9
$PUCSXDIR
 10
1.0
 20
0.0
 30
0.0
  9
$PUCSYDIR
 10
0.0
 20
1.0
 30
0.0
  9
$PUCSORTHOREF
  2

  9
$PUCSORTHOVIEW
 70
     0
  9
$PUCSORGTOP
 10
0.0
 20
0.0
 30
0.0
  9
$PUCSORGBOTTOM
 10
0.0
 20
0.0
 30
0.0
  9
$PUCSORGLEFT
 10
0.0
 20
0.0
 30
0.0
  9
$PUCSORGRIGHT
 10
0.0
 20
0.0
 30
0.0
  9
$PUCSORGFRONT
 10
0.0
 20
0.0
 30
0.0
  9
$PUCSORGBACK
 10
0.0
 20
0.0
 30
0.0
  9
$USERI1
 70
     0
  9
$USERI2
 70
     0
  9
$USERI3
 70
     0
  9
$USERI4
 70
     0
  9
$USERI5
 70
     0
  9
$USERR1
 40
0.0
  9
$USERR2
 40
0.0
  9
$USERR3
 40
0.0
  9
$USERR4
 40
0.0
  9
$USERR5
 40
0.0
  9
$WORLDVIEW
 70
     1
  9
$SHADEDGE
 70
     3
  9
$SHADEDIF
 70
    70
  9
$TILEMODE
 70
     1
  9
$MAXACTVP
 70
    16
  9
$PINSBASE
 10
0.0
 20
0.0
 30
0.0
  9
$PLIMCHECK
 70
     0
  9
$PEXTMIN
 10
1.000000000000000E+20
 20
1.000000000000000E+20
 30
1.000000000000000E+20
  9
$PEXTMAX
 10
-1.000000000000000E+20
 20
-1.000000000000000E+20
 30
-1.000000000000000E+20
  9
$PLIMMIN
 10
0.0
 20
0.0
  9
$PLIMMAX
 10
12.0
 20
9.0
  9
$UNITMODE
 70
     0
  9
$VISRETAIN
 70
     0
  9
$PLINEGEN
 70
     0
  9
$PSLTSCALE
 70
     0
  9
$TREEDEPTH
 70
  3020
  9
$CMLSTYLE
  2
Standard
  9
$CMLJUST
 70
     0
  9
$CMLSCALE
 40
1.0
  9
$PROXYGRAPHICS
 70
     1
  9
$MEASUREMENT
 70
     0
  9
$CELWEIGHT
370
    -1
  9
$ENDCAPS
280
     0
  9
$JOINSTYLE
280
     0
  9
$LWDISPLAY
290
     0
  9
$INSUNITS
 70
     0
  9
$HYPERLINKBASE
  1

  9
$STYLESHEET
  1
monochrome.ctb
  9
$XEDIT
290
     1
  9
$CEPSNTYPE
380
     0
  9
$PSTYLEMODE
290
     1
  9
$FINGERPRINTGUID
  2
{F3A0A5B4-B964-4385-AF43-0242072281ED}
  9
$VERSIONGUID
  2
{A0ECCF01-0538-43AD-BDDA-A7E1D8325323}
  9
$EXTNAMES
290
     1
  9
$PSVPSCALE
 40
0.0
  9
$OLESTARTUP
290
     0
  0
ENDSEC
  0
SECTION
  2
CLASSES
  0
CLASS
  1
ACDBDICTIONARYWDFLT
  2
AcDbDictionaryWithDefault
  3
AutoCAD 2000
 90
        0
280
     0
281
     0
  0
CLASS
  1
ACDBPLACEHOLDER
  2
AcDbPlaceHolder
  3
AutoCAD 2000
 90
        0
280
     0
281
     0
  0
CLASS
  1
LAYOUT
  2
AcDbLayout
  3
AutoCAD 2000
 90
        0
280
     0
281
     0
  0
ENDSEC
  0
SECTION
  2
TABLES
  0
TABLE
  2
VPORT
  5
8
330
0
100
AcDbSymbolTable
 70
     5
  0
VPORT
  5
5D8
330
8
100
AcDbSymbolTableRecord
100
AcDbViewportTableRecord
  2
*Active
 70
     0
 10
0.0
 20
0.0
 11
1.0
 21
1.0
 12
22.7700002120686
 22
34.87500032480863
 13
0.0
 23
0.0
 14
1.0
 24
1.0
 15
0.5
 25
0.5
 16
0.0
 26
0.0
 36
1.0
 17
0.0
 27
0.0
 37
0.0
 40
70.49540038242898
 41
1.767195767195767
 42
50.0
 43
0.0
 44
0.0
 50
0.0
 51
0.0
 71
     0
 72
   100
 73
     1
 74
     0
 75
     0
 76
     0
 77
     0
 78
     0
281
     0
 65
     1
110
0.0
120
0.0
130
0.0
111
1.0
121
0.0
131
0.0
112
0.0
122
1.0
132
0.0
 79
     0
146
0.0
  0
ENDTAB
  0
TABLE
  2
LTYPE
  5
5
330
0
100
AcDbSymbolTable
 70
     4
  0
LTYPE
  5
13
330
5
100
AcDbSymbolTableRecord
100
AcDbLinetypeTableRecord
  2
ByBlock
 70
     0
  3

 72
    65
 73
     0
 40
0.0
  0
LTYPE
  5
14
330
5
100
AcDbSymbolTableRecord
100
AcDbLinetypeTableRecord
  2
ByLayer
 70
     0
  3

 72
    65
 73
     0
 40
0.0
  0
LTYPE
  5
15
330
5
100
AcDbSymbolTableRecord
100
AcDbLinetypeTableRecord
  2
CONTINUOUS
 70
     0
  3
Solid line
 72
    65
 73
     0
 40
0.0
  0
LTYPE
  5
2F
330
5
100
AcDbSymbolTableRecord
100
AcDbLinetypeTableRecord
  2
HIDDEN
 70
     0
  3
_ _ _ _ _ _ _ _ _ _ _ _ _ _ _ _ _ _ _ _ _ _ _
 72
    65
 73
     2
 40
0.375
 49
0.25
 74
     0
 49
-0.125
 74
     0
  0
LTYPE
  5
30
330
5
100
AcDbSymbolTableRecord
100
AcDbLinetypeTableRecord
  2
PHANTOM
 70
     0
  3
_____ _ _ _____ _ _ _____ _ _ _____ _ _ ____
 72
    65
 73
     6
 40
2.5
 49
1.25
 74
     0
 49
-0.25
 74
     0
 49
0.25
 74
     0
 49
-0.25
 74
     0
 49
0.25
 74
     0
 49
-0.25
 74
     0
  0
LTYPE
  5
31
330
5
100
AcDbSymbolTableRecord
100
AcDbLinetypeTableRecord
  2
CENTER
 70
     0
  3
____ _ ____ _ ____ _ ____ _ ____ _ ____ _ ____
 72
    65
 73
     4
 40
2.0
 49
1.25
 74
     0
 49
-0.25
 74
     0
 49
0.25
 74
     0
 49
-0.25
 74
     0
  0
ENDTAB
  0
TABLE
  2
LAYER
  5
2
330
0
100
AcDbSymbolTable
 70
     9
  0
LAYER
  5
10
330
2
100
AcDbSymbolTableRecord
100
AcDbLayerTableRecord
  2
0
 70
     0
 62
     7
  6
CONTINUOUS
370
    -3
390
F
  0
LAYER
  5
36
330
2
100
AcDbSymbolTableRecord
100
AcDbLayerTableRecord
  2
OBJECT
 70
     0
 62
     7
  6
CONTINUOUS
370
    -3
390
F
  0
LAYER
  5
37
330
2
100
AcDbSymbolTableRecord
100
AcDbLayerTableRecord
  2
DIM
 70
     0
 62
     2
  6
CONTINUOUS
370
    -3
390
F
  0
LAYER
  5
38
330
2
100
AcDbSymbolTableRecord
100
AcDbLayerTableRecord
  2
HIDDEN
 70
     0
 62
     6
  6
HIDDEN
370
    -3
390
F
  0
LAYER
  5
39
330
2
100
AcDbSymbolTableRecord
100
AcDbLayerTableRecord
  2
BEND
 70
     0
 62
     4
  6
PHANTOM
370
    -3
390
F
  0
LAYER
  5
3A
330
2
100
AcDbSymbolTableRecord
100
AcDbLayerTableRecord
  2
TEXT
 70
     0
 62
     1
  6
CONTINUOUS
370
    -3
390
F
  0
LAYER
  5
3B
330
2
100
AcDbSymbolTableRecord
100
AcDbLayerTableRecord
  2
TITLE
 70
     0
 62
     8
  6
CONTINUOUS
370
    -3
390
F
  0
LAYER
  5
3C
330
2
100
AcDbSymbolTableRecord
100
AcDbLayerTableRecord
  2
CENTER
 70
     0
 62
     3
  6
CENTER
370
    -3
390
F
  0
LAYER
  5
3D
330
2
100
AcDbSymbolTableRecord
100
AcDbLayerTableRecord
  2
DEFPOINTS
 70
     0
 62
     7
  6
CONTINUOUS
290
     0
370
    -3
390
F
  0
ENDTAB
  0
TABLE
  2
STYLE
  5
3
330
0
100
AcDbSymbolTable
 70
     1
  0
STYLE
  5
11
330
3
100
AcDbSymbolTableRecord
100
AcDbTextStyleTableRecord
  2
TXT
 70
     0
 40
0.0
 41
0.75
 50
0.0
 71
     0
 42
0.5
  3
TXT.shx
  4

  0
ENDTAB
  0
TABLE
  2
VIEW
  5
6
330
0
100
AcDbSymbolTable
 70
     0
  0
ENDTAB
  0
TABLE
  2
UCS
  5
7
330
0
100
AcDbSymbolTable
 70
     0
  0
ENDTAB
  0
TABLE
  2
APPID
  5
9
330
0
100
AcDbSymbolTable
 70
     1
  0
APPID
  5
12
330
9
100
AcDbSymbolTableRecord
100
AcDbRegAppTableRecord
  2
ACAD
 70
     0
  0
ENDTAB
  0
TABLE
  2
DIMSTYLE
  5
A
330
0
100
AcDbSymbolTable
 70
     2
100
AcDbDimStyleTable
 71
     2
340
35
340
34
  0
DIMSTYLE
105
34
102
{ACAD_REACTORS
330
527
330
52A
330
52B
330
52C
330
52D
330
52E
330
52F
330
530
330
531
102
}
330
A
100
AcDbSymbolTableRecord
100
AcDbDimStyleTableRecord
  2
23NSTD
 70
     0
 40
4.5
 42
0.063
 43
0.281
 44
0.093
140
0.125
271
     3
272
     3
289
     1
340
11
  0
DIMSTYLE
105
35
102
{ACAD_REACTORS
330
528
330
529
102
}
330
A
100
AcDbSymbolTableRecord
100
AcDbDimStyleTableRecord
  2
23NSTDI
 70
     0
 40
4.5
 42
0.063
 43
0.281
 44
0.093
140
0.125
174
     1
271
     3
272
     3
340
11
  0
ENDTAB
  0
TABLE
  2
BLOCK_RECORD
  5
1
330
0
100
AcDbSymbolTable
 70
    12
  0
BLOCK_RECORD
  5
1E
330
1
100
AcDbSymbolTableRecord
100
AcDbBlockTableRecord
  2
*Model_Space
340
21
  0
BLOCK_RECORD
  5
1A
330
1
100
AcDbSymbolTableRecord
100
AcDbBlockTableRecord
  2
*Paper_Space
340
1D
  0
BLOCK_RECORD
  5
22
330
1
100
AcDbSymbolTableRecord
100
AcDbBlockTableRecord
  2
HB
340
0
102
{BLKREFS
331
22B
102
}
  0
BLOCK_RECORD
  5
534
330
1
100
AcDbSymbolTableRecord
100
AcDbBlockTableRecord
  2
*D1
340
0
  0
BLOCK_RECORD
  5
541
330
1
100
AcDbSymbolTableRecord
100
AcDbBlockTableRecord
  2
*D2
340
0
  0
BLOCK_RECORD
  5
54F
330
1
100
AcDbSymbolTableRecord
100
AcDbBlockTableRecord
  2
*D3
340
0
  0
BLOCK_RECORD
  5
55C
330
1
100
AcDbSymbolTableRecord
100
AcDbBlockTableRecord
  2
*D4
340
0
  0
BLOCK_RECORD
  5
569
330
1
100
AcDbSymbolTableRecord
100
AcDbBlockTableRecord
  2
*D5
340
0
  0
BLOCK_RECORD
  5
576
330
1
100
AcDbSymbolTableRecord
100
AcDbBlockTableRecord
  2
*D6
340
0
  0
BLOCK_RECORD
  5
583
330
1
100
AcDbSymbolTableRecord
100
AcDbBlockTableRecord
  2
*D7
340
0
  0
BLOCK_RECORD
  5
590
330
1
100
AcDbSymbolTableRecord
100
AcDbBlockTableRecord
  2
*D8
340
0
  0
BLOCK_RECORD
  5
59D
330
1
100
AcDbSymbolTableRecord
100
AcDbBlockTableRecord
  2
*D9
340
0
  0
BLOCK_RECORD
  5
5AA
330
1
100
AcDbSymbolTableRecord
100
AcDbBlockTableRecord
  2
*D10
340
0
  0
BLOCK_RECORD
  5
5B7
330
1
100
AcDbSymbolTableRecord
100
AcDbBlockTableRecord
  2
*D11
340
0
  0
ENDTAB
  0
ENDSEC
  0
SECTION
  2
BLOCKS
  0
BLOCK
  5
40
330
1E
100
AcDbEntity
  8
0
100
AcDbBlockBegin
  2
*Model_Space
 70
     0
 10
0.0
 20
0.0
 30
0.0
  3
*Model_Space
  1

  0
ENDBLK
  5
41
330
1E
100
AcDbEntity
  8
0
100
AcDbBlockEnd
  0
BLOCK
  5
3E
330
1A
100
AcDbEntity
 67
     1
  8
0
100
AcDbBlockBegin
  2
*Paper_Space
 70
     0
 10
0.0
 20
0.0
 30
0.0
  3
*Paper_Space
  1

  0
ENDBLK
  5
3F
330
1A
100
AcDbEntity
 67
     1
  8
0
100
AcDbBlockEnd
  0
BLOCK
  5
42
330
22
100
AcDbEntity
  8
0
100
AcDbBlockBegin
  2
HB
 70
     0
 10
0.0
 20
0.0
 30
0.0
  3
HB
  1

  0
TEXT
  5
43
330
22
100
AcDbEntity
  8
TEXT
100
AcDbText
 10
0.2078333333333363
 20
15.06007919564008
 30
0.0
 40
0.125
  1
NAME
 72
     1
 11
0.437000000000003
 21
15.06007919564008
 31
0.0
100
AcDbText
  0
TEXT
  5
45
330
22
100
AcDbEntity
  8
TEXT
100
AcDbText
 10
0.2078333333333363
 20
15.26841252897341
 30
0.0
 40
0.125
  1
PART
 72
     1
 11
0.437000000000003
 21
15.26841252897341
 31
0.0
100
AcDbText
  0
TEXT
  5
46
330
22
100
AcDbEntity
  8
TEXT
100
AcDbText
 10
5.371999999999998
 20
15.06007919564008
 30
0.0
 40
0.125
  1
No.
 72
     1
 11
5.496999999999998
 21
15.06007919564008
 31
0.0
100
AcDbText
  0
TEXT
  5
47
330
22
100
AcDbEntity
  8
TEXT
100
AcDbText
 10
5.267833333333331
 20
15.26841252897341
 30
0.0
 40
0.125
  1
PART
 72
     1
 11
5.496999999999998
 21
15.26841252897341
 31
0.0
100
AcDbText
  0
LINE
  5
48
330
22
100
AcDbEntity
  8
TITLE
100
AcDbLine
 10
5.872000000000001
 20
15.438
 30
0.0
 11
5.872000000000001
 21
15.01999999999999
 31
0.0
  0
LINE
  5
49
330
22
100
AcDbEntity
  8
TITLE
100
AcDbLine
 10
5.122000000000001
 20
15.438
 30
0.0
 11
5.122000000000001
 21
15.01999999999999
 31
0.0
  0
LINE
  5
4A
330
22
100
AcDbEntity
  8
TITLE
100
AcDbLine
 10
5.06
 20
15.438
 30
0.0
 11
5.06
 21
15.01999999999999
 31
0.0
  0
LINE
  5
4B
330
22
100
AcDbEntity
  8
TITLE
100
AcDbLine
 10
0.8120000000000029
 20
15.01999999999999
 30
0.0
 11
0.8120000000000011
 21
15.438
 31
0.0
  0
LINE
  5
4C
330
22
100
AcDbEntity
  8
TITLE
100
AcDbLine
 10
0.0620000000000012
 20
15.01999999999999
 30
0.0
 11
10.058
 21
15.01999999999999
 31
0.0
  0
LINE
  5
4D
330
22
100
AcDbEntity
  8
TITLE
100
AcDbLine
 10
10.058
 20
0.0619999999999994
 30
0.0
 11
0.0619999999999976
 21
0.0620000000000012
 31
0.0
  0
LINE
  5
4E
330
22
100
AcDbEntity
  8
TITLE
100
AcDbLine
 10
10.058
 20
15.438
 30
0.0
 11
10.058
 21
0.0619999999999994
 31
0.0
  0
LINE
  5
4F
330
22
100
AcDbEntity
  8
TITLE
100
AcDbLine
 10
0.0620000000000012
 20
15.438
 30
0.0
 11
10.058
 21
15.438
 31
0.0
  0
LINE
  5
50
330
22
100
AcDbEntity
  8
TITLE
100
AcDbLine
 10
0.0619999999999976
 20
0.0620000000000012
 30
0.0
 11
0.0620000000000012
 21
15.438
 31
0.0
  0
LINE
  5
51
330
22
100
AcDbEntity
  8
TITLE
100
AcDbLine
 10
0.0
 20
0.0
 30
0.0
 11
0.0
 21
15.5
 31
0.0
  0
LINE
  5
52
330
22
100
AcDbEntity
  8
TITLE
100
AcDbLine
 10
10.12
 20
-0.0000000000000018
 30
0.0
 11
0.0
 21
0.0
 31
0.0
  0
LINE
  5
53
330
22
100
AcDbEntity
  8
TITLE
100
AcDbLine
 10
10.12
 20
15.49999999999999
 30
0.0
 11
10.12
 21
-0.0000000000000018
 31
0.0
  0
LINE
  5
54
330
22
100
AcDbEntity
  8
TITLE
100
AcDbLine
 10
0.0
 20
15.5
 30
0.0
 11
10.12
 21
15.49999999999999
 31
0.0
  0
ENDBLK
  5
55
330
22
100
AcDbEntity
  8
0
100
AcDbBlockEnd
  0
BLOCK
  5
53F
330
534
100
AcDbEntity
  8
0
100
AcDbBlockBegin
  2
*D1
 70
     1
 10
0.0
 20
0.0
 30
0.0
  3
*D1
  1

  0
LINE
  5
535
330
534
100
AcDbEntity
  8
DIM
 62
     0
370
    -2
100
AcDbLine
 10
40.45546814884497
 20
28.49433665227731
 30
0.0
 11
39.15972915076675
 21
28.49433665227731
 31
0.0
  0
LINE
  5
536
330
534
100
AcDbEntity
  8
DIM
 62
     0
370
    -2
100
AcDbLine
 10
40.45546814884496
 20
46.40033665227732
 30
0.0
 11
39.15972915076675
 21
46.40033665227732
 31
0.0
  0
LINE
  5
537
330
534
100
AcDbEntity
  8
DIM
 62
     0
370
    -2
100
AcDbLine
 10
39.57822915076675
 20
29.30433665227731
 30
0.0
 11
39.57822915076675
 21
36.76108665227731
 31
0.0
  0
LINE
  5
538
330
534
100
AcDbEntity
  8
DIM
 62
     0
370
    -2
100
AcDbLine
 10
39.57822915076675
 20
45.59033665227731
 30
0.0
 11
39.57822915076675
 21
38.13358665227731
 31
0.0
  0
SOLID
  5
539
330
534
100
AcDbEntity
  8
DIM
 62
     0
100
AcDbTrace
 10
39.44322915076675
 20
29.30433665227731
 30
0.0
 11
39.71322915076675
 21
29.30433665227731
 31
0.0
 12
39.57822915076675
 22
28.49433665227731
 32
0.0
 13
39.57822915076675
 23
28.49433665227731
 33
0.0
  0
SOLID
  5
53A
330
534
100
AcDbEntity
  8
DIM
 62
     0
100
AcDbTrace
 10
39.44322915076675
 20
45.59033665227731
 30
0.0
 11
39.71322915076675
 21
45.59033665227731
 31
0.0
 12
39.57822915076675
 22
46.40033665227732
 32
0.0
 13
39.57822915076675
 23
46.40033665227732
 33
0.0
  0
MTEXT
  5
53B
330
534
100
AcDbEntity
  8
DIM
 62
     0
100
AcDbMText
 10
39.57822915076674
 20
37.44733665227732
 30
0.0
 40
0.5625
 41
0.0
 71
     5
 72
     1
  1
\A1;A
 73
     1
 44
1.0
  0
POINT
  5
53C
330
534
100
AcDbEntity
  8
DEFPOINTS
 62
     0
100
AcDbPoint
 10
40.73896814884497
 20
28.49433665227731
 30
0.0
  0
POINT
  5
53D
330
534
100
AcDbEntity
  8
DEFPOINTS
 62
     0
100
AcDbPoint
 10
40.73896814884496
 20
46.40033665227732
 30
0.0
  0
POINT
  5
53E
330
534
100
AcDbEntity
  8
DEFPOINTS
 62
     0
100
AcDbPoint
 10
39.57822915076675
 20
46.40033665227732
 30
0.0
  0
ENDBLK
  5
540
330
534
100
AcDbEntity
  8
0
100
AcDbBlockEnd
  0
BLOCK
  5
54D
330
541
100
AcDbEntity
  8
0
100
AcDbBlockBegin
  2
*D2
 70
     1
 10
0.0
 20
0.0
 30
0.0
  3
*D2
  1

  0
LINE
  5
542
330
541
100
AcDbEntity
  8
DIM
 62
     0
370
    -2
100
AcDbLine
 10
9.584387072596991
 20
17.95938338983646
 30
0.0
 11
7.729142280054679
 21
17.95938338983647
 31
0.0
  0
LINE
  5
543
330
541
100
AcDbEntity
  8
DIM
 62
     0
370
    -2
100
AcDbLine
 10
9.584387072596991
 20
17.20938338983647
 30
0.0
 11
7.729142280054679
 21
17.20938338983647
 31
0.0
  0
LINE
  5
544
330
541
100
AcDbEntity
  8
DIM
 62
     0
370
    -2
100
AcDbLine
 10
8.147642280054679
 20
18.76938338983646
 30
0.0
 11
8.147642280054679
 21
19.57938338983646
 31
0.0
  0
LINE
  5
545
330
541
100
AcDbEntity
  8
DIM
 62
     0
370
    -2
100
AcDbLine
 10
8.147642280054679
 20
16.39938338983647
 30
0.0
 11
8.147642280054679
 21
15.58938338983647
 31
0.0
  0
LINE
  5
546
330
541
100
AcDbEntity
  8
DIM
 62
     0
370
    -2
100
AcDbLine
 10
8.147642280054679
 20
15.58938338983647
 30
0.0
 11
7.337642280054679
 21
15.58938338983647
 31
0.0
  0
SOLID
  5
547
330
541
100
AcDbEntity
  8
DIM
 62
     0
100
AcDbTrace
 10
8.012642280054679
 20
18.76938338983646
 30
0.0
 11
8.282642280054679
 21
18.76938338983646
 31
0.0
 12
8.147642280054679
 22
17.95938338983646
 32
0.0
 13
8.147642280054679
 23
17.95938338983646
 33
0.0
  0
SOLID
  5
548
330
541
100
AcDbEntity
  8
DIM
 62
     0
100
AcDbTrace
 10
8.012642280054679
 20
16.39938338983647
 30
0.0
 11
8.282642280054679
 21
16.39938338983647
 31
0.0
 12
8.147642280054679
 22
17.20938338983647
 32
0.0
 13
8.147642280054679
 23
17.20938338983647
 33
0.0
  0
MTEXT
  5
549
330
541
100
AcDbEntity
  8
DIM
 62
     0
100
AcDbMText
 10
6.159204780054676
 20
15.58938338983647
 30
0.0
 40
0.5625
 41
0.0
 71
     5
 72
     1
  1
\A1;0.750
 73
     1
 44
1.0
  0
POINT
  5
54A
330
541
100
AcDbEntity
  8
DEFPOINTS
 62
     0
100
AcDbPoint
 10
9.867887072596991
 20
17.95938338983646
 30
0.0
  0
POINT
  5
54B
330
541
100
AcDbEntity
  8
DEFPOINTS
 62
     0
100
AcDbPoint
 10
9.867887072596991
 20
17.20938338983647
 30
0.0
  0
POINT
  5
54C
330
541
100
AcDbEntity
  8
DEFPOINTS
 62
     0
100
AcDbPoint
 10
8.147642280054679
 20
17.20938338983647
 30
0.0
  0
ENDBLK
  5
54E
330
541
100
AcDbEntity
  8
0
100
AcDbBlockEnd
  0
BLOCK
  5
55A
330
54F
100
AcDbEntity
  8
0
100
AcDbBlockBegin
  2
*D3
 70
     1
 10
0.0
 20
0.0
 30
0.0
  3
*D3
  1

  0
LINE
  5
550
330
54F
100
AcDbEntity
  8
DIM
 62
     0
370
    -2
100
AcDbLine
 10
10.24288707259699
 20
16.92588338983647
 30
0.0
 11
10.24288707259699
 21
14.13039872762037
 31
0.0
  0
LINE
  5
551
330
54F
100
AcDbEntity
  8
DIM
 62
     0
370
    -2
100
AcDbLine
 10
9.867887072596991
 20
16.92588338983647
 30
0.0
 11
9.867887072596991
 21
14.13039872762037
 31
0.0
  0
LINE
  5
552
330
54F
100
AcDbEntity
  8
DIM
 62
     0
370
    -2
100
AcDbLine
 10
11.05288707259699
 20
14.54889872762037
 30
0.0
 11
11.86288707259699
 21
14.54889872762037
 31
0.0
  0
LINE
  5
553
330
54F
100
AcDbEntity
  8
DIM
 62
     0
370
    -2
100
AcDbLine
 10
9.05788707259699
 20
14.54889872762037
 30
0.0
 11
8.24788707259699
 21
14.54889872762037
 31
0.0
  0
SOLID
  5
554
330
54F
100
AcDbEntity
  8
DIM
 62
     0
100
AcDbTrace
 10
11.05288707259699
 20
14.68389872762037
 30
0.0
 11
11.05288707259699
 21
14.41389872762037
 31
0.0
 12
10.24288707259699
 22
14.54889872762037
 32
0.0
 13
10.24288707259699
 23
14.54889872762037
 33
0.0
  0
SOLID
  5
555
330
54F
100
AcDbEntity
  8
DIM
 62
     0
100
AcDbTrace
 10
9.05788707259699
 20
14.68389872762037
 30
0.0
 11
9.05788707259699
 21
14.41389872762037
 31
0.0
 12
9.867887072596991
 22
14.54889872762037
 32
0.0
 13
9.867887072596991
 23
14.54889872762037
 33
0.0
  0
MTEXT
  5
556
330
54F
100
AcDbEntity
  8
DIM
 62
     0
100
AcDbMText
 10
7.03429332259699
 20
14.54889872762037
 30
0.0
 40
0.5625
 41
0.0
 71
     5
 72
     1
  1
\A1;0.375
 73
     1
 44
1.0
  0
POINT
  5
557
330
54F
100
AcDbEntity
  8
DEFPOINTS
 62
     0
100
AcDbPoint
 10
10.24288707259699
 20
17.20938338983647
 30
0.0
  0
POINT
  5
558
330
54F
100
AcDbEntity
  8
DEFPOINTS
 62
     0
100
AcDbPoint
 10
9.867887072596991
 20
17.20938338983647
 30
0.0
  0
POINT
  5
559
330
54F
100
AcDbEntity
  8
DEFPOINTS
 62
     0
100
AcDbPoint
 10
9.867887072596991
 20
14.54889872762037
 30
0.0
  0
ENDBLK
  5
55B
330
54F
100
AcDbEntity
  8
0
100
AcDbBlockEnd
  0
BLOCK
  5
567
330
55C
100
AcDbEntity
  8
0
100
AcDbBlockBegin
  2
*D4
 70
     1
 10
0.0
 20
0.0
 30
0.0
  3
*D4
  1

  0
LINE
  5
55D
330
55C
100
AcDbEntity
  8
DIM
 62
     0
370
    -2
100
AcDbLine
 10
9.867887072596991
 20
16.92588338983647
 30
0.0
 11
9.867887072596991
 21
12.86589872762037
 31
0.0
  0
LINE
  5
55E
330
55C
100
AcDbEntity
  8
DIM
 62
     0
370
    -2
100
AcDbLine
 10
36.36788707259698
 20
16.92588338983647
 30
0.0
 11
36.36788707259698
 21
12.86589872762037
 31
0.0
  0
LINE
  5
55F
330
55C
100
AcDbEntity
  8
DIM
 62
     0
370
    -2
100
AcDbLine
 10
10.67788707259699
 20
13.28439872762037
 30
0.0
 11
22.57226207259698
 21
13.28439872762037
 31
0.0
  0
LINE
  5
560
330
55C
100
AcDbEntity
  8
DIM
 62
     0
370
    -2
100
AcDbLine
 10
35.55788707259697
 20
13.28439872762037
 30
0.0
 11
23.66351207259698
 21
13.28439872762037
 31
0.0
  0
SOLID
  5
561
330
55C
100
AcDbEntity
  8
DIM
 62
     0
100
AcDbTrace
 10
10.67788707259699
 20
13.41939872762037
 30
0.0
 11
10.67788707259699
 21
13.14939872762037
 31
0.0
 12
9.867887072596991
 22
13.28439872762037
 32
0.0
 13
9.867887072596991
 23
13.28439872762037
 33
0.0
  0
SOLID
  5
562
330
55C
100
AcDbEntity
  8
DIM
 62
     0
100
AcDbTrace
 10
35.55788707259697
 20
13.41939872762037
 30
0.0
 11
35.55788707259697
 21
13.14939872762037
 31
0.0
 12
36.36788707259698
 22
13.28439872762037
 32
0.0
 13
36.36788707259698
 23
13.28439872762037
 33
0.0
  0
MTEXT
  5
563
330
55C
100
AcDbEntity
  8
DIM
 62
     0
100
AcDbMText
 10
23.11788707259698
 20
13.28439872762037
 30
0.0
 40
0.5625
 41
0.0
 71
     5
 72
     1
  1
\A1;B
 73
     1
 44
1.0
  0
POINT
  5
564
330
55C
100
AcDbEntity
  8
DEFPOINTS
 62
     0
100
AcDbPoint
 10
9.867887072596991
 20
17.20938338983647
 30
0.0
  0
POINT
  5
565
330
55C
100
AcDbEntity
  8
DEFPOINTS
 62
     0
100
AcDbPoint
 10
36.36788707259698
 20
17.20938338983647
 30
0.0
  0
POINT
  5
566
330
55C
100
AcDbEntity
  8
DEFPOINTS
 62
     0
100
AcDbPoint
 10
36.36788707259698
 20
13.28439872762037
 30
0.0
  0
ENDBLK
  5
568
330
55C
100
AcDbEntity
  8
0
100
AcDbBlockEnd
  0
BLOCK
  5
574
330
569
100
AcDbEntity
  8
0
100
AcDbBlockBegin
  2
*D5
 70
     1
 10
0.0
 20
0.0
 30
0.0
  3
*D5
  1

  0
LINE
  5
56A
330
569
100
AcDbEntity
  8
DIM
 62
     0
370
    -2
100
AcDbLine
 10
11.43038707259698
 20
18.72388338983646
 30
0.0
 11
11.43038707259698
 21
21.0239221220947
 31
0.0
  0
LINE
  5
56B
330
569
100
AcDbEntity
  8
DIM
 62
     0
370
    -2
100
AcDbLine
 10
9.992387072596988
 20
18.94588338983647
 30
0.0
 11
9.992387072596988
 21
21.0239221220947
 31
0.0
  0
LINE
  5
56C
330
569
100
AcDbEntity
  8
DIM
 62
     0
370
    -2
100
AcDbLine
 10
12.24038707259698
 20
20.6054221220947
 30
0.0
 11
13.05038707259698
 21
20.6054221220947
 31
0.0
  0
LINE
  5
56D
330
569
100
AcDbEntity
  8
DIM
 62
     0
370
    -2
100
AcDbLine
 10
9.182387072596988
 20
20.6054221220947
 30
0.0
 11
8.372387072596987
 21
20.6054221220947
 31
0.0
  0
SOLID
  5
56E
330
569
100
AcDbEntity
  8
DIM
 62
     0
100
AcDbTrace
 10
12.24038707259698
 20
20.7404221220947
 30
0.0
 11
12.24038707259698
 21
20.4704221220947
 31
0.0
 12
11.43038707259698
 22
20.6054221220947
 32
0.0
 13
11.43038707259698
 23
20.6054221220947
 33
0.0
  0
SOLID
  5
56F
330
569
100
AcDbEntity
  8
DIM
 62
     0
100
AcDbTrace
 10
9.182387072596988
 20
20.7404221220947
 30
0.0
 11
9.182387072596988
 21
20.4704221220947
 31
0.0
 12
9.992387072596988
 22
20.6054221220947
 32
0.0
 13
9.992387072596988
 23
20.6054221220947
 33
0.0
  0
MTEXT
  5
570
330
569
100
AcDbEntity
  8
DIM
 62
     0
100
AcDbMText
 10
7.193949572596988
 20
20.6054221220947
 30
0.0
 40
0.5625
 41
0.0
 71
     5
 72
     1
  1
\A1;1.438
 73
     1
 44
1.0
  0
POINT
  5
571
330
569
100
AcDbEntity
  8
DEFPOINTS
 62
     0
100
AcDbPoint
 10
11.43038707259698
 20
18.44038338983646
 30
0.0
  0
POINT
  5
572
330
569
100
AcDbEntity
  8
DEFPOINTS
 62
     0
100
AcDbPoint
 10
9.992387072596988
 20
18.66238338983647
 30
0.0
  0
POINT
  5
573
330
569
100
AcDbEntity
  8
DEFPOINTS
 62
     0
100
AcDbPoint
 10
9.992387072596988
 20
20.6054221220947
 30
0.0
  0
ENDBLK
  5
575
330
569
100
AcDbEntity
  8
0
100
AcDbBlockEnd
  0
BLOCK
  5
581
330
576
100
AcDbEntity
  8
0
100
AcDbBlockBegin
  2
*D6
 70
     1
 10
0.0
 20
0.0
 30
0.0
  3
*D6
  1

  0
LINE
  5
577
330
576
100
AcDbEntity
  8
DIM
 62
     0
370
    -2
100
AcDbLine
 10
11.43038707259698
 20
18.72388338983646
 30
0.0
 11
11.43038707259698
 21
22.2884221220947
 31
0.0
  0
LINE
  5
578
330
576
100
AcDbEntity
  8
DIM
 62
     0
370
    -2
100
AcDbLine
 10
9.867887072596991
 20
18.24288338983646
 30
0.0
 11
9.867887072596991
 21
22.2884221220947
 31
0.0
  0
LINE
  5
579
330
576
100
AcDbEntity
  8
DIM
 62
     0
370
    -2
100
AcDbLine
 10
12.24038707259698
 20
21.8699221220947
 30
0.0
 11
13.05038707259698
 21
21.8699221220947
 31
0.0
  0
LINE
  5
57A
330
576
100
AcDbEntity
  8
DIM
 62
     0
370
    -2
100
AcDbLine
 10
9.05788707259699
 20
21.8699221220947
 30
0.0
 11
8.24788707259699
 21
21.8699221220947
 31
0.0
  0
SOLID
  5
57B
330
576
100
AcDbEntity
  8
DIM
 62
     0
100
AcDbTrace
 10
12.24038707259698
 20
22.0049221220947
 30
0.0
 11
12.24038707259698
 21
21.7349221220947
 31
0.0
 12
11.43038707259698
 22
21.8699221220947
 32
0.0
 13
11.43038707259698
 23
21.8699221220947
 33
0.0
  0
SOLID
  5
57C
330
576
100
AcDbEntity
  8
DIM
 62
     0
100
AcDbTrace
 10
9.05788707259699
 20
22.0049221220947
 30
0.0
 11
9.05788707259699
 21
21.7349221220947
 31
0.0
 12
9.867887072596991
 22
21.8699221220947
 32
0.0
 13
9.867887072596991
 23
21.8699221220947
 33
0.0
  0
MTEXT
  5
57D
330
576
100
AcDbEntity
  8
DIM
 62
     0
100
AcDbMText
 10
7.06944957259699
 20
21.8699221220947
 30
0.0
 40
0.5625
 41
0.0
 71
     5
 72
     1
  1
\A1;1.563
 73
     1
 44
1.0
  0
POINT
  5
57E
330
576
100
AcDbEntity
  8
DEFPOINTS
 62
     0
100
AcDbPoint
 10
11.43038707259698
 20
18.44038338983646
 30
0.0
  0
POINT
  5
57F
330
576
100
AcDbEntity
  8
DEFPOINTS
 62
     0
100
AcDbPoint
 10
9.867887072596991
 20
17.95938338983646
 30
0.0
  0
POINT
  5
580
330
576
100
AcDbEntity
  8
DEFPOINTS
 62
     0
100
AcDbPoint
 10
9.867887072596991
 20
21.8699221220947
 30
0.0
  0
ENDBLK
  5
582
330
576
100
AcDbEntity
  8
0
100
AcDbBlockEnd
  0
BLOCK
  5
58E
330
583
100
AcDbEntity
  8
0
100
AcDbBlockBegin
  2
*D7
 70
     1
 10
0.0
 20
0.0
 30
0.0
  3
*D7
  1

  0
LINE
  5
584
330
583
100
AcDbEntity
  8
DIM
 62
     0
370
    -2
100
AcDbLine
 10
11.43038707259698
 20
18.72388338983646
 30
0.0
 11
11.43038707259698
 21
22.2884221220947
 31
0.0
  0
LINE
  5
585
330
583
100
AcDbEntity
  8
DIM
 62
     0
370
    -2
100
AcDbLine
 10
34.80538707259698
 20
18.72388338983646
 30
0.0
 11
34.80538707259698
 21
22.2884221220947
 31
0.0
  0
LINE
  5
586
330
583
100
AcDbEntity
  8
DIM
 62
     0
370
    -2
100
AcDbLine
 10
12.24038707259698
 20
21.8699221220947
 30
0.0
 11
18.56444957259697
 21
21.8699221220947
 31
0.0
  0
LINE
  5
587
330
583
100
AcDbEntity
  8
DIM
 62
     0
370
    -2
100
AcDbLine
 10
33.99538707259697
 20
21.8699221220947
 30
0.0
 11
27.67132457259698
 21
21.8699221220947
 31
0.0
  0
SOLID
  5
588
330
583
100
AcDbEntity
  8
DIM
 62
     0
100
AcDbTrace
 10
12.24038707259698
 20
22.0049221220947
 30
0.0
 11
12.24038707259698
 21
21.7349221220947
 31
0.0
 12
11.43038707259698
 22
21.8699221220947
 32
0.0
 13
11.43038707259698
 23
21.8699221220947
 33
0.0
  0
SOLID
  5
589
330
583
100
AcDbEntity
  8
DIM
 62
     0
100
AcDbTrace
 10
33.99538707259697
 20
22.0049221220947
 30
0.0
 11
33.99538707259697
 21
21.7349221220947
 31
0.0
 12
34.80538707259698
 22
21.8699221220947
 32
0.0
 13
34.80538707259698
 23
21.8699221220947
 33
0.0
  0
MTEXT
  5
58A
330
583
100
AcDbEntity
  8
DIM
 62
     0
100
AcDbMText
 10
23.11788707259697
 20
21.8699221220947
 30
0.0
 40
0.5625
 41
0.0
 71
     5
 72
     1
  1
\A1;(C) SPACES @ (D) = (E)
 73
     1
 44
1.0
  0
POINT
  5
58B
330
583
100
AcDbEntity
  8
DEFPOINTS
 62
     0
100
AcDbPoint
 10
11.43038707259698
 20
18.44038338983646
 30
0.0
  0
POINT
  5
58C
330
583
100
AcDbEntity
  8
DEFPOINTS
 62
     0
100
AcDbPoint
 10
34.80538707259698
 20
18.44038338983646
 30
0.0
  0
POINT
  5
58D
330
583
100
AcDbEntity
  8
DEFPOINTS
 62
     0
100
AcDbPoint
 10
34.80538707259698
 20
21.8699221220947
 30
0.0
  0
ENDBLK
  5
58F
330
583
100
AcDbEntity
  8
0
100
AcDbBlockEnd
  0
BLOCK
  5
59B
330
590
100
AcDbEntity
  8
0
100
AcDbBlockBegin
  2
*D8
 70
     1
 10
0.0
 20
0.0
 30
0.0
  3
*D8
  1

  0
LINE
  5
591
330
590
100
AcDbEntity
  8
DIM
 62
     0
370
    -2
100
AcDbLine
 10
35.11788707259699
 20
29.79183665227731
 30
0.0
 11
35.11788707259699
 21
26.56280827051942
 31
0.0
  0
LINE
  5
592
330
590
100
AcDbEntity
  8
DIM
 62
     0
370
    -2
100
AcDbLine
 10
11.11788707259697
 20
29.79183665227731
 30
0.0
 11
11.11788707259697
 21
26.56280827051942
 31
0.0
  0
LINE
  5
593
330
590
100
AcDbEntity
  8
DIM
 62
     0
370
    -2
100
AcDbLine
 10
34.30788707259699
 20
26.98130827051941
 30
0.0
 11
27.95257457259698
 21
26.98130827051941
 31
0.0
  0
LINE
  5
594
330
590
100
AcDbEntity
  8
DIM
 62
     0
370
    -2
100
AcDbLine
 10
11.92788707259697
 20
26.98130827051941
 30
0.0
 11
18.28319957259698
 21
26.98130827051941
 31
0.0
  0
SOLID
  5
595
330
590
100
AcDbEntity
  8
DIM
 62
     0
100
AcDbTrace
 10
34.30788707259699
 20
27.11630827051942
 30
0.0
 11
34.30788707259699
 21
26.84630827051941
 31
0.0
 12
35.11788707259699
 22
26.98130827051941
 32
0.0
 13
35.11788707259699
 23
26.98130827051941
 33
0.0
  0
SOLID
  5
596
330
590
100
AcDbEntity
  8
DIM
 62
     0
100
AcDbTrace
 10
11.92788707259697
 20
27.11630827051942
 30
0.0
 11
11.92788707259697
 21
26.84630827051941
 31
0.0
 12
11.11788707259697
 22
26.98130827051941
 32
0.0
 13
11.11788707259697
 23
26.98130827051941
 33
0.0
  0
MTEXT
  5
597
330
590
100
AcDbEntity
  8
DIM
 62
     0
100
AcDbMText
 10
23.11788707259698
 20
26.98130827051941
 30
0.0
 40
0.5625
 41
0.0
 71
     5
 72
     1
  1
\A1;(G) SPACES @ 1.500 = (H)
 73
     1
 44
1.0
  0
POINT
  5
598
330
590
100
AcDbEntity
  8
DEFPOINTS
 62
     0
100
AcDbPoint
 10
35.11788707259699
 20
30.07533665227731
 30
0.0
  0
POINT
  5
599
330
590
100
AcDbEntity
  8
DEFPOINTS
 62
     0
100
AcDbPoint
 10
11.11788707259697
 20
30.07533665227731
 30
0.0
  0
POINT
  5
59A
330
590
100
AcDbEntity
  8
DEFPOINTS
 62
     0
100
AcDbPoint
 10
11.11788707259697
 20
26.98130827051941
 30
0.0
  0
ENDBLK
  5
59C
330
590
100
AcDbEntity
  8
0
100
AcDbBlockEnd
  0
BLOCK
  5
5A8
330
59D
100
AcDbEntity
  8
0
100
AcDbBlockBegin
  2
*D9
 70
     1
 10
0.0
 20
0.0
 30
0.0
  3
*D9
  1

  0
LINE
  5
5CB
330
59D
100
AcDbEntity
  8
DIM
 62
     0
370
    -2
100
AcDbLine
 10
10.74438707259698
 20
30.16533665227731
 30
0.0
 11
4.732902698491296
 21
30.16533665227732
 31
0.0
  0
LINE
  5
5CC
330
59D
100
AcDbEntity
  8
DIM
 62
     0
370
    -2
100
AcDbLine
 10
10.74438707259698
 20
44.47833665227731
 30
0.0
 11
4.732902698491299
 21
44.47833665227731
 31
0.0
  0
LINE
  5
5CD
330
59D
100
AcDbEntity
  8
DIM
 62
     0
370
    -2
100
AcDbLine
 10
5.151402698491296
 20
30.97533665227732
 30
0.0
 11
5.151402698491297
 21
36.63558665227731
 31
0.0
  0
LINE
  5
5CE
330
59D
100
AcDbEntity
  8
DIM
 62
     0
370
    -2
100
AcDbLine
 10
5.151402698491299
 20
43.66833665227731
 30
0.0
 11
5.151402698491298
 21
38.00808665227731
 31
0.0
  0
SOLID
  5
5CF
330
59D
100
AcDbEntity
  8
DIM
 62
     0
100
AcDbTrace
 10
5.016402698491297
 20
30.97533665227732
 30
0.0
 11
5.286402698491296
 21
30.97533665227732
 31
0.0
 12
5.151402698491296
 22
30.16533665227732
 32
0.0
 13
5.151402698491296
 23
30.16533665227732
 33
0.0
  0
SOLID
  5
5D0
330
59D
100
AcDbEntity
  8
DIM
 62
     0
100
AcDbTrace
 10
5.016402698491299
 20
43.66833665227731
 30
0.0
 11
5.286402698491299
 21
43.66833665227731
 31
0.0
 12
5.151402698491299
 22
44.47833665227731
 32
0.0
 13
5.151402698491299
 23
44.47833665227731
 33
0.0
  0
MTEXT
  5
5D1
330
59D
100
AcDbEntity
  8
DIM
 62
     0
100
AcDbMText
 10
5.151402698491292
 20
37.32183665227731
 30
0.0
 40
0.5625
 41
0.0
 71
     5
 72
     1
  1
\A1;(I) SPACES @ 0.500 = (J)
 73
     1
 44
1.0
  0
POINT
  5
5D2
330
59D
100
AcDbEntity
  8
DEFPOINTS
 62
     0
100
AcDbPoint
 10
11.02788707259698
 20
30.16533665227731
 30
0.0
  0
POINT
  5
5D3
330
59D
100
AcDbEntity
  8
DEFPOINTS
 62
     0
100
AcDbPoint
 10
11.02788707259698
 20
44.47833665227731
 30
0.0
  0
POINT
  5
5D4
330
59D
100
AcDbEntity
  8
DEFPOINTS
 62
     0
100
AcDbPoint
 10
5.151402698491299
 20
44.47833665227731
 30
0.0
  0
ENDBLK
  5
5A9
330
59D
100
AcDbEntity
  8
0
100
AcDbBlockEnd
  0
BLOCK
  5
5B5
330
5AA
100
AcDbEntity
  8
0
100
AcDbBlockBegin
  2
*D10
 70
     1
 10
0.0
 20
0.0
 30
0.0
  3
*D10
  1

  0
LINE
  5
5AB
330
5AA
100
AcDbEntity
  8
DIM
 62
     0
370
    -2
100
AcDbLine
 10
36.40188707259698
 20
18.78738338983647
 30
0.0
 11
38.12367049730387
 21
18.78738338983647
 31
0.0
  0
LINE
  5
5AC
330
5AA
100
AcDbEntity
  8
DIM
 62
     0
370
    -2
100
AcDbLine
 10
36.58938707259697
 20
17.89738338983647
 30
0.0
 11
38.12367049730387
 21
17.89738338983647
 31
0.0
  0
LINE
  5
5AD
330
5AA
100
AcDbEntity
  8
DIM
 62
     0
370
    -2
100
AcDbLine
 10
37.70517049730387
 20
19.59738338983647
 30
0.0
 11
37.70517049730387
 21
20.40738338983647
 31
0.0
  0
LINE
  5
5AE
330
5AA
100
AcDbEntity
  8
DIM
 62
     0
370
    -2
100
AcDbLine
 10
37.70517049730387
 20
17.08738338983647
 30
0.0
 11
37.70517049730387
 21
16.27738338983647
 31
0.0
  0
SOLID
  5
5AF
330
5AA
100
AcDbEntity
  8
DIM
 62
     0
100
AcDbTrace
 10
37.57017049730388
 20
19.59738338983647
 30
0.0
 11
37.84017049730387
 21
19.59738338983647
 31
0.0
 12
37.70517049730387
 22
18.78738338983647
 32
0.0
 13
37.70517049730387
 23
18.78738338983647
 33
0.0
  0
SOLID
  5
5B0
330
5AA
100
AcDbEntity
  8
DIM
 62
     0
100
AcDbTrace
 10
37.57017049730388
 20
17.08738338983647
 30
0.0
 11
37.84017049730387
 21
17.08738338983647
 31
0.0
 12
37.70517049730387
 22
17.89738338983647
 32
0.0
 13
37.70517049730387
 23
17.89738338983647
 33
0.0
  0
MTEXT
  5
5B1
330
5AA
100
AcDbEntity
  8
DIM
 62
     0
100
AcDbMText
 10
37.70517049730386
 20
18.34238338983647
 30
0.0
 40
0.5625
 41
0.0
 71
     5
 72
     1
  1
\A1;0.890
 73
     1
 44
1.0
  0
POINT
  5
5B2
330
5AA
100
AcDbEntity
  8
DEFPOINTS
 62
     0
100
AcDbPoint
 10
36.11838707259698
 20
18.78738338983647
 30
0.0
  0
POINT
  5
5B3
330
5AA
100
AcDbEntity
  8
DEFPOINTS
 62
     0
100
AcDbPoint
 10
36.30588707259698
 20
17.89738338983647
 30
0.0
  0
POINT
  5
5B4
330
5AA
100
AcDbEntity
  8
DEFPOINTS
 62
     0
100
AcDbPoint
 10
37.70517049730387
 20
17.89738338983647
 30
0.0
  0
ENDBLK
  5
5B6
330
5AA
100
AcDbEntity
  8
0
100
AcDbBlockEnd
  0
BLOCK
  5
5C2
330
5B7
100
AcDbEntity
  8
0
100
AcDbBlockBegin
  2
*D11
 70
     1
 10
0.0
 20
0.0
 30
0.0
  3
*D11
  1

  0
LINE
  5
5B8
330
5B7
100
AcDbEntity
  8
DIM
 62
     0
370
    -2
100
AcDbLine
 10
36.40188707259698
 20
18.78738338983647
 30
0.0
 11
40.39234848127773
 21
18.78738338983646
 31
0.0
  0
LINE
  5
5B9
330
5B7
100
AcDbEntity
  8
DIM
 62
     0
370
    -2
100
AcDbLine
 10
36.65138707259697
 20
17.20938338983647
 30
0.0
 11
40.39234848127773
 21
17.20938338983647
 31
0.0
  0
LINE
  5
5BA
330
5B7
100
AcDbEntity
  8
DIM
 62
     0
370
    -2
100
AcDbLine
 10
39.97384848127773
 20
19.59738338983647
 30
0.0
 11
39.97384848127773
 21
20.40738338983647
 31
0.0
  0
LINE
  5
5BB
330
5B7
100
AcDbEntity
  8
DIM
 62
     0
370
    -2
100
AcDbLine
 10
39.97384848127773
 20
16.39938338983647
 30
0.0
 11
39.97384848127772
 21
15.58938338983647
 31
0.0
  0
SOLID
  5
5BC
330
5B7
100
AcDbEntity
  8
DIM
 62
     0
100
AcDbTrace
 10
39.83884848127773
 20
19.59738338983647
 30
0.0
 11
40.10884848127773
 21
19.59738338983646
 31
0.0
 12
39.97384848127773
 22
18.78738338983647
 32
0.0
 13
39.97384848127773
 23
18.78738338983647
 33
0.0
  0
SOLID
  5
5BD
330
5B7
100
AcDbEntity
  8
DIM
 62
     0
100
AcDbTrace
 10
39.83884848127773
 20
16.39938338983647
 30
0.0
 11
40.10884848127773
 21
16.39938338983647
 31
0.0
 12
39.97384848127773
 22
17.20938338983647
 32
0.0
 13
39.97384848127773
 23
17.20938338983647
 33
0.0
  0
MTEXT
  5
5BE
330
5B7
100
AcDbEntity
  8
DIM
 62
     0
100
AcDbMText
 10
39.97384848127772
 20
17.99838338983647
 30
0.0
 40
0.5625
 41
0.0
 71
     5
 72
     1
  1
\A1;1.578
 73
     1
 44
1.0
  0
POINT
  5
5BF
330
5B7
100
AcDbEntity
  8
DEFPOINTS
 62
     0
100
AcDbPoint
 10
36.11838707259698
 20
18.78738338983647
 30
0.0
  0
POINT
  5
5C0
330
5B7
100
AcDbEntity
  8
DEFPOINTS
 62
     0
100
AcDbPoint
 10
36.36788707259698
 20
17.20938338983647
 30
0.0
  0
POINT
  5
5C1
330
5B7
100
AcDbEntity
  8
DEFPOINTS
 62
     0
100
AcDbPoint
 10
39.97384848127773
 20
17.20938338983647
 30
0.0
  0
ENDBLK
  5
5C3
330
5B7
100
AcDbEntity
  8
0
100
AcDbBlockEnd
  0
ENDSEC
  0
SECTION
  2
ENTITIES
  0
LINE
  5
DB
330
1E
100
AcDbEntity
  8
HIDDEN
100
AcDbLine
 10
35.99288707259697
 20
28.57233665227731
 30
0.0
 11
35.99288707259699
 21
46.32233665227731
 31
0.0
  0
LINE
  5
DC
330
1E
100
AcDbEntity
  8
HIDDEN
100
AcDbLine
 10
10.24288707259699
 20
46.32233665227731
 30
0.0
 11
10.24288707259699
 21
28.57233665227731
 31
0.0
  0
LINE
  5
DD
330
1E
100
AcDbEntity
  8
OBJECT
100
AcDbLine
 10
9.867887072596991
 20
28.57233665227731
 30
0.0
 11
9.992387072596988
 21
28.57233665227731
 31
0.0
  0
LINE
  5
DE
330
1E
100
AcDbEntity
  8
OBJECT
100
AcDbLine
 10
36.24338707259699
 20
28.49433665227731
 30
0.0
 11
36.24338707259698
 21
28.57233665227731
 31
0.0
  0
LINE
  5
DF
330
1E
100
AcDbEntity
  8
OBJECT
100
AcDbLine
 10
9.992387072596988
 20
28.57233665227731
 30
0.0
 11
9.992387072596988
 21
28.49433665227731
 31
0.0
  0
LINE
  5
E0
330
1E
100
AcDbEntity
  8
OBJECT
100
AcDbLine
 10
36.24338707259698
 20
28.57233665227731
 30
0.0
 11
36.36788707259698
 21
28.57233665227731
 31
0.0
  0
LINE
  5
E1
330
1E
100
AcDbEntity
  8
OBJECT
100
AcDbLine
 10
40.73896814884497
 20
28.49433665227731
 30
0.0
 11
41.62896814884496
 21
28.49433665227731
 31
0.0
  0
LINE
  5
E2
330
1E
100
AcDbEntity
  8
OBJECT
100
AcDbLine
 10
41.62896814884496
 20
28.49433665227731
 30
0.0
 11
41.62896814884496
 21
28.57233665227731
 31
0.0
  0
LINE
  5
E3
330
1E
100
AcDbEntity
  8
OBJECT
100
AcDbLine
 10
40.73896814884497
 20
28.55633665227732
 30
0.0
 11
41.56696814884496
 21
28.55633665227732
 31
0.0
  0
LINE
  5
E4
330
1E
100
AcDbEntity
  8
OBJECT
100
AcDbLine
 10
41.56696814884496
 20
28.55633665227732
 30
0.0
 11
41.56696814884496
 21
46.3383366522773
 31
0.0
  0
LINE
  5
E5
330
1E
100
AcDbEntity
  8
OBJECT
100
AcDbLine
 10
40.73896814884497
 20
28.49433665227731
 30
0.0
 11
40.73896814884497
 21
28.55633665227732
 31
0.0
  0
LINE
  5
E6
330
1E
100
AcDbEntity
  8
OBJECT
100
AcDbLine
 10
40.73896814884496
 20
46.40033665227732
 30
0.0
 11
40.73896814884496
 21
46.3383366522773
 31
0.0
  0
LINE
  5
E7
330
1E
100
AcDbEntity
  8
OBJECT
100
AcDbLine
 10
40.73896814884496
 20
46.3383366522773
 30
0.0
 11
41.56696814884496
 21
46.3383366522773
 31
0.0
  0
LINE
  5
E8
330
1E
100
AcDbEntity
  8
OBJECT
100
AcDbLine
 10
40.73896814884496
 20
46.40033665227732
 30
0.0
 11
41.62896814884496
 21
46.40033665227732
 31
0.0
  0
LINE
  5
E9
330
1E
100
AcDbEntity
  8
OBJECT
100
AcDbLine
 10
35.99288707259697
 20
17.20938338983647
 30
0.0
 11
36.36788707259698
 21
17.20938338983647
 31
0.0
  0
LINE
  5
EA
330
1E
100
AcDbEntity
  8
OBJECT
100
AcDbLine
 10
36.36788707259698
 20
17.20938338983647
 30
0.0
 11
36.36788707259698
 21
17.95938338983646
 31
0.0
  0
LINE
  5
EB
330
1E
100
AcDbEntity
  8
OBJECT
100
AcDbLine
 10
36.36788707259698
 20
17.95938338983646
 30
0.0
 11
36.24338707259698
 21
17.95938338983646
 31
0.0
  0
LINE
  5
EC
330
1E
100
AcDbEntity
  8
OBJECT
100
AcDbLine
 10
35.99288707259697
 20
17.27138338983646
 30
0.0
 11
36.30588707259698
 21
17.27138338983646
 31
0.0
  0
LINE
  5
ED
330
1E
100
AcDbEntity
  8
OBJECT
100
AcDbLine
 10
36.30588707259698
 20
17.27138338983646
 30
0.0
 11
36.30588707259698
 21
17.89738338983647
 31
0.0
  0
LINE
  5
EE
330
1E
100
AcDbEntity
  8
OBJECT
100
AcDbLine
 10
36.30588707259698
 20
17.89738338983647
 30
0.0
 11
9.929887072596988
 21
17.89738338983647
 31
0.0
  0
LINE
  5
EF
330
1E
100
AcDbEntity
  8
OBJECT
100
AcDbLine
 10
35.99288707259697
 20
17.20938338983647
 30
0.0
 11
35.99288707259697
 21
17.27138338983646
 31
0.0
  0
LINE
  5
F0
330
1E
100
AcDbEntity
  8
OBJECT
100
AcDbLine
 10
10.24288707259699
 20
17.20938338983647
 30
0.0
 11
10.24288707259699
 21
17.27138338983646
 31
0.0
  0
LINE
  5
F1
330
1E
100
AcDbEntity
  8
OBJECT
100
AcDbLine
 10
9.929887072596988
 20
17.27138338983646
 30
0.0
 11
9.929887072596988
 21
17.89738338983647
 31
0.0
  0
LINE
  5
F2
330
1E
100
AcDbEntity
  8
OBJECT
100
AcDbLine
 10
10.24288707259699
 20
17.27138338983646
 30
0.0
 11
9.929887072596988
 21
17.27138338983646
 31
0.0
  0
LINE
  5
F3
330
1E
100
AcDbEntity
  8
OBJECT
100
AcDbLine
 10
9.867887072596991
 20
17.20938338983647
 30
0.0
 11
9.867887072596991
 21
17.95938338983646
 31
0.0
  0
LINE
  5
F4
330
1E
100
AcDbEntity
  8
OBJECT
100
AcDbLine
 10
10.24288707259699
 20
17.20938338983647
 30
0.0
 11
9.867887072596991
 21
17.20938338983647
 31
0.0
  0
LINE
  5
F5
330
1E
100
AcDbEntity
  8
OBJECT
100
AcDbLine
 10
11.52438707259697
 20
30.07183665227731
 30
0.0
 11
10.71138707259698
 21
30.07183665227731
 31
0.0
  0
LINE
  5
F6
330
1E
100
AcDbEntity
  8
OBJECT
100
AcDbLine
 10
10.71138707259698
 20
30.25883665227731
 30
0.0
 11
11.52438707259697
 21
30.25883665227731
 31
0.0
  0
ARC
  5
F7
330
1E
100
AcDbEntity
  8
OBJECT
100
AcDbCircle
 10
11.52438707259696
 20
30.16533665227731
 30
0.0
 40
0.0935
100
AcDbArc
 50
270.0
 51
90.0
  0
LINE
  5
F8
330
1E
100
AcDbEntity
  8
CENTER
100
AcDbLine
 10
11.11788707259697
 20
30.07533665227731
 30
0.0
 11
11.11788707259697
 21
30.25533665227731
 31
0.0
  0
LINE
  5
F9
330
1E
100
AcDbEntity
  8
CENTER
100
AcDbLine
 10
11.02788707259698
 20
30.16533665227731
 30
0.0
 11
11.20788707259698
 21
30.16533665227731
 31
0.0
  0
ARC
  5
FA
330
1E
100
AcDbEntity
  8
OBJECT
100
AcDbCircle
 10
10.71138707259697
 20
30.16533665227731
 30
0.0
 40
0.0935
100
AcDbArc
 50
90.0
 51
270.0
  0
ARC
  5
FB
330
1E
100
AcDbEntity
  8
OBJECT
100
AcDbCircle
 10
22.71138707259699
 20
30.16533665227731
 30
0.0
 40
0.0935
100
AcDbArc
 50
90.0
 51
270.0
  0
LINE
  5
FC
330
1E
100
AcDbEntity
  8
CENTER
100
AcDbLine
 10
23.02788707259698
 20
30.16533665227731
 30
0.0
 11
23.20788707259699
 21
30.16533665227731
 31
0.0
  0
LINE
  5
FD
330
1E
100
AcDbEntity
  8
CENTER
100
AcDbLine
 10
23.11788707259699
 20
30.07533665227731
 30
0.0
 11
23.11788707259699
 21
30.25533665227731
 31
0.0
  0
ARC
  5
FE
330
1E
100
AcDbEntity
  8
OBJECT
100
AcDbCircle
 10
23.52438707259698
 20
30.16533665227731
 30
0.0
 40
0.0935
100
AcDbArc
 50
270.0
 51
90.0
  0
LINE
  5
FF
330
1E
100
AcDbEntity
  8
OBJECT
100
AcDbLine
 10
22.71138707259699
 20
30.25883665227731
 30
0.0
 11
23.52438707259698
 21
30.25883665227731
 31
0.0
  0
LINE
  5
100
330
1E
100
AcDbEntity
  8
OBJECT
100
AcDbLine
 10
23.52438707259698
 20
30.07183665227731
 30
0.0
 11
22.71138707259699
 21
30.07183665227731
 31
0.0
  0
LINE
  5
101
330
1E
100
AcDbEntity
  8
OBJECT
100
AcDbLine
 10
13.02438707259697
 20
30.32183665227731
 30
0.0
 11
12.21138707259698
 21
30.32183665227731
 31
0.0
  0
LINE
  5
102
330
1E
100
AcDbEntity
  8
OBJECT
100
AcDbLine
 10
12.21138707259698
 20
30.50883665227731
 30
0.0
 11
13.02438707259697
 21
30.50883665227731
 31
0.0
  0
ARC
  5
103
330
1E
100
AcDbEntity
  8
OBJECT
100
AcDbCircle
 10
13.02438707259697
 20
30.41533665227731
 30
0.0
 40
0.0935
100
AcDbArc
 50
270.0
 51
90.0
  0
LINE
  5
104
330
1E
100
AcDbEntity
  8
CENTER
100
AcDbLine
 10
12.61788707259697
 20
30.32533665227731
 30
0.0
 11
12.61788707259697
 21
30.50533665227731
 31
0.0
  0
LINE
  5
105
330
1E
100
AcDbEntity
  8
CENTER
100
AcDbLine
 10
12.52788707259697
 20
30.41533665227731
 30
0.0
 11
12.70788707259698
 21
30.41533665227731
 31
0.0
  0
ARC
  5
106
330
1E
100
AcDbEntity
  8
OBJECT
100
AcDbCircle
 10
12.21138707259697
 20
30.41533665227731
 30
0.0
 40
0.0935
100
AcDbArc
 50
90.0
 51
270.0
  0
ARC
  5
107
330
1E
100
AcDbEntity
  8
OBJECT
100
AcDbCircle
 10
25.71138707259699
 20
30.16533665227731
 30
0.0
 40
0.0935
100
AcDbArc
 50
90.0
 51
270.0
  0
LINE
  5
108
330
1E
100
AcDbEntity
  8
CENTER
100
AcDbLine
 10
26.02788707259699
 20
30.16533665227731
 30
0.0
 11
26.20788707259698
 21
30.16533665227731
 31
0.0
  0
LINE
  5
109
330
1E
100
AcDbEntity
  8
CENTER
100
AcDbLine
 10
26.11788707259699
 20
30.07533665227731
 30
0.0
 11
26.11788707259699
 21
30.25533665227731
 31
0.0
  0
ARC
  5
10A
330
1E
100
AcDbEntity
  8
OBJECT
100
AcDbCircle
 10
26.52438707259697
 20
30.16533665227731
 30
0.0
 40
0.0935
100
AcDbArc
 50
270.0
 51
90.0
  0
LINE
  5
10B
330
1E
100
AcDbEntity
  8
OBJECT
100
AcDbLine
 10
25.71138707259699
 20
30.25883665227731
 30
0.0
 11
26.52438707259697
 21
30.25883665227731
 31
0.0
  0
LINE
  5
10C
330
1E
100
AcDbEntity
  8
OBJECT
100
AcDbLine
 10
26.52438707259697
 20
30.07183665227731
 30
0.0
 11
25.71138707259699
 21
30.07183665227731
 31
0.0
  0
LINE
  5
10D
330
1E
100
AcDbEntity
  8
OBJECT
100
AcDbLine
 10
25.02438707259698
 20
30.32183665227731
 30
0.0
 11
24.21138707259699
 21
30.32183665227731
 31
0.0
  0
LINE
  5
10E
330
1E
100
AcDbEntity
  8
OBJECT
100
AcDbLine
 10
24.21138707259699
 20
30.50883665227731
 30
0.0
 11
25.02438707259698
 21
30.50883665227731
 31
0.0
  0
ARC
  5
10F
330
1E
100
AcDbEntity
  8
OBJECT
100
AcDbCircle
 10
25.02438707259698
 20
30.41533665227731
 30
0.0
 40
0.0935
100
AcDbArc
 50
270.0
 51
90.0
  0
LINE
  5
110
330
1E
100
AcDbEntity
  8
CENTER
100
AcDbLine
 10
24.61788707259699
 20
30.32533665227731
 30
0.0
 11
24.61788707259699
 21
30.50533665227731
 31
0.0
  0
LINE
  5
111
330
1E
100
AcDbEntity
  8
CENTER
100
AcDbLine
 10
24.52788707259699
 20
30.41533665227731
 30
0.0
 11
24.70788707259699
 21
30.41533665227731
 31
0.0
  0
ARC
  5
112
330
1E
100
AcDbEntity
  8
OBJECT
100
AcDbCircle
 10
24.21138707259699
 20
30.41533665227731
 30
0.0
 40
0.0935
100
AcDbArc
 50
90.0
 51
270.0
  0
ARC
  5
113
330
1E
100
AcDbEntity
  8
OBJECT
100
AcDbCircle
 10
28.71138707259699
 20
30.16533665227731
 30
0.0
 40
0.0935
100
AcDbArc
 50
90.0
 51
270.0
  0
LINE
  5
114
330
1E
100
AcDbEntity
  8
CENTER
100
AcDbLine
 10
29.02788707259698
 20
30.16533665227731
 30
0.0
 11
29.20788707259699
 21
30.16533665227731
 31
0.0
  0
LINE
  5
115
330
1E
100
AcDbEntity
  8
CENTER
100
AcDbLine
 10
29.11788707259699
 20
30.07533665227731
 30
0.0
 11
29.11788707259699
 21
30.25533665227731
 31
0.0
  0
ARC
  5
116
330
1E
100
AcDbEntity
  8
OBJECT
100
AcDbCircle
 10
29.52438707259698
 20
30.16533665227731
 30
0.0
 40
0.0935
100
AcDbArc
 50
270.0
 51
90.0
  0
LINE
  5
117
330
1E
100
AcDbEntity
  8
OBJECT
100
AcDbLine
 10
28.71138707259699
 20
30.25883665227731
 30
0.0
 11
29.52438707259698
 21
30.25883665227731
 31
0.0
  0
LINE
  5
118
330
1E
100
AcDbEntity
  8
OBJECT
100
AcDbLine
 10
29.52438707259698
 20
30.07183665227731
 30
0.0
 11
28.71138707259699
 21
30.07183665227731
 31
0.0
  0
LINE
  5
119
330
1E
100
AcDbEntity
  8
OBJECT
100
AcDbLine
 10
28.02438707259698
 20
30.32183665227731
 30
0.0
 11
27.21138707259699
 21
30.32183665227731
 31
0.0
  0
LINE
  5
11A
330
1E
100
AcDbEntity
  8
OBJECT
100
AcDbLine
 10
27.21138707259699
 20
30.50883665227731
 30
0.0
 11
28.02438707259698
 21
30.50883665227731
 31
0.0
  0
ARC
  5
11B
330
1E
100
AcDbEntity
  8
OBJECT
100
AcDbCircle
 10
28.02438707259698
 20
30.41533665227731
 30
0.0
 40
0.0935
100
AcDbArc
 50
270.0
 51
90.0
  0
LINE
  5
11C
330
1E
100
AcDbEntity
  8
CENTER
100
AcDbLine
 10
27.61788707259699
 20
30.32533665227731
 30
0.0
 11
27.61788707259699
 21
30.50533665227731
 31
0.0
  0
LINE
  5
11D
330
1E
100
AcDbEntity
  8
CENTER
100
AcDbLine
 10
27.52788707259699
 20
30.41533665227731
 30
0.0
 11
27.70788707259699
 21
30.41533665227731
 31
0.0
  0
ARC
  5
11E
330
1E
100
AcDbEntity
  8
OBJECT
100
AcDbCircle
 10
27.21138707259699
 20
30.41533665227731
 30
0.0
 40
0.0935
100
AcDbArc
 50
90.0
 51
270.0
  0
ARC
  5
11F
330
1E
100
AcDbEntity
  8
OBJECT
100
AcDbCircle
 10
31.71138707259698
 20
30.16533665227731
 30
0.0
 40
0.0935
100
AcDbArc
 50
90.0
 51
270.0
  0
LINE
  5
120
330
1E
100
AcDbEntity
  8
CENTER
100
AcDbLine
 10
32.02788707259699
 20
30.16533665227731
 30
0.0
 11
32.20788707259699
 21
30.16533665227731
 31
0.0
  0
LINE
  5
121
330
1E
100
AcDbEntity
  8
CENTER
100
AcDbLine
 10
32.11788707259699
 20
30.07533665227731
 30
0.0
 11
32.11788707259699
 21
30.25533665227731
 31
0.0
  0
ARC
  5
122
330
1E
100
AcDbEntity
  8
OBJECT
100
AcDbCircle
 10
32.52438707259697
 20
30.16533665227731
 30
0.0
 40
0.0935
100
AcDbArc
 50
270.0
 51
90.0
  0
LINE
  5
123
330
1E
100
AcDbEntity
  8
OBJECT
100
AcDbLine
 10
31.71138707259698
 20
30.25883665227731
 30
0.0
 11
32.52438707259697
 21
30.25883665227731
 31
0.0
  0
LINE
  5
124
330
1E
100
AcDbEntity
  8
OBJECT
100
AcDbLine
 10
32.52438707259697
 20
30.07183665227731
 30
0.0
 11
31.71138707259698
 21
30.07183665227731
 31
0.0
  0
LINE
  5
125
330
1E
100
AcDbEntity
  8
OBJECT
100
AcDbLine
 10
31.02438707259699
 20
30.32183665227731
 30
0.0
 11
30.21138707259699
 21
30.32183665227731
 31
0.0
  0
LINE
  5
126
330
1E
100
AcDbEntity
  8
OBJECT
100
AcDbLine
 10
30.21138707259699
 20
30.50883665227731
 30
0.0
 11
31.02438707259699
 21
30.50883665227731
 31
0.0
  0
ARC
  5
127
330
1E
100
AcDbEntity
  8
OBJECT
100
AcDbCircle
 10
31.02438707259699
 20
30.41533665227731
 30
0.0
 40
0.0935
100
AcDbArc
 50
270.0
 51
90.0
  0
LINE
  5
128
330
1E
100
AcDbEntity
  8
CENTER
100
AcDbLine
 10
30.61788707259699
 20
30.32533665227731
 30
0.0
 11
30.61788707259699
 21
30.50533665227731
 31
0.0
  0
LINE
  5
129
330
1E
100
AcDbEntity
  8
CENTER
100
AcDbLine
 10
30.52788707259699
 20
30.41533665227731
 30
0.0
 11
30.70788707259699
 21
30.41533665227731
 31
0.0
  0
ARC
  5
12A
330
1E
100
AcDbEntity
  8
OBJECT
100
AcDbCircle
 10
30.21138707259699
 20
30.41533665227731
 30
0.0
 40
0.0935
100
AcDbArc
 50
90.0
 51
270.0
  0
ARC
  5
12B
330
1E
100
AcDbEntity
  8
OBJECT
100
AcDbCircle
 10
30.21138707259699
 20
44.72833665227731
 30
0.0
 40
0.0935
100
AcDbArc
 50
90.0
 51
270.0
  0
LINE
  5
12C
330
1E
100
AcDbEntity
  8
CENTER
100
AcDbLine
 10
30.52788707259699
 20
44.72833665227731
 30
0.0
 11
30.70788707259699
 21
44.72833665227731
 31
0.0
  0
LINE
  5
12D
330
1E
100
AcDbEntity
  8
CENTER
100
AcDbLine
 10
30.61788707259699
 20
44.6383366522773
 30
0.0
 11
30.61788707259699
 21
44.81833665227731
 31
0.0
  0
ARC
  5
12E
330
1E
100
AcDbEntity
  8
OBJECT
100
AcDbCircle
 10
31.02438707259699
 20
44.72833665227731
 30
0.0
 40
0.0935
100
AcDbArc
 50
270.0
 51
90.0
  0
LINE
  5
12F
330
1E
100
AcDbEntity
  8
OBJECT
100
AcDbLine
 10
30.21138707259699
 20
44.8218366522773
 30
0.0
 11
31.02438707259699
 21
44.8218366522773
 31
0.0
  0
LINE
  5
130
330
1E
100
AcDbEntity
  8
OBJECT
100
AcDbLine
 10
31.02438707259699
 20
44.6348366522773
 30
0.0
 11
30.21138707259699
 21
44.6348366522773
 31
0.0
  0
LINE
  5
131
330
1E
100
AcDbEntity
  8
OBJECT
100
AcDbLine
 10
32.52438707259697
 20
44.38483665227731
 30
0.0
 11
31.71138707259698
 21
44.38483665227731
 31
0.0
  0
LINE
  5
132
330
1E
100
AcDbEntity
  8
OBJECT
100
AcDbLine
 10
31.71138707259698
 20
44.5718366522773
 30
0.0
 11
32.52438707259697
 21
44.5718366522773
 31
0.0
  0
ARC
  5
133
330
1E
100
AcDbEntity
  8
OBJECT
100
AcDbCircle
 10
32.52438707259697
 20
44.47833665227731
 30
0.0
 40
0.0935
100
AcDbArc
 50
270.0
 51
90.0
  0
LINE
  5
134
330
1E
100
AcDbEntity
  8
CENTER
100
AcDbLine
 10
32.11788707259699
 20
44.38833665227731
 30
0.0
 11
32.11788707259699
 21
44.56833665227732
 31
0.0
  0
LINE
  5
135
330
1E
100
AcDbEntity
  8
CENTER
100
AcDbLine
 10
32.02788707259699
 20
44.47833665227731
 30
0.0
 11
32.20788707259699
 21
44.47833665227731
 31
0.0
  0
ARC
  5
136
330
1E
100
AcDbEntity
  8
OBJECT
100
AcDbCircle
 10
31.71138707259698
 20
44.47833665227731
 30
0.0
 40
0.0935
100
AcDbArc
 50
90.0
 51
270.0
  0
ARC
  5
137
330
1E
100
AcDbEntity
  8
OBJECT
100
AcDbCircle
 10
27.21138707259699
 20
44.72833665227731
 30
0.0
 40
0.0935
100
AcDbArc
 50
90.0
 51
270.0
  0
LINE
  5
138
330
1E
100
AcDbEntity
  8
CENTER
100
AcDbLine
 10
27.52788707259699
 20
44.72833665227731
 30
0.0
 11
27.70788707259699
 21
44.72833665227731
 31
0.0
  0
LINE
  5
139
330
1E
100
AcDbEntity
  8
CENTER
100
AcDbLine
 10
27.61788707259699
 20
44.6383366522773
 30
0.0
 11
27.61788707259699
 21
44.81833665227731
 31
0.0
  0
ARC
  5
13A
330
1E
100
AcDbEntity
  8
OBJECT
100
AcDbCircle
 10
28.02438707259698
 20
44.72833665227731
 30
0.0
 40
0.0935
100
AcDbArc
 50
270.0
 51
90.0
  0
LINE
  5
13B
330
1E
100
AcDbEntity
  8
OBJECT
100
AcDbLine
 10
27.21138707259699
 20
44.8218366522773
 30
0.0
 11
28.02438707259698
 21
44.8218366522773
 31
0.0
  0
LINE
  5
13C
330
1E
100
AcDbEntity
  8
OBJECT
100
AcDbLine
 10
28.02438707259698
 20
44.6348366522773
 30
0.0
 11
27.21138707259699
 21
44.6348366522773
 31
0.0
  0
LINE
  5
13D
330
1E
100
AcDbEntity
  8
OBJECT
100
AcDbLine
 10
29.52438707259698
 20
44.38483665227731
 30
0.0
 11
28.71138707259699
 21
44.38483665227731
 31
0.0
  0
LINE
  5
13E
330
1E
100
AcDbEntity
  8
OBJECT
100
AcDbLine
 10
28.71138707259699
 20
44.5718366522773
 30
0.0
 11
29.52438707259698
 21
44.5718366522773
 31
0.0
  0
ARC
  5
13F
330
1E
100
AcDbEntity
  8
OBJECT
100
AcDbCircle
 10
29.52438707259698
 20
44.47833665227731
 30
0.0
 40
0.0935
100
AcDbArc
 50
270.0
 51
90.0
  0
LINE
  5
140
330
1E
100
AcDbEntity
  8
CENTER
100
AcDbLine
 10
29.11788707259699
 20
44.38833665227731
 30
0.0
 11
29.11788707259699
 21
44.56833665227732
 31
0.0
  0
LINE
  5
141
330
1E
100
AcDbEntity
  8
CENTER
100
AcDbLine
 10
29.02788707259698
 20
44.47833665227731
 30
0.0
 11
29.20788707259699
 21
44.47833665227731
 31
0.0
  0
ARC
  5
142
330
1E
100
AcDbEntity
  8
OBJECT
100
AcDbCircle
 10
28.71138707259699
 20
44.47833665227731
 30
0.0
 40
0.0935
100
AcDbArc
 50
90.0
 51
270.0
  0
ARC
  5
143
330
1E
100
AcDbEntity
  8
OBJECT
100
AcDbCircle
 10
24.21138707259699
 20
44.72833665227731
 30
0.0
 40
0.0935
100
AcDbArc
 50
90.0
 51
270.0
  0
LINE
  5
144
330
1E
100
AcDbEntity
  8
CENTER
100
AcDbLine
 10
24.52788707259699
 20
44.72833665227731
 30
0.0
 11
24.70788707259699
 21
44.72833665227731
 31
0.0
  0
LINE
  5
145
330
1E
100
AcDbEntity
  8
CENTER
100
AcDbLine
 10
24.61788707259699
 20
44.6383366522773
 30
0.0
 11
24.61788707259699
 21
44.81833665227731
 31
0.0
  0
ARC
  5
146
330
1E
100
AcDbEntity
  8
OBJECT
100
AcDbCircle
 10
25.02438707259698
 20
44.72833665227731
 30
0.0
 40
0.0935
100
AcDbArc
 50
270.0
 51
90.0
  0
LINE
  5
147
330
1E
100
AcDbEntity
  8
OBJECT
100
AcDbLine
 10
24.21138707259699
 20
44.8218366522773
 30
0.0
 11
25.02438707259698
 21
44.8218366522773
 31
0.0
  0
LINE
  5
148
330
1E
100
AcDbEntity
  8
OBJECT
100
AcDbLine
 10
25.02438707259698
 20
44.6348366522773
 30
0.0
 11
24.21138707259699
 21
44.6348366522773
 31
0.0
  0
LINE
  5
149
330
1E
100
AcDbEntity
  8
OBJECT
100
AcDbLine
 10
26.52438707259697
 20
44.38483665227731
 30
0.0
 11
25.71138707259699
 21
44.38483665227731
 31
0.0
  0
LINE
  5
14A
330
1E
100
AcDbEntity
  8
OBJECT
100
AcDbLine
 10
25.71138707259699
 20
44.5718366522773
 30
0.0
 11
26.52438707259697
 21
44.5718366522773
 31
0.0
  0
ARC
  5
14B
330
1E
100
AcDbEntity
  8
OBJECT
100
AcDbCircle
 10
26.52438707259697
 20
44.47833665227731
 30
0.0
 40
0.0935
100
AcDbArc
 50
270.0
 51
90.0
  0
LINE
  5
14C
330
1E
100
AcDbEntity
  8
CENTER
100
AcDbLine
 10
26.11788707259699
 20
44.38833665227731
 30
0.0
 11
26.11788707259699
 21
44.56833665227732
 31
0.0
  0
LINE
  5
14D
330
1E
100
AcDbEntity
  8
CENTER
100
AcDbLine
 10
26.02788707259699
 20
44.47833665227731
 30
0.0
 11
26.20788707259698
 21
44.47833665227731
 31
0.0
  0
ARC
  5
14E
330
1E
100
AcDbEntity
  8
OBJECT
100
AcDbCircle
 10
25.71138707259699
 20
44.47833665227731
 30
0.0
 40
0.0935
100
AcDbArc
 50
90.0
 51
270.0
  0
ARC
  5
14F
330
1E
100
AcDbEntity
  8
OBJECT
100
AcDbCircle
 10
12.21138707259697
 20
44.72833665227731
 30
0.0
 40
0.0935
100
AcDbArc
 50
90.0
 51
270.0
  0
LINE
  5
150
330
1E
100
AcDbEntity
  8
CENTER
100
AcDbLine
 10
12.52788707259697
 20
44.72833665227731
 30
0.0
 11
12.70788707259698
 21
44.72833665227731
 31
0.0
  0
LINE
  5
151
330
1E
100
AcDbEntity
  8
CENTER
100
AcDbLine
 10
12.61788707259697
 20
44.6383366522773
 30
0.0
 11
12.61788707259697
 21
44.81833665227731
 31
0.0
  0
ARC
  5
152
330
1E
100
AcDbEntity
  8
OBJECT
100
AcDbCircle
 10
13.02438707259697
 20
44.72833665227731
 30
0.0
 40
0.0935
100
AcDbArc
 50
270.0
 51
90.0
  0
LINE
  5
153
330
1E
100
AcDbEntity
  8
OBJECT
100
AcDbLine
 10
12.21138707259698
 20
44.82183665227732
 30
0.0
 11
13.02438707259697
 21
44.82183665227732
 31
0.0
  0
LINE
  5
154
330
1E
100
AcDbEntity
  8
OBJECT
100
AcDbLine
 10
13.02438707259697
 20
44.63483665227732
 30
0.0
 11
12.21138707259698
 21
44.63483665227732
 31
0.0
  0
LINE
  5
155
330
1E
100
AcDbEntity
  8
OBJECT
100
AcDbLine
 10
23.52438707259698
 20
44.38483665227731
 30
0.0
 11
22.71138707259699
 21
44.38483665227731
 31
0.0
  0
LINE
  5
156
330
1E
100
AcDbEntity
  8
OBJECT
100
AcDbLine
 10
22.71138707259699
 20
44.5718366522773
 30
0.0
 11
23.52438707259698
 21
44.5718366522773
 31
0.0
  0
ARC
  5
157
330
1E
100
AcDbEntity
  8
OBJECT
100
AcDbCircle
 10
23.52438707259698
 20
44.47833665227731
 30
0.0
 40
0.0935
100
AcDbArc
 50
270.0
 51
90.0
  0
LINE
  5
158
330
1E
100
AcDbEntity
  8
CENTER
100
AcDbLine
 10
23.11788707259699
 20
44.38833665227731
 30
0.0
 11
23.11788707259699
 21
44.56833665227732
 31
0.0
  0
LINE
  5
159
330
1E
100
AcDbEntity
  8
CENTER
100
AcDbLine
 10
23.02788707259698
 20
44.47833665227731
 30
0.0
 11
23.20788707259699
 21
44.47833665227731
 31
0.0
  0
ARC
  5
15A
330
1E
100
AcDbEntity
  8
OBJECT
100
AcDbCircle
 10
22.71138707259699
 20
44.47833665227731
 30
0.0
 40
0.0935
100
AcDbArc
 50
90.0
 51
270.0
  0
ARC
  5
15B
330
1E
100
AcDbEntity
  8
OBJECT
100
AcDbCircle
 10
10.71138707259697
 20
44.47833665227731
 30
0.0
 40
0.0935
100
AcDbArc
 50
90.0
 51
270.0
  0
LINE
  5
15C
330
1E
100
AcDbEntity
  8
CENTER
100
AcDbLine
 10
11.02788707259698
 20
44.47833665227731
 30
0.0
 11
11.20788707259698
 21
44.47833665227731
 31
0.0
  0
LINE
  5
15D
330
1E
100
AcDbEntity
  8
CENTER
100
AcDbLine
 10
11.11788707259697
 20
44.38833665227731
 30
0.0
 11
11.11788707259697
 21
44.56833665227732
 31
0.0
  0
ARC
  5
15E
330
1E
100
AcDbEntity
  8
OBJECT
100
AcDbCircle
 10
11.52438707259696
 20
44.47833665227731
 30
0.0
 40
0.0935
100
AcDbArc
 50
270.0
 51
90.0
  0
LINE
  5
15F
330
1E
100
AcDbEntity
  8
OBJECT
100
AcDbLine
 10
10.71138707259698
 20
44.57183665227732
 30
0.0
 11
11.52438707259697
 21
44.57183665227732
 31
0.0
  0
LINE
  5
160
330
1E
100
AcDbEntity
  8
OBJECT
100
AcDbLine
 10
11.52438707259697
 20
44.38483665227732
 30
0.0
 11
10.71138707259698
 21
44.38483665227732
 31
0.0
  0
LINE
  5
161
330
1E
100
AcDbEntity
  8
CENTER
100
AcDbLine
 10
11.11788707259697
 20
30.38383665227731
 30
0.0
 11
11.11788707259697
 21
44.25983665227732
 31
0.0
  0
LINE
  5
162
330
1E
100
AcDbEntity
  8
CENTER
100
AcDbLine
 10
12.61788707259697
 20
30.63383665227731
 30
0.0
 11
12.61788707259697
 21
44.50983665227732
 31
0.0
  0
LINE
  5
163
330
1E
100
AcDbEntity
  8
CENTER
100
AcDbLine
 10
23.11788707259698
 20
30.38383665227731
 30
0.0
 11
23.11788707259699
 21
44.25983665227731
 31
0.0
  0
LINE
  5
164
330
1E
100
AcDbEntity
  8
CENTER
100
AcDbLine
 10
24.61788707259698
 20
30.63383665227731
 30
0.0
 11
24.61788707259699
 21
44.5098366522773
 31
0.0
  0
LINE
  5
165
330
1E
100
AcDbEntity
  8
CENTER
100
AcDbLine
 10
26.11788707259698
 20
30.38383665227731
 30
0.0
 11
26.11788707259699
 21
44.25983665227731
 31
0.0
  0
LINE
  5
166
330
1E
100
AcDbEntity
  8
CENTER
100
AcDbLine
 10
27.61788707259698
 20
30.63383665227731
 30
0.0
 11
27.61788707259699
 21
44.5098366522773
 31
0.0
  0
LINE
  5
167
330
1E
100
AcDbEntity
  8
CENTER
100
AcDbLine
 10
29.11788707259699
 20
30.38383665227731
 30
0.0
 11
29.11788707259699
 21
44.25983665227731
 31
0.0
  0
LINE
  5
168
330
1E
100
AcDbEntity
  8
CENTER
100
AcDbLine
 10
30.61788707259699
 20
30.63383665227731
 30
0.0
 11
30.61788707259699
 21
44.5098366522773
 31
0.0
  0
LINE
  5
169
330
1E
100
AcDbEntity
  8
CENTER
100
AcDbLine
 10
32.11788707259699
 20
30.38383665227731
 30
0.0
 11
32.11788707259699
 21
44.25983665227731
 31
0.0
  0
LINE
  5
16A
330
1E
100
AcDbEntity
  8
CENTER
100
AcDbLine
 10
35.11788707259699
 20
30.38383665227731
 30
0.0
 11
35.11788707259699
 21
44.25983665227731
 31
0.0
  0
LINE
  5
16B
330
1E
100
AcDbEntity
  8
CENTER
100
AcDbLine
 10
33.61788707259699
 20
30.63383665227731
 30
0.0
 11
33.61788707259699
 21
44.5098366522773
 31
0.0
  0
ARC
  5
16C
330
1E
100
AcDbEntity
  8
OBJECT
100
AcDbCircle
 10
34.71138707259698
 20
44.47833665227731
 30
0.0
 40
0.0935
100
AcDbArc
 50
90.0
 51
270.0
  0
LINE
  5
16D
330
1E
100
AcDbEntity
  8
CENTER
100
AcDbLine
 10
35.02788707259699
 20
44.47833665227731
 30
0.0
 11
35.20788707259699
 21
44.47833665227731
 31
0.0
  0
LINE
  5
16E
330
1E
100
AcDbEntity
  8
CENTER
100
AcDbLine
 10
35.11788707259699
 20
44.38833665227731
 30
0.0
 11
35.11788707259699
 21
44.56833665227732
 31
0.0
  0
ARC
  5
16F
330
1E
100
AcDbEntity
  8
OBJECT
100
AcDbCircle
 10
35.52438707259697
 20
44.47833665227731
 30
0.0
 40
0.0935
100
AcDbArc
 50
270.0
 51
90.0
  0
LINE
  5
170
330
1E
100
AcDbEntity
  8
OBJECT
100
AcDbLine
 10
34.71138707259698
 20
44.5718366522773
 30
0.0
 11
35.52438707259697
 21
44.5718366522773
 31
0.0
  0
LINE
  5
171
330
1E
100
AcDbEntity
  8
OBJECT
100
AcDbLine
 10
35.52438707259697
 20
44.38483665227731
 30
0.0
 11
34.71138707259698
 21
44.38483665227731
 31
0.0
  0
LINE
  5
172
330
1E
100
AcDbEntity
  8
OBJECT
100
AcDbLine
 10
34.02438707259698
 20
44.6348366522773
 30
0.0
 11
33.21138707259698
 21
44.6348366522773
 31
0.0
  0
LINE
  5
173
330
1E
100
AcDbEntity
  8
OBJECT
100
AcDbLine
 10
33.21138707259698
 20
44.8218366522773
 30
0.0
 11
34.02438707259698
 21
44.8218366522773
 31
0.0
  0
ARC
  5
174
330
1E
100
AcDbEntity
  8
OBJECT
100
AcDbCircle
 10
34.02438707259698
 20
44.72833665227731
 30
0.0
 40
0.0935
100
AcDbArc
 50
270.0
 51
90.0
  0
LINE
  5
175
330
1E
100
AcDbEntity
  8
CENTER
100
AcDbLine
 10
33.61788707259699
 20
44.6383366522773
 30
0.0
 11
33.61788707259699
 21
44.81833665227731
 31
0.0
  0
LINE
  5
176
330
1E
100
AcDbEntity
  8
CENTER
100
AcDbLine
 10
33.52788707259699
 20
44.72833665227731
 30
0.0
 11
33.70788707259699
 21
44.72833665227731
 31
0.0
  0
ARC
  5
177
330
1E
100
AcDbEntity
  8
OBJECT
100
AcDbCircle
 10
33.21138707259698
 20
44.72833665227731
 30
0.0
 40
0.0935
100
AcDbArc
 50
90.0
 51
270.0
  0
ARC
  5
178
330
1E
100
AcDbEntity
  8
OBJECT
100
AcDbCircle
 10
33.21138707259698
 20
30.41533665227731
 30
0.0
 40
0.0935
100
AcDbArc
 50
90.0
 51
270.0
  0
LINE
  5
179
330
1E
100
AcDbEntity
  8
CENTER
100
AcDbLine
 10
33.52788707259699
 20
30.41533665227731
 30
0.0
 11
33.70788707259699
 21
30.41533665227731
 31
0.0
  0
LINE
  5
17A
330
1E
100
AcDbEntity
  8
CENTER
100
AcDbLine
 10
33.61788707259699
 20
30.32533665227731
 30
0.0
 11
33.61788707259699
 21
30.50533665227731
 31
0.0
  0
ARC
  5
17B
330
1E
100
AcDbEntity
  8
OBJECT
100
AcDbCircle
 10
34.02438707259698
 20
30.41533665227731
 30
0.0
 40
0.0935
100
AcDbArc
 50
270.0
 51
90.0
  0
LINE
  5
17C
330
1E
100
AcDbEntity
  8
OBJECT
100
AcDbLine
 10
33.21138707259698
 20
30.50883665227731
 30
0.0
 11
34.02438707259698
 21
30.50883665227731
 31
0.0
  0
LINE
  5
17D
330
1E
100
AcDbEntity
  8
OBJECT
100
AcDbLine
 10
34.02438707259698
 20
30.32183665227731
 30
0.0
 11
33.21138707259698
 21
30.32183665227731
 31
0.0
  0
LINE
  5
17E
330
1E
100
AcDbEntity
  8
OBJECT
100
AcDbLine
 10
35.52438707259697
 20
30.07183665227731
 30
0.0
 11
34.71138707259698
 21
30.07183665227731
 31
0.0
  0
LINE
  5
17F
330
1E
100
AcDbEntity
  8
OBJECT
100
AcDbLine
 10
34.71138707259698
 20
30.25883665227731
 30
0.0
 11
35.52438707259697
 21
30.25883665227731
 31
0.0
  0
ARC
  5
180
330
1E
100
AcDbEntity
  8
OBJECT
100
AcDbCircle
 10
35.52438707259697
 20
30.16533665227731
 30
0.0
 40
0.0935
100
AcDbArc
 50
270.0
 51
90.0
  0
LINE
  5
181
330
1E
100
AcDbEntity
  8
CENTER
100
AcDbLine
 10
35.11788707259699
 20
30.07533665227731
 30
0.0
 11
35.11788707259699
 21
30.25533665227731
 31
0.0
  0
LINE
  5
182
330
1E
100
AcDbEntity
  8
CENTER
100
AcDbLine
 10
35.02788707259699
 20
30.16533665227731
 30
0.0
 11
35.20788707259699
 21
30.16533665227731
 31
0.0
  0
ARC
  5
183
330
1E
100
AcDbEntity
  8
OBJECT
100
AcDbCircle
 10
34.71138707259698
 20
30.16533665227731
 30
0.0
 40
0.0935
100
AcDbArc
 50
90.0
 51
270.0
  0
LINE
  5
184
330
1E
100
AcDbEntity
  8
CENTER
100
AcDbLine
 10
21.61788707259698
 20
30.63383665227731
 30
0.0
 11
21.61788707259699
 21
44.5098366522773
 31
0.0
  0
LINE
  5
185
330
1E
100
AcDbEntity
  8
CENTER
100
AcDbLine
 10
20.11788707259698
 20
30.38383665227731
 30
0.0
 11
20.11788707259699
 21
44.25983665227731
 31
0.0
  0
ARC
  5
186
330
1E
100
AcDbEntity
  8
OBJECT
100
AcDbCircle
 10
19.71138707259699
 20
44.47833665227731
 30
0.0
 40
0.0935
100
AcDbArc
 50
90.0
 51
270.0
  0
LINE
  5
187
330
1E
100
AcDbEntity
  8
CENTER
100
AcDbLine
 10
20.02788707259699
 20
44.47833665227731
 30
0.0
 11
20.20788707259698
 21
44.47833665227731
 31
0.0
  0
LINE
  5
188
330
1E
100
AcDbEntity
  8
CENTER
100
AcDbLine
 10
20.11788707259699
 20
44.38833665227731
 30
0.0
 11
20.11788707259699
 21
44.56833665227732
 31
0.0
  0
ARC
  5
189
330
1E
100
AcDbEntity
  8
OBJECT
100
AcDbCircle
 10
20.52438707259697
 20
44.47833665227731
 30
0.0
 40
0.0935
100
AcDbArc
 50
270.0
 51
90.0
  0
LINE
  5
18A
330
1E
100
AcDbEntity
  8
OBJECT
100
AcDbLine
 10
19.71138707259699
 20
44.5718366522773
 30
0.0
 11
20.52438707259697
 21
44.5718366522773
 31
0.0
  0
LINE
  5
18B
330
1E
100
AcDbEntity
  8
OBJECT
100
AcDbLine
 10
20.52438707259697
 20
44.38483665227731
 30
0.0
 11
19.71138707259699
 21
44.38483665227731
 31
0.0
  0
LINE
  5
18C
330
1E
100
AcDbEntity
  8
OBJECT
100
AcDbLine
 10
22.02438707259698
 20
44.6348366522773
 30
0.0
 11
21.21138707259699
 21
44.6348366522773
 31
0.0
  0
LINE
  5
18D
330
1E
100
AcDbEntity
  8
OBJECT
100
AcDbLine
 10
21.21138707259699
 20
44.8218366522773
 30
0.0
 11
22.02438707259698
 21
44.8218366522773
 31
0.0
  0
ARC
  5
18E
330
1E
100
AcDbEntity
  8
OBJECT
100
AcDbCircle
 10
22.02438707259698
 20
44.72833665227731
 30
0.0
 40
0.0935
100
AcDbArc
 50
270.0
 51
90.0
  0
LINE
  5
18F
330
1E
100
AcDbEntity
  8
CENTER
100
AcDbLine
 10
21.61788707259699
 20
44.6383366522773
 30
0.0
 11
21.61788707259699
 21
44.81833665227731
 31
0.0
  0
LINE
  5
190
330
1E
100
AcDbEntity
  8
CENTER
100
AcDbLine
 10
21.52788707259698
 20
44.72833665227731
 30
0.0
 11
21.70788707259699
 21
44.72833665227731
 31
0.0
  0
ARC
  5
191
330
1E
100
AcDbEntity
  8
OBJECT
100
AcDbCircle
 10
21.21138707259699
 20
44.72833665227731
 30
0.0
 40
0.0935
100
AcDbArc
 50
90.0
 51
270.0
  0
ARC
  5
192
330
1E
100
AcDbEntity
  8
OBJECT
100
AcDbCircle
 10
21.21138707259699
 20
30.41533665227731
 30
0.0
 40
0.0935
100
AcDbArc
 50
90.0
 51
270.0
  0
LINE
  5
193
330
1E
100
AcDbEntity
  8
CENTER
100
AcDbLine
 10
21.52788707259698
 20
30.41533665227731
 30
0.0
 11
21.70788707259699
 21
30.41533665227731
 31
0.0
  0
LINE
  5
194
330
1E
100
AcDbEntity
  8
CENTER
100
AcDbLine
 10
21.61788707259699
 20
30.32533665227731
 30
0.0
 11
21.61788707259699
 21
30.50533665227731
 31
0.0
  0
ARC
  5
195
330
1E
100
AcDbEntity
  8
OBJECT
100
AcDbCircle
 10
22.02438707259698
 20
30.41533665227731
 30
0.0
 40
0.0935
100
AcDbArc
 50
270.0
 51
90.0
  0
LINE
  5
196
330
1E
100
AcDbEntity
  8
OBJECT
100
AcDbLine
 10
21.21138707259699
 20
30.50883665227731
 30
0.0
 11
22.02438707259698
 21
30.50883665227731
 31
0.0
  0
LINE
  5
197
330
1E
100
AcDbEntity
  8
OBJECT
100
AcDbLine
 10
22.02438707259698
 20
30.32183665227731
 30
0.0
 11
21.21138707259699
 21
30.32183665227731
 31
0.0
  0
LINE
  5
198
330
1E
100
AcDbEntity
  8
OBJECT
100
AcDbLine
 10
20.52438707259697
 20
30.07183665227731
 30
0.0
 11
19.71138707259699
 21
30.07183665227731
 31
0.0
  0
LINE
  5
199
330
1E
100
AcDbEntity
  8
OBJECT
100
AcDbLine
 10
19.71138707259699
 20
30.25883665227731
 30
0.0
 11
20.52438707259697
 21
30.25883665227731
 31
0.0
  0
ARC
  5
19A
330
1E
100
AcDbEntity
  8
OBJECT
100
AcDbCircle
 10
20.52438707259697
 20
30.16533665227731
 30
0.0
 40
0.0935
100
AcDbArc
 50
270.0
 51
90.0
  0
LINE
  5
19B
330
1E
100
AcDbEntity
  8
CENTER
100
AcDbLine
 10
20.11788707259699
 20
30.07533665227731
 30
0.0
 11
20.11788707259699
 21
30.25533665227731
 31
0.0
  0
LINE
  5
19C
330
1E
100
AcDbEntity
  8
CENTER
100
AcDbLine
 10
20.02788707259699
 20
30.16533665227731
 30
0.0
 11
20.20788707259698
 21
30.16533665227731
 31
0.0
  0
ARC
  5
19D
330
1E
100
AcDbEntity
  8
OBJECT
100
AcDbCircle
 10
19.71138707259699
 20
30.16533665227731
 30
0.0
 40
0.0935
100
AcDbArc
 50
90.0
 51
270.0
  0
ARC
  5
19E
330
1E
100
AcDbEntity
  8
OBJECT
100
AcDbCircle
 10
13.71138707259698
 20
30.16533665227731
 30
0.0
 40
0.0935
100
AcDbArc
 50
90.0
 51
270.0
  0
LINE
  5
19F
330
1E
100
AcDbEntity
  8
CENTER
100
AcDbLine
 10
14.02788707259698
 20
30.16533665227731
 30
0.0
 11
14.20788707259698
 21
30.16533665227731
 31
0.0
  0
LINE
  5
1A0
330
1E
100
AcDbEntity
  8
CENTER
100
AcDbLine
 10
14.11788707259699
 20
30.07533665227731
 30
0.0
 11
14.11788707259699
 21
30.25533665227731
 31
0.0
  0
ARC
  5
1A1
330
1E
100
AcDbEntity
  8
OBJECT
100
AcDbCircle
 10
14.52438707259697
 20
30.16533665227731
 30
0.0
 40
0.0935
100
AcDbArc
 50
270.0
 51
90.0
  0
LINE
  5
1A2
330
1E
100
AcDbEntity
  8
OBJECT
100
AcDbLine
 10
13.71138707259698
 20
30.25883665227731
 30
0.0
 11
14.52438707259697
 21
30.25883665227731
 31
0.0
  0
LINE
  5
1A3
330
1E
100
AcDbEntity
  8
OBJECT
100
AcDbLine
 10
14.52438707259697
 20
30.07183665227731
 30
0.0
 11
13.71138707259698
 21
30.07183665227731
 31
0.0
  0
LINE
  5
1A4
330
1E
100
AcDbEntity
  8
OBJECT
100
AcDbLine
 10
16.02438707259698
 20
30.32183665227731
 30
0.0
 11
15.21138707259699
 21
30.32183665227731
 31
0.0
  0
LINE
  5
1A5
330
1E
100
AcDbEntity
  8
OBJECT
100
AcDbLine
 10
15.21138707259699
 20
30.50883665227731
 30
0.0
 11
16.02438707259698
 21
30.50883665227731
 31
0.0
  0
ARC
  5
1A6
330
1E
100
AcDbEntity
  8
OBJECT
100
AcDbCircle
 10
16.02438707259698
 20
30.41533665227731
 30
0.0
 40
0.0935
100
AcDbArc
 50
270.0
 51
90.0
  0
LINE
  5
1A7
330
1E
100
AcDbEntity
  8
CENTER
100
AcDbLine
 10
15.61788707259699
 20
30.32533665227731
 30
0.0
 11
15.61788707259699
 21
30.50533665227731
 31
0.0
  0
LINE
  5
1A8
330
1E
100
AcDbEntity
  8
CENTER
100
AcDbLine
 10
15.52788707259698
 20
30.41533665227731
 30
0.0
 11
15.70788707259698
 21
30.41533665227731
 31
0.0
  0
ARC
  5
1A9
330
1E
100
AcDbEntity
  8
OBJECT
100
AcDbCircle
 10
15.21138707259698
 20
30.41533665227731
 30
0.0
 40
0.0935
100
AcDbArc
 50
90.0
 51
270.0
  0
ARC
  5
1AA
330
1E
100
AcDbEntity
  8
OBJECT
100
AcDbCircle
 10
15.21138707259698
 20
44.72833665227731
 30
0.0
 40
0.0935
100
AcDbArc
 50
90.0
 51
270.0
  0
LINE
  5
1AB
330
1E
100
AcDbEntity
  8
CENTER
100
AcDbLine
 10
15.52788707259698
 20
44.72833665227731
 30
0.0
 11
15.70788707259698
 21
44.72833665227731
 31
0.0
  0
LINE
  5
1AC
330
1E
100
AcDbEntity
  8
CENTER
100
AcDbLine
 10
15.61788707259699
 20
44.6383366522773
 30
0.0
 11
15.61788707259699
 21
44.81833665227731
 31
0.0
  0
ARC
  5
1AD
330
1E
100
AcDbEntity
  8
OBJECT
100
AcDbCircle
 10
16.02438707259698
 20
44.72833665227731
 30
0.0
 40
0.0935
100
AcDbArc
 50
270.0
 51
90.0
  0
LINE
  5
1AE
330
1E
100
AcDbEntity
  8
OBJECT
100
AcDbLine
 10
15.21138707259699
 20
44.8218366522773
 30
0.0
 11
16.02438707259698
 21
44.8218366522773
 31
0.0
  0
LINE
  5
1AF
330
1E
100
AcDbEntity
  8
OBJECT
100
AcDbLine
 10
16.02438707259698
 20
44.6348366522773
 30
0.0
 11
15.21138707259699
 21
44.6348366522773
 31
0.0
  0
LINE
  5
1B0
330
1E
100
AcDbEntity
  8
OBJECT
100
AcDbLine
 10
14.52438707259697
 20
44.38483665227731
 30
0.0
 11
13.71138707259698
 21
44.38483665227731
 31
0.0
  0
LINE
  5
1B1
330
1E
100
AcDbEntity
  8
OBJECT
100
AcDbLine
 10
13.71138707259698
 20
44.5718366522773
 30
0.0
 11
14.52438707259697
 21
44.5718366522773
 31
0.0
  0
ARC
  5
1B2
330
1E
100
AcDbEntity
  8
OBJECT
100
AcDbCircle
 10
14.52438707259697
 20
44.47833665227731
 30
0.0
 40
0.0935
100
AcDbArc
 50
270.0
 51
90.0
  0
LINE
  5
1B3
330
1E
100
AcDbEntity
  8
CENTER
100
AcDbLine
 10
14.11788707259699
 20
44.38833665227731
 30
0.0
 11
14.11788707259699
 21
44.56833665227732
 31
0.0
  0
LINE
  5
1B4
330
1E
100
AcDbEntity
  8
CENTER
100
AcDbLine
 10
14.02788707259698
 20
44.47833665227731
 30
0.0
 11
14.20788707259698
 21
44.47833665227731
 31
0.0
  0
ARC
  5
1B5
330
1E
100
AcDbEntity
  8
OBJECT
100
AcDbCircle
 10
13.71138707259698
 20
44.47833665227731
 30
0.0
 40
0.0935
100
AcDbArc
 50
90.0
 51
270.0
  0
LINE
  5
1B6
330
1E
100
AcDbEntity
  8
CENTER
100
AcDbLine
 10
14.11788707259698
 20
30.38383665227731
 30
0.0
 11
14.11788707259699
 21
44.25983665227731
 31
0.0
  0
LINE
  5
1B7
330
1E
100
AcDbEntity
  8
CENTER
100
AcDbLine
 10
15.61788707259698
 20
30.63383665227731
 30
0.0
 11
15.61788707259699
 21
44.5098366522773
 31
0.0
  0
LINE
  5
1B8
330
1E
100
AcDbEntity
  8
CENTER
100
AcDbLine
 10
18.61788707259698
 20
30.63383665227731
 30
0.0
 11
18.61788707259699
 21
44.5098366522773
 31
0.0
  0
LINE
  5
1B9
330
1E
100
AcDbEntity
  8
CENTER
100
AcDbLine
 10
17.11788707259698
 20
30.38383665227731
 30
0.0
 11
17.11788707259699
 21
44.25983665227731
 31
0.0
  0
ARC
  5
1BA
330
1E
100
AcDbEntity
  8
OBJECT
100
AcDbCircle
 10
16.71138707259698
 20
44.47833665227731
 30
0.0
 40
0.0935
100
AcDbArc
 50
90.0
 51
270.0
  0
LINE
  5
1BB
330
1E
100
AcDbEntity
  8
CENTER
100
AcDbLine
 10
17.02788707259698
 20
44.47833665227731
 30
0.0
 11
17.20788707259699
 21
44.47833665227731
 31
0.0
  0
LINE
  5
1BC
330
1E
100
AcDbEntity
  8
CENTER
100
AcDbLine
 10
17.11788707259699
 20
44.38833665227731
 30
0.0
 11
17.11788707259699
 21
44.56833665227732
 31
0.0
  0
ARC
  5
1BD
330
1E
100
AcDbEntity
  8
OBJECT
100
AcDbCircle
 10
17.52438707259698
 20
44.47833665227731
 30
0.0
 40
0.0935
100
AcDbArc
 50
270.0
 51
90.0
  0
LINE
  5
1BE
330
1E
100
AcDbEntity
  8
OBJECT
100
AcDbLine
 10
16.71138707259699
 20
44.5718366522773
 30
0.0
 11
17.52438707259698
 21
44.5718366522773
 31
0.0
  0
LINE
  5
1BF
330
1E
100
AcDbEntity
  8
OBJECT
100
AcDbLine
 10
17.52438707259698
 20
44.38483665227731
 30
0.0
 11
16.71138707259699
 21
44.38483665227731
 31
0.0
  0
LINE
  5
1C0
330
1E
100
AcDbEntity
  8
OBJECT
100
AcDbLine
 10
19.02438707259697
 20
44.6348366522773
 30
0.0
 11
18.21138707259699
 21
44.6348366522773
 31
0.0
  0
LINE
  5
1C1
330
1E
100
AcDbEntity
  8
OBJECT
100
AcDbLine
 10
18.21138707259699
 20
44.8218366522773
 30
0.0
 11
19.02438707259697
 21
44.8218366522773
 31
0.0
  0
ARC
  5
1C2
330
1E
100
AcDbEntity
  8
OBJECT
100
AcDbCircle
 10
19.02438707259697
 20
44.72833665227731
 30
0.0
 40
0.0935
100
AcDbArc
 50
270.0
 51
90.0
  0
LINE
  5
1C3
330
1E
100
AcDbEntity
  8
CENTER
100
AcDbLine
 10
18.61788707259699
 20
44.6383366522773
 30
0.0
 11
18.61788707259699
 21
44.81833665227731
 31
0.0
  0
LINE
  5
1C4
330
1E
100
AcDbEntity
  8
CENTER
100
AcDbLine
 10
18.52788707259699
 20
44.72833665227731
 30
0.0
 11
18.70788707259698
 21
44.72833665227731
 31
0.0
  0
ARC
  5
1C5
330
1E
100
AcDbEntity
  8
OBJECT
100
AcDbCircle
 10
18.21138707259699
 20
44.72833665227731
 30
0.0
 40
0.0935
100
AcDbArc
 50
90.0
 51
270.0
  0
ARC
  5
1C6
330
1E
100
AcDbEntity
  8
OBJECT
100
AcDbCircle
 10
18.21138707259699
 20
30.41533665227731
 30
0.0
 40
0.0935
100
AcDbArc
 50
90.0
 51
270.0
  0
LINE
  5
1C7
330
1E
100
AcDbEntity
  8
CENTER
100
AcDbLine
 10
18.52788707259699
 20
30.41533665227731
 30
0.0
 11
18.70788707259698
 21
30.41533665227731
 31
0.0
  0
LINE
  5
1C8
330
1E
100
AcDbEntity
  8
CENTER
100
AcDbLine
 10
18.61788707259699
 20
30.32533665227731
 30
0.0
 11
18.61788707259699
 21
30.50533665227731
 31
0.0
  0
ARC
  5
1C9
330
1E
100
AcDbEntity
  8
OBJECT
100
AcDbCircle
 10
19.02438707259697
 20
30.41533665227731
 30
0.0
 40
0.0935
100
AcDbArc
 50
270.0
 51
90.0
  0
LINE
  5
1CA
330
1E
100
AcDbEntity
  8
OBJECT
100
AcDbLine
 10
18.21138707259699
 20
30.50883665227731
 30
0.0
 11
19.02438707259697
 21
30.50883665227731
 31
0.0
  0
LINE
  5
1CB
330
1E
100
AcDbEntity
  8
OBJECT
100
AcDbLine
 10
19.02438707259697
 20
30.32183665227731
 30
0.0
 11
18.21138707259699
 21
30.32183665227731
 31
0.0
  0
LINE
  5
1CC
330
1E
100
AcDbEntity
  8
OBJECT
100
AcDbLine
 10
17.52438707259698
 20
30.07183665227731
 30
0.0
 11
16.71138707259699
 21
30.07183665227731
 31
0.0
  0
LINE
  5
1CD
330
1E
100
AcDbEntity
  8
OBJECT
100
AcDbLine
 10
16.71138707259699
 20
30.25883665227731
 30
0.0
 11
17.52438707259698
 21
30.25883665227731
 31
0.0
  0
ARC
  5
1CE
330
1E
100
AcDbEntity
  8
OBJECT
100
AcDbCircle
 10
17.52438707259698
 20
30.16533665227731
 30
0.0
 40
0.0935
100
AcDbArc
 50
270.0
 51
90.0
  0
LINE
  5
1CF
330
1E
100
AcDbEntity
  8
CENTER
100
AcDbLine
 10
17.11788707259699
 20
30.07533665227731
 30
0.0
 11
17.11788707259699
 21
30.25533665227731
 31
0.0
  0
LINE
  5
1D0
330
1E
100
AcDbEntity
  8
CENTER
100
AcDbLine
 10
17.02788707259698
 20
30.16533665227731
 30
0.0
 11
17.20788707259699
 21
30.16533665227731
 31
0.0
  0
ARC
  5
1D1
330
1E
100
AcDbEntity
  8
OBJECT
100
AcDbCircle
 10
16.71138707259698
 20
30.16533665227731
 30
0.0
 40
0.0935
100
AcDbArc
 50
90.0
 51
270.0
  0
ARC
  5
1D2
330
1E
100
AcDbEntity
  8
OBJECT
100
AcDbCircle
 10
36.11838707259698
 20
18.66238338983647
 30
0.0
 40
0.125
100
AcDbArc
 50
0.0
 51
90.0
  0
ARC
  5
1D3
330
1E
100
AcDbEntity
  8
OBJECT
100
AcDbCircle
 10
10.11738707259698
 20
18.66238338983647
 30
0.0
 40
0.125
100
AcDbArc
 50
90.0
 51
180.0
  0
LINE
  5
1D4
330
1E
100
AcDbEntity
  8
CENTER
100
AcDbLine
 10
16.71483151259698
 20
18.35038338983645
 30
0.0
 11
16.53483151259698
 21
18.35038338983645
 31
0.0
  0
LINE
  5
1D5
330
1E
100
AcDbEntity
  8
CENTER
100
AcDbLine
 10
16.62483151259698
 20
18.26038338983646
 30
0.0
 11
16.62483151259698
 21
18.44038338983646
 31
0.0
  0
LINE
  5
1D6
330
1E
100
AcDbEntity
  8
OBJECT
100
AcDbLine
 10
16.34383151259699
 20
18.47538338983645
 30
0.0
 11
16.90583151259698
 21
18.47538338983645
 31
0.0
  0
LINE
  5
1D7
330
1E
100
AcDbEntity
  8
OBJECT
100
AcDbLine
 10
16.90583151259698
 20
18.22538338983646
 30
0.0
 11
16.34383151259699
 21
18.22538338983646
 31
0.0
  0
ARC
  5
1D8
330
1E
100
AcDbEntity
  8
OBJECT
100
AcDbCircle
 10
16.34383151259698
 20
18.35038338983645
 30
0.0
 40
0.125
100
AcDbArc
 50
89.99999999999957
 51
270.0000000000004
  0
ARC
  5
1D9
330
1E
100
AcDbEntity
  8
OBJECT
100
AcDbCircle
 10
16.90583151259698
 20
18.35038338983645
 30
0.0
 40
0.125
100
AcDbArc
 50
269.9999999999996
 51
90.0000000000004
  0
ARC
  5
1DA
330
1E
100
AcDbEntity
  8
OBJECT
100
AcDbCircle
 10
14.30860929259698
 20
18.35038338983645
 30
0.0
 40
0.125
100
AcDbArc
 50
269.9999999999996
 51
90.0000000000004
  0
ARC
  5
1DB
330
1E
100
AcDbEntity
  8
OBJECT
100
AcDbCircle
 10
13.74660929259698
 20
18.35038338983645
 30
0.0
 40
0.125
100
AcDbArc
 50
89.99999999999957
 51
270.0000000000004
  0
LINE
  5
1DC
330
1E
100
AcDbEntity
  8
OBJECT
100
AcDbLine
 10
14.30860929259698
 20
18.22538338983646
 30
0.0
 11
13.74660929259699
 21
18.22538338983646
 31
0.0
  0
LINE
  5
1DD
330
1E
100
AcDbEntity
  8
OBJECT
100
AcDbLine
 10
13.74660929259699
 20
18.47538338983645
 30
0.0
 11
14.30860929259698
 21
18.47538338983645
 31
0.0
  0
LINE
  5
1DE
330
1E
100
AcDbEntity
  8
CENTER
100
AcDbLine
 10
14.02760929259698
 20
18.26038338983646
 30
0.0
 11
14.02760929259698
 21
18.44038338983646
 31
0.0
  0
LINE
  5
1DF
330
1E
100
AcDbEntity
  8
CENTER
100
AcDbLine
 10
14.11760929259698
 20
18.35038338983645
 30
0.0
 11
13.93760929259698
 21
18.35038338983645
 31
0.0
  0
LINE
  5
1E0
330
1E
100
AcDbEntity
  8
CENTER
100
AcDbLine
 10
19.31205373259698
 20
18.35038338983645
 30
0.0
 11
19.13205373259698
 21
18.35038338983645
 31
0.0
  0
LINE
  5
1E1
330
1E
100
AcDbEntity
  8
CENTER
100
AcDbLine
 10
19.22205373259698
 20
18.26038338983646
 30
0.0
 11
19.22205373259698
 21
18.44038338983646
 31
0.0
  0
LINE
  5
1E2
330
1E
100
AcDbEntity
  8
OBJECT
100
AcDbLine
 10
18.94105373259699
 20
18.47538338983645
 30
0.0
 11
19.50305373259698
 21
18.47538338983645
 31
0.0
  0
LINE
  5
1E3
330
1E
100
AcDbEntity
  8
OBJECT
100
AcDbLine
 10
19.50305373259698
 20
18.22538338983646
 30
0.0
 11
18.94105373259699
 21
18.22538338983646
 31
0.0
  0
ARC
  5
1E4
330
1E
100
AcDbEntity
  8
OBJECT
100
AcDbCircle
 10
18.94105373259698
 20
18.35038338983645
 30
0.0
 40
0.125
100
AcDbArc
 50
89.99999999999957
 51
270.0000000000004
  0
ARC
  5
1E5
330
1E
100
AcDbEntity
  8
OBJECT
100
AcDbCircle
 10
19.50305373259698
 20
18.35038338983645
 30
0.0
 40
0.125
100
AcDbArc
 50
269.9999999999996
 51
90.0000000000004
  0
LINE
  5
1E6
330
1E
100
AcDbEntity
  8
CENTER
100
AcDbLine
 10
32.29816483259697
 20
18.35038338983645
 30
0.0
 11
32.11816483259696
 21
18.35038338983645
 31
0.0
  0
LINE
  5
1E7
330
1E
100
AcDbEntity
  8
CENTER
100
AcDbLine
 10
32.20816483259697
 20
18.26038338983646
 30
0.0
 11
32.20816483259697
 21
18.44038338983646
 31
0.0
  0
LINE
  5
1E8
330
1E
100
AcDbEntity
  8
OBJECT
100
AcDbLine
 10
31.92716483259697
 20
18.47538338983645
 30
0.0
 11
32.48916483259696
 21
18.47538338983645
 31
0.0
  0
LINE
  5
1E9
330
1E
100
AcDbEntity
  8
OBJECT
100
AcDbLine
 10
32.48916483259696
 20
18.22538338983646
 30
0.0
 11
31.92716483259697
 21
18.22538338983646
 31
0.0
  0
ARC
  5
1EA
330
1E
100
AcDbEntity
  8
OBJECT
100
AcDbCircle
 10
31.92716483259697
 20
18.35038338983645
 30
0.0
 40
0.125
100
AcDbArc
 50
89.99999999999957
 51
270.0000000000004
  0
ARC
  5
1EB
330
1E
100
AcDbEntity
  8
OBJECT
100
AcDbCircle
 10
32.48916483259696
 20
18.35038338983645
 30
0.0
 40
0.125
100
AcDbArc
 50
269.9999999999996
 51
90.0000000000004
  0
LINE
  5
1EC
330
1E
100
AcDbEntity
  8
CENTER
100
AcDbLine
 10
29.70094261259696
 20
18.35038338983645
 30
0.0
 11
29.52094261259696
 21
18.35038338983645
 31
0.0
  0
LINE
  5
1ED
330
1E
100
AcDbEntity
  8
CENTER
100
AcDbLine
 10
29.61094261259696
 20
18.26038338983646
 30
0.0
 11
29.61094261259696
 21
18.44038338983646
 31
0.0
  0
LINE
  5
1EE
330
1E
100
AcDbEntity
  8
OBJECT
100
AcDbLine
 10
29.32994261259696
 20
18.47538338983645
 30
0.0
 11
29.89194261259696
 21
18.47538338983645
 31
0.0
  0
LINE
  5
1EF
330
1E
100
AcDbEntity
  8
OBJECT
100
AcDbLine
 10
29.89194261259696
 20
18.22538338983646
 30
0.0
 11
29.32994261259696
 21
18.22538338983646
 31
0.0
  0
ARC
  5
1F0
330
1E
100
AcDbEntity
  8
OBJECT
100
AcDbCircle
 10
29.32994261259695
 20
18.35038338983645
 30
0.0
 40
0.125
100
AcDbArc
 50
89.99999999999957
 51
270.0000000000004
  0
ARC
  5
1F1
330
1E
100
AcDbEntity
  8
OBJECT
100
AcDbCircle
 10
29.89194261259696
 20
18.35038338983645
 30
0.0
 40
0.125
100
AcDbArc
 50
269.9999999999996
 51
90.0000000000004
  0
ARC
  5
1F2
330
1E
100
AcDbEntity
  8
OBJECT
100
AcDbCircle
 10
11.71138707259697
 20
18.35038338983645
 30
0.0
 40
0.125
100
AcDbArc
 50
269.9999999999996
 51
90.0000000000004
  0
ARC
  5
1F3
330
1E
100
AcDbEntity
  8
OBJECT
100
AcDbCircle
 10
11.14938707259698
 20
18.35038338983645
 30
0.0
 40
0.125
100
AcDbArc
 50
89.99999999999957
 51
270.0000000000004
  0
LINE
  5
1F4
330
1E
100
AcDbEntity
  8
OBJECT
100
AcDbLine
 10
11.71138707259698
 20
18.22538338983646
 30
0.0
 11
11.14938707259699
 21
18.22538338983646
 31
0.0
  0
LINE
  5
1F5
330
1E
100
AcDbEntity
  8
OBJECT
100
AcDbLine
 10
11.14938707259699
 20
18.47538338983645
 30
0.0
 11
11.71138707259698
 21
18.47538338983645
 31
0.0
  0
LINE
  5
1F6
330
1E
100
AcDbEntity
  8
CENTER
100
AcDbLine
 10
11.43038707259698
 20
18.26038338983646
 30
0.0
 11
11.43038707259698
 21
18.44038338983646
 31
0.0
  0
LINE
  5
1F7
330
1E
100
AcDbEntity
  8
CENTER
100
AcDbLine
 10
11.52038707259698
 20
18.35038338983645
 30
0.0
 11
11.34038707259698
 21
18.35038338983645
 31
0.0
  0
ARC
  5
1F8
330
1E
100
AcDbEntity
  8
OBJECT
100
AcDbCircle
 10
22.10027595259698
 20
18.35038338983645
 30
0.0
 40
0.125
100
AcDbArc
 50
269.9999999999996
 51
90.0000000000004
  0
ARC
  5
1F9
330
1E
100
AcDbEntity
  8
OBJECT
100
AcDbCircle
 10
21.53827595259698
 20
18.35038338983645
 30
0.0
 40
0.125
100
AcDbArc
 50
89.99999999999957
 51
270.0000000000004
  0
LINE
  5
1FA
330
1E
100
AcDbEntity
  8
OBJECT
100
AcDbLine
 10
22.10027595259698
 20
18.22538338983646
 30
0.0
 11
21.53827595259699
 21
18.22538338983646
 31
0.0
  0
LINE
  5
1FB
330
1E
100
AcDbEntity
  8
OBJECT
100
AcDbLine
 10
21.53827595259699
 20
18.47538338983645
 30
0.0
 11
22.10027595259698
 21
18.47538338983645
 31
0.0
  0
LINE
  5
1FC
330
1E
100
AcDbEntity
  8
CENTER
100
AcDbLine
 10
21.81927595259698
 20
18.26038338983646
 30
0.0
 11
21.81927595259698
 21
18.44038338983646
 31
0.0
  0
LINE
  5
1FD
330
1E
100
AcDbEntity
  8
CENTER
100
AcDbLine
 10
21.90927595259698
 20
18.35038338983645
 30
0.0
 11
21.72927595259698
 21
18.35038338983645
 31
0.0
  0
ARC
  5
1FE
330
1E
100
AcDbEntity
  8
OBJECT
100
AcDbCircle
 10
24.69749817259698
 20
18.35038338983645
 30
0.0
 40
0.125
100
AcDbArc
 50
269.9999999999996
 51
90.0000000000004
  0
ARC
  5
1FF
330
1E
100
AcDbEntity
  8
OBJECT
100
AcDbCircle
 10
24.13549817259698
 20
18.35038338983645
 30
0.0
 40
0.125
100
AcDbArc
 50
89.99999999999957
 51
270.0000000000004
  0
LINE
  5
200
330
1E
100
AcDbEntity
  8
OBJECT
100
AcDbLine
 10
24.69749817259698
 20
18.22538338983646
 30
0.0
 11
24.13549817259699
 21
18.22538338983646
 31
0.0
  0
LINE
  5
201
330
1E
100
AcDbEntity
  8
OBJECT
100
AcDbLine
 10
24.13549817259699
 20
18.47538338983645
 30
0.0
 11
24.69749817259698
 21
18.47538338983645
 31
0.0
  0
LINE
  5
202
330
1E
100
AcDbEntity
  8
CENTER
100
AcDbLine
 10
24.41649817259698
 20
18.26038338983646
 30
0.0
 11
24.41649817259698
 21
18.44038338983646
 31
0.0
  0
LINE
  5
203
330
1E
100
AcDbEntity
  8
CENTER
100
AcDbLine
 10
24.50649817259698
 20
18.35038338983645
 30
0.0
 11
24.32649817259698
 21
18.35038338983645
 31
0.0
  0
ARC
  5
204
330
1E
100
AcDbEntity
  8
OBJECT
100
AcDbCircle
 10
27.29472039259697
 20
18.35038338983645
 30
0.0
 40
0.125
100
AcDbArc
 50
269.9999999999996
 51
90.0000000000004
  0
ARC
  5
205
330
1E
100
AcDbEntity
  8
OBJECT
100
AcDbCircle
 10
26.73272039259698
 20
18.35038338983645
 30
0.0
 40
0.125
100
AcDbArc
 50
89.99999999999957
 51
270.0000000000004
  0
LINE
  5
206
330
1E
100
AcDbEntity
  8
OBJECT
100
AcDbLine
 10
27.29472039259697
 20
18.22538338983646
 30
0.0
 11
26.73272039259698
 21
18.22538338983646
 31
0.0
  0
LINE
  5
207
330
1E
100
AcDbEntity
  8
OBJECT
100
AcDbLine
 10
26.73272039259698
 20
18.47538338983645
 30
0.0
 11
27.29472039259697
 21
18.47538338983645
 31
0.0
  0
LINE
  5
208
330
1E
100
AcDbEntity
  8
CENTER
100
AcDbLine
 10
27.01372039259698
 20
18.26038338983646
 30
0.0
 11
27.01372039259698
 21
18.44038338983646
 31
0.0
  0
LINE
  5
209
330
1E
100
AcDbEntity
  8
CENTER
100
AcDbLine
 10
27.10372039259697
 20
18.35038338983645
 30
0.0
 11
26.92372039259697
 21
18.35038338983645
 31
0.0
  0
ARC
  5
20A
330
1E
100
AcDbEntity
  8
OBJECT
100
AcDbCircle
 10
35.08638707259698
 20
18.35038338983645
 30
0.0
 40
0.125
100
AcDbArc
 50
269.9999999999996
 51
90.0000000000004
  0
ARC
  5
20B
330
1E
100
AcDbEntity
  8
OBJECT
100
AcDbCircle
 10
34.52438707259698
 20
18.35038338983645
 30
0.0
 40
0.125
100
AcDbArc
 50
89.99999999999957
 51
270.0000000000004
  0
LINE
  5
20C
330
1E
100
AcDbEntity
  8
OBJECT
100
AcDbLine
 10
35.08638707259698
 20
18.22538338983646
 30
0.0
 11
34.52438707259698
 21
18.22538338983646
 31
0.0
  0
LINE
  5
20D
330
1E
100
AcDbEntity
  8
OBJECT
100
AcDbLine
 10
34.52438707259698
 20
18.47538338983645
 30
0.0
 11
35.08638707259698
 21
18.47538338983645
 31
0.0
  0
LINE
  5
20E
330
1E
100
AcDbEntity
  8
CENTER
100
AcDbLine
 10
34.80538707259698
 20
18.26038338983646
 30
0.0
 11
34.80538707259698
 21
18.44038338983646
 31
0.0
  0
LINE
  5
20F
330
1E
100
AcDbEntity
  8
CENTER
100
AcDbLine
 10
34.89538707259698
 20
18.35038338983645
 30
0.0
 11
34.71538707259699
 21
18.35038338983645
 31
0.0
  0
LINE
  5
210
330
1E
100
AcDbEntity
  8
OBJECT
100
AcDbLine
 10
36.24338707259699
 20
17.89738338983647
 30
0.0
 11
36.24338707259698
 21
18.66238338983647
 31
0.0
  0
LINE
  5
211
330
1E
100
AcDbEntity
  8
OBJECT
100
AcDbLine
 10
9.992387072596988
 20
18.66238338983647
 30
0.0
 11
9.992387072596988
 21
17.89738338983647
 31
0.0
  0
LINE
  5
212
330
1E
100
AcDbEntity
  8
OBJECT
100
AcDbLine
 10
36.11838707259698
 20
18.78738338983647
 30
0.0
 11
10.11738707259698
 21
18.78738338983647
 31
0.0
  0
LINE
  5
213
330
1E
100
AcDbEntity
  8
OBJECT
100
AcDbLine
 10
9.992387072596988
 20
17.95938338983646
 30
0.0
 11
9.867887072596991
 21
17.95938338983646
 31
0.0
  0
LINE
  5
214
330
1E
100
AcDbEntity
  8
HIDDEN
100
AcDbLine
 10
36.24338707259699
 20
17.95938338983646
 30
0.0
 11
9.992387072596988
 21
17.95938338983646
 31
0.0
  0
LINE
  5
215
330
1E
100
AcDbEntity
  8
OBJECT
100
AcDbLine
 10
9.867887072596991
 20
28.57233665227731
 30
0.0
 11
9.867887072596991
 21
46.32233665227731
 31
0.0
  0
LINE
  5
216
330
1E
100
AcDbEntity
  8
OBJECT
100
AcDbLine
 10
36.36788707259698
 20
28.57233665227731
 30
0.0
 11
36.36788707259698
 21
46.32233665227731
 31
0.0
  0
LINE
  5
217
330
1E
100
AcDbEntity
  8
HIDDEN
100
AcDbLine
 10
9.992387072596988
 20
28.57233665227731
 30
0.0
 11
10.24288707259699
 21
28.57233665227731
 31
0.0
  0
LINE
  5
218
330
1E
100
AcDbEntity
  8
HIDDEN
100
AcDbLine
 10
36.24338707259698
 20
28.57233665227731
 30
0.0
 11
35.99288707259697
 21
28.57233665227731
 31
0.0
  0
LINE
  5
219
330
1E
100
AcDbEntity
  8
HIDDEN
100
AcDbLine
 10
36.30588707259698
 20
28.57233665227731
 30
0.0
 11
36.30588707259698
 21
46.32233665227731
 31
0.0
  0
LINE
  5
21A
330
1E
100
AcDbEntity
  8
OBJECT
100
AcDbLine
 10
36.24338707259698
 20
28.49433665227731
 30
0.0
 11
9.992387072596988
 21
28.49433665227731
 31
0.0
  0
LINE
  5
21B
330
1E
100
AcDbEntity
  8
HIDDEN
100
AcDbLine
 10
9.929887072596988
 20
28.57233665227731
 30
0.0
 11
9.929887072596988
 21
46.32233665227731
 31
0.0
  0
LINE
  5
21C
330
1E
100
AcDbEntity
  8
OBJECT
100
AcDbLine
 10
36.24338707259698
 20
28.55633665227732
 30
0.0
 11
9.992387072596988
 21
28.55633665227732
 31
0.0
  0
LINE
  5
21D
330
1E
100
AcDbEntity
  8
OBJECT
100
AcDbLine
 10
36.24338707259698
 20
46.33833665227732
 30
0.0
 11
9.992387072596988
 21
46.33833665227732
 31
0.0
  0
LINE
  5
21E
330
1E
100
AcDbEntity
  8
OBJECT
100
AcDbLine
 10
36.24338707259698
 20
46.40033665227732
 30
0.0
 11
9.992387072596988
 21
46.40033665227732
 31
0.0
  0
LINE
  5
21F
330
1E
100
AcDbEntity
  8
HIDDEN
100
AcDbLine
 10
36.24338707259698
 20
46.32233665227732
 30
0.0
 11
35.99288707259697
 21
46.32233665227732
 31
0.0
  0
LINE
  5
220
330
1E
100
AcDbEntity
  8
HIDDEN
100
AcDbLine
 10
9.992387072596988
 20
46.32233665227731
 30
0.0
 11
10.24288707259699
 21
46.32233665227731
 31
0.0
  0
LINE
  5
221
330
1E
100
AcDbEntity
  8
OBJECT
100
AcDbLine
 10
36.24338707259698
 20
46.32233665227732
 30
0.0
 11
36.36788707259698
 21
46.32233665227732
 31
0.0
  0
LINE
  5
222
330
1E
100
AcDbEntity
  8
OBJECT
100
AcDbLine
 10
9.992387072596988
 20
46.32233665227731
 30
0.0
 11
9.992387072596988
 21
46.40033665227732
 31
0.0
  0
LINE
  5
223
330
1E
100
AcDbEntity
  8
OBJECT
100
AcDbLine
 10
36.24338707259699
 20
46.40033665227732
 30
0.0
 11
36.24338707259698
 21
46.32233665227732
 31
0.0
  0
LINE
  5
224
330
1E
100
AcDbEntity
  8
OBJECT
100
AcDbLine
 10
9.867887072596991
 20
46.32233665227731
 30
0.0
 11
9.992387072596988
 21
46.32233665227731
 31
0.0
  0
LINE
  5
225
330
1E
100
AcDbEntity
  8
OBJECT
100
AcDbLine
 10
42.31696814884496
 20
28.57233665227731
 30
0.0
 11
42.31696814884496
 21
46.32233665227731
 31
0.0
  0
LINE
  5
226
330
1E
100
AcDbEntity
  8
OBJECT
100
AcDbLine
 10
41.56696814884496
 20
46.32233665227731
 30
0.0
 11
42.31696814884496
 21
46.32233665227731
 31
0.0
  0
LINE
  5
227
330
1E
100
AcDbEntity
  8
OBJECT
100
AcDbLine
 10
41.56696814884496
 20
28.57233665227731
 30
0.0
 11
42.31696814884496
 21
28.57233665227731
 31
0.0
  0
LINE
  5
228
330
1E
100
AcDbEntity
  8
OBJECT
100
AcDbLine
 10
41.62896814884496
 20
46.32233665227731
 30
0.0
 11
41.62896814884496
 21
46.40033665227732
 31
0.0
  0
LINE
  5
229
330
1E
100
AcDbEntity
  8
HIDDEN
100
AcDbLine
 10
41.62896814884496
 20
28.57233665227731
 30
0.0
 11
41.62896814884495
 21
46.32233665227731
 31
0.0
  0
LINE
  5
22A
330
1E
100
AcDbEntity
  8
HIDDEN
100
AcDbLine
 10
42.25496814884496
 20
28.57233665227731
 30
0.0
 11
42.25496814884496
 21
46.32233665227731
 31
0.0
  0
INSERT
  5
22B
330
1E
100
AcDbEntity
  8
OBJECT
100
AcDbBlockReference
  2
HB
 10
0.0
 20
0.0
 30
0.0
 41
4.5
 42
4.5
 43
4.5
  0
LINE
  5
22C
330
1E
100
AcDbEntity
  8
TITLE
100
AcDbLine
 10
0.2789999999999893
 20
1.215000000000005
 30
0.0
 11
45.26100000000001
 21
1.214999999999997
 31
0.0
  0
LINE
  5
22D
330
1E
100
AcDbEntity
  8
TITLE
100
AcDbLine
 10
0.2789999999999893
 20
2.151000000000005
 30
0.0
 11
45.26100000000001
 21
2.150999999999997
 31
0.0
  0
LINE
  5
22E
330
1E
100
AcDbEntity
  8
TITLE
100
AcDbLine
 10
0.2789999999999894
 20
3.087000000000005
 30
0.0
 11
45.26100000000001
 21
3.086999999999997
 31
0.0
  0
LINE
  5
22F
330
1E
100
AcDbEntity
  8
TITLE
100
AcDbLine
 10
0.2789999999999895
 20
4.023000000000005
 30
0.0
 11
45.26100000000001
 21
4.022999999999997
 31
0.0
  0
LINE
  5
230
330
1E
100
AcDbEntity
  8
TITLE
100
AcDbLine
 10
0.2789999999999895
 20
4.959000000000004
 30
0.0
 11
45.26100000000001
 21
4.958999999999996
 31
0.0
  0
LINE
  5
231
330
1E
100
AcDbEntity
  8
TITLE
100
AcDbLine
 10
0.2789999999999896
 20
5.895000000000004
 30
0.0
 11
45.26100000000001
 21
5.894999999999996
 31
0.0
  0
LINE
  5
232
330
1E
100
AcDbEntity
  8
TITLE
100
AcDbLine
 10
0.2789999999999897
 20
6.831000000000004
 30
0.0
 11
45.26100000000001
 21
6.830999999999996
 31
0.0
  0
LINE
  5
233
330
1E
100
AcDbEntity
  8
TITLE
100
AcDbLine
 10
0.2789999999999897
 20
7.767000000000004
 30
0.0
 11
45.26100000000001
 21
7.766999999999996
 31
0.0
  0
LINE
  5
234
330
1E
100
AcDbEntity
  8
TITLE
100
AcDbLine
 10
4.778999999999989
 20
8.703000000000002
 30
0.0
 11
4.778999999999989
 21
0.2790000000000041
 31
0.0
  0
LINE
  5
235
330
1E
100
AcDbEntity
  8
TITLE
100
AcDbLine
 10
0.2789999999999899
 20
10.575
 30
0.0
 11
45.26100000000001
 21
10.57499999999999
 31
0.0
  0
LINE
  5
236
330
1E
100
AcDbEntity
  8
TITLE
100
AcDbLine
 10
9.278999999999989
 20
10.575
 30
0.0
 11
9.278999999999989
 21
0.279000000000003
 31
0.0
  0
LINE
  5
237
330
1E
100
AcDbEntity
  8
TITLE
100
AcDbLine
 10
0.2789999999999897
 20
8.703000000000004
 30
0.0
 11
9.278999999999989
 21
8.703000000000002
 31
0.0
  0
LINE
  5
238
330
1E
100
AcDbEntity
  8
TITLE
100
AcDbLine
 10
41.989
 20
0.2789999999999976
 30
0.0
 11
41.989
 21
10.57499999999999
 31
0.0
  0
LINE
  5
239
330
1E
100
AcDbEntity
  8
TITLE
100
AcDbLine
 10
38.71700000000001
 20
0.278999999999998
 30
0.0
 11
38.71700000000001
 21
10.57499999999999
 31
0.0
  0
LINE
  5
23A
330
1E
100
AcDbEntity
  8
TITLE
100
AcDbLine
 10
35.44500000000002
 20
0.2789999999999981
 30
0.0
 11
35.44500000000002
 21
10.57499999999999
 31
0.0
  0
LINE
  5
23B
330
1E
100
AcDbEntity
  8
TITLE
100
AcDbLine
 10
28.92627703763769
 20
0.2789999999999981
 30
0.0
 11
28.92627703763769
 21
10.57499999999999
 31
0.0
  0
LINE
  5
23C
330
1E
100
AcDbEntity
  8
TITLE
100
AcDbLine
 10
25.62900000000002
 20
0.2789999999999996
 30
0.0
 11
25.62900000000002
 21
10.57499999999999
 31
0.0
  0
LINE
  5
23D
330
1E
100
AcDbEntity
  8
TITLE
100
AcDbLine
 10
22.35700000000002
 20
0.279
 30
0.0
 11
22.35700000000002
 21
10.57499999999999
 31
0.0
  0
LINE
  5
23E
330
1E
100
AcDbEntity
  8
TITLE
100
AcDbLine
 10
19.08500000000002
 20
0.2790000000000004
 30
0.0
 11
19.08500000000002
 21
10.57499999999999
 31
0.0
  0
LINE
  5
23F
330
1E
100
AcDbEntity
  8
TITLE
100
AcDbLine
 10
15.81300000000002
 20
0.2790000000000008
 30
0.0
 11
15.81300000000002
 21
10.57499999999999
 31
0.0
  0
LINE
  5
240
330
1E
100
AcDbEntity
  8
TITLE
100
AcDbLine
 10
12.54100000000002
 20
0.2790000000000012
 30
0.0
 11
12.54100000000002
 21
10.57499999999999
 31
0.0
  0
LINE
  5
241
330
1E
100
AcDbEntity
  8
OBJECT
100
AcDbLine
 10
26.68043230344583
 20
52.22048492163239
 30
0.0
 11
43.52213426350451
 21
56.73320536099577
 31
0.0
  0
LINE
  5
242
330
1E
100
AcDbEntity
  8
OBJECT
100
AcDbLine
 10
41.74078629270997
 20
57.21051611120898
 30
0.0
 11
29.8142607315511
 21
60.40621900383065
 31
0.0
  0
LINE
  5
243
330
1E
100
AcDbEntity
  8
OBJECT
100
AcDbLine
 10
12.9885587714924
 20
55.8559856775269
 30
0.0
 11
26.54043230344581
 21
52.22477210871129
 31
0.0
  0
LINE
  5
244
330
1E
100
AcDbEntity
  8
OBJECT
100
AcDbLine
 10
12.9885587714924
 20
55.07952854221933
 30
0.0
 11
26.54043230344582
 21
51.44831497340373
 31
0.0
  0
LINE
  5
245
330
1E
100
AcDbEntity
  8
OBJECT
100
AcDbLine
 10
26.68043230344582
 20
53.14188072219736
 30
0.0
 11
43.52213426350451
 21
57.65460116156075
 31
0.0
  0
LINE
  5
246
330
1E
100
AcDbEntity
  8
OBJECT
100
AcDbLine
 10
29.81426073155109
 20
61.32761480439562
 30
0.0
 11
12.97255877149239
 21
56.81489436503223
 31
0.0
  0
LINE
  5
247
330
1E
100
AcDbEntity
  8
OBJECT
100
AcDbLine
 10
43.52213426350451
 20
56.73320536099577
 30
0.0
 11
43.52213426350451
 21
57.65460116156075
 31
0.0
  0
LINE
  5
248
330
1E
100
AcDbEntity
  8
OBJECT
100
AcDbLine
 10
12.97255877149239
 20
55.82931144128185
 30
0.0
 11
12.97255877149239
 21
56.81489436503223
 31
0.0
  0
LINE
  5
249
330
1E
100
AcDbEntity
  8
OBJECT
100
AcDbLine
 10
26.61843230344583
 20
52.23709777156311
 30
0.0
 11
26.61843230344582
 21
53.15849357212808
 31
0.0
  0
LINE
  5
24A
330
1E
100
AcDbEntity
  8
OBJECT
100
AcDbLine
 10
26.68043230344582
 20
53.14188072219735
 30
0.0
 11
26.61843230344582
 21
53.15849357212808
 31
0.0
  0
LINE
  5
24B
330
1E
100
AcDbEntity
  8
OBJECT
100
AcDbLine
 10
13.03244617272231
 20
55.86774527124436
 30
0.0
 11
13.03244617272231
 21
56.79884758423588
 31
0.0
  0
LINE
  5
24C
330
1E
100
AcDbEntity
  8
OBJECT
100
AcDbLine
 10
29.87414813278101
 20
61.31156802359925
 30
0.0
 11
13.03244617272232
 21
56.79884758423588
 31
0.0
  0
LINE
  5
24D
330
1E
100
AcDbEntity
  8
OBJECT
100
AcDbLine
 10
29.8142607315511
 20
60.40621900383065
 30
0.0
 11
29.87414813278103
 21
60.39017222303429
 31
0.0
  0
LINE
  5
24E
330
1E
100
AcDbEntity
  8
OBJECT
100
AcDbLine
 10
29.87414813278103
 20
60.39017222303429
 30
0.0
 11
29.87414813278101
 21
61.31156802359925
 31
0.0
  0
LINE
  5
24F
330
1E
100
AcDbEntity
  8
OBJECT
100
AcDbLine
 10
29.81426073155109
 20
61.32761480439562
 30
0.0
 11
29.87414813278101
 21
61.31156802359925
 31
0.0
  0
LINE
  5
250
330
1E
100
AcDbEntity
  8
OBJECT
100
AcDbLine
 10
13.03244617272232
 20
56.79884758423588
 30
0.0
 11
12.97255877149239
 21
56.81489436503223
 31
0.0
  0
LINE
  5
251
330
1E
100
AcDbEntity
  8
OBJECT
100
AcDbLine
 10
26.6184323034458
 20
53.15849357212809
 30
0.0
 11
43.46013426350451
 21
57.67121401149148
 31
0.0
  0
LINE
  5
252
330
1E
100
AcDbEntity
  8
OBJECT
100
AcDbLine
 10
43.52213426350451
 20
57.65460116156075
 30
0.0
 11
43.46013426350451
 21
57.67121401149148
 31
0.0
  0
LINE
  5
253
330
1E
100
AcDbEntity
  8
OBJECT
100
AcDbLine
 10
26.54043230344582
 20
52.22477210871129
 30
0.0
 11
26.54043230344582
 21
51.44831497340373
 31
0.0
  0
LINE
  5
254
330
1E
100
AcDbEntity
  8
OBJECT
100
AcDbLine
 10
12.9885587714924
 20
55.07952854221933
 30
0.0
 11
12.9885587714924
 21
55.8559856775269
 31
0.0
  0
LINE
  5
255
330
1E
100
AcDbEntity
  8
OBJECT
100
AcDbLine
 10
12.97255877149239
 20
55.82931144128185
 30
0.0
 11
12.9885587714924
 21
55.82502425420296
 31
0.0
  0
LINE
  5
256
330
1E
100
AcDbEntity
  8
OBJECT
100
AcDbLine
 10
26.54043230344582
 20
51.44831497340373
 30
0.0
 11
26.90265448830422
 21
51.54537211531716
 31
0.0
  0
LINE
  5
257
330
1E
100
AcDbEntity
  8
OBJECT
100
AcDbLine
 10
26.90265448830422
 20
51.54537211531717
 30
0.0
 11
26.90265448830422
 21
51.60737211531717
 31
0.0
  0
LINE
  5
258
330
1E
100
AcDbEntity
  8
OBJECT
100
AcDbLine
 10
26.60243230344581
 20
51.52692782333445
 30
0.0
 11
26.90265448830422
 21
51.60737211531717
 31
0.0
  0
LINE
  5
259
330
1E
100
AcDbEntity
  8
OBJECT
100
AcDbLine
 10
26.60243230344581
 20
52.24138495864202
 30
0.0
 11
26.60243230344581
 21
51.52692782333445
 31
0.0
  0
LINE
  5
25A
330
1E
100
AcDbEntity
  8
OBJECT
100
AcDbLine
 10
26.60243230344581
 20
51.6878164072999
 30
0.0
 11
26.90265448830422
 21
51.60737211531717
 31
0.0
  0
LINE
  5
25B
330
1E
100
AcDbEntity
  8
OBJECT
100
AcDbLine
 10
26.54043230344582
 20
52.22477210871129
 30
0.0
 11
26.60243230344583
 21
52.24138495864202
 31
0.0
  0
LINE
  5
25C
330
1E
100
AcDbEntity
  8
OBJECT
100
AcDbLine
 10
26.60243230344583
 20
52.24138495864202
 30
0.0
 11
26.68043230344583
 21
52.22048492163239
 31
0.0
  0
LINE
  5
25D
330
1E
100
AcDbEntity
  8
OBJECT
100
AcDbLine
 10
26.68043230344583
 20
52.22048492163239
 30
0.0
 11
26.68043230344583
 21
53.14188072219735
 31
0.0
  0
LINE
  5
25E
330
1E
100
AcDbEntity
  8
OBJECT
100
AcDbLine
 10
29.89226073155112
 20
60.38531896682101
 30
0.0
 11
12.9885587714924
 21
55.8559856775269
 31
0.0
  0
LINE
  5
25F
330
1E
100
AcDbEntity
  8
OBJECT
100
AcDbLine
 10
43.52213426350451
 20
56.73320536099577
 30
0.0
 11
43.52213426350451
 21
55.98320536099577
 31
0.0
  0
LINE
  5
260
330
1E
100
AcDbEntity
  8
OBJECT
100
AcDbLine
 10
43.52213426350451
 20
55.98320536099577
 30
0.0
 11
43.15991207864611
 21
55.88614821908231
 31
0.0
  0
LINE
  5
261
330
1E
100
AcDbEntity
  8
OBJECT
100
AcDbLine
 10
43.15991207864612
 20
55.88614821908232
 30
0.0
 11
43.15991207864612
 21
55.94814821908232
 31
0.0
  0
LINE
  5
262
330
1E
100
AcDbEntity
  8
OBJECT
100
AcDbLine
 10
43.46013426350451
 20
56.02859251106504
 30
0.0
 11
43.15991207864612
 21
55.94814821908232
 31
0.0
  0
LINE
  5
263
330
1E
100
AcDbEntity
  8
OBJECT
100
AcDbLine
 10
43.46013426350451
 20
56.71659251106504
 30
0.0
 11
43.46013426350451
 21
56.02859251106504
 31
0.0
  0
LINE
  5
264
330
1E
100
AcDbEntity
  8
OBJECT
100
AcDbLine
 10
43.15991207864612
 20
55.94814821908232
 30
0.0
 11
41.87608660084241
 21
56.29214821908231
 31
0.0
  0
LINE
  5
265
330
1E
100
AcDbEntity
  8
OBJECT
100
AcDbLine
 10
43.15991207864612
 20
55.88614821908232
 30
0.0
 11
41.76039302580778
 21
56.26114821908232
 31
0.0
  0
LINE
  5
266
330
1E
100
AcDbEntity
  8
OBJECT
100
AcDbLine
 10
43.46013426350451
 20
56.02859251106504
 30
0.0
 11
42.17630878570082
 21
56.37259251106502
 31
0.0
  0
SOLID
  5
267
330
1E
100
AcDbEntity
  8
DIM
100
AcDbTrace
 10
35.63470524564579
 20
19.08667070452931
 30
0.0
 11
35.40681108017521
 21
19.23146106796715
 31
0.0
 12
35.08638707259697
 22
18.47538338983645
 32
0.0
 13
35.08638707259697
 23
18.47538338983645
 33
0.0
  0
LINE
  5
268
330
1E
100
AcDbEntity
  8
DIM
100
AcDbLine
 10
35.5207581629105
 20
19.15906588624823
 30
0.0
 11
38.17208632673625
 21
23.33214899024313
 31
0.0
  0
LINE
  5
269
330
1E
100
AcDbEntity
  8
DIM
100
AcDbLine
 10
38.17208632673625
 20
23.33214899024313
 30
0.0
 11
38.98208632673625
 21
23.33214899024313
 31
0.0
  0
TEXT
  5
26A
330
1E
100
AcDbEntity
  8
DIM
100
AcDbText
 10
39.28088634173191
 20
23.02106439631719
 30
0.0
 40
0.5620000000000001
  1
0.250 x 0.812
 41
0.75
100
AcDbText
  0
TEXT
  5
26B
330
1E
100
AcDbEntity
  8
DIM
100
AcDbText
 10
39.28088634173191
 20
22.08439772965052
 30
0.0
 40
0.5620000000000001
  1
OBLONG
 41
0.75
100
AcDbText
  0
TEXT
  5
26C
330
1E
100
AcDbEntity
  8
DIM
100
AcDbText
 10
39.28088634173191
 20
21.14773106298385
 30
0.0
 40
0.5620000000000001
  1
(F) HOLES
 41
0.75
100
AcDbText
  0
SOLID
  5
26D
330
1E
100
AcDbEntity
  8
DIM
100
AcDbTrace
 10
35.61348560835433
 20
29.3837221781644
 30
0.0
 11
35.81446836056897
 21
29.56401619723388
 31
0.0
 12
35.17309492725321
 22
30.07681744434307
 32
0.0
 13
35.17309492725321
 23
30.07681744434307
 33
0.0
  0
LINE
  5
26E
330
1E
100
AcDbEntity
  8
DIM
100
AcDbLine
 10
35.71397698446165
 20
29.47386918769914
 30
0.0
 11
37.78071596545895
 21
26.96359408832921
 31
0.0
  0
LINE
  5
26F
330
1E
100
AcDbEntity
  8
DIM
100
AcDbLine
 10
37.78071596545895
 20
26.96359408832921
 30
0.0
 11
38.59071596545896
 21
26.96359408832921
 31
0.0
  0
TEXT
  5
270
330
1E
100
AcDbEntity
  8
DIM
100
AcDbText
 10
38.88951598045461
 20
26.65250949440327
 30
0.0
 40
0.5620000000000001
  1
0.187 x 1.000
 41
0.75
100
AcDbText
  0
TEXT
  5
271
330
1E
100
AcDbEntity
  8
DIM
100
AcDbText
 10
38.88951598045461
 20
25.7158428277366
 30
0.0
 40
0.5620000000000001
  1
OBLONG
 41
0.75
100
AcDbText
  0
TEXT
  5
272
330
1E
100
AcDbEntity
  8
DIM
100
AcDbText
 10
38.88951598045461
 20
24.77917616106993
 30
0.0
 40
0.5620000000000001
  1
(K) HOLES
 41
0.75
100
AcDbText
  0
TEXT
  5
273
330
1E
100
AcDbEntity
  8
TEXT
100
AcDbText
 10
11.9835
 20
68.179
 30
0.0
 40
0.7020000000000001
  1
SHELF
 41
0.75
 72
     1
 11
13.21200000000001
 21
68.179
 31
0.0
100
AcDbText
  0
TEXT
  5
274
330
1E
100
AcDbEntity
  8
TEXT
100
AcDbText
 10
30.66525
 20
68.179
 30
0.0
 40
0.7020000000000001
  1
SH-2379  TO  SH-2486
 41
0.75
 72
     1
 11
35.8425
 21
68.179
 31
0.0
100
AcDbText
  0
TEXT
  5
275
330
1E
100
AcDbEntity
  8
TEXT
100
AcDbText
 10
1.309757306559623
 20
64.82603482983723
 30
0.0
 40
0.5620000000000001
  1
%%uMATERIAL:%%u 16 GA. STEEL
 41
0.75
100
AcDbText
  0
TEXT
  5
276
330
1E
100
AcDbEntity
  8
TEXT
100
AcDbText
 10
1.309757306559623
 20
62.95270149650389
 30
0.0
 40
0.5620000000000001
  1
%%uFINISH:
 41
0.75
100
AcDbText
  0
TEXT
  5
277
330
1E
100
AcDbEntity
  8
TEXT
100
AcDbText
 10
1.995820657614665
 20
62.01603482983722
 30
0.0
 40
0.5620000000000001
  1
SMOOTH BLACK
 41
0.75
100
AcDbText
  0
TEXT
  5
278
330
1E
100
AcDbEntity
  8
TEXT
100
AcDbText
 10
3.303749999999989
 20
9.358000000000004
 30
0.0
 40
0.5620000000000001
  1
PART NO.
 41
0.75
 72
     1
 11
4.778999999999989
 21
9.358000000000004
 31
0.0
100
AcDbText
  0
TEXT
  5
279
330
1E
100
AcDbEntity
  8
TEXT
100
AcDbText
 10
1.615749999999989
 20
7.954000000000005
 30
0.0
 40
0.5620000000000001
  1
PLAIN
 41
0.75
 72
     1
 11
2.52899999999999
 21
7.954000000000005
 31
0.0
100
AcDbText
  0
TEXT
  5
27A
330
1E
100
AcDbEntity
  8
TEXT
100
AcDbText
 10
1.123999999999989
 20
7.017333333333338
 30
0.0
 40
0.5620000000000001
  1
SH-2379
 41
0.75
 72
     1
 11
2.52899999999999
 21
7.017333333333338
 31
0.0
100
AcDbText
  0
TEXT
  5
27B
330
1E
100
AcDbEntity
  8
TEXT
100
AcDbText
 10
1.123999999999989
 20
4.208666666666672
 30
0.0
 40
0.5620000000000001
  1
SH-2382
 41
0.75
 72
     1
 11
2.52899999999999
 21
4.208666666666672
 31
0.0
100
AcDbText
  0
TEXT
  5
27C
330
1E
100
AcDbEntity
  8
TEXT
100
AcDbText
 10
1.12399999999999
 20
3.272000000000005
 30
0.0
 40
0.5620000000000001
  1
SH-2479
 41
0.75
 72
     1
 11
2.52899999999999
 21
3.272000000000005
 31
0.0
100
AcDbText
  0
TEXT
  5
27D
330
1E
100
AcDbEntity
  8
TEXT
100
AcDbText
 10
1.159124999999989
 20
2.335333333333339
 30
0.0
 40
0.5620000000000001
  1
SH-2480
 41
0.75
 72
     1
 11
2.52899999999999
 21
2.335333333333339
 31
0.0
100
AcDbText
  0
TEXT
  5
27E
330
1E
100
AcDbEntity
  8
TEXT
100
AcDbText
 10
1.19424999999999
 20
1.398666666666672
 30
0.0
 40
0.5620000000000001
  1
SH-2481
 41
0.75
 72
     1
 11
2.52899999999999
 21
1.398666666666672
 31
0.0
100
AcDbText
  0
TEXT
  5
27F
330
1E
100
AcDbEntity
  8
TEXT
100
AcDbText
 10
1.12399999999999
 20
0.462000000000006
 30
0.0
 40
0.5620000000000001
  1
SH-2482
 41
0.75
 72
     1
 11
2.52899999999999
 21
0.462000000000006
 31
0.0
100
AcDbText
  0
LINE
  5
280
330
1E
100
AcDbEntity
  8
TEXT
100
AcDbLine
 10
1.303823881126767
 20
6.363000000000004
 30
0.0
 11
3.741218236722165
 21
6.363000000000004
 31
0.0
  0
TEXT
  5
281
330
1E
100
AcDbEntity
  8
TEXT
100
AcDbText
 10
5.764499999999989
 20
7.954000000000004
 30
0.0
 40
0.5620000000000001
  1
VENTED
 41
0.75
 72
     1
 11
7.028999999999989
 21
7.954000000000004
 31
0.0
100
AcDbText
  0
TEXT
  5
282
330
1E
100
AcDbEntity
  8
TEXT
100
AcDbText
 10
5.623999999999989
 20
7.017333333333337
 30
0.0
 40
0.5620000000000001
  1
SH-2383
 41
0.75
 72
     1
 11
7.028999999999989
 21
7.017333333333337
 31
0.0
100
AcDbText
  0
TEXT
  5
283
330
1E
100
AcDbEntity
  8
TEXT
100
AcDbText
 10
5.623999999999989
 20
6.080666666666671
 30
0.0
 40
0.5620000000000001
  1
SH-2384
 41
0.75
 72
     1
 11
7.028999999999989
 21
6.080666666666671
 31
0.0
100
AcDbText
  0
TEXT
  5
284
330
1E
100
AcDbEntity
  8
TEXT
100
AcDbText
 10
5.623999999999989
 20
5.144000000000004
 30
0.0
 40
0.5620000000000001
  1
SH-2385
 41
0.75
 72
     1
 11
7.028999999999989
 21
5.144000000000004
 31
0.0
100
AcDbText
  0
TEXT
  5
285
330
1E
100
AcDbEntity
  8
TEXT
100
AcDbText
 10
5.623999999999989
 20
4.207333333333338
 30
0.0
 40
0.5620000000000001
  1
SH-2386
 41
0.75
 72
     1
 11
7.028999999999989
 21
4.207333333333338
 31
0.0
100
AcDbText
  0
TEXT
  5
286
330
1E
100
AcDbEntity
  8
TEXT
100
AcDbText
 10
5.623999999999989
 20
3.270666666666671
 30
0.0
 40
0.5620000000000001
  1
SH-2483
 41
0.75
 72
     1
 11
7.028999999999989
 21
3.270666666666671
 31
0.0
100
AcDbText
  0
TEXT
  5
287
330
1E
100
AcDbEntity
  8
TEXT
100
AcDbText
 10
5.623999999999989
 20
2.334000000000004
 30
0.0
 40
0.5620000000000001
  1
SH-2484
 41
0.75
 72
     1
 11
7.028999999999989
 21
2.334000000000004
 31
0.0
100
AcDbText
  0
TEXT
  5
288
330
1E
100
AcDbEntity
  8
TEXT
100
AcDbText
 10
5.623999999999989
 20
1.397333333333338
 30
0.0
 40
0.5620000000000001
  1
SH-2485
 41
0.75
 72
     1
 11
7.028999999999989
 21
1.397333333333338
 31
0.0
100
AcDbText
  0
TEXT
  5
289
330
1E
100
AcDbEntity
  8
TEXT
100
AcDbText
 10
5.623999999999989
 20
0.4606666666666715
 30
0.0
 40
0.5620000000000001
  1
SH-2486
 41
0.75
 72
     1
 11
7.028999999999989
 21
0.4606666666666715
 31
0.0
100
AcDbText
  0
TEXT
  5
28A
330
1E
100
AcDbEntity
  8
TEXT
100
AcDbText
 10
10.7695
 20
8.890000000000004
 30
0.0
 40
0.5620000000000001
  1
A
 41
0.75
 72
     1
 11
10.91
 21
8.890000000000004
 31
0.0
100
AcDbText
  0
TEXT
  5
28B
330
1E
100
AcDbEntity
  8
TEXT
100
AcDbText
 10
14.03650000000002
 20
8.890000000000004
 30
0.0
 40
0.5620000000000001
  1
B
 41
0.75
 72
     1
 11
14.17700000000002
 21
8.890000000000004
 31
0.0
100
AcDbText
  0
TEXT
  5
28C
330
1E
100
AcDbEntity
  8
TEXT
100
AcDbText
 10
17.30850000000002
 20
8.890000000000004
 30
0.0
 40
0.5620000000000001
  1
C
 41
0.75
 72
     1
 11
17.44900000000002
 21
8.890000000000004
 31
0.0
100
AcDbText
  0
TEXT
  5
28D
330
1E
100
AcDbEntity
  8
TEXT
100
AcDbText
 10
20.58050000000002
 20
8.890000000000004
 30
0.0
 40
0.5620000000000001
  1
D
 41
0.75
 72
     1
 11
20.72100000000002
 21
8.890000000000004
 31
0.0
100
AcDbText
  0
TEXT
  5
28E
330
1E
100
AcDbEntity
  8
TEXT
100
AcDbText
 10
23.85250000000002
 20
8.890000000000002
 30
0.0
 40
0.5620000000000001
  1
E
 41
0.75
 72
     1
 11
23.99300000000001
 21
8.890000000000002
 31
0.0
100
AcDbText
  0
TEXT
  5
28F
330
1E
100
AcDbEntity
  8
TEXT
100
AcDbText
 10
27.04866888708696
 20
8.890000000000002
 30
0.0
 40
0.5620000000000001
  1
F
 41
0.75
 72
     1
 11
27.18916888708696
 21
8.890000000000002
 31
0.0
100
AcDbText
  0
TEXT
  5
290
330
1E
100
AcDbEntity
  8
TEXT
100
AcDbText
 10
30.44705407527539
 20
8.89
 30
0.0
 40
0.5620000000000001
  1
G
 41
0.75
 72
     1
 11
30.58755407527538
 21
8.89
 31
0.0
100
AcDbText
  0
TEXT
  5
291
330
1E
100
AcDbEntity
  8
TEXT
100
AcDbText
 10
33.66850000000001
 20
8.89
 30
0.0
 40
0.5620000000000001
  1
H
 41
0.75
 72
     1
 11
33.80900000000001
 21
8.89
 31
0.0
100
AcDbText
  0
TEXT
  5
292
330
1E
100
AcDbEntity
  8
TEXT
100
AcDbText
 10
36.96629727863718
 20
8.89
 30
0.0
 40
0.5620000000000001
  1
I
 41
0.75
 72
     1
 11
37.03654727863718
 21
8.89
 31
0.0
100
AcDbText
  0
TEXT
  5
293
330
1E
100
AcDbEntity
  8
TEXT
100
AcDbText
 10
40.21250000000001
 20
8.889999999999998
 30
0.0
 40
0.5620000000000001
  1
J
 41
0.75
 72
     1
 11
40.35300000000001
 21
8.889999999999998
 31
0.0
100
AcDbText
  0
TEXT
  5
294
330
1E
100
AcDbEntity
  8
TEXT
100
AcDbText
 10
43.48450000000001
 20
8.889999999999997
 30
0.0
 40
0.5620000000000001
  1
K
 41
0.75
 72
     1
 11
43.62500000000001
 21
8.889999999999997
 31
0.0
100
AcDbText
  0
TEXT
  5
295
330
1E
100
AcDbEntity
  8
TEXT
100
AcDbText
 10
9.961625000000005
 20
7.018000000000004
 30
0.0
 40
0.5620000000000001
  1
17.906
 41
0.75
 72
     1
 11
10.91
 21
7.018000000000004
 31
0.0
100
AcDbText
  0
TEXT
  5
296
330
1E
100
AcDbEntity
  8
TEXT
100
AcDbText
 10
9.961625000000005
 20
4.208000000000004
 30
0.0
 40
0.5620000000000001
  1
17.906
 41
0.75
 72
     1
 11
10.91
 21
4.208000000000004
 31
0.0
100
AcDbText
  0
TEXT
  5
297
330
1E
100
AcDbEntity
  8
TEXT
100
AcDbText
 10
9.891375000000005
 20
3.271333333333338
 30
0.0
 40
0.5620000000000001
  1
22.906
 41
0.75
 72
     1
 11
10.91
 21
3.271333333333338
 31
0.0
100
AcDbText
  0
TEXT
  5
298
330
1E
100
AcDbEntity
  8
TEXT
100
AcDbText
 10
9.891375000000005
 20
0.4613333333333381
 30
0.0
 40
0.5620000000000001
  1
22.906
 41
0.75
 72
     1
 11
10.91
 21
0.4613333333333381
 31
0.0
100
AcDbText
  0
TEXT
  5
299
330
1E
100
AcDbEntity
  8
TEXT
100
AcDbText
 10
13.22862500000002
 20
7.018000000000004
 30
0.0
 40
0.5620000000000001
  1
14.250
 41
0.75
 72
     1
 11
14.17700000000002
 21
7.018000000000004
 31
0.0
100
AcDbText
  0
TEXT
  5
29A
330
1E
100
AcDbEntity
  8
TEXT
100
AcDbText
 10
13.22862500000002
 20
6.081333333333337
 30
0.0
 40
0.5620000000000001
  1
17.750
 41
0.75
 72
     1
 11
14.17700000000002
 21
6.081333333333337
 31
0.0
100
AcDbText
  0
TEXT
  5
29B
330
1E
100
AcDbEntity
  8
TEXT
100
AcDbText
 10
13.22862500000002
 20
5.144666666666671
 30
0.0
 40
0.5620000000000001
  1
21.250
 41
0.75
 72
     1
 11
14.17700000000002
 21
5.144666666666671
 31
0.0
100
AcDbText
  0
TEXT
  5
29C
330
1E
100
AcDbEntity
  8
TEXT
100
AcDbText
 10
13.19350000000002
 20
4.208000000000004
 30
0.0
 40
0.5620000000000001
  1
26.500
 41
0.75
 72
     1
 11
14.17700000000002
 21
4.208000000000004
 31
0.0
100
AcDbText
  0
TEXT
  5
29D
330
1E
100
AcDbEntity
  8
TEXT
100
AcDbText
 10
13.19350000000002
 20
0.4640000000000049
 30
0.0
 40
0.5620000000000001
  1
26.500
 41
0.75
 72
     1
 11
14.17700000000002
 21
0.4640000000000049
 31
0.0
100
AcDbText
  0
TEXT
  5
29E
330
1E
100
AcDbEntity
  8
TEXT
100
AcDbText
 10
13.22862500000002
 20
1.400666666666671
 30
0.0
 40
0.5620000000000001
  1
21.250
 41
0.75
 72
     1
 11
14.17700000000002
 21
1.400666666666671
 31
0.0
100
AcDbText
  0
TEXT
  5
29F
330
1E
100
AcDbEntity
  8
TEXT
100
AcDbText
 10
13.22862500000002
 20
2.337333333333337
 30
0.0
 40
0.5620000000000001
  1
17.750
 41
0.75
 72
     1
 11
14.17700000000002
 21
2.337333333333337
 31
0.0
100
AcDbText
  0
TEXT
  5
2A0
330
1E
100
AcDbEntity
  8
TEXT
100
AcDbText
 10
13.22862500000002
 20
3.274000000000004
 30
0.0
 40
0.5620000000000001
  1
14.250
 41
0.75
 72
     1
 11
14.17700000000002
 21
3.274000000000004
 31
0.0
100
AcDbText
  0
TEXT
  5
2A1
330
1E
100
AcDbEntity
  8
TEXT
100
AcDbText
 10
17.30850000000002
 20
7.018000000000005
 30
0.0
 40
0.5620000000000001
  1
4
 41
0.75
 72
     1
 11
17.44900000000002
 21
7.018000000000005
 31
0.0
100
AcDbText
  0
TEXT
  5
2A2
330
1E
100
AcDbEntity
  8
TEXT
100
AcDbText
 10
17.30850000000002
 20
6.081333333333338
 30
0.0
 40
0.5620000000000001
  1
6
 41
0.75
 72
     1
 11
17.44900000000002
 21
6.081333333333338
 31
0.0
100
AcDbText
  0
TEXT
  5
2A3
330
1E
100
AcDbEntity
  8
TEXT
100
AcDbText
 10
17.30850000000002
 20
5.144666666666672
 30
0.0
 40
0.5620000000000001
  1
7
 41
0.75
 72
     1
 11
17.44900000000002
 21
5.144666666666672
 31
0.0
100
AcDbText
  0
TEXT
  5
2A4
330
1E
100
AcDbEntity
  8
TEXT
100
AcDbText
 10
17.30850000000002
 20
4.208000000000005
 30
0.0
 40
0.5620000000000001
  1
9
 41
0.75
 72
     1
 11
17.44900000000002
 21
4.208000000000005
 31
0.0
100
AcDbText
  0
TEXT
  5
2A5
330
1E
100
AcDbEntity
  8
TEXT
100
AcDbText
 10
17.30850000000002
 20
3.271333333333338
 30
0.0
 40
0.5620000000000001
  1
4
 41
0.75
 72
     1
 11
17.44900000000002
 21
3.271333333333338
 31
0.0
100
AcDbText
  0
TEXT
  5
2A6
330
1E
100
AcDbEntity
  8
TEXT
100
AcDbText
 10
17.30850000000002
 20
2.334666666666672
 30
0.0
 40
0.5620000000000001
  1
6
 41
0.75
 72
     1
 11
17.44900000000002
 21
2.334666666666672
 31
0.0
100
AcDbText
  0
TEXT
  5
2A7
330
1E
100
AcDbEntity
  8
TEXT
100
AcDbText
 10
17.30850000000002
 20
1.398000000000005
 30
0.0
 40
0.5620000000000001
  1
7
 41
0.75
 72
     1
 11
17.44900000000002
 21
1.398000000000005
 31
0.0
100
AcDbText
  0
TEXT
  5
2A8
330
1E
100
AcDbEntity
  8
TEXT
100
AcDbText
 10
17.30850000000002
 20
0.461333333333339
 30
0.0
 40
0.5620000000000001
  1
9
 41
0.75
 72
     1
 11
17.44900000000002
 21
0.461333333333339
 31
0.0
100
AcDbText
  0
TEXT
  5
2A9
330
1E
100
AcDbEntity
  8
TEXT
100
AcDbText
 10
19.94825000000002
 20
7.018000000000005
 30
0.0
 40
0.5620000000000001
  1
2.781
 41
0.75
 72
     1
 11
20.72100000000002
 21
7.018000000000005
 31
0.0
100
AcDbText
  0
TEXT
  5
2AA
330
1E
100
AcDbEntity
  8
TEXT
100
AcDbText
 10
19.87800000000002
 20
6.081333333333338
 30
0.0
 40
0.5620000000000001
  1
2.438
 41
0.75
 72
     1
 11
20.72100000000002
 21
6.081333333333338
 31
0.0
100
AcDbText
  0
TEXT
  5
2AB
330
1E
100
AcDbEntity
  8
TEXT
100
AcDbText
 10
19.87800000000002
 20
5.144666666666672
 30
0.0
 40
0.5620000000000001
  1
2.589
 41
0.75
 72
     1
 11
20.72100000000002
 21
5.144666666666672
 31
0.0
100
AcDbText
  0
TEXT
  5
2AC
330
1E
100
AcDbEntity
  8
TEXT
100
AcDbText
 10
19.87800000000002
 20
4.208000000000005
 30
0.0
 40
0.5620000000000001
  1
2.597
 41
0.75
 72
     1
 11
20.72100000000002
 21
4.208000000000005
 31
0.0
100
AcDbText
  0
TEXT
  5
2AD
330
1E
100
AcDbEntity
  8
TEXT
100
AcDbText
 10
19.87800000000002
 20
0.4640000000000058
 30
0.0
 40
0.5620000000000001
  1
2.597
 41
0.75
 72
     1
 11
20.72100000000002
 21
0.4640000000000058
 31
0.0
100
AcDbText
  0
TEXT
  5
2AE
330
1E
100
AcDbEntity
  8
TEXT
100
AcDbText
 10
19.87800000000002
 20
1.400666666666672
 30
0.0
 40
0.5620000000000001
  1
2.589
 41
0.75
 72
     1
 11
20.72100000000002
 21
1.400666666666672
 31
0.0
100
AcDbText
  0
TEXT
  5
2AF
330
1E
100
AcDbEntity
  8
TEXT
100
AcDbText
 10
19.87800000000002
 20
2.337333333333338
 30
0.0
 40
0.5620000000000001
  1
2.438
 41
0.75
 72
     1
 11
20.72100000000002
 21
2.337333333333338
 31
0.0
100
AcDbText
  0
TEXT
  5
2B0
330
1E
100
AcDbEntity
  8
TEXT
100
AcDbText
 10
19.94825000000002
 20
3.274000000000005
 30
0.0
 40
0.5620000000000001
  1
2.781
 41
0.75
 72
     1
 11
20.72100000000002
 21
3.274000000000005
 31
0.0
100
AcDbText
  0
TEXT
  5
2B1
330
1E
100
AcDbEntity
  8
TEXT
100
AcDbText
 10
23.15000000000002
 20
7.018000000000002
 30
0.0
 40
0.5620000000000001
  1
11.125
 41
0.75
 72
     1
 11
23.99300000000001
 21
7.018000000000002
 31
0.0
100
AcDbText
  0
TEXT
  5
2B2
330
1E
100
AcDbEntity
  8
TEXT
100
AcDbText
 10
23.00950000000002
 20
6.081333333333335
 30
0.0
 40
0.5620000000000001
  1
14.625
 41
0.75
 72
     1
 11
23.99300000000001
 21
6.081333333333335
 31
0.0
100
AcDbText
  0
TEXT
  5
2B3
330
1E
100
AcDbEntity
  8
TEXT
100
AcDbText
 10
23.07975000000002
 20
5.144666666666669
 30
0.0
 40
0.5620000000000001
  1
18.125
 41
0.75
 72
     1
 11
23.99300000000001
 21
5.144666666666669
 31
0.0
100
AcDbText
  0
TEXT
  5
2B4
330
1E
100
AcDbEntity
  8
TEXT
100
AcDbText
 10
22.93925000000001
 20
4.208000000000002
 30
0.0
 40
0.5620000000000001
  1
23.375
 41
0.75
 72
     1
 11
23.99300000000001
 21
4.208000000000002
 31
0.0
100
AcDbText
  0
TEXT
  5
2B5
330
1E
100
AcDbEntity
  8
TEXT
100
AcDbText
 10
26.94329388708696
 20
7.018000000000002
 30
0.0
 40
0.5620000000000001
  1
10
 41
0.75
 72
     1
 11
27.18916888708696
 21
7.018000000000002
 31
0.0
100
AcDbText
  0
TEXT
  5
2B6
330
1E
100
AcDbEntity
  8
TEXT
100
AcDbText
 10
26.90816888708696
 20
6.081333333333335
 30
0.0
 40
0.5620000000000001
  1
14
 41
0.75
 72
     1
 11
27.18916888708696
 21
6.081333333333335
 31
0.0
100
AcDbText
  0
TEXT
  5
2B7
330
1E
100
AcDbEntity
  8
TEXT
100
AcDbText
 10
26.90816888708696
 20
5.144666666666669
 30
0.0
 40
0.5620000000000001
  1
16
 41
0.75
 72
     1
 11
27.18916888708696
 21
5.144666666666669
 31
0.0
100
AcDbText
  0
TEXT
  5
2B8
330
1E
100
AcDbEntity
  8
TEXT
100
AcDbText
 10
26.87304388708696
 20
4.208000000000002
 30
0.0
 40
0.5620000000000001
  1
20
 41
0.75
 72
     1
 11
27.18916888708696
 21
4.208000000000002
 31
0.0
100
AcDbText
  0
TEXT
  5
2B9
330
1E
100
AcDbEntity
  8
TEXT
100
AcDbText
 10
30.44705407527539
 20
7.018000000000001
 30
0.0
 40
0.5620000000000001
  1
8
 41
0.75
 72
     1
 11
30.58755407527538
 21
7.018000000000001
 31
0.0
100
AcDbText
  0
TEXT
  5
2BA
330
1E
100
AcDbEntity
  8
TEXT
100
AcDbText
 10
30.34167907527538
 20
6.081333333333335
 30
0.0
 40
0.5620000000000001
  1
10
 41
0.75
 72
     1
 11
30.58755407527538
 21
6.081333333333335
 31
0.0
100
AcDbText
  0
TEXT
  5
2BB
330
1E
100
AcDbEntity
  8
TEXT
100
AcDbText
 10
30.30655407527539
 20
5.144666666666668
 30
0.0
 40
0.5620000000000001
  1
12
 41
0.75
 72
     1
 11
30.58755407527538
 21
5.144666666666668
 31
0.0
100
AcDbText
  0
TEXT
  5
2BC
330
1E
100
AcDbEntity
  8
TEXT
100
AcDbText
 10
30.30655407527539
 20
4.208000000000001
 30
0.0
 40
0.5620000000000001
  1
16
 41
0.75
 72
     1
 11
30.58755407527538
 21
4.208000000000001
 31
0.0
100
AcDbText
  0
TEXT
  5
2BD
330
1E
100
AcDbEntity
  8
TEXT
100
AcDbText
 10
32.93087500000001
 20
7.018
 30
0.0
 40
0.5620000000000001
  1
12.000
 41
0.75
 72
     1
 11
33.80900000000001
 21
7.018
 31
0.0
100
AcDbText
  0
TEXT
  5
2BE
330
1E
100
AcDbEntity
  8
TEXT
100
AcDbText
 10
32.93087500000001
 20
6.081333333333334
 30
0.0
 40
0.5620000000000001
  1
15.000
 41
0.75
 72
     1
 11
33.80900000000001
 21
6.081333333333334
 31
0.0
100
AcDbText
  0
TEXT
  5
2BF
330
1E
100
AcDbEntity
  8
TEXT
100
AcDbText
 10
32.93087500000001
 20
5.144666666666667
 30
0.0
 40
0.5620000000000001
  1
18.000
 41
0.75
 72
     1
 11
33.80900000000001
 21
5.144666666666667
 31
0.0
100
AcDbText
  0
TEXT
  5
2C0
330
1E
100
AcDbEntity
  8
TEXT
100
AcDbText
 10
32.86062500000001
 20
4.208000000000001
 30
0.0
 40
0.5620000000000001
  1
24.000
 41
0.75
 72
     1
 11
33.80900000000001
 21
4.208000000000001
 31
0.0
100
AcDbText
  0
TEXT
  5
2C1
330
1E
100
AcDbEntity
  8
TEXT
100
AcDbText
 10
36.68529727863719
 20
7.017999999999999
 30
0.0
 40
0.5620000000000001
  1
29
 41
0.75
 72
     1
 11
37.03654727863718
 21
7.017999999999999
 31
0.0
100
AcDbText
  0
TEXT
  5
2C2
330
1E
100
AcDbEntity
  8
TEXT
100
AcDbText
 10
36.68529727863719
 20
4.208
 30
0.0
 40
0.5620000000000001
  1
29
 41
0.75
 72
     1
 11
37.03654727863718
 21
4.208
 31
0.0
100
AcDbText
  0
TEXT
  5
2C3
330
1E
100
AcDbEntity
  8
TEXT
100
AcDbText
 10
36.75554727863719
 20
3.271333333333333
 30
0.0
 40
0.5620000000000001
  1
41
 41
0.75
 72
     1
 11
37.03654727863718
 21
3.271333333333333
 31
0.0
100
AcDbText
  0
TEXT
  5
2C4
330
1E
100
AcDbEntity
  8
TEXT
100
AcDbText
 10
36.75554727863719
 20
0.4613333333333336
 30
0.0
 40
0.5620000000000001
  1
41
 41
0.75
 72
     1
 11
37.03654727863718
 21
0.4613333333333336
 31
0.0
100
AcDbText
  0
TEXT
  5
2C5
330
1E
100
AcDbEntity
  8
TEXT
100
AcDbText
 10
39.43975000000001
 20
7.017999999999998
 30
0.0
 40
0.5620000000000001
  1
14.500
 41
0.75
 72
     1
 11
40.35300000000001
 21
7.017999999999998
 31
0.0
100
AcDbText
  0
TEXT
  5
2C6
330
1E
100
AcDbEntity
  8
TEXT
100
AcDbText
 10
39.43975000000001
 20
4.207999999999999
 30
0.0
 40
0.5620000000000001
  1
14.500
 41
0.75
 72
     1
 11
40.35300000000001
 21
4.207999999999999
 31
0.0
100
AcDbText
  0
TEXT
  5
2C7
330
1E
100
AcDbEntity
  8
TEXT
100
AcDbText
 10
39.40462500000001
 20
3.271333333333332
 30
0.0
 40
0.5620000000000001
  1
20.500
 41
0.75
 72
     1
 11
40.35300000000001
 21
3.271333333333332
 31
0.0
100
AcDbText
  0
TEXT
  5
2C8
330
1E
100
AcDbEntity
  8
TEXT
100
AcDbText
 10
39.40462500000001
 20
0.4613333333333327
 30
0.0
 40
0.5620000000000001
  1
20.500
 41
0.75
 72
     1
 11
40.35300000000001
 21
0.4613333333333327
 31
0.0
100
AcDbText
  0
TEXT
  5
2C9
330
1E
100
AcDbEntity
  8
TEXT
100
AcDbText
 10
43.09812500000002
 20
7.017999999999997
 30
0.0
 40
0.5620000000000001
  1
270
 41
0.75
 72
     1
 11
43.62500000000001
 21
7.017999999999997
 31
0.0
100
AcDbText
  0
TEXT
  5
2CA
330
1E
100
AcDbEntity
  8
TEXT
100
AcDbText
 10
43.09812500000002
 20
6.08133333333333
 30
0.0
 40
0.5620000000000001
  1
330
 41
0.75
 72
     1
 11
43.62500000000001
 21
6.08133333333333
 31
0.0
100
AcDbText
  0
TEXT
  5
2CB
330
1E
100
AcDbEntity
  8
TEXT
100
AcDbText
 10
43.09812500000002
 20
5.144666666666664
 30
0.0
 40
0.5620000000000001
  1
390
 41
0.75
 72
     1
 11
43.62500000000001
 21
5.144666666666664
 31
0.0
100
AcDbText
  0
TEXT
  5
2CC
330
1E
100
AcDbEntity
  8
TEXT
100
AcDbText
 10
43.168375
 20
4.207999999999997
 30
0.0
 40
0.5620000000000001
  1
510
 41
0.75
 72
     1
 11
43.62500000000001
 21
4.207999999999997
 31
0.0
100
AcDbText
  0
TEXT
  5
2CD
330
1E
100
AcDbEntity
  8
TEXT
100
AcDbText
 10
32.86062500000001
 20
0.4640000000000013
 30
0.0
 40
0.5620000000000001
  1
24.000
 41
0.75
 72
     1
 11
33.80900000000001
 21
0.4640000000000013
 31
0.0
100
AcDbText
  0
TEXT
  5
2CE
330
1E
100
AcDbEntity
  8
TEXT
100
AcDbText
 10
32.93087500000001
 20
1.400666666666667
 30
0.0
 40
0.5620000000000001
  1
18.000
 41
0.75
 72
     1
 11
33.80900000000001
 21
1.400666666666667
 31
0.0
100
AcDbText
  0
TEXT
  5
2CF
330
1E
100
AcDbEntity
  8
TEXT
100
AcDbText
 10
32.93087500000001
 20
2.337333333333334
 30
0.0
 40
0.5620000000000001
  1
15.000
 41
0.75
 72
     1
 11
33.80900000000001
 21
2.337333333333334
 31
0.0
100
AcDbText
  0
TEXT
  5
2D0
330
1E
100
AcDbEntity
  8
TEXT
100
AcDbText
 10
32.93087500000001
 20
3.274
 30
0.0
 40
0.5620000000000001
  1
12.000
 41
0.75
 72
     1
 11
33.80900000000001
 21
3.274
 31
0.0
100
AcDbText
  0
TEXT
  5
2D1
330
1E
100
AcDbEntity
  8
TEXT
100
AcDbText
 10
30.30655407527539
 20
0.4640000000000022
 30
0.0
 40
0.5620000000000001
  1
16
 41
0.75
 72
     1
 11
30.58755407527538
 21
0.4640000000000022
 31
0.0
100
AcDbText
  0
TEXT
  5
2D2
330
1E
100
AcDbEntity
  8
TEXT
100
AcDbText
 10
30.30655407527539
 20
1.400666666666668
 30
0.0
 40
0.5620000000000001
  1
12
 41
0.75
 72
     1
 11
30.58755407527538
 21
1.400666666666668
 31
0.0
100
AcDbText
  0
TEXT
  5
2D3
330
1E
100
AcDbEntity
  8
TEXT
100
AcDbText
 10
30.34167907527538
 20
2.337333333333335
 30
0.0
 40
0.5620000000000001
  1
10
 41
0.75
 72
     1
 11
30.58755407527538
 21
2.337333333333335
 31
0.0
100
AcDbText
  0
TEXT
  5
2D4
330
1E
100
AcDbEntity
  8
TEXT
100
AcDbText
 10
30.44705407527539
 20
3.274000000000001
 30
0.0
 40
0.5620000000000001
  1
8
 41
0.75
 72
     1
 11
30.58755407527538
 21
3.274000000000001
 31
0.0
100
AcDbText
  0
TEXT
  5
2D5
330
1E
100
AcDbEntity
  8
TEXT
100
AcDbText
 10
26.87304388708696
 20
0.4640000000000031
 30
0.0
 40
0.5620000000000001
  1
20
 41
0.75
 72
     1
 11
27.18916888708696
 21
0.4640000000000031
 31
0.0
100
AcDbText
  0
TEXT
  5
2D6
330
1E
100
AcDbEntity
  8
TEXT
100
AcDbText
 10
26.90816888708696
 20
1.400666666666669
 30
0.0
 40
0.5620000000000001
  1
16
 41
0.75
 72
     1
 11
27.18916888708696
 21
1.400666666666669
 31
0.0
100
AcDbText
  0
TEXT
  5
2D7
330
1E
100
AcDbEntity
  8
TEXT
100
AcDbText
 10
26.90816888708696
 20
2.337333333333336
 30
0.0
 40
0.5620000000000001
  1
14
 41
0.75
 72
     1
 11
27.18916888708696
 21
2.337333333333336
 31
0.0
100
AcDbText
  0
TEXT
  5
2D8
330
1E
100
AcDbEntity
  8
TEXT
100
AcDbText
 10
26.94329388708696
 20
3.274000000000002
 30
0.0
 40
0.5620000000000001
  1
10
 41
0.75
 72
     1
 11
27.18916888708696
 21
3.274000000000002
 31
0.0
100
AcDbText
  0
TEXT
  5
2D9
330
1E
100
AcDbEntity
  8
TEXT
100
AcDbText
 10
22.93925000000001
 20
0.4640000000000031
 30
0.0
 40
0.5620000000000001
  1
23.375
 41
0.75
 72
     1
 11
23.99300000000001
 21
0.4640000000000031
 31
0.0
100
AcDbText
  0
TEXT
  5
2DA
330
1E
100
AcDbEntity
  8
TEXT
100
AcDbText
 10
23.07975000000002
 20
1.400666666666669
 30
0.0
 40
0.5620000000000001
  1
18.125
 41
0.75
 72
     1
 11
23.99300000000001
 21
1.400666666666669
 31
0.0
100
AcDbText
  0
TEXT
  5
2DB
330
1E
100
AcDbEntity
  8
TEXT
100
AcDbText
 10
23.00950000000002
 20
2.337333333333336
 30
0.0
 40
0.5620000000000001
  1
14.625
 41
0.75
 72
     1
 11
23.99300000000001
 21
2.337333333333336
 31
0.0
100
AcDbText
  0
TEXT
  5
2DC
330
1E
100
AcDbEntity
  8
TEXT
100
AcDbText
 10
23.15000000000002
 20
3.274000000000002
 30
0.0
 40
0.5620000000000001
  1
11.125
 41
0.75
 72
     1
 11
23.99300000000001
 21
3.274000000000002
 31
0.0
100
AcDbText
  0
TEXT
  5
2DD
330
1E
100
AcDbEntity
  8
TEXT
100
AcDbText
 10
43.13325000000001
 20
0.4639999999999978
 30
0.0
 40
0.5620000000000001
  1
714
 41
0.75
 72
     1
 11
43.62500000000001
 21
0.4639999999999978
 31
0.0
100
AcDbText
  0
TEXT
  5
2DE
330
1E
100
AcDbEntity
  8
TEXT
100
AcDbText
 10
43.06300000000002
 20
1.400666666666664
 30
0.0
 40
0.5620000000000001
  1
546
 41
0.75
 72
     1
 11
43.62500000000001
 21
1.400666666666664
 31
0.0
100
AcDbText
  0
TEXT
  5
2DF
330
1E
100
AcDbEntity
  8
TEXT
100
AcDbText
 10
43.06300000000002
 20
2.33733333333333
 30
0.0
 40
0.5620000000000001
  1
462
 41
0.75
 72
     1
 11
43.62500000000001
 21
2.33733333333333
 31
0.0
100
AcDbText
  0
TEXT
  5
2E0
330
1E
100
AcDbEntity
  8
TEXT
100
AcDbText
 10
43.06300000000002
 20
3.273999999999997
 30
0.0
 40
0.5620000000000001
  1
378
 41
0.75
 72
     1
 11
43.62500000000001
 21
3.273999999999997
 31
0.0
100
AcDbText
  0
LINE
  5
2E1
330
1E
100
AcDbEntity
  8
TEXT
100
AcDbLine
 10
10.91
 20
5.084000000000002
 30
0.0
 11
10.91
 21
6.706000000000003
 31
0.0
  0
LINE
  5
2E2
330
1E
100
AcDbEntity
  8
TEXT
100
AcDbLine
 10
10.91
 20
1.340000000000002
 30
0.0
 11
10.91
 21
2.962000000000003
 31
0.0
  0
LINE
  5
2E3
330
1E
100
AcDbEntity
  8
TEXT
100
AcDbLine
 10
37.0315472786372
 20
5.083999999999996
 30
0.0
 11
37.0315472786372
 21
6.705999999999997
 31
0.0
  0
LINE
  5
2E4
330
1E
100
AcDbEntity
  8
TEXT
100
AcDbLine
 10
37.0315472786372
 20
1.339999999999996
 30
0.0
 11
37.0315472786372
 21
2.961999999999997
 31
0.0
  0
LINE
  5
2E5
330
1E
100
AcDbEntity
  8
TEXT
100
AcDbLine
 10
40.34800000000003
 20
5.083999999999996
 30
0.0
 11
40.34800000000003
 21
6.705999999999997
 31
0.0
  0
LINE
  5
2E6
330
1E
100
AcDbEntity
  8
TEXT
100
AcDbLine
 10
40.34800000000003
 20
1.339999999999996
 30
0.0
 11
40.34800000000003
 21
2.961999999999997
 31
0.0
  0
LWPOLYLINE
  5
2E7
330
1E
100
AcDbEntity
  8
OBJECT
100
AcDbPolyline
 90
        9
 70
     0
 43
0.0
 10
28.41453848169039
 20
53.0445330722478
 42
0.0723410840576445
 10
28.45407243412349
 20
53.07572740091391
 42
0.0587518675353573
 10
28.49108503615236
 20
53.12533889842364
 42
0.058751867535388
 10
28.51554355230114
 20
53.18219850079568
 42
0.0723410840576545
 10
28.52279165716344
 20
53.2320330722478
 42
0.1066170543910167
 10
28.51286080823636
 20
53.27807618924309
 42
0.1568512196709167
 10
28.49108503615236
 20
53.30211559372028
 42
0.1568512196707229
 10
28.45937841514128
 20
53.30895426329345
 42
0.1066170543913288
 10
28.41453848169038
 20
53.29453307224727
 42
0.0723410840576666
  0
LWPOLYLINE
  5
2F2
330
1E
100
AcDbEntity
  8
OBJECT
100
AcDbPolyline
 90
        7
 70
     0
 43
0.0
 10
27.76333185206597
 20
53.05974754300978
 42
0.0587518675353689
 10
27.73887333591719
 20
53.00288794063774
 42
0.0723410840576692
 10
27.73162523105489
 20
52.95305336918562
 42
0.106617054391043
 10
27.74155607998198
 20
52.90701025219031
 42
0.1568512196707739
 10
27.76333185206597
 20
52.88297084771314
 42
0.1568512196707348
 10
27.79503847307706
 20
52.87613217813997
 42
0.106617054390844
 10
27.83987840652795
 20
52.89055336918549
 42
0.0723410840576445
  0
LWPOLYLINE
  5
2FB
330
1E
100
AcDbEntity
  8
OBJECT
100
AcDbPolyline
 90
        3
 70
     0
 43
0.0
 10
27.83987840652795
 20
53.14055336918562
 42
0.0723410840576666
 10
27.80034445409485
 20
53.10935904051951
 42
0.0587518675353804
 10
27.76333185206597
 20
53.05974754300978
 42
0.0587518675353689
  0
LINE
  5
300
330
1E
100
AcDbEntity
  8
OBJECT
100
AcDbLine
 10
27.83987840652795
 20
53.14055336918562
 30
0.0
 11
28.41453848169038
 21
53.29453307224727
 31
0.0
  0
LINE
  5
301
330
1E
100
AcDbEntity
  8
OBJECT
100
AcDbLine
 10
28.41453848169039
 20
53.0445330722478
 30
0.0
 11
27.83987840652795
 21
52.89055336918549
 31
0.0
  0
LINE
  5
302
330
1E
100
AcDbEntity
  8
OBJECT
100
AcDbLine
 10
28.35465108046047
 20
53.06057985304416
 30
0.0
 11
27.77999100529802
 21
52.90660014998184
 31
0.0
  0
LWPOLYLINE
  5
303
330
1E
100
AcDbEntity
  8
OBJECT
100
AcDbPolyline
 90
        7
 70
     0
 43
0.0
 10
28.35465108046047
 20
53.06057985304416
 42
0.0723410840576445
 10
28.39418503289357
 20
53.09177418171027
 42
0.0587518675353573
 10
28.43119763492244
 20
53.14138567922
 42
0.058751867535388
 10
28.45565615107122
 20
53.19824528159204
 42
0.0723410840576545
 10
28.46290425593352
 20
53.24807985304416
 42
0.1066170543910167
 10
28.45297340700644
 20
53.29412297003944
 42
0.0700040084968316
 10
28.44507503232942
 20
53.30659205148278
 42
0.1568512196707229
  0
LWPOLYLINE
  5
30C
330
1E
100
AcDbEntity
  8
OBJECT
100
AcDbPolyline
 90
        2
 70
     0
 43
0.0
 10
27.74945445465913
 20
52.89454117074684
 42
0.0738809678164135
 10
27.77999100529802
 20
52.90660014998184
 42
0.0723410840576445
  0
LWPOLYLINE
  5
310
330
1E
100
AcDbEntity
  8
OBJECT
100
AcDbPolyline
 90
        2
 70
     0
 43
0.0
 10
30.10438161915188
 20
53.52554200270678
 42
0.0738809678164135
 10
30.13491816979077
 20
53.53760098194179
 42
0.0723410840576445
  0
LWPOLYLINE
  5
314
330
1E
100
AcDbEntity
  8
OBJECT
100
AcDbPolyline
 90
        7
 70
     0
 43
0.0
 10
30.70957824495322
 20
53.69158068500411
 42
0.0723410840576445
 10
30.74911219738632
 20
53.72277501367022
 42
0.0587518675353573
 10
30.78612479941519
 20
53.77238651117995
 42
0.058751867535388
 10
30.81058331556397
 20
53.82924611355199
 42
0.0723410840576545
 10
30.81783142042628
 20
53.87908068500411
 42
0.1066170543910167
 10
30.80790057149918
 20
53.92512380199939
 42
0.0700040084968316
 10
30.80000219682217
 20
53.93759288344273
 42
0.1568512196707229
  0
LINE
  5
31D
330
1E
100
AcDbEntity
  8
OBJECT
100
AcDbLine
 10
30.70957824495322
 20
53.69158068500411
 30
0.0
 11
30.13491816979077
 21
53.53760098194179
 31
0.0
  0
LINE
  5
31E
330
1E
100
AcDbEntity
  8
OBJECT
100
AcDbLine
 10
30.76946564618314
 20
53.67553390420774
 30
0.0
 11
30.19480557102069
 21
53.52155420114543
 31
0.0
  0
LINE
  5
31F
330
1E
100
AcDbEntity
  8
OBJECT
100
AcDbLine
 10
30.19480557102069
 20
53.77155420114556
 30
0.0
 11
30.76946564618314
 21
53.92553390420721
 31
0.0
  0
LWPOLYLINE
  5
320
330
1E
100
AcDbEntity
  8
OBJECT
100
AcDbPolyline
 90
        3
 70
     0
 43
0.0
 10
30.19480557102069
 20
53.77155420114556
 42
0.0723410840576666
 10
30.1552716185876
 20
53.74035987247945
 42
0.0587518675353804
 10
30.11825901655872
 20
53.69074837496972
 42
0.0587518675353689
  0
LWPOLYLINE
  5
325
330
1E
100
AcDbEntity
  8
OBJECT
100
AcDbPolyline
 90
        7
 70
     0
 43
0.0
 10
30.11825901655872
 20
53.69074837496972
 42
0.0587518675353689
 10
30.09380050040995
 20
53.63388877259769
 42
0.0723410840576692
 10
30.08655239554764
 20
53.58405420114556
 42
0.106617054391043
 10
30.09648324447473
 20
53.53801108415026
 42
0.1568512196707739
 10
30.11825901655872
 20
53.51397167967308
 42
0.1568512196707348
 10
30.14996563756981
 20
53.50713301009991
 42
0.106617054390844
 10
30.19480557102069
 20
53.52155420114543
 42
0.0723410840576445
  0
LWPOLYLINE
  5
32E
330
1E
100
AcDbEntity
  8
OBJECT
100
AcDbPolyline
 90
        9
 70
     0
 43
0.0
 10
30.76946564618314
 20
53.67553390420774
 42
0.0723410840576445
 10
30.80899959861624
 20
53.70672823287385
 42
0.0587518675353573
 10
30.84601220064511
 20
53.75633973038358
 42
0.058751867535388
 10
30.87047071679389
 20
53.81319933275563
 42
0.0723410840576545
 10
30.8777188216562
 20
53.86303390420774
 42
0.1066170543910167
 10
30.86778797272911
 20
53.90907702120303
 42
0.1568512196709167
 10
30.84601220064511
 20
53.93311642568022
 42
0.1568512196707229
 10
30.81430557963403
 20
53.93995509525339
 42
0.1066170543913288
 10
30.76946564618314
 20
53.92553390420721
 42
0.0723410840576666
  0
LWPOLYLINE
  5
339
330
1E
100
AcDbEntity
  8
OBJECT
100
AcDbPolyline
 90
        9
 70
     0
 43
0.0
 10
33.12439281067589
 20
54.30653473616769
 42
0.0723410840576445
 10
33.16392676310899
 20
54.3377290648338
 42
0.0587518675353573
 10
33.20093936513787
 20
54.38734056234353
 42
0.058751867535388
 10
33.22539788128664
 20
54.44420016471557
 42
0.0723410840576545
 10
33.23264598614895
 20
54.49403473616769
 42
0.1066170543910167
 10
33.22271513722186
 20
54.54007785316298
 42
0.1568512196709167
 10
33.20093936513787
 20
54.56411725764017
 42
0.1568512196707229
 10
33.16923274412678
 20
54.57095592721334
 42
0.1066170543913288
 10
33.12439281067588
 20
54.55653473616716
 42
0.0723410840576666
  0
LWPOLYLINE
  5
344
330
1E
100
AcDbEntity
  8
OBJECT
100
AcDbPolyline
 90
        7
 70
     0
 43
0.0
 10
32.47318618105147
 20
54.32174920692967
 42
0.0587518675353689
 10
32.44872766490269
 20
54.26488960455763
 42
0.0723410840576692
 10
32.44147956004039
 20
54.21505503310551
 42
0.106617054391043
 10
32.45141040896749
 20
54.1690119161102
 42
0.1568512196707739
 10
32.47318618105147
 20
54.14497251163303
 42
0.1568512196707348
 10
32.50489280206256
 20
54.13813384205986
 42
0.106617054390844
 10
32.54973273551344
 20
54.15255503310538
 42
0.0723410840576445
  0
LWPOLYLINE
  5
34D
330
1E
100
AcDbEntity
  8
OBJECT
100
AcDbPolyline
 90
        3
 70
     0
 43
0.0
 10
32.54973273551344
 20
54.40255503310551
 42
0.0723410840576666
 10
32.51019878308035
 20
54.3713607044394
 42
0.0587518675353804
 10
32.47318618105147
 20
54.32174920692967
 42
0.0587518675353689
  0
LINE
  5
352
330
1E
100
AcDbEntity
  8
OBJECT
100
AcDbLine
 10
32.54973273551344
 20
54.40255503310551
 30
0.0
 11
33.12439281067588
 21
54.55653473616716
 31
0.0
  0
LINE
  5
353
330
1E
100
AcDbEntity
  8
OBJECT
100
AcDbLine
 10
33.12439281067589
 20
54.30653473616769
 30
0.0
 11
32.54973273551344
 21
54.15255503310538
 31
0.0
  0
LINE
  5
354
330
1E
100
AcDbEntity
  8
OBJECT
100
AcDbLine
 10
33.06450540944597
 20
54.32258151696405
 30
0.0
 11
32.48984533428353
 21
54.16860181390173
 31
0.0
  0
LWPOLYLINE
  5
355
330
1E
100
AcDbEntity
  8
OBJECT
100
AcDbPolyline
 90
        7
 70
     0
 43
0.0
 10
33.06450540944597
 20
54.32258151696405
 42
0.0723410840576445
 10
33.10403936187907
 20
54.35377584563016
 42
0.0587518675353573
 10
33.14105196390794
 20
54.40338734313989
 42
0.058751867535388
 10
33.16551048005672
 20
54.46024694551193
 42
0.0723410840576545
 10
33.17275858491902
 20
54.51008151696405
 42
0.1066170543910167
 10
33.16282773599194
 20
54.55612463395933
 42
0.0700040084968316
 10
33.15492936131492
 20
54.56859371540267
 42
0.1568512196707229
  0
LWPOLYLINE
  5
35E
330
1E
100
AcDbEntity
  8
OBJECT
100
AcDbPolyline
 90
        2
 70
     0
 43
0.0
 10
32.45930878364463
 20
54.15654283466673
 42
0.0738809678164135
 10
32.48984533428353
 20
54.16860181390173
 42
0.0723410840576445
  0
LWPOLYLINE
  5
362
330
1E
100
AcDbEntity
  8
OBJECT
100
AcDbPolyline
 90
        2
 70
     0
 43
0.0
 10
34.81423594813738
 20
54.78754366662667
 42
0.0738809678164135
 10
34.84477249877627
 20
54.79960264586168
 42
0.0723410840576445
  0
LWPOLYLINE
  5
366
330
1E
100
AcDbEntity
  8
OBJECT
100
AcDbPolyline
 90
        7
 70
     0
 43
0.0
 10
35.41943257393872
 20
54.953582348924
 42
0.0723410840576445
 10
35.45896652637182
 20
54.98477667759011
 42
0.0587518675353573
 10
35.49597912840069
 20
55.03438817509984
 42
0.058751867535388
 10
35.52043764454947
 20
55.09124777747188
 42
0.0723410840576545
 10
35.52768574941177
 20
55.14108234892399
 42
0.1066170543910167
 10
35.51775490048469
 20
55.18712546591928
 42
0.0700040084968316
 10
35.50985652580767
 20
55.19959454736262
 42
0.1568512196707229
  0
LINE
  5
36F
330
1E
100
AcDbEntity
  8
OBJECT
100
AcDbLine
 10
35.41943257393872
 20
54.953582348924
 30
0.0
 11
34.84477249877627
 21
54.79960264586168
 31
0.0
  0
LINE
  5
370
330
1E
100
AcDbEntity
  8
OBJECT
100
AcDbLine
 10
35.47931997516864
 20
54.93753556812763
 30
0.0
 11
34.90465990000619
 21
54.78355586506532
 31
0.0
  0
LINE
  5
371
330
1E
100
AcDbEntity
  8
OBJECT
100
AcDbLine
 10
34.90465990000619
 20
55.03355586506545
 30
0.0
 11
35.47931997516863
 21
55.1875355681271
 31
0.0
  0
LWPOLYLINE
  5
372
330
1E
100
AcDbEntity
  8
OBJECT
100
AcDbPolyline
 90
        3
 70
     0
 43
0.0
 10
34.90465990000619
 20
55.03355586506545
 42
0.0723410840576666
 10
34.8651259475731
 20
55.00236153639934
 42
0.0587518675353804
 10
34.82811334554422
 20
54.95275003888961
 42
0.0587518675353689
  0
LWPOLYLINE
  5
377
330
1E
100
AcDbEntity
  8
OBJECT
100
AcDbPolyline
 90
        7
 70
     0
 43
0.0
 10
34.82811334554422
 20
54.95275003888961
 42
0.0587518675353689
 10
34.80365482939545
 20
54.89589043651758
 42
0.0723410840576692
 10
34.79640672453314
 20
54.84605586506545
 42
0.106617054391043
 10
34.80633757346024
 20
54.80001274807015
 42
0.1568512196707739
 10
34.82811334554422
 20
54.77597334359297
 42
0.1568512196707348
 10
34.85981996655531
 20
54.7691346740198
 42
0.106617054390844
 10
34.90465990000619
 20
54.78355586506532
 42
0.0723410840576445
  0
LWPOLYLINE
  5
380
330
1E
100
AcDbEntity
  8
OBJECT
100
AcDbPolyline
 90
        9
 70
     0
 43
0.0
 10
35.47931997516864
 20
54.93753556812763
 42
0.0723410840576445
 10
35.51885392760174
 20
54.96872989679374
 42
0.0587518675353573
 10
35.55586652963062
 20
55.01834139430347
 42
0.058751867535388
 10
35.58032504577939
 20
55.07520099667551
 42
0.0723410840576545
 10
35.5875731506417
 20
55.12503556812763
 42
0.1066170543910167
 10
35.57764230171461
 20
55.17107868512292
 42
0.1568512196709167
 10
35.55586652963062
 20
55.19511808960011
 42
0.1568512196707229
 10
35.52415990861953
 20
55.20195675917328
 42
0.1066170543913288
 10
35.47931997516863
 20
55.1875355681271
 42
0.0723410840576666
  0
LWPOLYLINE
  5
38B
330
1E
100
AcDbEntity
  8
OBJECT
100
AcDbPolyline
 90
        9
 70
     0
 43
0.0
 10
37.83424713966139
 20
55.56853640008758
 42
0.0723410840576445
 10
37.87378109209448
 20
55.59973072875369
 42
0.0587518675353573
 10
37.91079369412337
 20
55.64934222626342
 42
0.058751867535388
 10
37.93525221027215
 20
55.70620182863546
 42
0.0723410840576545
 10
37.94250031513445
 20
55.75603640008758
 42
0.1066170543910167
 10
37.93256946620736
 20
55.80207951708286
 42
0.1568512196709167
 10
37.91079369412337
 20
55.82611892156005
 42
0.1568512196707229
 10
37.87908707311228
 20
55.83295759113322
 42
0.1066170543913288
 10
37.83424713966138
 20
55.81853640008705
 42
0.0723410840576666
  0
LWPOLYLINE
  5
396
330
1E
100
AcDbEntity
  8
OBJECT
100
AcDbPolyline
 90
        7
 70
     0
 43
0.0
 10
37.18304051003697
 20
55.58375087084955
 42
0.0587518675353689
 10
37.1585819938882
 20
55.52689126847752
 42
0.0723410840576692
 10
37.15133388902589
 20
55.4770566970254
 42
0.106617054391043
 10
37.16126473795299
 20
55.43101358003009
 42
0.1568512196707739
 10
37.18304051003697
 20
55.40697417555292
 42
0.1568512196707348
 10
37.21474713104806
 20
55.40013550597975
 42
0.106617054390844
 10
37.25958706449894
 20
55.41455669702527
 42
0.0723410840576445
  0
LWPOLYLINE
  5
39F
330
1E
100
AcDbEntity
  8
OBJECT
100
AcDbPolyline
 90
        3
 70
     0
 43
0.0
 10
37.25958706449894
 20
55.6645566970254
 42
0.0723410840576666
 10
37.22005311206585
 20
55.63336236835929
 42
0.0587518675353804
 10
37.18304051003697
 20
55.58375087084955
 42
0.0587518675353689
  0
LINE
  5
3A4
330
1E
100
AcDbEntity
  8
OBJECT
100
AcDbLine
 10
37.25958706449894
 20
55.6645566970254
 30
0.0
 11
37.83424713966138
 21
55.81853640008705
 31
0.0
  0
LINE
  5
3A5
330
1E
100
AcDbEntity
  8
OBJECT
100
AcDbLine
 10
37.83424713966139
 20
55.56853640008758
 30
0.0
 11
37.25958706449894
 21
55.41455669702527
 31
0.0
  0
LINE
  5
3A6
330
1E
100
AcDbEntity
  8
OBJECT
100
AcDbLine
 10
37.77435973843147
 20
55.58458318088394
 30
0.0
 11
37.19969966326903
 21
55.43060347782162
 31
0.0
  0
LWPOLYLINE
  5
3A7
330
1E
100
AcDbEntity
  8
OBJECT
100
AcDbPolyline
 90
        7
 70
     0
 43
0.0
 10
37.77435973843147
 20
55.58458318088394
 42
0.0723410840576445
 10
37.81389369086457
 20
55.61577750955005
 42
0.0587518675353573
 10
37.85090629289344
 20
55.66538900705978
 42
0.058751867535388
 10
37.87536480904222
 20
55.72224860943182
 42
0.0723410840576545
 10
37.88261291390452
 20
55.77208318088394
 42
0.1066170543910167
 10
37.87268206497744
 20
55.81812629787922
 42
0.0700040084968316
 10
37.86478369030042
 20
55.83059537932256
 42
0.1568512196707229
  0
LWPOLYLINE
  5
3B0
330
1E
100
AcDbEntity
  8
OBJECT
100
AcDbPolyline
 90
        2
 70
     0
 43
0.0
 10
37.16916311263013
 20
55.41854449858662
 42
0.0738809678164135
 10
37.19969966326903
 20
55.43060347782162
 42
0.0723410840576445
  0
LWPOLYLINE
  5
3B4
330
1E
100
AcDbEntity
  8
OBJECT
100
AcDbPolyline
 90
        2
 70
     0
 43
0.0
 10
39.52409027712288
 20
56.04954533054656
 42
0.0738809678164135
 10
39.55462682776177
 20
56.06160430978157
 42
0.0723410840576445
  0
LWPOLYLINE
  5
3B8
330
1E
100
AcDbEntity
  8
OBJECT
100
AcDbPolyline
 90
        7
 70
     0
 43
0.0
 10
40.12928690292421
 20
56.21558401284389
 42
0.0723410840576445
 10
40.16882085535733
 20
56.24677834150999
 42
0.0587518675353573
 10
40.20583345738619
 20
56.29638983901973
 42
0.058751867535388
 10
40.23029197353497
 20
56.35324944139177
 42
0.0723410840576545
 10
40.23754007839727
 20
56.40308401284388
 42
0.1066170543910167
 10
40.22760922947019
 20
56.44912712983916
 42
0.0700040084968316
 10
40.21971085479317
 20
56.4615962112825
 42
0.1568512196707229
  0
LINE
  5
3C1
330
1E
100
AcDbEntity
  8
OBJECT
100
AcDbLine
 10
40.12928690292421
 20
56.21558401284389
 30
0.0
 11
39.55462682776177
 21
56.06160430978157
 31
0.0
  0
LINE
  5
3C2
330
1E
100
AcDbEntity
  8
OBJECT
100
AcDbLine
 10
40.18917430415414
 20
56.19953723204752
 30
0.0
 11
39.61451422899169
 21
56.04555752898521
 31
0.0
  0
LINE
  5
3C3
330
1E
100
AcDbEntity
  8
OBJECT
100
AcDbLine
 10
39.61451422899169
 20
56.29555752898534
 30
0.0
 11
40.18917430415413
 21
56.44953723204699
 31
0.0
  0
LWPOLYLINE
  5
3C4
330
1E
100
AcDbEntity
  8
OBJECT
100
AcDbPolyline
 90
        3
 70
     0
 43
0.0
 10
39.61451422899169
 20
56.29555752898534
 42
0.0723410840576666
 10
39.5749802765586
 20
56.26436320031923
 42
0.0587518675353804
 10
39.53796767452972
 20
56.2147517028095
 42
0.0587518675353689
  0
LWPOLYLINE
  5
3C9
330
1E
100
AcDbEntity
  8
OBJECT
100
AcDbPolyline
 90
        7
 70
     0
 43
0.0
 10
39.53796767452972
 20
56.2147517028095
 42
0.0587518675353689
 10
39.51350915838094
 20
56.15789210043747
 42
0.0723410840576692
 10
39.50626105351864
 20
56.10805752898534
 42
0.106617054391043
 10
39.51619190244574
 20
56.06201441199003
 42
0.1568512196707739
 10
39.53796767452972
 20
56.03797500751286
 42
0.1568512196707348
 10
39.56967429554081
 20
56.03113633793969
 42
0.106617054390844
 10
39.61451422899169
 20
56.04555752898521
 42
0.0723410840576445
  0
LWPOLYLINE
  5
3D2
330
1E
100
AcDbEntity
  8
OBJECT
100
AcDbPolyline
 90
        9
 70
     0
 43
0.0
 10
40.18917430415414
 20
56.19953723204752
 42
0.0723410840576445
 10
40.22870825658723
 20
56.23073156071363
 42
0.0587518675353573
 10
40.26572085861611
 20
56.28034305822336
 42
0.058751867535388
 10
40.29017937476489
 20
56.3372026605954
 42
0.0723410840576545
 10
40.2974274796272
 20
56.38703723204752
 42
0.1066170543910167
 10
40.28749663070011
 20
56.43308034904281
 42
0.1568512196709167
 10
40.26572085861611
 20
56.45711975352
 42
0.1568512196707229
 10
40.23401423760502
 20
56.46395842309317
 42
0.1066170543913288
 10
40.18917430415413
 20
56.44953723204699
 42
0.0723410840576666
  0
LWPOLYLINE
  5
3DD
330
1E
100
AcDbEntity
  8
OBJECT
100
AcDbPolyline
 90
        9
 70
     0
 43
0.0
 10
42.54410146864689
 20
56.83053806400747
 42
0.0723410840576445
 10
42.58363542107999
 20
56.86173239267358
 42
0.0587518675353573
 10
42.62064802310887
 20
56.91134389018331
 42
0.058751867535388
 10
42.64510653925764
 20
56.96820349255535
 42
0.0723410840576545
 10
42.65235464411995
 20
57.01803806400747
 42
0.1066170543910167
 10
42.64242379519286
 20
57.06408118100275
 42
0.1568512196709167
 10
42.62064802310887
 20
57.08812058547994
 42
0.1568512196707229
 10
42.58894140209778
 20
57.09495925505311
 42
0.1066170543913288
 10
42.54410146864688
 20
57.08053806400694
 42
0.0723410840576666
  0
LWPOLYLINE
  5
3E8
330
1E
100
AcDbEntity
  8
OBJECT
100
AcDbPolyline
 90
        7
 70
     0
 43
0.0
 10
41.89289483902247
 20
56.84575253476944
 42
0.0587518675353689
 10
41.86843632287369
 20
56.78889293239741
 42
0.0723410840576692
 10
41.86118821801139
 20
56.73905836094529
 42
0.106617054391043
 10
41.87111906693849
 20
56.69301524394998
 42
0.1568512196707739
 10
41.89289483902247
 20
56.66897583947281
 42
0.1568512196707348
 10
41.92460146003356
 20
56.66213716989964
 42
0.106617054390844
 10
41.96944139348445
 20
56.67655836094516
 42
0.0723410840576445
  0
LWPOLYLINE
  5
3F1
330
1E
100
AcDbEntity
  8
OBJECT
100
AcDbPolyline
 90
        3
 70
     0
 43
0.0
 10
41.96944139348445
 20
56.92655836094528
 42
0.0723410840576666
 10
41.92990744105135
 20
56.89536403227918
 42
0.0587518675353804
 10
41.89289483902247
 20
56.84575253476944
 42
0.0587518675353689
  0
LINE
  5
3F6
330
1E
100
AcDbEntity
  8
OBJECT
100
AcDbLine
 10
41.96944139348445
 20
56.92655836094528
 30
0.0
 11
42.54410146864688
 21
57.08053806400694
 31
0.0
  0
LINE
  5
3F7
330
1E
100
AcDbEntity
  8
OBJECT
100
AcDbLine
 10
42.54410146864689
 20
56.83053806400747
 30
0.0
 11
41.96944139348445
 21
56.67655836094516
 31
0.0
  0
LINE
  5
3F8
330
1E
100
AcDbEntity
  8
OBJECT
100
AcDbLine
 10
42.48421406741697
 20
56.84658484480383
 30
0.0
 11
41.90955399225453
 21
56.69260514174151
 31
0.0
  0
LWPOLYLINE
  5
3F9
330
1E
100
AcDbEntity
  8
OBJECT
100
AcDbPolyline
 90
        7
 70
     0
 43
0.0
 10
42.48421406741697
 20
56.84658484480383
 42
0.0723410840576445
 10
42.52374801985007
 20
56.87777917346994
 42
0.0587518675353573
 10
42.56076062187894
 20
56.92739067097967
 42
0.058751867535388
 10
42.58521913802773
 20
56.98425027335171
 42
0.0723410840576545
 10
42.59246724289002
 20
57.03408484480383
 42
0.1066170543910167
 10
42.58253639396293
 20
57.08012796179911
 42
0.0700040084968316
 10
42.57463801928592
 20
57.09259704324245
 42
0.1568512196707229
  0
LWPOLYLINE
  5
402
330
1E
100
AcDbEntity
  8
OBJECT
100
AcDbPolyline
 90
        2
 70
     0
 43
0.0
 10
41.87901744161563
 20
56.68054616250651
 42
0.0738809678164135
 10
41.90955399225453
 20
56.69260514174151
 42
0.0723410840576445
  0
LWPOLYLINE
  5
406
330
1E
100
AcDbEntity
  8
OBJECT
100
AcDbPolyline
 90
        2
 70
     0
 43
0.0
 10
28.23103131089211
 20
60.33751302454504
 42
0.0738809678164135
 10
28.26156786153101
 20
60.34957200378005
 42
0.0723410840576445
  0
LWPOLYLINE
  5
40A
330
1E
100
AcDbEntity
  8
OBJECT
100
AcDbPolyline
 90
        7
 70
     0
 43
0.0
 10
28.83622793669345
 20
60.50355170684236
 42
0.0723410840576445
 10
28.87576188912655
 20
60.53474603550847
 42
0.0587518675353573
 10
28.91277449115542
 20
60.5843575330182
 42
0.058751867535388
 10
28.93723300730421
 20
60.64121713539024
 42
0.0723410840576545
 10
28.9444811121665
 20
60.69105170684236
 42
0.1066170543910167
 10
28.93455026323942
 20
60.73709482383764
 42
0.0700040084968316
 10
28.9266518885624
 20
60.74956390528098
 42
0.1568512196707229
  0
LINE
  5
413
330
1E
100
AcDbEntity
  8
OBJECT
100
AcDbLine
 10
28.83622793669345
 20
60.50355170684236
 30
0.0
 11
28.26156786153101
 21
60.34957200378005
 31
0.0
  0
LINE
  5
414
330
1E
100
AcDbEntity
  8
OBJECT
100
AcDbLine
 10
28.89611533792337
 20
60.487504926046
 30
0.0
 11
28.32145526276093
 21
60.33352522298368
 31
0.0
  0
LINE
  5
415
330
1E
100
AcDbEntity
  8
OBJECT
100
AcDbLine
 10
28.32145526276093
 20
60.58352522298381
 30
0.0
 11
28.89611533792336
 21
60.73750492604546
 31
0.0
  0
LWPOLYLINE
  5
416
330
1E
100
AcDbEntity
  8
OBJECT
100
AcDbPolyline
 90
        3
 70
     0
 43
0.0
 10
28.32145526276093
 20
60.58352522298381
 42
0.0723410840576666
 10
28.28192131032784
 20
60.5523308943177
 42
0.0587518675353804
 10
28.24490870829896
 20
60.50271939680797
 42
0.0587518675353689
  0
LWPOLYLINE
  5
41B
330
1E
100
AcDbEntity
  8
OBJECT
100
AcDbPolyline
 90
        7
 70
     0
 43
0.0
 10
28.24490870829896
 20
60.50271939680797
 42
0.0587518675353689
 10
28.22045019215018
 20
60.44585979443595
 42
0.0723410840576692
 10
28.21320208728787
 20
60.39602522298381
 42
0.106617054391043
 10
28.22313293621497
 20
60.34998210598851
 42
0.1568512196707739
 10
28.24490870829896
 20
60.32594270151133
 42
0.1568512196707348
 10
28.27661532931005
 20
60.31910403193816
 42
0.106617054390844
 10
28.32145526276093
 20
60.33352522298368
 42
0.0723410840576445
  0
LWPOLYLINE
  5
424
330
1E
100
AcDbEntity
  8
OBJECT
100
AcDbPolyline
 90
        9
 70
     0
 43
0.0
 10
28.89611533792337
 20
60.487504926046
 42
0.0723410840576445
 10
28.93564929035647
 20
60.51869925471211
 42
0.0587518675353573
 10
28.97266189238535
 20
60.56831075222184
 42
0.058751867535388
 10
28.99712040853413
 20
60.62517035459388
 42
0.0723410840576545
 10
29.00436851339643
 20
60.675004926046
 42
0.1066170543910167
 10
28.99443766446934
 20
60.72104804304128
 42
0.1568512196709167
 10
28.97266189238535
 20
60.74508744751848
 42
0.1568512196707229
 10
28.94095527137426
 20
60.75192611709165
 42
0.1066170543913288
 10
28.89611533792336
 20
60.73750492604546
 42
0.0723410840576666
  0
LWPOLYLINE
  5
42F
330
1E
100
AcDbEntity
  8
OBJECT
100
AcDbPolyline
 90
        9
 70
     0
 43
0.0
 10
26.54118817343062
 20
59.85650409408606
 42
0.0723410840576445
 10
26.58072212586372
 20
59.88769842275217
 42
0.0587518675353573
 10
26.6177347278926
 20
59.9373099202619
 42
0.058751867535388
 10
26.64219324404138
 20
59.99416952263394
 42
0.0723410840576545
 10
26.64944134890368
 20
60.04400409408606
 42
0.1066170543910167
 10
26.63951049997659
 20
60.09004721108134
 42
0.1568512196709167
 10
26.6177347278926
 20
60.11408661555853
 42
0.1568512196707229
 10
26.58602810688151
 20
60.1209252851317
 42
0.1066170543913288
 10
26.54118817343062
 20
60.10650409408552
 42
0.0723410840576666
  0
LWPOLYLINE
  5
43A
330
1E
100
AcDbEntity
  8
OBJECT
100
AcDbPolyline
 90
        7
 70
     0
 43
0.0
 10
25.8899815438062
 20
59.87171856484803
 42
0.0587518675353689
 10
25.86552302765743
 20
59.814858962476
 42
0.0723410840576692
 10
25.85827492279512
 20
59.76502439102387
 42
0.106617054391043
 10
25.86820577172222
 20
59.71898127402856
 42
0.1568512196707739
 10
25.8899815438062
 20
59.69494186955139
 42
0.1568512196707348
 10
25.92168816481729
 20
59.68810319997822
 42
0.106617054390844
 10
25.96652809826817
 20
59.70252439102374
 42
0.0723410840576445
  0
LWPOLYLINE
  5
443
330
1E
100
AcDbEntity
  8
OBJECT
100
AcDbPolyline
 90
        3
 70
     0
 43
0.0
 10
25.96652809826817
 20
59.95252439102387
 42
0.0723410840576666
 10
25.92699414583508
 20
59.92133006235776
 42
0.0587518675353804
 10
25.8899815438062
 20
59.87171856484803
 42
0.0587518675353689
  0
LINE
  5
448
330
1E
100
AcDbEntity
  8
OBJECT
100
AcDbLine
 10
25.96652809826817
 20
59.95252439102387
 30
0.0
 11
26.54118817343062
 21
60.10650409408552
 31
0.0
  0
LINE
  5
449
330
1E
100
AcDbEntity
  8
OBJECT
100
AcDbLine
 10
26.54118817343062
 20
59.85650409408606
 30
0.0
 11
25.96652809826817
 21
59.70252439102374
 31
0.0
  0
LINE
  5
44A
330
1E
100
AcDbEntity
  8
OBJECT
100
AcDbLine
 10
26.4813007722007
 20
59.87255087488241
 30
0.0
 11
25.90664069703826
 21
59.7185711718201
 31
0.0
  0
LWPOLYLINE
  5
44B
330
1E
100
AcDbEntity
  8
OBJECT
100
AcDbPolyline
 90
        7
 70
     0
 43
0.0
 10
26.4813007722007
 20
59.87255087488241
 42
0.0723410840576445
 10
26.52083472463381
 20
59.90374520354852
 42
0.0587518675353573
 10
26.55784732666267
 20
59.95335670105825
 42
0.058751867535388
 10
26.58230584281145
 20
60.01021630343029
 42
0.0723410840576545
 10
26.58955394767375
 20
60.06005087488241
 42
0.1066170543910167
 10
26.57962309874667
 20
60.1060939918777
 42
0.0700040084968316
 10
26.57172472406965
 20
60.11856307332103
 42
0.1568512196707229
  0
LWPOLYLINE
  5
454
330
1E
100
AcDbEntity
  8
OBJECT
100
AcDbPolyline
 90
        2
 70
     0
 43
0.0
 10
25.87610414639936
 20
59.7065121925851
 42
0.0738809678164135
 10
25.90664069703826
 20
59.7185711718201
 42
0.0723410840576445
  0
LWPOLYLINE
  5
458
330
1E
100
AcDbEntity
  8
OBJECT
100
AcDbPolyline
 90
        2
 70
     0
 43
0.0
 10
23.52117698190661
 20
59.07551136062515
 42
0.0738809678164135
 10
23.55171353254551
 20
59.08757033986016
 42
0.0723410840576445
  0
LWPOLYLINE
  5
45C
330
1E
100
AcDbEntity
  8
OBJECT
100
AcDbPolyline
 90
        7
 70
     0
 43
0.0
 10
24.12637360770795
 20
59.24155004292247
 42
0.0723410840576445
 10
24.16590756014105
 20
59.27274437158858
 42
0.0587518675353573
 10
24.20292016216992
 20
59.32235586909831
 42
0.058751867535388
 10
24.2273786783187
 20
59.37921547147035
 42
0.0723410840576545
 10
24.23462678318101
 20
59.42905004292247
 42
0.1066170543910167
 10
24.22469593425392
 20
59.47509315991776
 42
0.0700040084968316
 10
24.2167975595769
 20
59.48756224136109
 42
0.1568512196707229
  0
LINE
  5
465
330
1E
100
AcDbEntity
  8
OBJECT
100
AcDbLine
 10
24.12637360770795
 20
59.24155004292247
 30
0.0
 11
23.55171353254551
 21
59.08757033986016
 31
0.0
  0
LINE
  5
466
330
1E
100
AcDbEntity
  8
OBJECT
100
AcDbLine
 10
24.18626100893787
 20
59.22550326212611
 30
0.0
 11
23.61160093377542
 21
59.07152355906379
 31
0.0
  0
LINE
  5
467
330
1E
100
AcDbEntity
  8
OBJECT
100
AcDbLine
 10
23.61160093377542
 20
59.32152355906392
 30
0.0
 11
24.18626100893787
 21
59.47550326212557
 31
0.0
  0
LWPOLYLINE
  5
468
330
1E
100
AcDbEntity
  8
OBJECT
100
AcDbPolyline
 90
        3
 70
     0
 43
0.0
 10
23.61160093377542
 20
59.32152355906392
 42
0.0723410840576666
 10
23.57206698134234
 20
59.29032923039781
 42
0.0587518675353804
 10
23.53505437931346
 20
59.24071773288808
 42
0.0587518675353689
  0
LWPOLYLINE
  5
46D
330
1E
100
AcDbEntity
  8
OBJECT
100
AcDbPolyline
 90
        7
 70
     0
 43
0.0
 10
23.53505437931346
 20
59.24071773288808
 42
0.0587518675353689
 10
23.51059586316468
 20
59.18385813051606
 42
0.0723410840576692
 10
23.50334775830237
 20
59.13402355906392
 42
0.106617054391043
 10
23.51327860722947
 20
59.08798044206862
 42
0.1568512196707739
 10
23.53505437931346
 20
59.06394103759144
 42
0.1568512196707348
 10
23.56676100032454
 20
59.05710236801827
 42
0.106617054390844
 10
23.61160093377542
 20
59.07152355906379
 42
0.0723410840576445
  0
LWPOLYLINE
  5
476
330
1E
100
AcDbEntity
  8
OBJECT
100
AcDbPolyline
 90
        9
 70
     0
 43
0.0
 10
24.18626100893787
 20
59.22550326212611
 42
0.0723410840576445
 10
24.22579496137097
 20
59.25669759079222
 42
0.0587518675353573
 10
24.26280756339985
 20
59.30630908830195
 42
0.058751867535388
 10
24.28726607954863
 20
59.36316869067399
 42
0.0723410840576545
 10
24.29451418441093
 20
59.41300326212611
 42
0.1066170543910167
 10
24.28458333548384
 20
59.45904637912139
 42
0.1568512196709167
 10
24.26280756339985
 20
59.48308578359859
 42
0.1568512196707229
 10
24.23110094238876
 20
59.48992445317176
 42
0.1066170543913288
 10
24.18626100893787
 20
59.47550326212557
 42
0.0723410840576666
  0
LWPOLYLINE
  5
481
330
1E
100
AcDbEntity
  8
OBJECT
100
AcDbPolyline
 90
        9
 70
     0
 43
0.0
 10
21.83133384444512
 20
58.59450243016617
 42
0.0723410840576445
 10
21.87086779687822
 20
58.62569675883228
 42
0.0587518675353573
 10
21.9078803989071
 20
58.67530825634201
 42
0.058751867535388
 10
21.93233891505588
 20
58.73216785871405
 42
0.0723410840576545
 10
21.93958701991818
 20
58.78200243016617
 42
0.1066170543910167
 10
21.92965617099109
 20
58.82804554716145
 42
0.1568512196709167
 10
21.9078803989071
 20
58.85208495163865
 42
0.1568512196707229
 10
21.87617377789601
 20
58.85892362121182
 42
0.1066170543913288
 10
21.83133384444511
 20
58.84450243016563
 42
0.0723410840576666
  0
LWPOLYLINE
  5
48C
330
1E
100
AcDbEntity
  8
OBJECT
100
AcDbPolyline
 90
        7
 70
     0
 43
0.0
 10
21.1801272148207
 20
58.60971690092814
 42
0.0587518675353689
 10
21.15566869867193
 20
58.55285729855611
 42
0.0723410840576692
 10
21.14842059380962
 20
58.50302272710398
 42
0.106617054391043
 10
21.15835144273672
 20
58.45697961010867
 42
0.1568512196707739
 10
21.1801272148207
 20
58.4329402056315
 42
0.1568512196707348
 10
21.21183383583179
 20
58.42610153605833
 42
0.106617054390844
 10
21.25667376928267
 20
58.44052272710385
 42
0.0723410840576445
  0
LWPOLYLINE
  5
495
330
1E
100
AcDbEntity
  8
OBJECT
100
AcDbPolyline
 90
        3
 70
     0
 43
0.0
 10
21.25667376928267
 20
58.69052272710398
 42
0.0723410840576666
 10
21.21713981684958
 20
58.65932839843787
 42
0.0587518675353804
 10
21.1801272148207
 20
58.60971690092814
 42
0.0587518675353689
  0
LINE
  5
49A
330
1E
100
AcDbEntity
  8
OBJECT
100
AcDbLine
 10
21.25667376928267
 20
58.69052272710398
 30
0.0
 11
21.83133384444511
 21
58.84450243016563
 31
0.0
  0
LINE
  5
49B
330
1E
100
AcDbEntity
  8
OBJECT
100
AcDbLine
 10
21.83133384444512
 20
58.59450243016617
 30
0.0
 11
21.25667376928267
 21
58.44052272710385
 31
0.0
  0
LINE
  5
49C
330
1E
100
AcDbEntity
  8
OBJECT
100
AcDbLine
 10
21.7714464432152
 20
58.61054921096252
 30
0.0
 11
21.19678636805276
 21
58.45656950790021
 31
0.0
  0
LWPOLYLINE
  5
49D
330
1E
100
AcDbEntity
  8
OBJECT
100
AcDbPolyline
 90
        7
 70
     0
 43
0.0
 10
21.7714464432152
 20
58.61054921096252
 42
0.0723410840576445
 10
21.8109803956483
 20
58.64174353962863
 42
0.0587518675353573
 10
21.84799299767717
 20
58.69135503713836
 42
0.058751867535388
 10
21.87245151382595
 20
58.7482146395104
 42
0.0723410840576545
 10
21.87969961868825
 20
58.79804921096252
 42
0.1066170543910167
 10
21.86976876976117
 20
58.84409232795781
 42
0.0700040084968316
 10
21.86187039508415
 20
58.85656140940114
 42
0.1568512196707229
  0
LWPOLYLINE
  5
4A6
330
1E
100
AcDbEntity
  8
OBJECT
100
AcDbPolyline
 90
        2
 70
     0
 43
0.0
 10
21.16624981741386
 20
58.44451052866521
 42
0.0738809678164135
 10
21.19678636805276
 20
58.45656950790021
 42
0.0723410840576445
  0
LWPOLYLINE
  5
4AA
330
1E
100
AcDbEntity
  8
OBJECT
100
AcDbPolyline
 90
        2
 70
     0
 43
0.0
 10
18.81132265292111
 20
57.81350969670526
 42
0.0738809678164135
 10
18.84185920356001
 20
57.82556867594027
 42
0.0723410840576445
  0
LWPOLYLINE
  5
4AE
330
1E
100
AcDbEntity
  8
OBJECT
100
AcDbPolyline
 90
        7
 70
     0
 43
0.0
 10
19.41651927872245
 20
57.97954837900258
 42
0.0723410840576445
 10
19.45605323115555
 20
58.01074270766869
 42
0.0587518675353573
 10
19.49306583318442
 20
58.06035420517842
 42
0.058751867535388
 10
19.5175243493332
 20
58.11721380755046
 42
0.0723410840576545
 10
19.5247724541955
 20
58.16704837900258
 42
0.1066170543910167
 10
19.51484160526842
 20
58.21309149599787
 42
0.0700040084968316
 10
19.5069432305914
 20
58.2255605774412
 42
0.1568512196707229
  0
LINE
  5
4B7
330
1E
100
AcDbEntity
  8
OBJECT
100
AcDbLine
 10
19.41651927872245
 20
57.97954837900258
 30
0.0
 11
18.84185920356001
 21
57.82556867594027
 31
0.0
  0
LINE
  5
4B8
330
1E
100
AcDbEntity
  8
OBJECT
100
AcDbLine
 10
19.47640667995237
 20
57.96350159820622
 30
0.0
 11
18.90174660478992
 21
57.8095218951439
 31
0.0
  0
LINE
  5
4B9
330
1E
100
AcDbEntity
  8
OBJECT
100
AcDbLine
 10
18.90174660478992
 20
58.05952189514403
 30
0.0
 11
19.47640667995236
 21
58.21350159820569
 31
0.0
  0
LWPOLYLINE
  5
4BA
330
1E
100
AcDbEntity
  8
OBJECT
100
AcDbPolyline
 90
        3
 70
     0
 43
0.0
 10
18.90174660478992
 20
58.05952189514403
 42
0.0723410840576666
 10
18.86221265235684
 20
58.02832756647792
 42
0.0587518675353804
 10
18.82520005032795
 20
57.97871606896819
 42
0.0587518675353689
  0
LWPOLYLINE
  5
4BF
330
1E
100
AcDbEntity
  8
OBJECT
100
AcDbPolyline
 90
        7
 70
     0
 43
0.0
 10
18.82520005032795
 20
57.97871606896819
 42
0.0587518675353689
 10
18.80074153417918
 20
57.92185646659617
 42
0.0723410840576692
 10
18.79349342931687
 20
57.87202189514403
 42
0.106617054391043
 10
18.80342427824397
 20
57.82597877814873
 42
0.1568512196707739
 10
18.82520005032795
 20
57.80193937367156
 42
0.1568512196707348
 10
18.85690667133904
 20
57.79510070409838
 42
0.106617054390844
 10
18.90174660478992
 20
57.8095218951439
 42
0.0723410840576445
  0
LWPOLYLINE
  5
4C8
330
1E
100
AcDbEntity
  8
OBJECT
100
AcDbPolyline
 90
        9
 70
     0
 43
0.0
 10
19.47640667995237
 20
57.96350159820622
 42
0.0723410840576445
 10
19.51594063238547
 20
57.99469592687233
 42
0.0587518675353573
 10
19.55295323441435
 20
58.04430742438206
 42
0.058751867535388
 10
19.57741175056312
 20
58.10116702675411
 42
0.0723410840576545
 10
19.58465985542543
 20
58.15100159820622
 42
0.1066170543910167
 10
19.57472900649834
 20
58.1970447152015
 42
0.1568512196709167
 10
19.55295323441435
 20
58.2210841196787
 42
0.1568512196707229
 10
19.52124661340326
 20
58.22792278925187
 42
0.1066170543913288
 10
19.47640667995236
 20
58.21350159820569
 42
0.0723410840576666
  0
LWPOLYLINE
  5
4D3
330
1E
100
AcDbEntity
  8
OBJECT
100
AcDbPolyline
 90
        9
 70
     0
 43
0.0
 10
17.12147951545962
 20
57.33250076624628
 42
0.0723410840576445
 10
17.16101346789272
 20
57.36369509491239
 42
0.0587518675353573
 10
17.1980260699216
 20
57.41330659242212
 42
0.058751867535388
 10
17.22248458607038
 20
57.47016619479416
 42
0.0723410840576545
 10
17.22973269093268
 20
57.52000076624628
 42
0.1066170543910167
 10
17.21980184200559
 20
57.56604388324156
 42
0.1568512196709167
 10
17.1980260699216
 20
57.59008328771876
 42
0.1568512196707229
 10
17.16631944891051
 20
57.59692195729193
 42
0.1066170543913288
 10
17.12147951545962
 20
57.58250076624574
 42
0.0723410840576666
  0
LWPOLYLINE
  5
4DE
330
1E
100
AcDbEntity
  8
OBJECT
100
AcDbPolyline
 90
        7
 70
     0
 43
0.0
 10
16.4702728858352
 20
57.34771523700825
 42
0.0587518675353689
 10
16.44581436968643
 20
57.29085563463622
 42
0.0723410840576692
 10
16.43856626482412
 20
57.24102106318409
 42
0.106617054391043
 10
16.44849711375122
 20
57.19497794618878
 42
0.1568512196707739
 10
16.4702728858352
 20
57.17093854171161
 42
0.1568512196707348
 10
16.50197950684629
 20
57.16409987213844
 42
0.106617054390844
 10
16.54681944029718
 20
57.17852106318396
 42
0.0723410840576445
  0
LWPOLYLINE
  5
4E7
330
1E
100
AcDbEntity
  8
OBJECT
100
AcDbPolyline
 90
        3
 70
     0
 43
0.0
 10
16.54681944029718
 20
57.42852106318409
 42
0.0723410840576666
 10
16.50728548786408
 20
57.39732673451798
 42
0.0587518675353804
 10
16.4702728858352
 20
57.34771523700825
 42
0.0587518675353689
  0
LINE
  5
4EC
330
1E
100
AcDbEntity
  8
OBJECT
100
AcDbLine
 10
16.54681944029718
 20
57.42852106318409
 30
0.0
 11
17.12147951545962
 21
57.58250076624574
 31
0.0
  0
LINE
  5
4ED
330
1E
100
AcDbEntity
  8
OBJECT
100
AcDbLine
 10
17.12147951545962
 20
57.33250076624628
 30
0.0
 11
16.54681944029718
 21
57.17852106318396
 31
0.0
  0
LINE
  5
4EE
330
1E
100
AcDbEntity
  8
OBJECT
100
AcDbLine
 10
17.0615921142297
 20
57.34854754704263
 30
0.0
 11
16.48693203906725
 21
57.19456784398032
 31
0.0
  0
LWPOLYLINE
  5
4EF
330
1E
100
AcDbEntity
  8
OBJECT
100
AcDbPolyline
 90
        7
 70
     0
 43
0.0
 10
17.0615921142297
 20
57.34854754704263
 42
0.0723410840576445
 10
17.1011260666628
 20
57.37974187570874
 42
0.0587518675353573
 10
17.13813866869167
 20
57.42935337321847
 42
0.058751867535388
 10
17.16259718484045
 20
57.48621297559052
 42
0.0723410840576545
 10
17.16984528970276
 20
57.53604754704263
 42
0.1066170543910167
 10
17.15991444077567
 20
57.58209066403792
 42
0.0700040084968316
 10
17.15201606609865
 20
57.59455974548125
 42
0.1568512196707229
  0
LWPOLYLINE
  5
4F8
330
1E
100
AcDbEntity
  8
OBJECT
100
AcDbPolyline
 90
        2
 70
     0
 43
0.0
 10
16.45639548842836
 20
57.18250886474532
 42
0.0738809678164135
 10
16.48693203906725
 20
57.19456784398032
 42
0.0723410840576445
  0
LWPOLYLINE
  5
4FC
330
1E
100
AcDbEntity
  8
OBJECT
100
AcDbPolyline
 90
        2
 70
     0
 43
0.0
 10
14.10146832393561
 20
56.55150803278537
 42
0.0738809678164135
 10
14.13200487457451
 20
56.56356701202038
 42
0.0723410840576445
  0
LWPOLYLINE
  5
500
330
1E
100
AcDbEntity
  8
OBJECT
100
AcDbPolyline
 90
        7
 70
     0
 43
0.0
 10
14.70666494973695
 20
56.71754671508269
 42
0.0723410840576445
 10
14.74619890217005
 20
56.7487410437488
 42
0.0587518675353573
 10
14.78321150419892
 20
56.79835254125853
 42
0.058751867535388
 10
14.8076700203477
 20
56.85521214363057
 42
0.0723410840576545
 10
14.81491812521
 20
56.90504671508269
 42
0.1066170543910167
 10
14.80498727628292
 20
56.95108983207798
 42
0.0700040084968316
 10
14.7970889016059
 20
56.96355891352131
 42
0.1568512196707229
  0
LINE
  5
509
330
1E
100
AcDbEntity
  8
OBJECT
100
AcDbLine
 10
14.70666494973695
 20
56.71754671508269
 30
0.0
 11
14.13200487457451
 21
56.56356701202038
 31
0.0
  0
LINE
  5
50A
330
1E
100
AcDbEntity
  8
OBJECT
100
AcDbLine
 10
14.76655235096687
 20
56.70149993428633
 30
0.0
 11
14.19189227580443
 21
56.54752023122401
 31
0.0
  0
LINE
  5
50B
330
1E
100
AcDbEntity
  8
OBJECT
100
AcDbLine
 10
14.19189227580443
 20
56.79752023122414
 30
0.0
 11
14.76655235096687
 21
56.9514999342858
 31
0.0
  0
LWPOLYLINE
  5
50C
330
1E
100
AcDbEntity
  8
OBJECT
100
AcDbPolyline
 90
        3
 70
     0
 43
0.0
 10
14.19189227580443
 20
56.79752023122414
 42
0.0723410840576666
 10
14.15235832337133
 20
56.76632590255803
 42
0.0587518675353804
 10
14.11534572134245
 20
56.7167144050483
 42
0.0587518675353689
  0
LWPOLYLINE
  5
511
330
1E
100
AcDbEntity
  8
OBJECT
100
AcDbPolyline
 90
        7
 70
     0
 43
0.0
 10
14.11534572134245
 20
56.7167144050483
 42
0.0587518675353689
 10
14.09088720519368
 20
56.65985480267628
 42
0.0723410840576692
 10
14.08363910033137
 20
56.61002023122414
 42
0.106617054391043
 10
14.09356994925847
 20
56.56397711422884
 42
0.1568512196707739
 10
14.11534572134245
 20
56.53993770975167
 42
0.1568512196707348
 10
14.14705234235354
 20
56.5330990401785
 42
0.106617054390844
 10
14.19189227580443
 20
56.54752023122401
 42
0.0723410840576445
  0
LWPOLYLINE
  5
51A
330
1E
100
AcDbEntity
  8
OBJECT
100
AcDbPolyline
 90
        9
 70
     0
 43
0.0
 10
14.76655235096687
 20
56.70149993428633
 42
0.0723410840576445
 10
14.80608630339997
 20
56.73269426295244
 42
0.0587518675353573
 10
14.84309890542885
 20
56.78230576046217
 42
0.058751867535388
 10
14.86755742157763
 20
56.83916536283422
 42
0.0723410840576545
 10
14.87480552643993
 20
56.88899993428633
 42
0.1066170543910167
 10
14.86487467751284
 20
56.93504305128161
 42
0.1568512196709167
 10
14.84309890542885
 20
56.95908245575881
 42
0.1568512196707229
 10
14.81139228441776
 20
56.96592112533198
 42
0.1066170543913288
 10
14.76655235096687
 20
56.9514999342858
 42
0.0723410840576666
  0
LINE
  5
525
330
1E
100
AcDbEntity
  8
TITLE
100
AcDbLine
 10
32.17300000000002
 20
0.2789999999999981
 30
0.0
 11
32.17300000000002
 21
10.57499999999999
 31
0.0
  0
LINE
  5
526
330
1E
100
AcDbEntity
  8
TEXT
100
AcDbLine
 10
1.303823881126767
 20
5.427000000000004
 30
0.0
 11
3.741218236722165
 21
5.427000000000004
 31
0.0
  0
DIMENSION
  5
527
330
1E
100
AcDbEntity
  8
DIM
100
AcDbDimension
  2
*D1
 10
39.57822915076675
 20
46.40033665227732
 30
0.0
 11
39.57822915076674
 21
37.44733665227732
 31
0.0
 70
    32
  1
A
 71
     5
 42
17.90599999999999
  3
23NSTD
100
AcDbAlignedDimension
 13
40.73896814884497
 23
28.49433665227731
 33
0.0
 14
40.73896814884496
 24
46.40033665227732
 34
0.0
 50
90.0
100
AcDbRotatedDimension
  0
DIMENSION
  5
528
330
1E
100
AcDbEntity
  8
DIM
100
AcDbDimension
  2
*D10
 10
37.70517049730387
 20
17.89738338983647
 30
0.0
 11
37.70517049730386
 21
18.34238338983647
 31
0.0
 70
    32
 71
     5
 42
0.8900000000000005
  3
23NSTDI
100
AcDbAlignedDimension
 13
36.11838707259698
 23
18.78738338983647
 33
0.0
 14
36.30588707259698
 24
17.89738338983647
 34
0.0
 50
90.0
100
AcDbRotatedDimension
  0
DIMENSION
  5
529
330
1E
100
AcDbEntity
  8
DIM
100
AcDbDimension
  2
*D11
 10
39.97384848127773
 20
17.20938338983647
 30
0.0
 11
39.97384848127772
 21
17.99838338983647
 31
0.0
 70
    32
 71
     5
 42
1.577999999999995
  3
23NSTDI
100
AcDbAlignedDimension
 13
36.11838707259698
 23
18.78738338983647
 33
0.0
 14
36.36788707259698
 24
17.20938338983647
 34
0.0
 50
90.0
100
AcDbRotatedDimension
  0
DIMENSION
  5
52A
330
1E
100
AcDbEntity
  8
DIM
100
AcDbDimension
  2
*D2
 10
8.147642280054679
 20
17.20938338983647
 30
0.0
 11
6.159204780054676
 21
15.58938338983647
 31
0.0
 70
    32
 71
     5
 42
0.7499999999999929
  3
23NSTD
100
AcDbAlignedDimension
 13
9.867887072596991
 23
17.95938338983646
 33
0.0
 14
9.867887072596991
 24
17.20938338983647
 34
0.0
 50
90.0
100
AcDbRotatedDimension
  0
DIMENSION
  5
52B
330
1E
100
AcDbEntity
  8
DIM
100
AcDbDimension
  2
*D3
 10
9.867887072596991
 20
14.54889872762037
 30
0.0
 11
7.03429332259699
 21
14.54889872762037
 31
0.0
 70
    32
 71
     5
 42
0.375
  3
23NSTD
100
AcDbAlignedDimension
 13
10.24288707259699
 23
17.20938338983647
 33
0.0
 14
9.867887072596991
 24
17.20938338983647
 34
0.0
100
AcDbRotatedDimension
  0
DIMENSION
  5
52C
330
1E
100
AcDbEntity
  8
DIM
100
AcDbDimension
  2
*D4
 10
36.36788707259698
 20
13.28439872762037
 30
0.0
 11
23.11788707259698
 21
13.28439872762037
 31
0.0
 70
    32
  1
B
 71
     5
 42
26.49999999999998
  3
23NSTD
100
AcDbAlignedDimension
 13
9.867887072596991
 23
17.20938338983647
 33
0.0
 14
36.36788707259698
 24
17.20938338983647
 34
0.0
100
AcDbRotatedDimension
  0
DIMENSION
  5
52D
330
1E
100
AcDbEntity
  8
DIM
100
AcDbDimension
  2
*D5
 10
9.992387072596988
 20
20.6054221220947
 30
0.0
 11
7.193949572596988
 21
20.6054221220947
 31
0.0
 70
    32
 71
     5
 42
1.437999999999995
  3
23NSTD
100
AcDbAlignedDimension
 13
11.43038707259698
 23
18.44038338983646
 33
0.0
 14
9.992387072596988
 24
18.66238338983647
 34
0.0
100
AcDbRotatedDimension
  0
DIMENSION
  5
52E
330
1E
100
AcDbEntity
  8
DIM
100
AcDbDimension
  2
*D6
 10
9.867887072596991
 20
21.8699221220947
 30
0.0
 11
7.06944957259699
 21
21.8699221220947
 31
0.0
 70
    32
 71
     5
 42
1.562499999999992
  3
23NSTD
100
AcDbAlignedDimension
 13
11.43038707259698
 23
18.44038338983646
 33
0.0
 14
9.867887072596991
 24
17.95938338983646
 34
0.0
100
AcDbRotatedDimension
  0
DIMENSION
  5
52F
330
1E
100
AcDbEntity
  8
DIM
100
AcDbDimension
  2
*D7
 10
34.80538707259698
 20
21.8699221220947
 30
0.0
 11
23.11788707259697
 21
21.8699221220947
 31
0.0
 70
    32
  1
(C) SPACES @ (D) = (E)
 71
     5
 42
23.37499999999999
  3
23NSTD
100
AcDbAlignedDimension
 13
11.43038707259698
 23
18.44038338983646
 33
0.0
 14
34.80538707259698
 24
18.44038338983646
 34
0.0
100
AcDbRotatedDimension
  0
DIMENSION
  5
530
330
1E
100
AcDbEntity
  8
DIM
100
AcDbDimension
  2
*D8
 10
11.11788707259697
 20
26.98130827051941
 30
0.0
 11
23.11788707259698
 21
26.98130827051941
 31
0.0
 70
    32
  1
(G) SPACES @ 1.500 = (H)
 71
     5
 42
24.00000000000001
  3
23NSTD
100
AcDbAlignedDimension
 13
35.11788707259699
 23
30.07533665227731
 33
0.0
 14
11.11788707259697
 24
30.07533665227731
 34
0.0
100
AcDbRotatedDimension
  0
DIMENSION
  5
531
330
1E
100
AcDbEntity
  8
DIM
100
AcDbDimension
  2
*D9
 10
5.151402698491299
 20
44.47833665227731
 30
0.0
 11
5.151402698491292
 21
37.32183665227731
 31
0.0
 70
    32
  1
(I) SPACES @ 0.500 = (J)
 71
     5
 42
14.31299999999999
  3
23NSTD
100
AcDbAlignedDimension
 13
11.02788707259698
 23
30.16533665227731
 33
0.0
 14
11.02788707259698
 24
44.47833665227731
 34
0.0
 50
90.0
100
AcDbRotatedDimension
  0
TEXT
  5
532
330
1E
100
AcDbEntity
  8
TEXT
100
AcDbText
 10
1.309757306559623
 20
59.59418433884835
 30
0.0
 40
0.5620000000000001
  1
LOAD RATING:  200 LBS. MAX.
 41
0.75
100
AcDbText
  0
ENDSEC
  0
SECTION
  2
OBJECTS
  0
DICTIONARY
  5
C
330
0
100
AcDbDictionary
281
     1
  3
ACAD_GROUP
350
D
  3
ACAD_LAYOUT
350
19
  3
ACAD_MLINESTYLE
350
16
  3
ACAD_PLOTSETTINGS
350
18
  3
ACAD_PLOTSTYLENAME
350
E
  0
DICTIONARY
  5
D
102
{ACAD_REACTORS
330
C
102
}
330
C
100
AcDbDictionary
281
     1
  0
DICTIONARY
  5
19
102
{ACAD_REACTORS
330
C
102
}
330
C
100
AcDbDictionary
281
     1
  3
Layout1
350
1D
  3
Model
350
21
  0
DICTIONARY
  5
16
102
{ACAD_REACTORS
330
C
102
}
330
C
100
AcDbDictionary
281
     1
  3
Standard
350
17
  0
DICTIONARY
  5
18
102
{ACAD_REACTORS
330
C
102
}
330
C
100
AcDbDictionary
281
     1
  0
ACDBDICTIONARYWDFLT
  5
E
102
{ACAD_REACTORS
330
C
102
}
330
C
100
AcDbDictionary
281
     1
  3
Normal
350
F
100
AcDbDictionaryWithDefault
340
F
  0
LAYOUT
  5
1D
102
{ACAD_REACTORS
330
19
102
}
330
19
100
AcDbPlotSettings
  1

  2
RICOH1060
  4

  6

 40
0.0
 41
0.0
 42
0.0
 43
0.0
 44
0.0
 45
0.0
 46
0.0
 47
0.0
 48
0.0
 49
0.0
140
0.0
141
0.0
142
1.0
143
1.0
 70
   688
 72
     0
 73
     0
 74
     5
  7
monochrome.ctb
 75
    16
147
1.0
148
0.0
149
0.0
100
AcDbLayout
  1
Layout1
 70
     0
 71
     1
 10
0.0
 20
0.0
 11
12.0
 21
9.0
 12
0.0
 22
0.0
 32
0.0
 14
1.000000000000000E+20
 24
1.000000000000000E+20
 34
1.000000000000000E+20
 15
-1.000000000000000E+20
 25
-1.000000000000000E+20
 35
-1.000000000000000E+20
146
0.0
 13
0.0
 23
0.0
 33
0.0
 16
1.0
 26
0.0
 36
0.0
 17
0.0
 27
1.0
 37
0.0
 76
     0
330
1A
  0
LAYOUT
  5
21
102
{ACAD_REACTORS
330
19
102
}
330
19
100
AcDbPlotSettings
  1

  2
RICOH1060
  4
Letter
  6

 40
7.143749713897705
 41
5.027085304260253
 42
7.14373779296875
 43
5.027069091796875
 44
215.8999938964843
 45
279.3999938964843
 46
0.0
 47
68.83399999999999
 48
0.0
 49
0.0
140
0.0
141
0.0
142
1.0
143
8.787937636719609
 70
 11956
 72
     0
 73
     1
 74
     1
  7
monochrome.ctb
 75
     0
147
0.1137923414273662
148
0.0352974777505239
149
0.0540623424038643
100
AcDbLayout
  1
Model
 70
     1
 71
     0
 10
0.0
 20
0.0
 11
12.0
 21
9.0
 12
0.0
 22
0.0
 32
0.0
 14
0.0
 24
0.0
 34
0.0
 15
0.0
 25
0.0
 35
0.0
146
0.0
 13
0.0
 23
0.0
 33
0.0
 16
1.0
 26
0.0
 36
0.0
 17
0.0
 27
1.0
 37
0.0
 76
     0
330
1E
  0
MLINESTYLE
  5
17
102
{ACAD_REACTORS
330
16
102
}
330
16
100
AcDbMlineStyle
  2
STANDARD
 70
     0
  3

 62
   256
 51
90.0
 52
90.0
 71
     2
 49
0.5
 62
   256
  6
BYLAYER
 49
-0.5
 62
   256
  6
BYLAYER
  0
ACDBPLACEHOLDER
  5
F
102
{ACAD_REACTORS
330
E
102
}
330
E
  0
ENDSEC
  0
EOF
