  0
SECTION
  2
HEADER
  9
$ACADVER
  1
AC1014
  9
$ACADMAINTVER
 70
     9
  9
$DWGCODEPAGE
  3
ANSI_1252
  9
$INSBASE
 10
0.0
 20
0.0
 30
0.0
  9
$EXTMIN
 10
0.0
 20
0.0
 30
0.0
  9
$EXTMAX
 10
33.19999999999999
 20
20.656
 30
0.0
  9
$LIMMIN
 10
0.0
 20
0.0
  9
$LIMMAX
 10
33.2
 20
19.31999999999999
  9
$ORTHOMODE
 70
     0
  9
$REGENMODE
 70
     1
  9
$FILLMODE
 70
     1
  9
$QTEXTMODE
 70
     0
  9
$MIRRTEXT
 70
     0
  9
$DRAGMODE
 70
     2
  9
$LTSCALE
 40
0.75
  9
$OSMODE
 70
    37
  9
$ATTMODE
 70
     1
  9
$TEXTSIZE
 40
0.075
  9
$TRACEWID
 40
0.05
  9
$TEXTSTYLE
  7
NOMENCLATURE
  9
$CLAYER
  8
OBJECT
  9
$CELTYPE
  6
BYLAYER
  9
$CECOLOR
 62
   256
  9
$CELTSCALE
 40
1.0
  9
$DELOBJ
 70
     1
  9
$DISPSILH
 70
     0
  9
$DIMSCALE
 40
2.0
  9
$DIMASZ
 40
0.18
  9
$DIMEXO
 40
0.063
  9
$DIMDLI
 40
0.281
  9
$DIMRND
 40
0.0
  9
$DIMDLE
 40
0.0
  9
$DIMEXE
 40
0.093
  9
$DIMTP
 40
0.0
  9
$DIMTM
 40
0.0
  9
$DIMTXT
 40
0.125
  9
$DIMCEN
 40
0.09
  9
$DIMTSZ
 40
0.0
  9
$DIMTOL
 70
     0
  9
$DIMLIM
 70
     0
  9
$DIMTIH
 70
     1
  9
$DIMTOH
 70
     1
  9
$DIMSE1
 70
     0
  9
$DIMSE2
 70
     0
  9
$DIMTAD
 70
     0
  9
$DIMZIN
 70
     0
  9
$DIMBLK
  1

  9
$DIMASO
 70
     1
  9
$DIMSHO
 70
     1
  9
$DIMPOST
  1

  9
$DIMAPOST
  1

  9
$DIMALT
 70
     0
  9
$DIMALTD
 70
     2
  9
$DIMALTF
 40
25.4
  9
$DIMLFAC
 40
1.0
  9
$DIMTOFL
 70
     0
  9
$DIMTVP
 40
0.0
  9
$DIMTIX
 70
     0
  9
$DIMSOXD
 70
     0
  9
$DIMSAH
 70
     0
  9
$DIMBLK1
  1

  9
$DIMBLK2
  1

  9
$DIMSTYLE
  2
23NSTD
  9
$DIMCLRD
 70
     0
  9
$DIMCLRE
 70
     0
  9
$DIMCLRT
 70
     0
  9
$DIMTFAC
 40
1.0
  9
$DIMGAP
 40
0.09
  9
$DIMJUST
 70
     0
  9
$DIMSD1
 70
     0
  9
$DIMSD2
 70
     0
  9
$DIMTOLJ
 70
     1
  9
$DIMTZIN
 70
     0
  9
$DIMALTZ
 70
     0
  9
$DIMALTTZ
 70
     0
  9
$DIMFIT
 70
     3
  9
$DIMUPT
 70
     0
  9
$DIMUNIT
 70
     2
  9
$DIMDEC
 70
     2
  9
$DIMTDEC
 70
     2
  9
$DIMALTU
 70
     2
  9
$DIMALTTD
 70
     2
  9
$DIMTXSTY
  7
TXT
  9
$DIMAUNIT
 70
     0
  9
$LUNITS
 70
     2
  9
$LUPREC
 70
     3
  9
$SKETCHINC
 40
0.1
  9
$FILLETRAD
 40
0.062
  9
$AUNITS
 70
     0
  9
$AUPREC
 70
     0
  9
$MENU
  1
.
  9
$ELEVATION
 40
0.0
  9
$PELEVATION
 40
0.0
  9
$THICKNESS
 40
0.0
  9
$LIMCHECK
 70
     0
  9
$CHAMFERA
 40
0.0
  9
$CHAMFERB
 40
0.0
  9
$CHAMFERC
 40
0.0
  9
$CHAMFERD
 40
0.0
  9
$SKPOLY
 70
     0
  9
$TDCREATE
 40
2453353.508792488
  9
$TDUPDATE
 40
2458859.326180822
  9
$TDINDWG
 40
0.32134
  9
$TDUSRTIMER
 40
0.32134
  9
$USRTIMER
 70
     1
  9
$ANGBASE
 50
0.0
  9
$ANGDIR
 70
     0
  9
$PDMODE
 70
     0
  9
$PDSIZE
 40
0.0
  9
$PLINEWID
 40
0.0
  9
$COORDS
 70
     1
  9
$SPLFRAME
 70
     0
  9
$SPLINETYPE
 70
     6
  9
$SPLINESEGS
 70
     8
  9
$ATTDIA
 70
     0
  9
$ATTREQ
 70
     1
  9
$HANDLING
 70
     1
  9
$HANDSEED
  5
50F1
  9
$SURFTAB1
 70
     6
  9
$SURFTAB2
 70
     6
  9
$SURFTYPE
 70
     6
  9
$SURFU
 70
     6
  9
$SURFV
 70
     6
  9
$UCSNAME
  2

  9
$UCSORG
 10
0.0
 20
0.0
 30
0.0
  9
$UCSXDIR
 10
1.0
 20
0.0
 30
0.0
  9
$UCSYDIR
 10
0.0
 20
1.0
 30
0.0
  9
$PUCSNAME
  2

  9
$PUCSORG
 10
0.0
 20
0.0
 30
0.0
  9
$PUCSXDIR
 10
1.0
 20
0.0
 30
0.0
  9
$PUCSYDIR
 10
0.0
 20
1.0
 30
0.0
  9
$USERI1
 70
     0
  9
$USERI2
 70
     0
  9
$USERI3
 70
     0
  9
$USERI4
 70
     0
  9
$USERI5
 70
     0
  9
$USERR1
 40
0.0
  9
$USERR2
 40
0.0
  9
$USERR3
 40
0.0
  9
$USERR4
 40
0.0
  9
$USERR5
 40
0.0
  9
$WORLDVIEW
 70
     1
  9
$SHADEDGE
 70
     3
  9
$SHADEDIF
 70
    70
  9
$TILEMODE
 70
     1
  9
$MAXACTVP
 70
    16
  9
$PINSBASE
 10
0.0
 20
0.0
 30
0.0
  9
$PLIMCHECK
 70
     0
  9
$PEXTMIN
 10
1.000000000000000E+20
 20
1.000000000000000E+20
 30
1.000000000000000E+20
  9
$PEXTMAX
 10
-1.000000000000000E+20
 20
-1.000000000000000E+20
 30
-1.000000000000000E+20
  9
$PLIMMIN
 10
0.0
 20
0.0
  9
$PLIMMAX
 10
12.0
 20
9.0
  9
$UNITMODE
 70
     0
  9
$VISRETAIN
 70
     0
  9
$PLINEGEN
 70
     0
  9
$PSLTSCALE
 70
     1
  9
$TREEDEPTH
 70
  3020
  9
$PICKSTYLE
 70
     1
  9
$CMLSTYLE
  2
STANDARD
  9
$CMLJUST
 70
     0
  9
$CMLSCALE
 40
1.0
  9
$PROXYGRAPHICS
 70
     1
  9
$MEASUREMENT
 70
     0
  0
ENDSEC
  0
SECTION
  2
CLASSES
  0
CLASS
  1
ACDBDICTIONARYWDFLT
  2
AcDbDictionaryWithDefault
  3
ObjectDBX Classes
 90
        0
280
     0
281
     0
  0
CLASS
  1
ACDBPLACEHOLDER
  2
AcDbPlaceHolder
  3
ObjectDBX Classes
 90
        0
280
     0
281
     0
  0
CLASS
  1
LAYOUT
  2
AcDbLayout
  3
ObjectDBX Classes
 90
        0
280
     0
281
     0
  0
CLASS
  1
DICTIONARYVAR
  2
AcDbDictionaryVar
  3
ObjectDBX Classes
 90
        0
280
     0
281
     0
  0
CLASS
  1
TABLESTYLE
  2
AcDbTableStyle
  3
ObjectDBX Classes
 90
     2047
280
     0
281
     0
  0
CLASS
  1
XRECORD
  2
AcDbXrecord
  3
AutoCAD 2000
 90
        0
280
     0
281
     0
  0
CLASS
  1
LWPOLYLINE
  2
AcDbPolyline
  3
AutoCAD 2000
 90
        0
280
     0
281
     1
  0
CLASS
  1
HATCH
  2
AcDbHatch
  3
AutoCAD 2000
 90
        0
280
     0
281
     1
  0
ENDSEC
  0
SECTION
  2
TABLES
  0
TABLE
  2
VPORT
  5
8
330
0
100
AcDbSymbolTable
 70
     2
  0
VPORT
  5
97
330
8
100
AcDbSymbolTableRecord
100
AcDbViewportTableRecord
  2
*ACTIVE
 70
     0
 10
0.0
 20
0.0
 11
1.0
 21
1.0
 12
16.59999999999999
 22
10.328
 13
0.0
 23
0.0
 14
1.0
 24
1.0
 15
0.0
 25
0.0
 16
0.0
 26
0.0
 36
1.0
 17
0.0
 27
0.0
 37
0.0
 40
21.06912
 41
1.836974789915966
 42
50.0
 43
0.0
 44
0.0
 50
0.0
 51
0.0
 71
    16
 72
   100
 73
     1
 74
     0
 75
     0
 76
     0
 77
     0
 78
     1
  0
ENDTAB
  0
TABLE
  2
LTYPE
  5
5
330
0
100
AcDbSymbolTable
 70
    11
  0
LTYPE
  5
14
330
5
100
AcDbSymbolTableRecord
100
AcDbLinetypeTableRecord
  2
BYBLOCK
 70
     0
  3

 72
    65
 73
     0
 40
0.0
  0
LTYPE
  5
15
330
5
100
AcDbSymbolTableRecord
100
AcDbLinetypeTableRecord
  2
BYLAYER
 70
     0
  3

 72
    65
 73
     0
 40
0.0
  0
LTYPE
  5
16
330
5
100
AcDbSymbolTableRecord
100
AcDbLinetypeTableRecord
  2
CONTINUOUS
 70
     0
  3
Solid line
 72
    65
 73
     0
 40
0.0
  0
LTYPE
  5
50A0
330
5
100
AcDbSymbolTableRecord
100
AcDbLinetypeTableRecord
  2
HIDDEN
 70
     0
  3
_ _ _ _ _ _ _ _ _ _ _ _ _ _ _ _ _ _ _ _ _ _ _
 72
    65
 73
     2
 40
0.375
 49
0.25
 74
     4
 75
     0
340
0
 46
1.0
 50
0.0
 44
0.0
 45
0.0
 49
-0.125
 74
     4
 75
     0
340
0
 46
1.0
 50
0.0
 44
0.0
 45
0.0
  0
LTYPE
  5
50A1
330
5
100
AcDbSymbolTableRecord
100
AcDbLinetypeTableRecord
  2
PHANTOM
 70
     0
  3
_____ _ _ _____ _ _ _____ _ _ _____ _ _ ____
 72
    65
 73
     6
 40
2.5
 49
1.25
 74
     4
 75
     0
340
0
 46
1.0
 50
0.0
 44
0.0
 45
0.0
 49
-0.25
 74
     4
 75
     0
340
0
 46
1.0
 50
0.0
 44
0.0
 45
0.0
 49
0.25
 74
     4
 75
     0
340
0
 46
1.0
 50
0.0
 44
0.0
 45
0.0
 49
-0.25
 74
     4
 75
     0
340
0
 46
1.0
 50
0.0
 44
0.0
 45
0.0
 49
0.25
 74
     4
 75
     0
340
0
 46
1.0
 50
0.0
 44
0.0
 45
0.0
 49
-0.25
 74
     4
 75
     0
340
0
 46
1.0
 50
0.0
 44
0.0
 45
0.0
  0
LTYPE
  5
50A2
330
5
100
AcDbSymbolTableRecord
100
AcDbLinetypeTableRecord
  2
CENTER
 70
     0
  3
____ _ ____ _ ____ _ ____ _ ____ _ ____ _ ____
 72
    65
 73
     4
 40
2.0
 49
1.25
 74
     4
 75
     0
340
0
 46
1.0
 50
0.0
 44
0.0
 45
0.0
 49
-0.25
 74
     4
 75
     0
340
0
 46
1.0
 50
0.0
 44
0.0
 45
0.0
 49
0.25
 74
     4
 75
     0
340
0
 46
1.0
 50
0.0
 44
0.0
 45
0.0
 49
-0.25
 74
     4
 75
     0
340
0
 46
1.0
 50
0.0
 44
0.0
 45
0.0
  0
LTYPE
  5
50A3
330
5
100
AcDbSymbolTableRecord
100
AcDbLinetypeTableRecord
  2
PHANTOM2
 70
     0
  3
___ _ _ ___ _ _ ___ _ _ ___ _ _ ___ _ _ ___ _ _
 72
    65
 73
     6
 40
1.25
 49
0.625
 74
     4
 75
     0
340
0
 46
1.0
 50
0.0
 44
0.0
 45
0.0
 49
-0.125
 74
     4
 75
     0
340
0
 46
1.0
 50
0.0
 44
0.0
 45
0.0
 49
0.125
 74
     4
 75
     0
340
0
 46
1.0
 50
0.0
 44
0.0
 45
0.0
 49
-0.125
 74
     4
 75
     0
340
0
 46
1.0
 50
0.0
 44
0.0
 45
0.0
 49
0.125
 74
     4
 75
     0
340
0
 46
1.0
 50
0.0
 44
0.0
 45
0.0
 49
-0.125
 74
     4
 75
     0
340
0
 46
1.0
 50
0.0
 44
0.0
 45
0.0
  0
LTYPE
  5
50A4
330
5
100
AcDbSymbolTableRecord
100
AcDbLinetypeTableRecord
  2
HIDDEN2
 70
     0
  3
_ _ _ _ _ _ _ _ _ _ _ _ _ _ _ _ _ _ _ _ _ _ _ _
 72
    65
 73
     2
 40
0.1875
 49
0.125
 74
     4
 75
     0
340
0
 46
1.0
 50
0.0
 44
0.0
 45
0.0
 49
-0.0625
 74
     4
 75
     0
340
0
 46
1.0
 50
0.0
 44
0.0
 45
0.0
  0
LTYPE
  5
50A5
330
5
100
AcDbSymbolTableRecord
100
AcDbLinetypeTableRecord
  2
CENTER2
 70
     0
  3
Center (.5x) ___ _ ___ _ ___ _ ___ _ ___ _ ___
 72
    65
 73
     4
 40
1.125
 49
0.75
 74
     4
 75
     0
340
0
 46
1.0
 50
0.0
 44
0.0
 45
0.0
 49
-0.125
 74
     4
 75
     0
340
0
 46
1.0
 50
0.0
 44
0.0
 45
0.0
 49
0.125
 74
     4
 75
     0
340
0
 46
1.0
 50
0.0
 44
0.0
 45
0.0
 49
-0.125
 74
     4
 75
     0
340
0
 46
1.0
 50
0.0
 44
0.0
 45
0.0
  0
LTYPE
  5
50A6
330
5
100
AcDbSymbolTableRecord
100
AcDbLinetypeTableRecord
  2
CENTERX2
 70
     0
  3
________  __  ________  __  ________  __  _____
 72
    65
 73
     4
 40
4.0
 49
2.5
 74
     4
 75
     0
340
0
 46
1.0
 50
0.0
 44
0.0
 45
0.0
 49
-0.5
 74
     4
 75
     0
340
0
 46
1.0
 50
0.0
 44
0.0
 45
0.0
 49
0.5
 74
     4
 75
     0
340
0
 46
1.0
 50
0.0
 44
0.0
 45
0.0
 49
-0.5
 74
     4
 75
     0
340
0
 46
1.0
 50
0.0
 44
0.0
 45
0.0
  0
LTYPE
  5
50A7
330
5
100
AcDbSymbolTableRecord
100
AcDbLinetypeTableRecord
  2
DASHED
 70
     0
  3
__ __ __ __ __ __ __ __ __ __ __ __ __ __ __ __
 72
    65
 73
     2
 40
0.75
 49
0.5
 74
     4
 75
     0
340
0
 46
1.0
 50
0.0
 44
0.0
 45
0.0
 49
-0.25
 74
     4
 75
     0
340
0
 46
1.0
 50
0.0
 44
0.0
 45
0.0
  0
LTYPE
  5
50A8
330
5
100
AcDbSymbolTableRecord
100
AcDbLinetypeTableRecord
  2
HIDDENX2
 70
     0
  3
____ ____ ____ ____ ____ ____ ____ ____ ____ __
 72
    65
 73
     2
 40
0.75
 49
0.5
 74
     4
 75
     0
340
0
 46
1.0
 50
0.0
 44
0.0
 45
0.0
 49
-0.25
 74
     4
 75
     0
340
0
 46
1.0
 50
0.0
 44
0.0
 45
0.0
  0
LTYPE
  5
50A9
330
5
100
AcDbSymbolTableRecord
100
AcDbLinetypeTableRecord
  2
PHANTOMX2
 70
     0
  3
____________    ____    ____    ____________   
 72
    65
 73
     6
 40
5.0
 49
2.5
 74
     4
 75
     0
340
0
 46
1.0
 50
0.0
 44
0.0
 45
0.0
 49
-0.5
 74
     4
 75
     0
340
0
 46
1.0
 50
0.0
 44
0.0
 45
0.0
 49
0.5
 74
     4
 75
     0
340
0
 46
1.0
 50
0.0
 44
0.0
 45
0.0
 49
-0.5
 74
     4
 75
     0
340
0
 46
1.0
 50
0.0
 44
0.0
 45
0.0
 49
0.5
 74
     4
 75
     0
340
0
 46
1.0
 50
0.0
 44
0.0
 45
0.0
 49
-0.5
 74
     4
 75
     0
340
0
 46
1.0
 50
0.0
 44
0.0
 45
0.0
  0
ENDTAB
  0
TABLE
  2
LAYER
  5
2
330
0
100
AcDbSymbolTable
 70
    14
  0
LAYER
  5
10
330
2
100
AcDbSymbolTableRecord
100
AcDbLayerTableRecord
  2
0
 70
     0
 62
     7
  6
CONTINUOUS
  0
LAYER
  5
2C51
330
2
100
AcDbSymbolTableRecord
100
AcDbLayerTableRecord
  2
DIM
 70
     0
 62
     7
  6
CONTINUOUS
  0
LAYER
  5
2C5A
330
2
100
AcDbSymbolTableRecord
100
AcDbLayerTableRecord
  2
DEFPOINTS
 70
     0
 62
     7
  6
CONTINUOUS
  0
LAYER
  5
2C5B
330
2
100
AcDbSymbolTableRecord
100
AcDbLayerTableRecord
  2
OBJECT
 70
     0
 62
     7
  6
CONTINUOUS
  0
LAYER
  5
2C5C
330
2
100
AcDbSymbolTableRecord
100
AcDbLayerTableRecord
  2
HIDDEN
 70
     0
 62
     7
  6
HIDDEN
  0
LAYER
  5
2C5D
330
2
100
AcDbSymbolTableRecord
100
AcDbLayerTableRecord
  2
BEND
 70
     0
 62
     7
  6
PHANTOM
  0
LAYER
  5
2C5E
330
2
100
AcDbSymbolTableRecord
100
AcDbLayerTableRecord
  2
TEXT
 70
     0
 62
     7
  6
CONTINUOUS
  0
LAYER
  5
2C5F
330
2
100
AcDbSymbolTableRecord
100
AcDbLayerTableRecord
  2
TITLE
 70
     4
 62
     7
  6
CONTINUOUS
  0
LAYER
  5
2C60
330
2
100
AcDbSymbolTableRecord
100
AcDbLayerTableRecord
  2
CENTER
 70
     0
 62
     7
  6
CENTER
  0
LAYER
  5
2C61
330
2
100
AcDbSymbolTableRecord
100
AcDbLayerTableRecord
  2
HIDDEN2
 70
     0
 62
     7
  6
HIDDEN2
  0
LAYER
  5
4159
330
2
100
AcDbSymbolTableRecord
100
AcDbLayerTableRecord
  2
GROUND
 70
     0
 62
     7
  6
CONTINUOUS
  0
LAYER
  5
415C
330
2
100
AcDbSymbolTableRecord
100
AcDbLayerTableRecord
  2
DIMENSION
 70
     0
 62
     7
  6
CONTINUOUS
  0
LAYER
  5
4160
330
2
100
AcDbSymbolTableRecord
100
AcDbLayerTableRecord
  2
BLOCKS
 70
     0
 62
     7
  6
CONTINUOUS
  0
LAYER
  5
416A
330
2
100
AcDbSymbolTableRecord
100
AcDbLayerTableRecord
  2
ASHADE
 70
     0
 62
     7
  6
CONTINUOUS
  0
ENDTAB
  0
TABLE
  2
STYLE
  5
3
330
0
100
AcDbSymbolTable
 70
     3
  0
STYLE
  5
11
330
3
100
AcDbSymbolTableRecord
100
AcDbTextStyleTableRecord
  2
STANDARD
 70
     0
 40
0.0
 41
1.0
 50
0.0
 71
     0
 42
0.2
  3
txt
  4

  0
STYLE
  5
2C52
330
3
100
AcDbSymbolTableRecord
100
AcDbTextStyleTableRecord
  2
TXT
 70
     0
 40
0.0
 41
0.75
 50
0.0
 71
     0
 42
0.25
  3
TXT.shx
  4

  0
STYLE
  5
48BF
330
3
100
AcDbSymbolTableRecord
100
AcDbTextStyleTableRecord
  2
NOMENCLATURE
 70
     0
 40
0.075
 41
0.75
 50
0.0
 71
     0
 42
0.075
  3
ARIAL.TTF
  4

1001
ACAD
1000
Arial
1071
       34
  0
ENDTAB
  0
TABLE
  2
VIEW
  5
6
330
0
100
AcDbSymbolTable
 70
     0
  0
ENDTAB
  0
TABLE
  2
UCS
  5
7
330
0
100
AcDbSymbolTable
 70
     0
  0
ENDTAB
  0
TABLE
  2
APPID
  5
9
330
0
100
AcDbSymbolTable
 70
     6
  0
APPID
  5
12
330
9
100
AcDbSymbolTableRecord
100
AcDbRegAppTableRecord
  2
ACAD
 70
     0
  0
APPID
  5
509B
330
9
100
AcDbSymbolTableRecord
100
AcDbRegAppTableRecord
  2
AVE_RENDER
 70
     0
  0
APPID
  5
509C
330
9
100
AcDbSymbolTableRecord
100
AcDbRegAppTableRecord
  2
AVE_ENTITY_MATERIAL
 70
     0
  0
APPID
  5
509D
330
9
100
AcDbSymbolTableRecord
100
AcDbRegAppTableRecord
  2
AVE_FINISH
 70
     0
  0
APPID
  5
509E
330
9
100
AcDbSymbolTableRecord
100
AcDbRegAppTableRecord
  2
AVE_MATERIAL
 70
     0
  0
APPID
  5
509F
330
9
100
AcDbSymbolTableRecord
100
AcDbRegAppTableRecord
  2
AVE_GLOBAL
 70
     0
  0
ENDTAB
  0
TABLE
  2
DIMSTYLE
  5
A
330
0
100
AcDbSymbolTable
 70
     3
  0
DIMSTYLE
105
27
330
A
100
AcDbSymbolTableRecord
100
AcDbDimStyleTableRecord
  2
STANDARD
 70
     0
  3

  4

  5

  6

  7

 40
1.0
 41
0.18
 42
0.0625
 43
0.38
 44
0.18
 45
0.0
 46
0.0
 47
0.0
 48
0.0
140
0.18
141
0.09
142
0.0
143
25.4
144
1.0
145
0.0
146
1.0
147
0.09
 71
     0
 72
     0
 73
     1
 74
     1
 75
     0
 76
     0
 77
     0
 78
     0
170
     0
171
     2
172
     0
173
     0
174
     0
175
     0
176
     0
177
     0
178
     0
270
     2
271
     4
272
     4
273
     2
274
     2
340
11
275
     0
280
     0
281
     0
282
     0
283
     1
284
     0
285
     0
286
     0
287
     3
288
     0
  0
DIMSTYLE
105
2C62
102
{ACAD_REACTORS
330
4708
330
472A
330
4CC9
330
4D14
330
5029
330
5081
102
}
330
A
100
AcDbSymbolTableRecord
100
AcDbDimStyleTableRecord
  2
23NSTD
 70
     0
  3

  4

  5

  6

  7

 40
2.0
 41
0.18
 42
0.063
 43
0.281
 44
0.093
 45
0.0
 46
0.0
 47
0.0
 48
0.0
140
0.125
141
0.09
142
0.0
143
25.4
144
1.0
145
0.0
146
1.0
147
0.09
 71
     0
 72
     0
 73
     1
 74
     1
 75
     0
 76
     0
 77
     0
 78
     0
170
     0
171
     2
172
     0
173
     0
174
     0
175
     0
176
     0
177
     0
178
     0
270
     2
271
     2
272
     2
273
     2
274
     2
340
2C52
275
     0
280
     0
281
     0
282
     0
283
     1
284
     0
285
     0
286
     0
287
     1
288
     0
  0
DIMSTYLE
105
2C63
330
A
100
AcDbSymbolTableRecord
100
AcDbDimStyleTableRecord
  2
23NSTDI
 70
     0
  3

  4

  5

  6

  7

 40
2.0
 41
0.18
 42
0.063
 43
0.281
 44
0.093
 45
0.0
 46
0.0
 47
0.0
 48
0.0
140
0.125
141
0.09
142
0.0
143
25.4
144
1.0
145
0.0
146
1.0
147
0.09
 71
     0
 72
     0
 73
     1
 74
     1
 75
     0
 76
     0
 77
     0
 78
     0
170
     0
171
     2
172
     0
173
     0
174
     1
175
     0
176
     0
177
     0
178
     0
270
     2
271
     3
272
     3
273
     2
274
     2
340
2C52
275
     0
280
     0
281
     0
282
     0
283
     1
284
     0
285
     0
286
     0
287
     3
288
     0
  0
ENDTAB
  0
TABLE
  2
BLOCK_RECORD
  5
1
330
0
100
AcDbSymbolTable
 70
    18
  0
BLOCK_RECORD
  5
1F
330
1
100
AcDbSymbolTableRecord
100
AcDbBlockTableRecord
  2
*MODEL_SPACE
  0
BLOCK_RECORD
  5
73
330
1
100
AcDbSymbolTableRecord
100
AcDbBlockTableRecord
  2
*PAPER_SPACE
  0
BLOCK_RECORD
  5
2CFD
330
1
100
AcDbSymbolTableRecord
100
AcDbBlockTableRecord
  2
HBS
  0
BLOCK_RECORD
  5
40F2
330
1
100
AcDbSymbolTableRecord
100
AcDbBlockTableRecord
  2
AVE_RENDER
  0
BLOCK_RECORD
  5
40F5
330
1
100
AcDbSymbolTableRecord
100
AcDbBlockTableRecord
  2
AVE_GLOBAL
  0
BLOCK_RECORD
  5
4709
330
1
100
AcDbSymbolTableRecord
100
AcDbBlockTableRecord
  2
*D3
  0
BLOCK_RECORD
  5
472B
330
1
100
AcDbSymbolTableRecord
100
AcDbBlockTableRecord
  2
*D4
  0
BLOCK_RECORD
  5
4CCA
330
1
100
AcDbSymbolTableRecord
100
AcDbBlockTableRecord
  2
*D5
  0
BLOCK_RECORD
  5
4D15
330
1
100
AcDbSymbolTableRecord
100
AcDbBlockTableRecord
  2
*D6
  0
BLOCK_RECORD
  5
501C
330
1
100
AcDbSymbolTableRecord
100
AcDbBlockTableRecord
  2
*D7
  0
BLOCK_RECORD
  5
5028
330
1
100
AcDbSymbolTableRecord
100
AcDbBlockTableRecord
  2
*D8
  0
BLOCK_RECORD
  5
5035
330
1
100
AcDbSymbolTableRecord
100
AcDbBlockTableRecord
  2
*D9
  0
BLOCK_RECORD
  5
5044
330
1
100
AcDbSymbolTableRecord
100
AcDbBlockTableRecord
  2
*D10
  0
BLOCK_RECORD
  5
5050
330
1
100
AcDbSymbolTableRecord
100
AcDbBlockTableRecord
  2
*D11
  0
BLOCK_RECORD
  5
505C
330
1
100
AcDbSymbolTableRecord
100
AcDbBlockTableRecord
  2
*D12
  0
BLOCK_RECORD
  5
5068
330
1
100
AcDbSymbolTableRecord
100
AcDbBlockTableRecord
  2
*D13
  0
BLOCK_RECORD
  5
5074
330
1
100
AcDbSymbolTableRecord
100
AcDbBlockTableRecord
  2
*D14
  0
BLOCK_RECORD
  5
5080
330
1
100
AcDbSymbolTableRecord
100
AcDbBlockTableRecord
  2
*D15
  0
BLOCK_RECORD
  5
508D
330
1
100
AcDbSymbolTableRecord
100
AcDbBlockTableRecord
  2
*D16
  0
BLOCK_RECORD
  5
5099
330
1
100
AcDbSymbolTableRecord
100
AcDbBlockTableRecord
  2
*D17
  0
ENDTAB
  0
ENDSEC
  0
SECTION
  2
BLOCKS
  0
BLOCK
  5
20
330
1F
100
AcDbEntity
  8
0
100
AcDbBlockBegin
  2
*MODEL_SPACE
 70
     0
 71
     0
 10
0.0
 20
0.0
 30
0.0
  3
*MODEL_SPACE
  1

  0
ENDBLK
  5
21
330
1F
100
AcDbEntity
  8
0
100
AcDbBlockEnd
  0
BLOCK
  5
75
330
73
100
AcDbEntity
 67
     1
  8
0
100
AcDbBlockBegin
  2
*PAPER_SPACE
 70
     0
 71
     0
 10
0.0
 20
0.0
 30
0.0
  3
*PAPER_SPACE
  1

  0
ENDBLK
  5
76
330
73
100
AcDbEntity
 67
     1
  8
0
100
AcDbBlockEnd
  0
BLOCK
  5
50AA
330
2CFD
100
AcDbEntity
  8
0
100
AcDbBlockBegin
  2
HBS
 70
     0
 71
     0
 10
0.0
 20
0.0
 30
0.0
  3
HBS
  1

  0
LINE
  5
468E
330
2CFD
100
AcDbEntity
  8
TITLE
100
AcDbLine
 10
0.0620000000000118
 20
10.266
 30
0.0
 11
16.53800000000001
 21
10.26600000000001
 31
0.0
  0
LINE
  5
468F
330
2CFD
100
AcDbEntity
  8
TITLE
100
AcDbLine
 10
16.53800000000001
 20
0.0620000000000012
 30
0.0
 11
0.0620000000000118
 21
0.0620000000000012
 31
0.0
  0
LINE
  5
4690
330
2CFD
100
AcDbEntity
  8
TITLE
100
AcDbLine
 10
0.0
 20
10.328
 30
0.0
 11
16.59999999999999
 21
10.328
 31
0.0
  0
LINE
  5
4691
330
2CFD
100
AcDbEntity
  8
TITLE
100
AcDbLine
 10
16.59999999999999
 20
0.0
 30
0.0
 11
0.0
 21
0.0
 31
0.0
  0
LINE
  5
4692
330
2CFD
100
AcDbEntity
  8
TITLE
100
AcDbLine
 10
0.0620000000000118
 20
9.848000000000003
 30
0.0
 11
16.53800000000001
 21
9.848000000000006
 31
0.0
  0
LINE
  5
4693
330
2CFD
100
AcDbEntity
  8
TITLE
100
AcDbLine
 10
0.0620000000000118
 20
0.0620000000000012
 30
0.0
 11
0.0620000000000118
 21
10.266
 31
0.0
  0
LINE
  5
4694
330
2CFD
100
AcDbEntity
  8
TITLE
100
AcDbLine
 10
0.0
 20
0.0
 30
0.0
 11
0.0
 21
10.328
 31
0.0
  0
TEXT
  5
4695
330
2CFD
100
AcDbEntity
  8
TEXT
100
AcDbText
 10
0.2076250000000118
 20
9.888079195640081
 30
0.0
 40
0.125
  1
NAME
  7
TXT
 72
     1
 11
0.4370000000000118
 21
9.888079195640081
 31
0.0
100
AcDbText
  0
TEXT
  5
4696
330
2CFD
100
AcDbEntity
  8
TEXT
100
AcDbText
 10
0.2076250000000118
 20
10.09641252897341
 30
0.0
 40
0.125
  1
PART
  7
TXT
 72
     1
 11
0.4370000000000118
 21
10.09641252897341
 31
0.0
100
AcDbText
  0
LINE
  5
4697
330
2CFD
100
AcDbEntity
  8
TITLE
100
AcDbLine
 10
0.8120000000000118
 20
9.848000000000003
 30
0.0
 11
0.8120000000000118
 21
10.266
 31
0.0
  0
LINE
  5
4698
330
2CFD
100
AcDbEntity
  8
TITLE
100
AcDbLine
 10
7.0
 20
10.266
 30
0.0
 11
7.0
 21
9.848000000000003
 31
0.0
  0
LINE
  5
4699
330
2CFD
100
AcDbEntity
  8
TITLE
100
AcDbLine
 10
7.062000000000012
 20
10.266
 30
0.0
 11
7.062000000000012
 21
9.848000000000003
 31
0.0
  0
LINE
  5
469A
330
2CFD
100
AcDbEntity
  8
TITLE
100
AcDbLine
 10
7.812000000000012
 20
10.266
 30
0.0
 11
7.812000000000012
 21
9.848000000000003
 31
0.0
  0
TEXT
  5
469B
330
2CFD
100
AcDbEntity
  8
TEXT
100
AcDbText
 10
7.312000000000012
 20
9.888079195640081
 30
0.0
 40
0.125
  1
No.
  7
TXT
 72
     1
 11
7.437000000000012
 21
9.888079195640081
 31
0.0
100
AcDbText
  0
TEXT
  5
469C
330
2CFD
100
AcDbEntity
  8
TEXT
100
AcDbText
 10
7.207625000000012
 20
10.09641252897341
 30
0.0
 40
0.125
  1
PART
  7
TXT
 72
     1
 11
7.437000000000012
 21
10.09641252897341
 31
0.0
100
AcDbText
  0
LINE
  5
469D
330
2CFD
100
AcDbEntity
  8
TITLE
100
AcDbLine
 10
16.53800000000001
 20
10.26600000000001
 30
0.0
 11
16.53800000000001
 21
0.0620000000000012
 31
0.0
  0
LINE
  5
469E
330
2CFD
100
AcDbEntity
  8
TITLE
100
AcDbLine
 10
16.59999999999999
 20
10.328
 30
0.0
 11
16.59999999999999
 21
0.0
 31
0.0
  0
TEXT
  5
469F
330
2CFD
100
AcDbEntity
  8
TEXT
100
AcDbText
 10
14.22886613305001
 20
10.09641252897341
 30
0.0
 40
0.125
  1
REV.
  7
TXT
 72
     1
 11
14.43699113305001
 21
10.09641252897341
 31
0.0
100
AcDbText
  0
TEXT
  5
46A0
330
2CFD
100
AcDbEntity
  8
TEXT
100
AcDbText
 10
14.20761613305002
 20
9.888079195640081
 30
0.0
 40
0.125
  1
DATE
  7
TXT
 72
     1
 11
14.43699113305001
 21
9.888079195640081
 31
0.0
100
AcDbText
  0
LINE
  5
46A1
330
2CFD
100
AcDbEntity
  8
TITLE
100
AcDbLine
 10
14.06199113305001
 20
10.266
 30
0.0
 11
14.06199113305001
 21
9.848000000000003
 31
0.0
  0
LINE
  5
46A2
330
2CFD
100
AcDbEntity
  8
TITLE
100
AcDbLine
 10
14.81199113305001
 20
10.266
 30
0.0
 11
14.81199113305001
 21
9.848000000000003
 31
0.0
  0
LINE
  5
46A3
330
2CFD
100
AcDbEntity
  8
TITLE
100
AcDbLine
 10
13.99999113305
 20
10.266
 30
0.0
 11
13.99999113305
 21
9.848000000000003
 31
0.0
  0
ENDBLK
  5
50AB
330
2CFD
100
AcDbEntity
  8
0
100
AcDbBlockEnd
  0
BLOCK
  5
50AC
330
40F2
100
AcDbEntity
  8
0
100
AcDbBlockBegin
  2
AVE_RENDER
 70
     0
 71
     0
 10
0.0
 20
0.0
 30
0.0
  3
AVE_RENDER
  1
AVE_RENDER
  0
ENDBLK
  5
50AD
330
40F2
100
AcDbEntity
  8
0
100
AcDbBlockEnd
  0
BLOCK
  5
50AE
330
40F5
100
AcDbEntity
  8
0
100
AcDbBlockBegin
  2
AVE_GLOBAL
 70
     0
 71
     0
 10
0.0
 20
0.0
 30
0.0
  3
AVE_GLOBAL
  1
AVE_GLOBAL
  0
ENDBLK
  5
50AF
330
40F5
100
AcDbEntity
  8
0
100
AcDbBlockEnd
  0
BLOCK
  5
50B0
330
4709
100
AcDbEntity
  8
0
100
AcDbBlockBegin
  2
*D3
 70
     1
 71
     0
 10
0.0
 20
0.0
 30
0.0
  3
*D3
  1

  0
LINE
  5
4EE0
330
4709
100
AcDbEntity
  8
DIM
 62
     0
100
AcDbLine
 10
7.08099085810008
 20
11.9902358463149
 30
0.0
 11
7.08099085810008
 21
12.82355736045489
 31
0.0
  0
LINE
  5
4EE1
330
4709
100
AcDbEntity
  8
DIM
 62
     0
100
AcDbLine
 10
26.08099085810008
 20
11.9902358463149
 30
0.0
 11
26.08099085810008
 21
12.82355736045489
 31
0.0
  0
LINE
  5
4EE2
330
4709
100
AcDbEntity
  8
DIM
 62
     0
100
AcDbLine
 10
7.44099085810008
 20
12.63755736045489
 30
0.0
 11
16.08849085810008
 21
12.63755736045489
 31
0.0
  0
LINE
  5
4EE3
330
4709
100
AcDbEntity
  8
DIM
 62
     0
100
AcDbLine
 10
25.72099085810008
 20
12.63755736045489
 30
0.0
 11
17.07349085810008
 21
12.63755736045489
 31
0.0
  0
SOLID
  5
4EE4
330
4709
100
AcDbEntity
  8
DIM
 62
     0
100
AcDbTrace
 10
7.44099085810008
 20
12.69755736045489
 30
0.0
 11
7.44099085810008
 21
12.57755736045489
 31
0.0
 12
7.08099085810008
 22
12.63755736045489
 32
0.0
 13
7.08099085810008
 23
12.63755736045489
 33
0.0
  0
SOLID
  5
4EE5
330
4709
100
AcDbEntity
  8
DIM
 62
     0
100
AcDbTrace
 10
25.72099085810008
 20
12.69755736045489
 30
0.0
 11
25.72099085810008
 21
12.57755736045489
 31
0.0
 12
26.08099085810008
 22
12.63755736045489
 32
0.0
 13
26.08099085810008
 23
12.63755736045489
 33
0.0
  0
MTEXT
  5
4EE6
330
4709
100
AcDbEntity
  8
DIM
 62
     0
100
AcDbMText
 10
16.58099085810008
 20
12.63755736045489
 30
0.0
 40
0.25
 41
0.0
 71
     5
 72
     1
  1
\A1;19.00
  7
TXT
  0
POINT
  5
4EE7
330
4709
100
AcDbEntity
  8
DEFPOINTS
 62
     0
100
AcDbPoint
 10
7.08099085810008
 20
11.8642358463149
 30
0.0
  0
POINT
  5
4EE8
330
4709
100
AcDbEntity
  8
DEFPOINTS
 62
     0
100
AcDbPoint
 10
26.08099085810008
 20
11.8642358463149
 30
0.0
  0
POINT
  5
4EE9
330
4709
100
AcDbEntity
  8
DEFPOINTS
 62
     0
100
AcDbPoint
 10
26.08099085810008
 20
12.63755736045489
 30
0.0
  0
ENDBLK
  5
50B1
330
4709
100
AcDbEntity
  8
0
100
AcDbBlockEnd
  0
BLOCK
  5
50B2
330
472B
100
AcDbEntity
  8
0
100
AcDbBlockBegin
  2
*D4
 70
     1
 71
     0
 10
0.0
 20
0.0
 30
0.0
  3
*D4
  1

  0
LINE
  5
4EF4
330
472B
100
AcDbEntity
  8
DIM
 62
     0
100
AcDbLine
 10
6.954990858100079
 20
11.8642358463149
 30
0.0
 11
6.177239617931498
 21
11.8642358463149
 31
0.0
  0
LINE
  5
4EF5
330
472B
100
AcDbEntity
  8
DIM
 62
     0
100
AcDbLine
 10
6.954990858100079
 20
10.11423584631487
 30
0.0
 11
6.177239617931498
 21
10.11423584631487
 31
0.0
  0
LINE
  5
4EF6
330
472B
100
AcDbEntity
  8
DIM
 62
     0
100
AcDbLine
 10
6.363239617931498
 20
11.5042358463149
 30
0.0
 11
6.363239617931498
 21
11.29423584631488
 31
0.0
  0
LINE
  5
4EF7
330
472B
100
AcDbEntity
  8
DIM
 62
     0
100
AcDbLine
 10
6.363239617931498
 20
10.47423584631487
 30
0.0
 11
6.363239617931498
 21
10.68423584631488
 31
0.0
  0
SOLID
  5
4EF8
330
472B
100
AcDbEntity
  8
DIM
 62
     0
100
AcDbTrace
 10
6.303239617931498
 20
11.5042358463149
 30
0.0
 11
6.423239617931498
 21
11.5042358463149
 31
0.0
 12
6.363239617931498
 22
11.8642358463149
 32
0.0
 13
6.363239617931498
 23
11.8642358463149
 33
0.0
  0
SOLID
  5
4EF9
330
472B
100
AcDbEntity
  8
DIM
 62
     0
100
AcDbTrace
 10
6.303239617931498
 20
10.47423584631487
 30
0.0
 11
6.423239617931498
 21
10.47423584631487
 31
0.0
 12
6.363239617931498
 22
10.11423584631487
 32
0.0
 13
6.363239617931498
 23
10.11423584631487
 33
0.0
  0
MTEXT
  5
4EFA
330
472B
100
AcDbEntity
  8
DIM
 62
     0
100
AcDbMText
 10
6.363239617931496
 20
10.98923584631489
 30
0.0
 40
0.25
 41
0.0
 71
     5
 72
     1
  1
\A1;1.75
  7
TXT
  0
POINT
  5
4EFB
330
472B
100
AcDbEntity
  8
DEFPOINTS
 62
     0
100
AcDbPoint
 10
7.08099085810008
 20
11.8642358463149
 30
0.0
  0
POINT
  5
4EFC
330
472B
100
AcDbEntity
  8
DEFPOINTS
 62
     0
100
AcDbPoint
 10
7.08099085810008
 20
10.11423584631487
 30
0.0
  0
POINT
  5
4EFD
330
472B
100
AcDbEntity
  8
DEFPOINTS
 62
     0
100
AcDbPoint
 10
6.363239617931498
 20
10.11423584631487
 30
0.0
  0
ENDBLK
  5
50B3
330
472B
100
AcDbEntity
  8
0
100
AcDbBlockEnd
  0
BLOCK
  5
50B4
330
4CCA
100
AcDbEntity
  8
0
100
AcDbBlockBegin
  2
*D5
 70
     1
 71
     0
 10
0.0
 20
0.0
 30
0.0
  3
*D5
  1

  0
LINE
  5
4EFE
330
4CCA
100
AcDbEntity
  8
OBJECT
 62
     0
100
AcDbLine
 10
25.36299085810008
 20
17.29780382294293
 30
0.0
 11
27.00415503808797
 21
17.29780382294293
 31
0.0
  0
LINE
  5
4EFF
330
4CCA
100
AcDbEntity
  8
OBJECT
 62
     0
100
AcDbLine
 10
26.20699085810008
 20
13.51080382294294
 30
0.0
 11
27.00415503808797
 21
13.51080382294294
 31
0.0
  0
LINE
  5
4F00
330
4CCA
100
AcDbEntity
  8
OBJECT
 62
     0
100
AcDbLine
 10
26.81815503808797
 20
16.93780382294293
 30
0.0
 11
26.81815503808797
 21
15.70930382294294
 31
0.0
  0
LINE
  5
4F01
330
4CCA
100
AcDbEntity
  8
OBJECT
 62
     0
100
AcDbLine
 10
26.81815503808797
 20
13.87080382294294
 30
0.0
 11
26.81815503808797
 21
15.09930382294294
 31
0.0
  0
SOLID
  5
4F02
330
4CCA
100
AcDbEntity
  8
OBJECT
 62
     0
100
AcDbTrace
 10
26.75815503808797
 20
16.93780382294293
 30
0.0
 11
26.87815503808796
 21
16.93780382294293
 31
0.0
 12
26.81815503808797
 22
17.29780382294293
 32
0.0
 13
26.81815503808797
 23
17.29780382294293
 33
0.0
  0
SOLID
  5
4F03
330
4CCA
100
AcDbEntity
  8
OBJECT
 62
     0
100
AcDbTrace
 10
26.75815503808797
 20
13.87080382294294
 30
0.0
 11
26.87815503808796
 21
13.87080382294294
 31
0.0
 12
26.81815503808797
 22
13.51080382294294
 32
0.0
 13
26.81815503808797
 23
13.51080382294294
 33
0.0
  0
MTEXT
  5
4F04
330
4CCA
100
AcDbEntity
  8
OBJECT
 62
     0
100
AcDbMText
 10
26.81815503808796
 20
15.40430382294294
 30
0.0
 40
0.25
 41
0.0
 71
     5
 72
     1
  1
\A1;3.79
  7
TXT
  0
POINT
  5
4F05
330
4CCA
100
AcDbEntity
  8
DEFPOINTS
 62
     0
100
AcDbPoint
 10
25.23699085810008
 20
17.29780382294293
 30
0.0
  0
POINT
  5
4F06
330
4CCA
100
AcDbEntity
  8
DEFPOINTS
 62
     0
100
AcDbPoint
 10
26.08099085810008
 20
13.51080382294294
 30
0.0
  0
POINT
  5
4F07
330
4CCA
100
AcDbEntity
  8
DEFPOINTS
 62
     0
100
AcDbPoint
 10
26.81815503808797
 20
13.51080382294294
 30
0.0
  0
ENDBLK
  5
50B5
330
4CCA
100
AcDbEntity
  8
0
100
AcDbBlockEnd
  0
BLOCK
  5
50B6
330
4D15
100
AcDbEntity
  8
0
100
AcDbBlockBegin
  2
*D6
 70
     1
 71
     0
 10
0.0
 20
0.0
 30
0.0
  3
*D6
  1

  0
LINE
  5
4FFB
330
4D15
100
AcDbEntity
  8
OBJECT
 62
     0
100
AcDbLine
 10
11.22249085810008
 20
10.3262358463149
 30
0.0
 11
11.22249085810008
 21
9.449382325228964
 31
0.0
  0
LINE
  5
4FFC
330
4D15
100
AcDbEntity
  8
OBJECT
 62
     0
100
AcDbLine
 10
12.75349085810008
 20
10.3262358463149
 30
0.0
 11
12.75349085810008
 21
9.449382325228964
 31
0.0
  0
LINE
  5
4FFD
330
4D15
100
AcDbEntity
  8
OBJECT
 62
     0
100
AcDbLine
 10
10.86249085810008
 20
9.635382325228964
 30
0.0
 11
10.50249085810008
 21
9.635382325228964
 31
0.0
  0
LINE
  5
4FFE
330
4D15
100
AcDbEntity
  8
OBJECT
 62
     0
100
AcDbLine
 10
13.11349085810008
 20
9.635382325228964
 30
0.0
 11
13.47349085810008
 21
9.635382325228964
 31
0.0
  0
SOLID
  5
4FFF
330
4D15
100
AcDbEntity
  8
OBJECT
 62
     0
100
AcDbTrace
 10
10.86249085810008
 20
9.695382325228964
 30
0.0
 11
10.86249085810008
 21
9.575382325228963
 31
0.0
 12
11.22249085810008
 22
9.635382325228964
 32
0.0
 13
11.22249085810008
 23
9.635382325228964
 33
0.0
  0
SOLID
  5
5000
330
4D15
100
AcDbEntity
  8
OBJECT
 62
     0
100
AcDbTrace
 10
13.11349085810008
 20
9.695382325228964
 30
0.0
 11
13.11349085810008
 21
9.575382325228963
 31
0.0
 12
12.75349085810008
 22
9.635382325228964
 32
0.0
 13
12.75349085810008
 23
9.635382325228964
 33
0.0
  0
MTEXT
  5
5001
330
4D15
100
AcDbEntity
  8
OBJECT
 62
     0
100
AcDbMText
 10
11.98799085810008
 20
9.635382325228964
 30
0.0
 40
0.25
 41
0.0
 71
     5
 72
     1
  1
\A1;1.53
  7
TXT
  0
POINT
  5
5002
330
4D15
100
AcDbEntity
  8
DEFPOINTS
 62
     0
100
AcDbPoint
 10
11.22249085810008
 20
10.4522358463149
 30
0.0
  0
POINT
  5
5003
330
4D15
100
AcDbEntity
  8
DEFPOINTS
 62
     0
100
AcDbPoint
 10
12.75349085810008
 20
10.4522358463149
 30
0.0
  0
POINT
  5
5004
330
4D15
100
AcDbEntity
  8
DEFPOINTS
 62
     0
100
AcDbPoint
 10
12.75349085810008
 20
9.635382325228964
 30
0.0
  0
ENDBLK
  5
50B7
330
4D15
100
AcDbEntity
  8
0
100
AcDbBlockEnd
  0
BLOCK
  5
50B8
330
501C
100
AcDbEntity
  8
0
100
AcDbBlockBegin
  2
*D7
 70
     1
 71
     0
 10
0.0
 20
0.0
 30
0.0
  3
*D7
  1

  0
POINT
  5
5012
330
501C
100
AcDbEntity
  8
DEFPOINTS
  6
BYBLOCK
 62
     0
100
AcDbPoint
 10
7.08099085810008
 20
11.8642358463149
 30
0.0
  0
POINT
  5
5013
330
501C
100
AcDbEntity
  8
DEFPOINTS
  6
BYBLOCK
 62
     0
100
AcDbPoint
 10
7.08099085810008
 20
10.11423584631487
 30
0.0
  0
LINE
  5
5014
330
501C
100
AcDbEntity
  8
0
  6
BYBLOCK
 62
     0
100
AcDbLine
 10
6.954990858100079
 20
11.8642358463149
 30
0.0
 11
5.57668510374113
 21
11.8642358463149
 31
0.0
  0
LINE
  5
5015
330
501C
100
AcDbEntity
  8
0
  6
BYBLOCK
 62
     0
100
AcDbLine
 10
6.954990858100079
 20
10.11423584631487
 30
0.0
 11
5.57668510374113
 21
10.11423584631487
 31
0.0
  0
LINE
  5
5016
330
501C
100
AcDbEntity
  8
0
  6
BYBLOCK
 62
     0
100
AcDbLine
 10
5.76268510374113
 20
11.5042358463149
 30
0.0
 11
5.76268510374113
 21
11.29423584631488
 31
0.0
  0
SOLID
  5
5017
330
501C
100
AcDbEntity
  8
0
  6
BYBLOCK
 62
     0
100
AcDbTrace
 10
5.76268510374113
 20
11.8642358463149
 30
0.0
 11
5.702685103741118
 21
11.5042358463149
 31
0.0
 12
5.822685103741142
 22
11.5042358463149
 32
0.0
 13
5.822685103741142
 23
11.5042358463149
 33
0.0
  0
LINE
  5
5018
330
501C
100
AcDbEntity
  8
0
  6
BYBLOCK
 62
     0
100
AcDbLine
 10
5.76268510374113
 20
10.47423584631487
 30
0.0
 11
5.76268510374113
 21
10.68423584631488
 31
0.0
  0
SOLID
  5
5019
330
501C
100
AcDbEntity
  8
0
  6
BYBLOCK
 62
     0
100
AcDbTrace
 10
5.76268510374113
 20
10.11423584631487
 30
0.0
 11
5.702685103741118
 21
10.47423584631487
 31
0.0
 12
5.822685103741142
 22
10.47423584631487
 32
0.0
 13
5.822685103741142
 23
10.47423584631487
 33
0.0
  0
MTEXT
  5
501A
330
501C
100
AcDbEntity
  8
0
  6
BYBLOCK
 62
     0
100
AcDbMText
 10
5.76268510374113
 20
10.98923584631488
 30
0.0
 40
0.25
 41
0.0
 71
     5
 72
     1
  1
1.75
  7
TXT
  0
ENDBLK
  5
50B9
330
501C
100
AcDbEntity
  8
OBJECT
100
AcDbBlockEnd
  0
BLOCK
  5
50BA
330
5028
100
AcDbEntity
  8
0
100
AcDbBlockBegin
  2
*D8
 70
     1
 71
     0
 10
0.0
 20
0.0
 30
0.0
  3
*D8
  1

  0
POINT
  5
501E
330
5028
100
AcDbEntity
  8
DEFPOINTS
  6
BYBLOCK
 62
     0
100
AcDbPoint
 10
7.08099085810008
 20
11.8642358463149
 30
0.0
  0
POINT
  5
501F
330
5028
100
AcDbEntity
  8
DEFPOINTS
  6
BYBLOCK
 62
     0
100
AcDbPoint
 10
7.08099085810008
 20
10.11423584631487
 30
0.0
  0
LINE
  5
5020
330
5028
100
AcDbEntity
  8
0
  6
BYBLOCK
 62
     0
100
AcDbLine
 10
6.954990858100079
 20
11.8642358463149
 30
0.0
 11
5.437270662946937
 21
11.8642358463149
 31
0.0
  0
LINE
  5
5021
330
5028
100
AcDbEntity
  8
0
  6
BYBLOCK
 62
     0
100
AcDbLine
 10
6.954990858100079
 20
10.11423584631487
 30
0.0
 11
5.437270662946937
 21
10.11423584631487
 31
0.0
  0
LINE
  5
5022
330
5028
100
AcDbEntity
  8
0
  6
BYBLOCK
 62
     0
100
AcDbLine
 10
5.623270662946937
 20
11.5042358463149
 30
0.0
 11
5.623270662946937
 21
11.29423584631488
 31
0.0
  0
SOLID
  5
5023
330
5028
100
AcDbEntity
  8
0
  6
BYBLOCK
 62
     0
100
AcDbTrace
 10
5.623270662946937
 20
11.8642358463149
 30
0.0
 11
5.563270662946925
 21
11.5042358463149
 31
0.0
 12
5.683270662946949
 22
11.5042358463149
 32
0.0
 13
5.683270662946949
 23
11.5042358463149
 33
0.0
  0
LINE
  5
5024
330
5028
100
AcDbEntity
  8
0
  6
BYBLOCK
 62
     0
100
AcDbLine
 10
5.623270662946937
 20
10.47423584631487
 30
0.0
 11
5.623270662946937
 21
10.68423584631488
 31
0.0
  0
SOLID
  5
5025
330
5028
100
AcDbEntity
  8
0
  6
BYBLOCK
 62
     0
100
AcDbTrace
 10
5.623270662946937
 20
10.11423584631487
 30
0.0
 11
5.563270662946925
 21
10.47423584631487
 31
0.0
 12
5.683270662946949
 22
10.47423584631487
 32
0.0
 13
5.683270662946949
 23
10.47423584631487
 33
0.0
  0
MTEXT
  5
5026
330
5028
100
AcDbEntity
  8
0
  6
BYBLOCK
 62
     0
100
AcDbMText
 10
5.623270662946937
 20
10.98923584631488
 30
0.0
 40
0.25
 41
0.0
 71
     5
 72
     1
  1
1.75
  7
TXT
  0
ENDBLK
  5
50BB
330
5028
100
AcDbEntity
  8
OBJECT
100
AcDbBlockEnd
  0
BLOCK
  5
50BC
330
5035
100
AcDbEntity
  8
0
100
AcDbBlockBegin
  2
*D9
 70
     1
 71
     0
 10
0.0
 20
0.0
 30
0.0
  3
*D9
  1

  0
POINT
  5
502B
330
5035
100
AcDbEntity
  8
DEFPOINTS
  6
BYBLOCK
 62
     0
100
AcDbPoint
 10
7.189990858100082
 20
10.37173584631491
 30
0.0
  0
POINT
  5
502C
330
5035
100
AcDbEntity
  8
DEFPOINTS
  6
BYBLOCK
 62
     0
100
AcDbPoint
 10
7.189990858100082
 20
11.62173584631491
 30
0.0
  0
LINE
  5
502D
330
5035
100
AcDbEntity
  8
0
  6
BYBLOCK
 62
     0
100
AcDbLine
 10
7.063990858100081
 20
10.37173584631491
 30
0.0
 11
6.231479569449596
 21
10.37173584631491
 31
0.0
  0
LINE
  5
502E
330
5035
100
AcDbEntity
  8
0
  6
BYBLOCK
 62
     0
100
AcDbLine
 10
7.063990858100081
 20
11.62173584631491
 30
0.0
 11
6.231479569449596
 21
11.62173584631491
 31
0.0
  0
LINE
  5
502F
330
5035
100
AcDbEntity
  8
0
  6
BYBLOCK
 62
     0
100
AcDbLine
 10
6.417479569449596
 20
10.01173584631491
 30
0.0
 11
6.417479569449596
 21
9.651735846314905
 31
0.0
  0
SOLID
  5
5030
330
5035
100
AcDbEntity
  8
0
  6
BYBLOCK
 62
     0
100
AcDbTrace
 10
6.417479569449596
 20
10.37173584631491
 30
0.0
 11
6.477479569449608
 21
10.01173584631491
 31
0.0
 12
6.357479569449584
 22
10.01173584631491
 32
0.0
 13
6.357479569449584
 23
10.01173584631491
 33
0.0
  0
LINE
  5
5031
330
5035
100
AcDbEntity
  8
0
  6
BYBLOCK
 62
     0
100
AcDbLine
 10
6.417479569449596
 20
11.9817358463149
 30
0.0
 11
6.417479569449596
 21
12.34173584631491
 31
0.0
  0
SOLID
  5
5032
330
5035
100
AcDbEntity
  8
0
  6
BYBLOCK
 62
     0
100
AcDbTrace
 10
6.417479569449596
 20
11.62173584631491
 30
0.0
 11
6.477479569449608
 21
11.9817358463149
 31
0.0
 12
6.357479569449584
 22
11.9817358463149
 32
0.0
 13
6.357479569449584
 23
11.9817358463149
 33
0.0
  0
MTEXT
  5
5033
330
5035
100
AcDbEntity
  8
0
  6
BYBLOCK
 62
     0
100
AcDbMText
 10
6.417479569449596
 20
10.99673584631491
 30
0.0
 40
0.25
 41
0.0
 71
     5
 72
     1
  1
1.25
  7
TXT
  0
ENDBLK
  5
50BD
330
5035
100
AcDbEntity
  8
OBJECT
100
AcDbBlockEnd
  0
BLOCK
  5
50BE
330
5044
100
AcDbEntity
  8
0
100
AcDbBlockBegin
  2
*D10
 70
     1
 71
     0
 10
0.0
 20
0.0
 30
0.0
  3
*D10
  1

  0
POINT
  5
503A
330
5044
100
AcDbEntity
  8
DEFPOINTS
  6
BYBLOCK
 62
     0
100
AcDbPoint
 10
7.08099085810008
 20
11.50384300420964
 30
0.0
  0
POINT
  5
503B
330
5044
100
AcDbEntity
  8
DEFPOINTS
  6
BYBLOCK
 62
     0
100
AcDbPoint
 10
26.08099085810008
 20
11.50384300420964
 30
0.0
  0
LINE
  5
503C
330
5044
100
AcDbEntity
  8
0
  6
BYBLOCK
 62
     0
100
AcDbLine
 10
7.08099085810008
 20
11.62984300420963
 30
0.0
 11
7.08099085810008
 21
12.46316451834963
 31
0.0
  0
LINE
  5
503D
330
5044
100
AcDbEntity
  8
0
  6
BYBLOCK
 62
     0
100
AcDbLine
 10
26.08099085810008
 20
11.62984300420963
 30
0.0
 11
26.08099085810008
 21
12.46316451834963
 31
0.0
  0
LINE
  5
503E
330
5044
100
AcDbEntity
  8
0
  6
BYBLOCK
 62
     0
100
AcDbLine
 10
7.44099085810008
 20
12.27716451834963
 30
0.0
 11
16.08880335810008
 21
12.27716451834963
 31
0.0
  0
SOLID
  5
503F
330
5044
100
AcDbEntity
  8
0
  6
BYBLOCK
 62
     0
100
AcDbTrace
 10
7.08099085810008
 20
12.27716451834963
 30
0.0
 11
7.44099085810008
 21
12.21716451834962
 31
0.0
 12
7.44099085810008
 22
12.33716451834964
 32
0.0
 13
7.44099085810008
 23
12.33716451834964
 33
0.0
  0
LINE
  5
5040
330
5044
100
AcDbEntity
  8
0
  6
BYBLOCK
 62
     0
100
AcDbLine
 10
25.72099085810008
 20
12.27716451834963
 30
0.0
 11
17.07317835810008
 21
12.27716451834963
 31
0.0
  0
SOLID
  5
5041
330
5044
100
AcDbEntity
  8
0
  6
BYBLOCK
 62
     0
100
AcDbTrace
 10
26.08099085810008
 20
12.27716451834963
 30
0.0
 11
25.72099085810008
 21
12.21716451834962
 31
0.0
 12
25.72099085810008
 22
12.33716451834964
 32
0.0
 13
25.72099085810008
 23
12.33716451834964
 33
0.0
  0
MTEXT
  5
5042
330
5044
100
AcDbEntity
  8
0
  6
BYBLOCK
 62
     0
100
AcDbMText
 10
16.58099085810008
 20
12.27716451834963
 30
0.0
 40
0.25
 41
0.0
 71
     5
 72
     1
  1
19.00
  7
TXT
  0
ENDBLK
  5
50BF
330
5044
100
AcDbEntity
  8
OBJECT
100
AcDbBlockEnd
  0
BLOCK
  5
50C0
330
5050
100
AcDbEntity
  8
0
100
AcDbBlockBegin
  2
*D11
 70
     1
 71
     0
 10
0.0
 20
0.0
 30
0.0
  3
*D11
  1

  0
POINT
  5
5046
330
5050
100
AcDbEntity
  8
DEFPOINTS
  6
BYBLOCK
 62
     0
100
AcDbPoint
 10
7.08099085810008
 20
11.50384300420964
 30
0.0
  0
POINT
  5
5047
330
5050
100
AcDbEntity
  8
DEFPOINTS
  6
BYBLOCK
 62
     0
100
AcDbPoint
 10
7.08099085810008
 20
9.753843004209607
 30
0.0
  0
LINE
  5
5048
330
5050
100
AcDbEntity
  8
0
  6
BYBLOCK
 62
     0
100
AcDbLine
 10
6.954990858100079
 20
11.50384300420964
 30
0.0
 11
5.437270662946937
 21
11.50384300420964
 31
0.0
  0
LINE
  5
5049
330
5050
100
AcDbEntity
  8
0
  6
BYBLOCK
 62
     0
100
AcDbLine
 10
6.954990858100079
 20
9.753843004209607
 30
0.0
 11
5.437270662946937
 21
9.753843004209607
 31
0.0
  0
LINE
  5
504A
330
5050
100
AcDbEntity
  8
0
  6
BYBLOCK
 62
     0
100
AcDbLine
 10
5.623270662946937
 20
11.14384300420964
 30
0.0
 11
5.623270662946937
 21
10.93384300420962
 31
0.0
  0
SOLID
  5
504B
330
5050
100
AcDbEntity
  8
0
  6
BYBLOCK
 62
     0
100
AcDbTrace
 10
5.623270662946937
 20
11.50384300420964
 30
0.0
 11
5.563270662946925
 21
11.14384300420964
 31
0.0
 12
5.683270662946949
 22
11.14384300420964
 32
0.0
 13
5.683270662946949
 23
11.14384300420964
 33
0.0
  0
LINE
  5
504C
330
5050
100
AcDbEntity
  8
0
  6
BYBLOCK
 62
     0
100
AcDbLine
 10
5.623270662946937
 20
10.11384300420961
 30
0.0
 11
5.623270662946937
 21
10.32384300420962
 31
0.0
  0
SOLID
  5
504D
330
5050
100
AcDbEntity
  8
0
  6
BYBLOCK
 62
     0
100
AcDbTrace
 10
5.623270662946937
 20
9.753843004209607
 30
0.0
 11
5.563270662946925
 21
10.11384300420961
 31
0.0
 12
5.683270662946949
 22
10.11384300420961
 32
0.0
 13
5.683270662946949
 23
10.11384300420961
 33
0.0
  0
MTEXT
  5
504E
330
5050
100
AcDbEntity
  8
0
  6
BYBLOCK
 62
     0
100
AcDbMText
 10
5.623270662946937
 20
10.62884300420962
 30
0.0
 40
0.25
 41
0.0
 71
     5
 72
     1
  1
1.75
  7
TXT
  0
ENDBLK
  5
50C1
330
5050
100
AcDbEntity
  8
OBJECT
100
AcDbBlockEnd
  0
BLOCK
  5
50C2
330
505C
100
AcDbEntity
  8
0
100
AcDbBlockBegin
  2
*D12
 70
     1
 71
     0
 10
0.0
 20
0.0
 30
0.0
  3
*D12
  1

  0
POINT
  5
5052
330
505C
100
AcDbEntity
  8
DEFPOINTS
  6
BYBLOCK
 62
     0
100
AcDbPoint
 10
11.22249085810008
 20
10.09184300420963
 30
0.0
  0
POINT
  5
5053
330
505C
100
AcDbEntity
  8
DEFPOINTS
  6
BYBLOCK
 62
     0
100
AcDbPoint
 10
12.75349085810008
 20
10.09184300420963
 30
0.0
  0
LINE
  5
5054
330
505C
100
AcDbEntity
  8
0
  6
BYBLOCK
 62
     0
100
AcDbLine
 10
11.22249085810008
 20
9.965843004209633
 30
0.0
 11
11.22249085810008
 21
9.0889894831237
 31
0.0
  0
LINE
  5
5055
330
505C
100
AcDbEntity
  8
0
  6
BYBLOCK
 62
     0
100
AcDbLine
 10
12.75349085810008
 20
9.965843004209633
 30
0.0
 11
12.75349085810008
 21
9.0889894831237
 31
0.0
  0
LINE
  5
5056
330
505C
100
AcDbEntity
  8
0
  6
BYBLOCK
 62
     0
100
AcDbLine
 10
10.86249085810008
 20
9.2749894831237
 30
0.0
 11
10.50249085810008
 21
9.2749894831237
 31
0.0
  0
SOLID
  5
5057
330
505C
100
AcDbEntity
  8
0
  6
BYBLOCK
 62
     0
100
AcDbTrace
 10
11.22249085810008
 20
9.2749894831237
 30
0.0
 11
10.86249085810008
 21
9.214989483123688
 31
0.0
 12
10.86249085810008
 22
9.334989483123714
 32
0.0
 13
10.86249085810008
 23
9.334989483123714
 33
0.0
  0
LINE
  5
5058
330
505C
100
AcDbEntity
  8
0
  6
BYBLOCK
 62
     0
100
AcDbLine
 10
13.11349085810008
 20
9.2749894831237
 30
0.0
 11
13.47349085810008
 21
9.2749894831237
 31
0.0
  0
SOLID
  5
5059
330
505C
100
AcDbEntity
  8
0
  6
BYBLOCK
 62
     0
100
AcDbTrace
 10
12.75349085810008
 20
9.2749894831237
 30
0.0
 11
13.11349085810008
 21
9.214989483123688
 31
0.0
 12
13.11349085810008
 22
9.334989483123714
 32
0.0
 13
13.11349085810008
 23
9.334989483123714
 33
0.0
  0
MTEXT
  5
505A
330
505C
100
AcDbEntity
  8
0
  6
BYBLOCK
 62
     0
100
AcDbMText
 10
11.98799085810008
 20
9.2749894831237
 30
0.0
 40
0.25
 41
0.0
 71
     5
 72
     1
  1
1.53
  7
TXT
  0
ENDBLK
  5
50C3
330
505C
100
AcDbEntity
  8
OBJECT
100
AcDbBlockEnd
  0
BLOCK
  5
50C4
330
5068
100
AcDbEntity
  8
0
100
AcDbBlockBegin
  2
*D13
 70
     1
 71
     0
 10
0.0
 20
0.0
 30
0.0
  3
*D13
  1

  0
POINT
  5
505E
330
5068
100
AcDbEntity
  8
DEFPOINTS
  6
BYBLOCK
 62
     0
100
AcDbPoint
 10
7.189990858100082
 20
10.01134300420964
 30
0.0
  0
POINT
  5
505F
330
5068
100
AcDbEntity
  8
DEFPOINTS
  6
BYBLOCK
 62
     0
100
AcDbPoint
 10
7.189990858100082
 20
11.26134300420964
 30
0.0
  0
LINE
  5
5060
330
5068
100
AcDbEntity
  8
0
  6
BYBLOCK
 62
     0
100
AcDbLine
 10
7.063990858100081
 20
10.01134300420964
 30
0.0
 11
6.231479569449596
 21
10.01134300420964
 31
0.0
  0
LINE
  5
5061
330
5068
100
AcDbEntity
  8
0
  6
BYBLOCK
 62
     0
100
AcDbLine
 10
7.063990858100081
 20
11.26134300420964
 30
0.0
 11
6.231479569449596
 21
11.26134300420964
 31
0.0
  0
LINE
  5
5062
330
5068
100
AcDbEntity
  8
0
  6
BYBLOCK
 62
     0
100
AcDbLine
 10
6.417479569449596
 20
9.651343004209643
 30
0.0
 11
6.417479569449596
 21
9.291343004209642
 31
0.0
  0
SOLID
  5
5063
330
5068
100
AcDbEntity
  8
0
  6
BYBLOCK
 62
     0
100
AcDbTrace
 10
6.417479569449596
 20
10.01134300420964
 30
0.0
 11
6.477479569449608
 21
9.651343004209643
 31
0.0
 12
6.357479569449584
 22
9.651343004209643
 32
0.0
 13
6.357479569449584
 23
9.651343004209643
 33
0.0
  0
LINE
  5
5064
330
5068
100
AcDbEntity
  8
0
  6
BYBLOCK
 62
     0
100
AcDbLine
 10
6.417479569449596
 20
11.62134300420964
 30
0.0
 11
6.417479569449596
 21
11.98134300420964
 31
0.0
  0
SOLID
  5
5065
330
5068
100
AcDbEntity
  8
0
  6
BYBLOCK
 62
     0
100
AcDbTrace
 10
6.417479569449596
 20
11.26134300420964
 30
0.0
 11
6.477479569449608
 21
11.62134300420964
 31
0.0
 12
6.357479569449584
 22
11.62134300420964
 32
0.0
 13
6.357479569449584
 23
11.62134300420964
 33
0.0
  0
MTEXT
  5
5066
330
5068
100
AcDbEntity
  8
0
  6
BYBLOCK
 62
     0
100
AcDbMText
 10
6.417479569449596
 20
10.63634300420964
 30
0.0
 40
0.25
 41
0.0
 71
     5
 72
     1
  1
1.25
  7
TXT
  0
ENDBLK
  5
50C5
330
5068
100
AcDbEntity
  8
OBJECT
100
AcDbBlockEnd
  0
BLOCK
  5
50C6
330
5074
100
AcDbEntity
  8
0
100
AcDbBlockBegin
  2
*D14
 70
     1
 71
     0
 10
0.0
 20
0.0
 30
0.0
  3
*D14
  1

  0
POINT
  5
506A
330
5074
100
AcDbEntity
  8
DEFPOINTS
  6
BYBLOCK
 62
     0
100
AcDbPoint
 10
7.08099085810008
 20
11.50384300420964
 30
0.0
  0
POINT
  5
506B
330
5074
100
AcDbEntity
  8
DEFPOINTS
  6
BYBLOCK
 62
     0
100
AcDbPoint
 10
26.08099085810008
 20
11.50384300420964
 30
0.0
  0
LINE
  5
506C
330
5074
100
AcDbEntity
  8
0
  6
BYBLOCK
 62
     0
100
AcDbLine
 10
7.08099085810008
 20
11.62984300420963
 30
0.0
 11
7.08099085810008
 21
12.63913758578384
 31
0.0
  0
LINE
  5
506D
330
5074
100
AcDbEntity
  8
0
  6
BYBLOCK
 62
     0
100
AcDbLine
 10
26.08099085810008
 20
11.62984300420963
 30
0.0
 11
26.08099085810008
 21
12.63913758578384
 31
0.0
  0
LINE
  5
506E
330
5074
100
AcDbEntity
  8
0
  6
BYBLOCK
 62
     0
100
AcDbLine
 10
7.44099085810008
 20
12.45313758578384
 30
0.0
 11
16.08880335810008
 21
12.45313758578384
 31
0.0
  0
SOLID
  5
506F
330
5074
100
AcDbEntity
  8
0
  6
BYBLOCK
 62
     0
100
AcDbTrace
 10
7.08099085810008
 20
12.45313758578384
 30
0.0
 11
7.44099085810008
 21
12.39313758578383
 31
0.0
 12
7.44099085810008
 22
12.51313758578385
 32
0.0
 13
7.44099085810008
 23
12.51313758578385
 33
0.0
  0
LINE
  5
5070
330
5074
100
AcDbEntity
  8
0
  6
BYBLOCK
 62
     0
100
AcDbLine
 10
25.72099085810008
 20
12.45313758578384
 30
0.0
 11
17.07317835810008
 21
12.45313758578384
 31
0.0
  0
SOLID
  5
5071
330
5074
100
AcDbEntity
  8
0
  6
BYBLOCK
 62
     0
100
AcDbTrace
 10
26.08099085810008
 20
12.45313758578384
 30
0.0
 11
25.72099085810008
 21
12.39313758578383
 31
0.0
 12
25.72099085810008
 22
12.51313758578385
 32
0.0
 13
25.72099085810008
 23
12.51313758578385
 33
0.0
  0
MTEXT
  5
5072
330
5074
100
AcDbEntity
  8
0
  6
BYBLOCK
 62
     0
100
AcDbMText
 10
16.58099085810008
 20
12.45313758578384
 30
0.0
 40
0.25
 41
0.0
 71
     5
 72
     1
  1
19.00
  7
TXT
  0
ENDBLK
  5
50C7
330
5074
100
AcDbEntity
  8
OBJECT
100
AcDbBlockEnd
  0
BLOCK
  5
50C8
330
5080
100
AcDbEntity
  8
0
100
AcDbBlockBegin
  2
*D15
 70
     1
 71
     0
 10
0.0
 20
0.0
 30
0.0
  3
*D15
  1

  0
POINT
  5
5076
330
5080
100
AcDbEntity
  8
DEFPOINTS
  6
BYBLOCK
 62
     0
100
AcDbPoint
 10
7.08099085810008
 20
11.50384300420964
 30
0.0
  0
POINT
  5
5077
330
5080
100
AcDbEntity
  8
DEFPOINTS
  6
BYBLOCK
 62
     0
100
AcDbPoint
 10
26.08099085810008
 20
11.50384300420964
 30
0.0
  0
LINE
  5
5078
330
5080
100
AcDbEntity
  8
0
  6
BYBLOCK
 62
     0
100
AcDbLine
 10
7.08099085810008
 20
11.62984300420963
 30
0.0
 11
7.08099085810008
 21
12.75013203569609
 31
0.0
  0
LINE
  5
5079
330
5080
100
AcDbEntity
  8
0
  6
BYBLOCK
 62
     0
100
AcDbLine
 10
26.08099085810008
 20
11.62984300420963
 30
0.0
 11
26.08099085810008
 21
12.75013203569609
 31
0.0
  0
LINE
  5
507A
330
5080
100
AcDbEntity
  8
0
  6
BYBLOCK
 62
     0
100
AcDbLine
 10
7.44099085810008
 20
12.56413203569609
 30
0.0
 11
16.08880335810008
 21
12.56413203569609
 31
0.0
  0
SOLID
  5
507B
330
5080
100
AcDbEntity
  8
0
  6
BYBLOCK
 62
     0
100
AcDbTrace
 10
7.08099085810008
 20
12.56413203569609
 30
0.0
 11
7.44099085810008
 21
12.50413203569608
 31
0.0
 12
7.44099085810008
 22
12.6241320356961
 32
0.0
 13
7.44099085810008
 23
12.6241320356961
 33
0.0
  0
LINE
  5
507C
330
5080
100
AcDbEntity
  8
0
  6
BYBLOCK
 62
     0
100
AcDbLine
 10
25.72099085810008
 20
12.56413203569609
 30
0.0
 11
17.07317835810008
 21
12.56413203569609
 31
0.0
  0
SOLID
  5
507D
330
5080
100
AcDbEntity
  8
0
  6
BYBLOCK
 62
     0
100
AcDbTrace
 10
26.08099085810008
 20
12.56413203569609
 30
0.0
 11
25.72099085810008
 21
12.50413203569608
 31
0.0
 12
25.72099085810008
 22
12.6241320356961
 32
0.0
 13
25.72099085810008
 23
12.6241320356961
 33
0.0
  0
MTEXT
  5
507E
330
5080
100
AcDbEntity
  8
0
  6
BYBLOCK
 62
     0
100
AcDbMText
 10
16.58099085810008
 20
12.56413203569609
 30
0.0
 40
0.25
 41
0.0
 71
     5
 72
     1
  1
19.00
  7
TXT
  0
ENDBLK
  5
50C9
330
5080
100
AcDbEntity
  8
OBJECT
100
AcDbBlockEnd
  0
BLOCK
  5
50CA
330
508D
100
AcDbEntity
  8
0
100
AcDbBlockBegin
  2
*D16
 70
     1
 71
     0
 10
0.0
 20
0.0
 30
0.0
  3
*D16
  1

  0
POINT
  5
5083
330
508D
100
AcDbEntity
  8
DEFPOINTS
  6
BYBLOCK
 62
     0
100
AcDbPoint
 10
7.392990858100077
 20
11.39434300420964
 30
0.0
  0
POINT
  5
5084
330
508D
100
AcDbEntity
  8
DEFPOINTS
  6
BYBLOCK
 62
     0
100
AcDbPoint
 10
25.76899085810009
 20
11.39434300420964
 30
0.0
  0
LINE
  5
5085
330
508D
100
AcDbEntity
  8
0
  6
BYBLOCK
 62
     0
100
AcDbLine
 10
7.392990858100077
 20
11.52034300420964
 30
0.0
 11
7.392990858100077
 21
12.2461481884905
 31
0.0
  0
LINE
  5
5086
330
508D
100
AcDbEntity
  8
0
  6
BYBLOCK
 62
     0
100
AcDbLine
 10
25.76899085810009
 20
11.52034300420964
 30
0.0
 11
25.76899085810009
 21
12.2461481884905
 31
0.0
  0
LINE
  5
5087
330
508D
100
AcDbEntity
  8
0
  6
BYBLOCK
 62
     0
100
AcDbLine
 10
7.752990858100078
 20
12.0601481884905
 30
0.0
 11
16.05692835810008
 21
12.0601481884905
 31
0.0
  0
SOLID
  5
5088
330
508D
100
AcDbEntity
  8
0
  6
BYBLOCK
 62
     0
100
AcDbTrace
 10
7.392990858100077
 20
12.0601481884905
 30
0.0
 11
7.752990858100078
 21
12.00014818849049
 31
0.0
 12
7.752990858100078
 22
12.12014818849051
 32
0.0
 13
7.752990858100078
 23
12.12014818849051
 33
0.0
  0
LINE
  5
5089
330
508D
100
AcDbEntity
  8
0
  6
BYBLOCK
 62
     0
100
AcDbLine
 10
25.40899085810009
 20
12.0601481884905
 30
0.0
 11
17.10505335810008
 21
12.0601481884905
 31
0.0
  0
SOLID
  5
508A
330
508D
100
AcDbEntity
  8
0
  6
BYBLOCK
 62
     0
100
AcDbTrace
 10
25.76899085810009
 20
12.0601481884905
 30
0.0
 11
25.40899085810009
 21
12.00014818849049
 31
0.0
 12
25.40899085810009
 22
12.12014818849051
 32
0.0
 13
25.40899085810009
 23
12.12014818849051
 33
0.0
  0
MTEXT
  5
508B
330
508D
100
AcDbEntity
  8
0
  6
BYBLOCK
 62
     0
100
AcDbMText
 10
16.58099085810008
 20
12.0601481884905
 30
0.0
 40
0.25
 41
0.0
 71
     5
 72
     1
  1
18.38
  7
TXT
  0
ENDBLK
  5
50CB
330
508D
100
AcDbEntity
  8
OBJECT
100
AcDbBlockEnd
  0
BLOCK
  5
50CC
330
5099
100
AcDbEntity
  8
0
100
AcDbBlockBegin
  2
*D17
 70
     1
 71
     0
 10
0.0
 20
0.0
 30
0.0
  3
*D17
  1

  0
POINT
  5
508F
330
5099
100
AcDbEntity
  8
DEFPOINTS
  6
BYBLOCK
 62
     0
100
AcDbPoint
 10
7.08099085810008
 20
11.50384300420964
 30
0.0
  0
POINT
  5
5090
330
5099
100
AcDbEntity
  8
DEFPOINTS
  6
BYBLOCK
 62
     0
100
AcDbPoint
 10
26.08099085810008
 20
11.50384300420964
 30
0.0
  0
LINE
  5
5091
330
5099
100
AcDbEntity
  8
0
  6
BYBLOCK
 62
     0
100
AcDbLine
 10
7.08099085810008
 20
11.62984300420963
 30
0.0
 11
7.08099085810008
 21
12.82412833563759
 31
0.0
  0
LINE
  5
5092
330
5099
100
AcDbEntity
  8
0
  6
BYBLOCK
 62
     0
100
AcDbLine
 10
26.08099085810008
 20
11.62984300420963
 30
0.0
 11
26.08099085810008
 21
12.82412833563759
 31
0.0
  0
LINE
  5
5093
330
5099
100
AcDbEntity
  8
0
  6
BYBLOCK
 62
     0
100
AcDbLine
 10
7.44099085810008
 20
12.63812833563759
 30
0.0
 11
16.08880335810008
 21
12.63812833563759
 31
0.0
  0
SOLID
  5
5094
330
5099
100
AcDbEntity
  8
0
  6
BYBLOCK
 62
     0
100
AcDbTrace
 10
7.08099085810008
 20
12.63812833563759
 30
0.0
 11
7.44099085810008
 21
12.57812833563758
 31
0.0
 12
7.44099085810008
 22
12.6981283356376
 32
0.0
 13
7.44099085810008
 23
12.6981283356376
 33
0.0
  0
LINE
  5
5095
330
5099
100
AcDbEntity
  8
0
  6
BYBLOCK
 62
     0
100
AcDbLine
 10
25.72099085810008
 20
12.63812833563759
 30
0.0
 11
17.07317835810008
 21
12.63812833563759
 31
0.0
  0
SOLID
  5
5096
330
5099
100
AcDbEntity
  8
0
  6
BYBLOCK
 62
     0
100
AcDbTrace
 10
26.08099085810008
 20
12.63812833563759
 30
0.0
 11
25.72099085810008
 21
12.57812833563758
 31
0.0
 12
25.72099085810008
 22
12.6981283356376
 32
0.0
 13
25.72099085810008
 23
12.6981283356376
 33
0.0
  0
MTEXT
  5
5097
330
5099
100
AcDbEntity
  8
0
  6
BYBLOCK
 62
     0
100
AcDbMText
 10
16.58099085810008
 20
12.63812833563759
 30
0.0
 40
0.25
 41
0.0
 71
     5
 72
     1
  1
19.00
  7
TXT
  0
ENDBLK
  5
50CD
330
5099
100
AcDbEntity
  8
OBJECT
100
AcDbBlockEnd
  0
ENDSEC
  0
SECTION
  2
ENTITIES
  0
TEXT
  5
2D1B
330
1F
100
AcDbEntity
  8
TEXT
100
AcDbText
 10
4.665683211185401
 20
20.18898563799103
 30
0.0
 40
0.2954277590397136
  1
RACKMOUNT POWER OUTLET STRIP
 41
0.75
  7
TXT
 72
     1
 11
7.73111549592123
 21
20.18898563799103
 31
0.0
100
AcDbText
  0
TEXT
  5
2D1C
330
1F
100
AcDbEntity
  8
TEXT
100
AcDbText
 10
20.69753613767882
 20
19.9663405246592
 30
0.0
 40
0.375
  1
POS-195-S
 41
0.75
  7
TXT
 72
     1
 11
21.87034863767882
 21
19.9663405246592
 31
0.0
100
AcDbText
  0
TEXT
  5
2D1D
330
1F
100
AcDbEntity
  8
TEXT
100
AcDbText
 10
0.9483300025806543
 20
17.22994880431088
 30
0.0
 40
0.25
  1
HOUSING - TEXTURED BLACK
 41
0.75
  7
TXT
100
AcDbText
  0
TEXT
  5
2D1E
330
1F
100
AcDbEntity
  8
TEXT
100
AcDbText
 10
0.9483300025806543
 20
18.24469260028479
 30
0.0
 40
0.25
  1
HOUSING - 20 GA. STEEL
 41
0.75
  7
TXT
100
AcDbText
  0
TEXT
  5
2D1F
330
1F
100
AcDbEntity
  8
TEXT
100
AcDbText
 10
0.5979923045623892
 20
18.66135926695146
 30
0.0
 40
0.25
  1
%%UMATERIAL:
 41
0.75
  7
TXT
100
AcDbText
  0
TEXT
  5
2D20
330
1F
100
AcDbEntity
  8
TEXT
100
AcDbText
 10
0.5979923045623892
 20
17.64661547097755
 30
0.0
 40
0.25
  1
%%UFINISH:
 41
0.75
  7
TXT
100
AcDbText
  0
TEXT
  5
2D7F
330
1F
100
AcDbEntity
  8
DIM
100
AcDbText
 10
27.72258008833299
 20
12.66403081112344
 30
0.0
 40
0.2504006409533381
  1
CIRCUIT BREAKER THERMAL TYPE
 41
0.75
  7
TXT
 72
     2
 11
32.79507107244524
 21
12.7892311316001
 31
0.0
100
AcDbText
 73
     2
  0
TEXT
  5
2D80
330
1F
100
AcDbEntity
  8
DIM
100
AcDbText
 10
27.72320608993537
 20
12.24669640953454
 30
0.0
 40
0.2504006409533381
  1
15 AMP 125 VOLT WITH RESET
 41
0.75
  7
TXT
 72
     2
 11
32.48207027125356
 21
12.37189673001121
 31
0.0
100
AcDbText
 73
     2
  0
TEXT
  5
2E7F
330
1F
100
AcDbEntity
  8
DIM
100
AcDbText
 10
27.12991658065815
 20
9.006166612487007
 30
0.0
 40
0.2504006409533381
  1
ON / OFF SWITCH (ILLUMINATED)
 41
0.75
  7
TXT
 11
27.12991658065815
 21
9.131366932963676
 31
0.0
100
AcDbText
 73
     2
  0
TEXT
  5
2E80
330
1F
100
AcDbEntity
  8
DIM
100
AcDbText
 10
27.12991658065815
 20
8.591404361965612
 30
0.0
 40
0.2504006409533381
  1
15 AMP 125 VOLT, COLOR - BLACK
 41
0.75
  7
TXT
 11
27.12991658065815
 21
8.71660468244228
 31
0.0
100
AcDbText
 73
     2
  0
TEXT
  5
2E81
330
1F
100
AcDbEntity
  8
DIM
100
AcDbText
 10
27.12991658065815
 20
8.174069960376713
 30
0.0
 40
0.2504006409533381
  1
BUTTON COLOR - RED TRANSPARENT
 41
0.75
  7
TXT
 11
27.12991658065815
 21
8.299270280853381
 31
0.0
100
AcDbText
 73
     2
  0
LWPOLYLINE
  5
2EAF
330
1F
100
AcDbEntity
  8
DIM
100
AcDbPolyline
 90
        4
 70
     0
 10
24.71451187726527
 20
10.26349987492333
 40
0.0
 41
0.1352163461148026
 10
25.0018701898722
 20
10.10828402998214
 40
0.0
 41
0.0
 10
26.58905119619893
 20
9.13136693296368
 40
0.0
 41
0.0
 10
26.94962811917174
 20
9.13136693296368
 40
0.0
 41
0.0
  0
TEXT
  5
2F02
330
1F
100
AcDbEntity
  8
DIM
100
AcDbText
 10
27.72383209153776
 20
11.83683090455107
 30
0.0
 40
0.2504006409533381
  1
COLOR - BLACK
 41
0.75
  7
TXT
 72
     2
 11
30.10326418219685
 21
11.96203122502774
 31
0.0
100
AcDbText
 73
     2
  0
TEXT
  5
2F03
330
1F
100
AcDbEntity
  8
DIM
100
AcDbText
 10
27.12991658065815
 20
7.756554090191248
 30
0.0
 40
0.2504006409533381
  1
ILLUMINATED IN "ON" POSITION
 41
0.75
  7
TXT
 11
27.12991658065815
 21
7.881754410667916
 31
0.0
100
AcDbText
 73
     2
  0
TEXT
  5
2F04
330
1F
100
AcDbEntity
  8
TEXT
100
AcDbText
 10
0.5979923045623892
 20
16.40713170091396
 30
0.0
 40
0.2504006410434824
  1
%%uNOTES:
 41
0.75
  7
TXT
100
AcDbText
  0
TEXT
  5
2F05
330
1F
100
AcDbEntity
  8
TEXT
100
AcDbText
 10
0.7649260652580452
 20
15.9677490630132
 30
0.0
 40
0.2504006410434824
  1
1.) INTERNAL WIRE CAPACITY -
 41
0.75
  7
TXT
100
AcDbText
  0
TEXT
  5
2F06
330
1F
100
AcDbEntity
  8
TEXT
100
AcDbText
 10
0.7649260652580452
 20
15.1299105328117
 30
0.0
 40
0.2504006410434824
  1
2.) ALL COMPONENTS ARE U.L. APPROVED
 41
0.75
  7
TXT
100
AcDbText
  0
TEXT
  5
3116
330
1F
100
AcDbEntity
  8
TEXT
100
AcDbText
 10
0.7649260652580452
 20
13.87315273750946
 30
0.0
 40
0.2504006410434824
  1
4.) U.L. LISTED IN U.S.A. AND CANADA.
 41
0.75
  7
TXT
100
AcDbText
  0
TEXT
  5
3117
330
1F
100
AcDbEntity
  8
TEXT
100
AcDbText
 10
0.7649260652580452
 20
14.71099126771095
 30
0.0
 40
0.2504006410434824
  1
3.) SURGE SUPPRESSION PROTECT
 41
0.75
  7
TXT
100
AcDbText
  0
MTEXT
  5
43B4
330
1F
100
AcDbEntity
  8
GROUND
100
AcDbMText
 10
364.6092335930929
 20
613.5666723939012
 30
0.0
 40
0.35
 41
0.0
 71
     4
 72
     5
  1

  0
MTEXT
  5
43E3
330
1F
100
AcDbEntity
  8
BLOCKS
100
AcDbMText
 10
99.95523602687882
 20
205.3038323413427
 30
0.0
 40
0.35
 41
0.0
 71
     4
 72
     5
  1

  0
MTEXT
  5
43E4
330
1F
100
AcDbEntity
  8
BLOCKS
100
AcDbMText
 10
102.3348280187894
 20
205.2906473444454
 30
0.0
 40
0.35
 41
0.0
 71
     6
 72
     5
  1

  0
MTEXT
  5
43E5
330
1F
100
AcDbEntity
  8
BLOCKS
100
AcDbMText
 10
99.95523602687882
 20
205.3038323413427
 30
0.0
 40
0.35
 41
0.0
 71
     4
 72
     5
  1

  0
MTEXT
  5
43E6
330
1F
100
AcDbEntity
  8
BLOCKS
100
AcDbMText
 10
92.30190525787759
 20
204.8657157260424
 30
0.0
 40
0.35
 41
0.0
 71
     6
 72
     5
  1

  0
MTEXT
  5
43E7
330
1F
100
AcDbEntity
  8
BLOCKS
100
AcDbMText
 10
91.09122694657702
 20
198.133464350323
 30
0.0
 40
0.35
 41
0.0
 71
     4
 72
     5
  1

  0
MTEXT
  5
43E8
330
1F
100
AcDbEntity
  8
TEXT
100
AcDbMText
 10
93.45498974228303
 20
203.7863688275394
 30
0.0
 40
0.35
 41
0.0
 71
     6
 72
     5
  1

  0
MTEXT
  5
43E9
330
1F
100
AcDbEntity
  8
TEXT
100
AcDbMText
 10
102.9623479061087
 20
209.5059779089419
 30
0.0
 40
0.35
 41
0.0
 71
     4
 72
     5
  1

  0
MTEXT
  5
43F0
330
1F
100
AcDbEntity
  8
GROUND
100
AcDbMText
 10
421.0976696812312
 20
809.05147754634
 30
0.0
 40
0.35
 41
0.0
 71
     4
 72
     5
  1

  0
MTEXT
  5
43F1
330
1F
100
AcDbEntity
  8
BLOCKS
100
AcDbMText
 10
156.4436721150172
 20
400.7886374937815
 30
0.0
 40
0.35
 41
0.0
 71
     4
 72
     5
  1

  0
MTEXT
  5
43F2
330
1F
100
AcDbEntity
  8
BLOCKS
100
AcDbMText
 10
158.8232641069277
 20
400.7754524968842
 30
0.0
 40
0.35
 41
0.0
 71
     6
 72
     5
  1

  0
MTEXT
  5
43F3
330
1F
100
AcDbEntity
  8
BLOCKS
100
AcDbMText
 10
156.4436721150172
 20
400.7886374937815
 30
0.0
 40
0.35
 41
0.0
 71
     4
 72
     5
  1

  0
MTEXT
  5
43F4
330
1F
100
AcDbEntity
  8
BLOCKS
100
AcDbMText
 10
148.7903413460159
 20
400.3505208784812
 30
0.0
 40
0.35
 41
0.0
 71
     6
 72
     5
  1

  0
MTEXT
  5
43F5
330
1F
100
AcDbEntity
  8
BLOCKS
100
AcDbMText
 10
147.5796630347154
 20
393.6182695027618
 30
0.0
 40
0.35
 41
0.0
 71
     4
 72
     5
  1

  0
MTEXT
  5
43F6
330
1F
100
AcDbEntity
  8
TEXT
100
AcDbMText
 10
149.9434258304214
 20
399.2711739799782
 30
0.0
 40
0.35
 41
0.0
 71
     6
 72
     5
  1

  0
MTEXT
  5
43F7
330
1F
100
AcDbEntity
  8
TEXT
100
AcDbMText
 10
159.4507839942471
 20
404.9907830613807
 30
0.0
 40
0.35
 41
0.0
 71
     4
 72
     5
  1

  0
MTEXT
  5
43F8
330
1F
100
AcDbEntity
  8
GROUND
100
AcDbMText
 10
499.9965220763331
 20
1060.701394475996
 30
0.0
 40
0.35
 41
0.0
 71
     4
 72
     5
  1

  0
MTEXT
  5
43F9
330
1F
100
AcDbEntity
  8
GROUND
100
AcDbMText
 10
389.2517487253806
 20
1014.400315255944
 30
0.0
 40
0.35
 41
0.0
 71
     4
 72
     5
  1

  0
MTEXT
  5
43FA
330
1F
100
AcDbEntity
  8
GROUND
100
AcDbMText
 10
496.8884204498906
 20
1358.722865938598
 30
0.0
 40
0.35
 41
0.0
 71
     4
 72
     5
  1

  0
MTEXT
  5
43FB
330
1F
100
AcDbEntity
  8
GROUND
100
AcDbMText
 10
496.106082361278
 20
1300.876694387349
 30
0.0
 40
0.35
 41
0.0
 71
     4
 72
     5
  1

  0
MTEXT
  5
43FC
330
1F
100
AcDbEntity
  8
GROUND
100
AcDbMText
 10
772.7974084483357
 20
1608.86843107591
 30
0.0
 40
0.35
 41
0.0
 71
     4
 72
     5
  1

  0
MTEXT
  5
43FD
330
1F
100
AcDbEntity
  8
BLOCKS
100
AcDbMText
 10
508.1434108821218
 20
1200.605591023351
 30
0.0
 40
0.35
 41
0.0
 71
     4
 72
     5
  1

  0
MTEXT
  5
43FE
330
1F
100
AcDbEntity
  8
BLOCKS
100
AcDbMText
 10
510.5230028740323
 20
1200.592406026454
 30
0.0
 40
0.35
 41
0.0
 71
     6
 72
     5
  1

  0
MTEXT
  5
43FF
330
1F
100
AcDbEntity
  8
BLOCKS
100
AcDbMText
 10
508.1434108821218
 20
1200.605591023351
 30
0.0
 40
0.35
 41
0.0
 71
     4
 72
     5
  1

  0
MTEXT
  5
4400
330
1F
100
AcDbEntity
  8
BLOCKS
100
AcDbMText
 10
500.4900801131205
 20
1200.167474408051
 30
0.0
 40
0.35
 41
0.0
 71
     6
 72
     5
  1

  0
MTEXT
  5
4401
330
1F
100
AcDbEntity
  8
BLOCKS
100
AcDbMText
 10
499.27940180182
 20
1193.435223032332
 30
0.0
 40
0.35
 41
0.0
 71
     4
 72
     5
  1

  0
MTEXT
  5
4402
330
1F
100
AcDbEntity
  8
TEXT
100
AcDbMText
 10
501.6431645975259
 20
1199.088127509548
 30
0.0
 40
0.35
 41
0.0
 71
     6
 72
     5
  1

  0
MTEXT
  5
4403
330
1F
100
AcDbEntity
  8
TEXT
100
AcDbMText
 10
511.1505227613517
 20
1204.807736590951
 30
0.0
 40
0.35
 41
0.0
 71
     4
 72
     5
  1

  0
MTEXT
  5
4404
330
1F
100
AcDbEntity
  8
GROUND
100
AcDbMText
 10
803.6431753192952
 20
1424.608128595956
 30
0.0
 40
0.35
 41
0.0
 71
     4
 72
     5
  1

  0
MTEXT
  5
4405
330
1F
100
AcDbEntity
  8
BLOCKS
100
AcDbMText
 10
538.9891777530813
 20
1016.345288543397
 30
0.0
 40
0.35
 41
0.0
 71
     4
 72
     5
  1

  0
MTEXT
  5
4406
330
1F
100
AcDbEntity
  8
BLOCKS
100
AcDbMText
 10
541.3687697449918
 20
1016.3321035465
 30
0.0
 40
0.35
 41
0.0
 71
     6
 72
     5
  1

  0
MTEXT
  5
4407
330
1F
100
AcDbEntity
  8
BLOCKS
100
AcDbMText
 10
538.9891777530813
 20
1016.345288543397
 30
0.0
 40
0.35
 41
0.0
 71
     4
 72
     5
  1

  0
MTEXT
  5
4408
330
1F
100
AcDbEntity
  8
BLOCKS
100
AcDbMText
 10
531.33584698408
 20
1015.907171928097
 30
0.0
 40
0.35
 41
0.0
 71
     6
 72
     5
  1

  0
MTEXT
  5
4409
330
1F
100
AcDbEntity
  8
BLOCKS
100
AcDbMText
 10
530.1251686727795
 20
1009.174920552377
 30
0.0
 40
0.35
 41
0.0
 71
     4
 72
     5
  1

  0
MTEXT
  5
440A
330
1F
100
AcDbEntity
  8
TEXT
100
AcDbMText
 10
532.4889314684855
 20
1014.827825029594
 30
0.0
 40
0.35
 41
0.0
 71
     6
 72
     5
  1

  0
MTEXT
  5
440B
330
1F
100
AcDbEntity
  8
TEXT
100
AcDbMText
 10
541.9962896323112
 20
1020.547434110996
 30
0.0
 40
0.35
 41
0.0
 71
     4
 72
     5
  1

  0
MTEXT
  5
441F
330
1F
100
AcDbEntity
  8
GROUND
100
AcDbMText
 10
422.7641266472359
 20
811.1430478939801
 30
0.0
 40
0.35
 41
0.0
 71
     4
 72
     5
  1

  0
MTEXT
  5
4420
330
1F
100
AcDbEntity
  8
BLOCKS
100
AcDbMText
 10
158.1101290810219
 20
402.8802078414216
 30
0.0
 40
0.35
 41
0.0
 71
     4
 72
     5
  1

  0
MTEXT
  5
4421
330
1F
100
AcDbEntity
  8
BLOCKS
100
AcDbMText
 10
160.4897210729324
 20
402.8670228445243
 30
0.0
 40
0.35
 41
0.0
 71
     6
 72
     5
  1

  0
MTEXT
  5
4422
330
1F
100
AcDbEntity
  8
BLOCKS
100
AcDbMText
 10
158.1101290810219
 20
402.8802078414216
 30
0.0
 40
0.35
 41
0.0
 71
     4
 72
     5
  1

  0
MTEXT
  5
4423
330
1F
100
AcDbEntity
  8
BLOCKS
100
AcDbMText
 10
150.4567983120206
 20
402.4420912261214
 30
0.0
 40
0.35
 41
0.0
 71
     6
 72
     5
  1

  0
MTEXT
  5
4424
330
1F
100
AcDbEntity
  8
BLOCKS
100
AcDbMText
 10
149.2461200007201
 20
395.7098398504019
 30
0.0
 40
0.35
 41
0.0
 71
     4
 72
     5
  1

  0
MTEXT
  5
4425
330
1F
100
AcDbEntity
  8
TEXT
100
AcDbMText
 10
151.6098827964261
 20
401.3627443276184
 30
0.0
 40
0.35
 41
0.0
 71
     6
 72
     5
  1

  0
MTEXT
  5
4426
330
1F
100
AcDbEntity
  8
TEXT
100
AcDbMText
 10
161.1172409602518
 20
407.0823534090209
 30
0.0
 40
0.35
 41
0.0
 71
     4
 72
     5
  1

  0
MTEXT
  5
4427
330
1F
100
AcDbEntity
  8
GROUND
100
AcDbMText
 10
501.6629790423377
 20
1062.792964823636
 30
0.0
 40
0.35
 41
0.0
 71
     4
 72
     5
  1

  0
MTEXT
  5
4428
330
1F
100
AcDbEntity
  8
GROUND
100
AcDbMText
 10
390.9182056913853
 20
1016.491885603584
 30
0.0
 40
0.35
 41
0.0
 71
     4
 72
     5
  1

  0
MTEXT
  5
4429
330
1F
100
AcDbEntity
  8
GROUND
100
AcDbMText
 10
498.5548774158952
 20
1360.814436286238
 30
0.0
 40
0.35
 41
0.0
 71
     4
 72
     5
  1

  0
MTEXT
  5
442A
330
1F
100
AcDbEntity
  8
GROUND
100
AcDbMText
 10
497.7725393272826
 20
1302.968264734989
 30
0.0
 40
0.35
 41
0.0
 71
     4
 72
     5
  1

  0
MTEXT
  5
442B
330
1F
100
AcDbEntity
  8
GROUND
100
AcDbMText
 10
774.4638654143404
 20
1610.96000142355
 30
0.0
 40
0.35
 41
0.0
 71
     4
 72
     5
  1

  0
MTEXT
  5
442C
330
1F
100
AcDbEntity
  8
BLOCKS
100
AcDbMText
 10
509.8098678481264
 20
1202.697161370991
 30
0.0
 40
0.35
 41
0.0
 71
     4
 72
     5
  1

  0
MTEXT
  5
442D
330
1F
100
AcDbEntity
  8
BLOCKS
100
AcDbMText
 10
512.1894598400369
 20
1202.683976374094
 30
0.0
 40
0.35
 41
0.0
 71
     6
 72
     5
  1

  0
MTEXT
  5
442E
330
1F
100
AcDbEntity
  8
BLOCKS
100
AcDbMText
 10
509.8098678481264
 20
1202.697161370991
 30
0.0
 40
0.35
 41
0.0
 71
     4
 72
     5
  1

  0
MTEXT
  5
442F
330
1F
100
AcDbEntity
  8
BLOCKS
100
AcDbMText
 10
502.1565370791251
 20
1202.259044755691
 30
0.0
 40
0.35
 41
0.0
 71
     6
 72
     5
  1

  0
MTEXT
  5
4430
330
1F
100
AcDbEntity
  8
BLOCKS
100
AcDbMText
 10
500.9458587678246
 20
1195.526793379972
 30
0.0
 40
0.35
 41
0.0
 71
     4
 72
     5
  1

  0
MTEXT
  5
4431
330
1F
100
AcDbEntity
  8
TEXT
100
AcDbMText
 10
503.3096215635305
 20
1201.179697857188
 30
0.0
 40
0.35
 41
0.0
 71
     6
 72
     5
  1

  0
MTEXT
  5
4432
330
1F
100
AcDbEntity
  8
TEXT
100
AcDbMText
 10
512.8169797273563
 20
1206.899306938591
 30
0.0
 40
0.35
 41
0.0
 71
     4
 72
     5
  1

  0
MTEXT
  5
4433
330
1F
100
AcDbEntity
  8
GROUND
100
AcDbMText
 10
805.3096322852999
 20
1426.699698943596
 30
0.0
 40
0.35
 41
0.0
 71
     4
 72
     5
  1

  0
MTEXT
  5
4434
330
1F
100
AcDbEntity
  8
BLOCKS
100
AcDbMText
 10
540.6556347190859
 20
1018.436858891037
 30
0.0
 40
0.35
 41
0.0
 71
     4
 72
     5
  1

  0
MTEXT
  5
4435
330
1F
100
AcDbEntity
  8
BLOCKS
100
AcDbMText
 10
543.0352267109964
 20
1018.42367389414
 30
0.0
 40
0.35
 41
0.0
 71
     6
 72
     5
  1

  0
MTEXT
  5
4436
330
1F
100
AcDbEntity
  8
BLOCKS
100
AcDbMText
 10
540.6556347190859
 20
1018.436858891037
 30
0.0
 40
0.35
 41
0.0
 71
     4
 72
     5
  1

  0
MTEXT
  5
4437
330
1F
100
AcDbEntity
  8
BLOCKS
100
AcDbMText
 10
533.0023039500846
 20
1017.998742275737
 30
0.0
 40
0.35
 41
0.0
 71
     6
 72
     5
  1

  0
MTEXT
  5
4438
330
1F
100
AcDbEntity
  8
BLOCKS
100
AcDbMText
 10
531.7916256387841
 20
1011.266490900018
 30
0.0
 40
0.35
 41
0.0
 71
     4
 72
     5
  1

  0
MTEXT
  5
4439
330
1F
100
AcDbEntity
  8
TEXT
100
AcDbMText
 10
534.1553884344901
 20
1016.919395377234
 30
0.0
 40
0.35
 41
0.0
 71
     6
 72
     5
  1

  0
MTEXT
  5
443A
330
1F
100
AcDbEntity
  8
TEXT
100
AcDbMText
 10
543.6627465983158
 20
1022.639004458636
 30
0.0
 40
0.35
 41
0.0
 71
     4
 72
     5
  1

  0
MTEXT
  5
443B
330
1F
100
AcDbEntity
  8
GROUND
100
AcDbMText
 10
419.3507808896051
 20
800.3734414075675
 30
0.0
 40
0.35
 41
0.0
 71
     4
 72
     5
  1

  0
MTEXT
  5
443C
330
1F
100
AcDbEntity
  8
BLOCKS
100
AcDbMText
 10
154.696783323391
 20
392.110601355009
 30
0.0
 40
0.35
 41
0.0
 71
     4
 72
     5
  1

  0
MTEXT
  5
443D
330
1F
100
AcDbEntity
  8
BLOCKS
100
AcDbMText
 10
157.0763753153016
 20
392.0974163581117
 30
0.0
 40
0.35
 41
0.0
 71
     6
 72
     5
  1

  0
MTEXT
  5
443E
330
1F
100
AcDbEntity
  8
BLOCKS
100
AcDbMText
 10
154.696783323391
 20
392.110601355009
 30
0.0
 40
0.35
 41
0.0
 71
     4
 72
     5
  1

  0
MTEXT
  5
443F
330
1F
100
AcDbEntity
  8
BLOCKS
100
AcDbMText
 10
147.0434525543898
 20
391.6724847397088
 30
0.0
 40
0.35
 41
0.0
 71
     6
 72
     5
  1

  0
MTEXT
  5
4440
330
1F
100
AcDbEntity
  8
BLOCKS
100
AcDbMText
 10
145.8327742430892
 20
384.9402333639893
 30
0.0
 40
0.35
 41
0.0
 71
     4
 72
     5
  1

  0
MTEXT
  5
4441
330
1F
100
AcDbEntity
  8
TEXT
100
AcDbMText
 10
148.1965370387952
 20
390.5931378412058
 30
0.0
 40
0.35
 41
0.0
 71
     6
 72
     5
  1

  0
MTEXT
  5
4442
330
1F
100
AcDbEntity
  8
TEXT
100
AcDbMText
 10
157.7038952026209
 20
396.3127469226083
 30
0.0
 40
0.35
 41
0.0
 71
     4
 72
     5
  1

  0
MTEXT
  5
4443
330
1F
100
AcDbEntity
  8
GROUND
100
AcDbMText
 10
498.2496332847069
 20
1052.023358337224
 30
0.0
 40
0.35
 41
0.0
 71
     4
 72
     5
  1

  0
MTEXT
  5
4444
330
1F
100
AcDbEntity
  8
GROUND
100
AcDbMText
 10
387.5048599337545
 20
1005.722279117172
 30
0.0
 40
0.35
 41
0.0
 71
     4
 72
     5
  1

  0
MTEXT
  5
4445
330
1F
100
AcDbEntity
  8
GROUND
100
AcDbMText
 10
495.1415316582644
 20
1350.044829799825
 30
0.0
 40
0.35
 41
0.0
 71
     4
 72
     5
  1

  0
MTEXT
  5
4446
330
1F
100
AcDbEntity
  8
GROUND
100
AcDbMText
 10
494.3591935696518
 20
1292.198658248576
 30
0.0
 40
0.35
 41
0.0
 71
     4
 72
     5
  1

  0
MTEXT
  5
4447
330
1F
100
AcDbEntity
  8
GROUND
100
AcDbMText
 10
771.0505196567095
 20
1600.190394937137
 30
0.0
 40
0.35
 41
0.0
 71
     4
 72
     5
  1

  0
MTEXT
  5
4448
330
1F
100
AcDbEntity
  8
BLOCKS
100
AcDbMText
 10
506.3965220904955
 20
1191.927554884579
 30
0.0
 40
0.35
 41
0.0
 71
     4
 72
     5
  1

  0
MTEXT
  5
4449
330
1F
100
AcDbEntity
  8
BLOCKS
100
AcDbMText
 10
508.776114082406
 20
1191.914369887681
 30
0.0
 40
0.35
 41
0.0
 71
     6
 72
     5
  1

  0
MTEXT
  5
444A
330
1F
100
AcDbEntity
  8
BLOCKS
100
AcDbMText
 10
506.3965220904955
 20
1191.927554884579
 30
0.0
 40
0.35
 41
0.0
 71
     4
 72
     5
  1

  0
MTEXT
  5
444B
330
1F
100
AcDbEntity
  8
BLOCKS
100
AcDbMText
 10
498.7431913214942
 20
1191.489438269278
 30
0.0
 40
0.35
 41
0.0
 71
     6
 72
     5
  1

  0
MTEXT
  5
444C
330
1F
100
AcDbEntity
  8
BLOCKS
100
AcDbMText
 10
497.5325130101937
 20
1184.757186893559
 30
0.0
 40
0.35
 41
0.0
 71
     4
 72
     5
  1

  0
MTEXT
  5
444D
330
1F
100
AcDbEntity
  8
TEXT
100
AcDbMText
 10
499.8962758058997
 20
1190.410091370775
 30
0.0
 40
0.35
 41
0.0
 71
     6
 72
     5
  1

  0
MTEXT
  5
444E
330
1F
100
AcDbEntity
  8
TEXT
100
AcDbMText
 10
509.4036339697254
 20
1196.129700452178
 30
0.0
 40
0.35
 41
0.0
 71
     4
 72
     5
  1

  0
MTEXT
  5
444F
330
1F
100
AcDbEntity
  8
GROUND
100
AcDbMText
 10
801.8962865276691
 20
1415.930092457183
 30
0.0
 40
0.35
 41
0.0
 71
     4
 72
     5
  1

  0
MTEXT
  5
4450
330
1F
100
AcDbEntity
  8
BLOCKS
100
AcDbMText
 10
537.2422889614551
 20
1007.667252404625
 30
0.0
 40
0.35
 41
0.0
 71
     4
 72
     5
  1

  0
MTEXT
  5
4451
330
1F
100
AcDbEntity
  8
BLOCKS
100
AcDbMText
 10
539.6218809533656
 20
1007.654067407727
 30
0.0
 40
0.35
 41
0.0
 71
     6
 72
     5
  1

  0
MTEXT
  5
4452
330
1F
100
AcDbEntity
  8
BLOCKS
100
AcDbMText
 10
537.2422889614551
 20
1007.667252404625
 30
0.0
 40
0.35
 41
0.0
 71
     4
 72
     5
  1

  0
MTEXT
  5
4453
330
1F
100
AcDbEntity
  8
BLOCKS
100
AcDbMText
 10
529.5889581924538
 20
1007.229135789324
 30
0.0
 40
0.35
 41
0.0
 71
     6
 72
     5
  1

  0
MTEXT
  5
4454
330
1F
100
AcDbEntity
  8
BLOCKS
100
AcDbMText
 10
528.3782798811533
 20
1000.496884413605
 30
0.0
 40
0.35
 41
0.0
 71
     4
 72
     5
  1

  0
MTEXT
  5
4455
330
1F
100
AcDbEntity
  8
TEXT
100
AcDbMText
 10
530.7420426768592
 20
1006.149788890821
 30
0.0
 40
0.35
 41
0.0
 71
     6
 72
     5
  1

  0
MTEXT
  5
4456
330
1F
100
AcDbEntity
  8
TEXT
100
AcDbMText
 10
540.249400840685
 20
1011.869397972224
 30
0.0
 40
0.35
 41
0.0
 71
     4
 72
     5
  1

  0
LINE
  5
447F
330
1F
100
AcDbEntity
  8
0
100
AcDbLine
 10
7.08099085810008
 20
7.301580166314224
 30
0.0
 11
26.08099085810008
 21
7.301580166314224
 31
0.0
  0
LINE
  5
4480
330
1F
100
AcDbEntity
  8
0
100
AcDbLine
 10
7.08099085810008
 20
7.265580166314223
 30
0.0
 11
8.016990858100066
 21
7.265580166314219
 31
0.0
  0
LINE
  5
4481
330
1F
100
AcDbEntity
  8
0
100
AcDbLine
 10
7.08099085810008
 20
7.301580166314224
 30
0.0
 11
7.08099085810008
 21
7.265580166314223
 31
0.0
  0
LINE
  5
448A
330
1F
100
AcDbEntity
  8
0
100
AcDbLine
 10
7.924990858100067
 20
7.25058016631422
 30
0.0
 11
7.924990858100081
 21
3.514580166314259
 31
0.0
  0
LINE
  5
448B
330
1F
100
AcDbEntity
  8
0
100
AcDbLine
 10
7.924990858100081
 20
3.51458016631423
 30
0.0
 11
25.23699085810008
 21
3.51458016631423
 31
0.0
  0
LINE
  5
44A3
330
1F
100
AcDbEntity
  8
0
100
AcDbLine
 10
7.924990858100081
 20
2.473711659703682
 30
0.0
 11
7.924990858100067
 21
0.7472116597036802
 31
0.0
  0
ARC
  5
44A9
330
1F
100
AcDbEntity
  8
0
100
AcDbCircle
 10
24.61199085810008
 20
1.606211659703682
 30
0.0
 40
0.4375
100
AcDbArc
 50
26.94668692560832
 51
153.0533130743912
  0
LINE
  5
44AA
330
1F
100
AcDbEntity
  8
0
100
AcDbLine
 10
25.00199085810009
 20
1.804469698632737
 30
0.0
 11
25.00199085810008
 21
1.407953620774627
 31
0.0
  0
LINE
  5
44AB
330
1F
100
AcDbEntity
  8
0
100
AcDbLine
 10
24.22199085810008
 20
1.804469698632737
 30
0.0
 11
24.22199085810006
 21
1.407953620774656
 31
0.0
  0
ARC
  5
44AC
330
1F
100
AcDbEntity
  8
0
100
AcDbCircle
 10
24.61199085810008
 20
1.606211659703682
 30
0.0
 40
0.4375
100
AcDbArc
 50
206.9466869256083
 51
333.0533130743912
  0
CIRCLE
  5
44AD
330
1F
100
AcDbEntity
  8
0
100
AcDbCircle
 10
24.61199085810008
 20
1.606211659703682
 30
0.0
 40
0.1875
  0
LINE
  5
44BA
330
1F
100
AcDbEntity
  8
0
100
AcDbLine
 10
25.00075317503833
 20
3.51458016631423
 30
0.0
 11
25.00075317503832
 21
3.26458016631423
 31
0.0
  0
LINE
  5
44BB
330
1F
100
AcDbEntity
  8
0
100
AcDbLine
 10
24.22322854116182
 20
3.51458016631423
 30
0.0
 11
24.22322854116184
 21
3.264580166314259
 31
0.0
  0
LINE
  5
44BC
330
1F
100
AcDbEntity
  8
0
100
AcDbLine
 10
24.93875317503834
 20
3.202580166314219
 30
0.0
 11
24.28522854116182
 21
3.202580166314247
 31
0.0
  0
ARC
  5
44BD
330
1F
100
AcDbEntity
  8
0
100
AcDbCircle
 10
24.28522854116182
 20
3.264580166314259
 30
0.0
 40
0.0620000000000012
100
AcDbArc
 50
180.0000000000012
 51
269.9999999999999
  0
ARC
  5
44BE
330
1F
100
AcDbEntity
  8
0
100
AcDbCircle
 10
24.93875317503834
 20
3.26458016631423
 30
0.0
 40
0.0619999999999998
100
AcDbArc
 50
270.0
 51
360.0
  0
LINE
  5
44BF
330
1F
100
AcDbEntity
  8
0
100
AcDbLine
 10
24.4306610720686
 20
3.20258016631419
 30
0.0
 11
24.43066107206861
 21
2.890863340042261
 31
0.0
  0
LINE
  5
44C0
330
1F
100
AcDbEntity
  8
0
100
AcDbLine
 10
24.8056610720686
 20
3.20258016631419
 30
0.0
 11
24.8056610720686
 21
2.891102159651675
 31
0.0
  0
LINE
  5
44E9
330
1F
100
AcDbEntity
  8
0
100
AcDbLine
 10
24.43066107206857
 20
2.890863340042285
 30
0.0
 11
24.51711538798818
 21
2.842379049400476
 31
0.0
  0
LINE
  5
44EA
330
1F
100
AcDbEntity
  8
0
100
AcDbLine
 10
24.51711538798818
 20
2.842379049400476
 30
0.0
 11
24.66264827832119
 21
2.988121024454101
 31
0.0
  0
LINE
  5
44EB
330
1F
100
AcDbEntity
  8
0
100
AcDbLine
 10
24.66264827832119
 20
2.988121024454101
 30
0.0
 11
24.8056610720686
 21
2.891102159651679
 31
0.0
  0
INSERT
  5
44EF
330
1F
100
AcDbEntity
  8
ASHADE
 62
     1
100
AcDbBlockReference
  2
AVE_RENDER
 10
34.08263921288184
 20
0.9728260479101323
 30
0.0
1001
AVE_RENDER
1002
{
1070
     6
1000
Pref
1070
    30
1070
    20
1070
     1
1070
     0
1000

1070
    10
1070
     1
1070
    30
1040
1.0
1070
     1
1040
0.3
1040
0.7
1040
0.0
1040
10.0
1010
-1.0
1020
-1.0
1030
-1.0
1040
0.3
1070
    49
1070
     0
1070
     0
1010
1.0
1020
1.0
1030
1.0
1040
45.0
1070
     1
1070
     0
1000
WCS
1040
0.0
1002
}
  0
INSERT
  5
44F0
330
1F
100
AcDbEntity
  8
ASHADE
 62
     3
100
AcDbBlockReference
  2
AVE_RENDER
 10
34.08263921288184
 20
0.9728260479101323
 30
0.0
1001
AVE_RENDER
1002
{
1070
     0
1000
Full Opt
1070
     0
1070
     1
1070
     1
1070
     1
1070
     0
1070
     0
1070
     0
1070
     1
1070
     1
1040
0.0001
1040
0.0001
1002
}
  0
INSERT
  5
44F1
330
1F
100
AcDbEntity
  8
ASHADE
 62
     4
100
AcDbBlockReference
  2
AVE_RENDER
 10
34.08263921288184
 20
0.9728260479101323
 30
0.0
1001
AVE_RENDER
1002
{
1070
     0
1000
Quick Opt
1070
     0
1070
     1
1070
     1
1070
     1
1070
     0
1070
     0
1070
     1
1002
}
  0
INSERT
  5
44F2
330
1F
100
AcDbEntity
  8
ASHADE
 62
     5
100
AcDbBlockReference
  2
AVE_RENDER
 10
34.08263921288184
 20
0.9728260479101323
 30
0.0
1001
AVE_RENDER
1002
{
1070
     1
1000
Scanl Opt
1070
     2
1070
     0
1070
     2
1040
2.0
1040
4.0
1070
     0
1070
     1
1070
     0
1040
0.03
1002
}
  0
INSERT
  5
44F3
330
1F
100
AcDbEntity
  8
ASHADE
 62
     6
100
AcDbBlockReference
  2
AVE_RENDER
 10
34.08263921288184
 20
0.9728260479101323
 30
0.0
1001
AVE_RENDER
1002
{
1070
     2
1000
Raytr Opt
1070
     2
1070
     0
1070
     2
1040
2.0
1040
4.0
1070
     0
1070
     1
1070
     1
1040
0.03
1070
     3
1040
0.03
1002
}
  0
INSERT
  5
44F4
330
1F
100
AcDbEntity
  8
ASHADE
 62
     7
100
AcDbBlockReference
  2
AVE_RENDER
 10
34.08263921288184
 20
0.9728260479101323
 30
0.0
1001
AVE_RENDER
1002
{
1070
     0
1000
RFile Opt
1070
     5
1070
   640
1070
   480
1070
 10000
1070
     3
1070
    32
1070
    24
1070
     0
1070
     0
1070
     0
1070
     1
1070
     0
1070
     0
1070
     0
1002
}
  0
INSERT
  5
44F5
330
1F
100
AcDbEntity
  8
ASHADE
 62
     8
100
AcDbBlockReference
  2
AVE_RENDER
 10
34.08263921288184
 20
0.9728260479101323
 30
0.0
1001
AVE_RENDER
1002
{
1070
     0
1000
Fog Opt
1070
     0
1070
     0
1040
0.0
1040
1.0
1040
0.0
1040
1.0
1010
0.5
1020
0.5
1030
0.5
1002
}
  0
INSERT
  5
44F6
330
1F
100
AcDbEntity
  8
ASHADE
 62
     9
100
AcDbBlockReference
  2
AVE_RENDER
 10
34.08263921288184
 20
0.9728260479101323
 30
0.0
1001
AVE_RENDER
1002
{
1070
     0
1000
BG Opt
1070
     0
1070
     1
1010
0.0
1020
0.0
1030
0.0
1010
1.0
1020
0.0
1030
0.0
1010
0.0
1020
1.0
1030
0.0
1010
0.0
1020
0.0
1030
1.0
1040
0.5
1040
0.33
1040
0.0
1000

1070
     1
1000

1070
     1
1070
     1
1040
1.0
1040
1.0
1040
0.0
1040
0.0
1070
     0
1002
}
  0
INSERT
  5
44F7
330
1F
100
AcDbEntity
  8
ASHADE
 62
     1
100
AcDbBlockReference
  2
AVE_GLOBAL
 10
34.08263921288184
 20
0.9728260479101323
 30
0.0
1001
AVE_MATERIAL
1002
{
1000
*GLOBAL*
1000
1
1000
Global finish.
1002
{
1002
}
1002
{
1070
    63
1002
{
1002
{
1010
-1.0
1020
-1.0
1030
-1.0
1002
}
1040
0.1000000014901161
1000

1040
0.0
1002
{
1002
}
1040
0.0
1002
{
1002
}
1040
0.0
1002
}
1002
{
1002
{
1010
-1.0
1020
-1.0
1030
-1.0
1002
}
1040
0.699999988079071
1000

1040
0.0
1002
{
1002
}
1040
0.0
1002
{
1002
}
1040
0.0
1002
}
1002
{
1002
{
1010
-1.0
1020
-1.0
1030
-1.0
1002
}
1040
0.2000000029802322
1000

1040
0.0
1002
{
1002
}
1040
0.0
1002
{
1002
}
1040
0.0
1002
}
1002
{
1070
     0
1002
{
1070
     1
1002
{
1040
1.0
1040
1.0
1000

1040
0.0
1002
{
1002
}
1040
0.0
1002
{
1002
}
1040
0.0
1002
}
1002
}
1040
1.0
1040
0.0
1040
0.0
1002
}
1002
{
1040
1.0
1040
1.0
1000

1040
0.0
1002
{
1002
}
1040
0.0
1002
{
1002
}
1040
0.0
1002
}
1002
{
1040
0.5
1040
1.0
1000

1040
0.0
1002
{
1002
}
1040
0.0
1002
{
1002
}
1040
0.0
1002
}
1002
{
1070
     0
1040
0.0
1002
{
1002
}
1040
1.0
1002
{
1002
}
1040
0.0
1002
}
1002
{
1040
0.0
1002
{
1002
{
1010
0.0
1020
0.0
1030
0.0
1002
}
1040
1.0
1000

1040
0.0
1002
{
1002
}
1040
0.0
1002
{
1002
}
1040
0.0
1002
}
1002
}
1002
{
1002
{
1070
     1
1002
{
1040
0.0
1040
1.0
1000

1040
0.0
1002
{
1002
}
1040
0.0
1002
{
1002
}
1040
0.0
1002
}
1002
}
1040
0.0
1002
{
1002
}
1010
1.0
1020
0.0
1030
0.0
1010
0.0
1020
1.0
1030
0.0
1010
0.0
1020
0.0
1030
1.0
1070
     0
1002
}
1002
{
1002
{
1040
1.0
1040
1.0
1002
{
1070
     1
1002
{
1040
1.0
1040
1.0
1000

1040
0.0
1002
{
1002
}
1040
0.0
1002
{
1002
}
1040
0.0
1002
}
1002
}
1002
}
1070
     0
1040
0.0
1002
{
1002
}
1002
}
1002
{
1002
}
1002
}
1002
{
1071
        3
1070
     3
1070
     0
1002
{
1070
     2
1070
     0
1070
     0
1040
0.0
1002
}
1070
     0
1070
     2
1002
{
1002
}
1002
}
1002
{
1040
8030.0
1040
190.3000030517578
1040
0.3050000071525574
1040
228.0
1040
545.0
1040
14.0
1040
17.39999961853027
1040
0.4560000002384186
1002
}
1002
}
  0
MTEXT
  5
4552
330
1F
100
AcDbEntity
  8
0
100
AcDbMText
 10
98.07259946543962
 20
198.9575792876063
 30
0.0
 40
0.35
 41
0.0
 71
     4
 72
     5
  1

  0
MTEXT
  5
455C
330
1F
100
AcDbEntity
  8
0
100
AcDbMText
 10
97.43806366634607
 20
205.2873201638848
 30
0.0
 40
0.35
 41
0.0
 71
     4
 72
     1
  1
\A1;
  0
LINE
  5
45DD
330
1F
100
AcDbEntity
  8
0
100
AcDbLine
 10
9.492990858100043
 20
7.332830166314224
 30
0.0
 11
9.492990858100057
 21
7.301580166314224
 31
0.0
  0
LINE
  5
45DE
330
1F
100
AcDbEntity
  8
0
100
AcDbLine
 10
9.79299085810004
 20
7.332830166314224
 30
0.0
 11
9.792990858100055
 21
7.301580166314224
 31
0.0
  0
LINE
  5
45E1
330
1F
100
AcDbEntity
  8
0
100
AcDbLine
 10
9.492990858100043
 20
7.332830166314224
 30
0.0
 11
9.79299085810004
 21
7.332830166314224
 31
0.0
  0
MTEXT
  5
45E7
330
1F
100
AcDbEntity
  8
0
100
AcDbMText
 10
96.54539809565472
 20
205.4610569968095
 30
0.0
 40
0.35
 41
0.0
 71
     1
 72
     1
  1

  0
INSERT
  5
46A4
330
1F
100
AcDbEntity
  8
OBJECT
100
AcDbBlockReference
  2
HBS
 10
0.0
 20
0.0
 30
0.0
 41
2.0
 42
2.0
 43
2.0
  0
INSERT
  5
46A5
330
1F
100
AcDbEntity
  8
OBJECT
100
AcDbBlockReference
  2
HBS
 10
0.0
 20
0.0
 30
0.0
 41
2.0
 42
2.0
 43
2.0
  0
TEXT
  5
4705
330
1F
100
AcDbEntity
  8
TEXT
100
AcDbText
 10
30.5590519721288
 20
19.9663405246592
 30
0.0
 40
0.375
  1
1-10-20
 41
0.75
  7
TXT
 72
     1
 11
31.3563957221288
 21
19.9663405246592
 31
0.0
100
AcDbText
  0
TEXT
  5
4706
330
1F
100
AcDbEntity
  8
TEXT
100
AcDbText
 10
4.960372400827516
 20
19.77637035917271
 30
0.0
 40
0.2954277590397136
  1
(15 AMP) (SURGE SUPPRESSED)
 41
0.75
  7
TXT
 72
     1
 11
7.73111549592123
 21
19.77637035917271
 31
0.0
100
AcDbText
  0
DIMENSION
  5
4708
330
1F
100
AcDbEntity
  8
DIM
100
AcDbDimension
  2
*D17
 10
26.08099085810008
 20
12.63812833563759
 30
0.0
 11
16.58099085810008
 21
12.63812833563759
 31
0.0
 70
    32
  3
23NSTD
100
AcDbAlignedDimension
 13
7.08099085810008
 23
11.50384300420964
 33
0.0
 14
26.08099085810008
 24
11.50384300420964
 34
0.0
100
AcDbRotatedDimension
  0
DIMENSION
  5
472A
330
1F
100
AcDbEntity
  8
DIM
100
AcDbDimension
  2
*D11
 10
5.623270662946937
 20
9.753843004209607
 30
0.0
 11
5.623270662946937
 21
10.62884300420962
 31
0.0
 70
    32
  3
23NSTD
100
AcDbAlignedDimension
 13
7.08099085810008
 23
11.50384300420964
 33
0.0
 14
7.08099085810008
 24
9.753843004209607
 34
0.0
 50
90.0
100
AcDbRotatedDimension
  0
LWPOLYLINE
  5
480A
330
1F
100
AcDbEntity
  8
DIM
100
AcDbPolyline
 90
        4
 70
     0
 10
23.69497593552076
 20
10.92381441091814
 40
0.0
 41
0.1352163456280238
 10
23.96990508899247
 20
11.08816750260019
 40
0.0
 41
0.0
 10
27.183592709979
 20
12.78923113160011
 40
0.0
 41
0.0
 10
27.54416963165373
 20
12.78923113160011
 40
0.0
 41
0.0
  0
LINE
  5
4891
330
1F
100
AcDbEntity
  8
OBJECT
100
AcDbLine
 10
7.205990858100087
 20
11.46634300420963
 30
0.0
 11
25.95599085810007
 21
11.46634300420963
 31
0.0
  0
LINE
  5
4892
330
1F
100
AcDbEntity
  8
OBJECT
100
AcDbLine
 10
7.205990858100087
 20
9.777343004209634
 30
0.0
 11
25.95599085810007
 21
9.777343004209634
 31
0.0
  0
LINE
  5
4893
330
1F
100
AcDbEntity
  8
OBJECT
100
AcDbLine
 10
7.080990858100087
 20
11.34134300420963
 30
0.0
 11
7.080990858100087
 21
9.902343004209634
 31
0.0
  0
LWPOLYLINE
  5
4894
330
1F
100
AcDbEntity
  8
OBJECT
100
AcDbPolyline
 90
        4
 70
     1
 43
0.0
 10
7.322990858100077
 20
10.14434300420964
 42
1.0
 10
7.322990858100077
 20
9.878343004209647
 10
7.462990858100078
 20
9.878343004209647
 42
1.0
 10
7.462990858100078
 20
10.14434300420964
  0
ARC
  5
4896
330
1F
100
AcDbEntity
  8
OBJECT
100
AcDbCircle
 10
7.205990858100087
 20
9.902343004209634
 30
0.0
 40
0.125
100
AcDbArc
 50
180.0
 51
270.0
  0
ARC
  5
4897
330
1F
100
AcDbEntity
  8
OBJECT
100
AcDbCircle
 10
7.205990858100087
 20
11.34134300420963
 30
0.0
 40
0.125
100
AcDbArc
 50
90.0
 51
180.0
  0
LWPOLYLINE
  5
4898
330
1F
100
AcDbEntity
  8
OBJECT
100
AcDbPolyline
 90
        4
 70
     1
 43
0.0
 10
7.322990858100077
 20
11.39434300420964
 42
1.0
 10
7.322990858100077
 20
11.12834300420965
 10
7.462990858100078
 20
11.12834300420965
 42
1.0
 10
7.462990858100078
 20
11.39434300420964
  0
CIRCLE
  5
489B
330
1F
100
AcDbEntity
  8
OBJECT
100
AcDbCircle
 10
8.892990858100042
 20
10.64484300420963
 30
0.0
 40
0.1500000000000004
  0
CIRCLE
  5
489C
330
1F
100
AcDbEntity
  8
OBJECT
100
AcDbCircle
 10
9.642990858100042
 20
10.64484300420963
 30
0.0
 40
0.1500000000000004
  0
TEXT
  5
489D
330
1F
100
AcDbEntity
  8
OBJECT
100
AcDbText
 10
8.753267546367436
 20
10.36384300420963
 30
0.0
 40
0.075
  1
SURGE
 41
0.75
  7
NOMENCLATURE
 72
     1
 11
8.892990858100042
 21
10.36384300420963
 31
0.0
100
AcDbText
  0
TEXT
  5
489E
330
1F
100
AcDbEntity
  8
OBJECT
100
AcDbText
 10
9.468370291933603
 20
10.36384300420963
 30
0.0
 40
0.075
  1
GROUND
 41
0.75
  7
NOMENCLATURE
 72
     1
 11
9.642990858100042
 21
10.36384300420963
 31
0.0
100
AcDbText
  0
LINE
  5
48A1
330
1F
100
AcDbEntity
  8
OBJECT
100
AcDbLine
 10
24.70599085810003
 20
10.03584300420963
 30
0.0
 11
24.70599085810003
 21
11.25384300420964
 31
0.0
  0
LINE
  5
48A2
330
1F
100
AcDbEntity
  8
OBJECT
100
AcDbLine
 10
24.08099085810003
 20
10.03584300420963
 30
0.0
 11
24.08099085810003
 21
11.25384300420964
 31
0.0
  0
LWPOLYLINE
  5
48A4
330
1F
100
AcDbEntity
  8
OBJECT
100
AcDbPolyline
 90
        4
 70
     1
 43
0.0
 10
25.83899085810008
 20
10.14434300420964
 42
-1.0
 10
25.83899085810008
 20
9.878343004209647
 10
25.69899085810008
 20
9.878343004209647
 42
-1.0
 10
25.69899085810008
 20
10.14434300420964
  0
LINE
  5
48A6
330
1F
100
AcDbEntity
  8
OBJECT
100
AcDbLine
 10
24.08099085810003
 20
10.03584300420963
 30
0.0
 11
24.70599085810003
 21
10.03584300420963
 31
0.0
  0
ARC
  5
48A7
330
1F
100
AcDbEntity
  8
OBJECT
100
AcDbCircle
 10
25.95599085810007
 20
9.902343004209634
 30
0.0
 40
0.125
100
AcDbArc
 50
270.0
 51
360.0
  0
LINE
  5
48AE
330
1F
100
AcDbEntity
  8
OBJECT
100
AcDbLine
 10
24.08099085810003
 20
11.25384300420964
 30
0.0
 11
24.70599085810003
 21
11.25384300420964
 31
0.0
  0
LWPOLYLINE
  5
48B4
330
1F
100
AcDbEntity
  8
OBJECT
100
AcDbPolyline
 90
        4
 70
     1
 43
0.0
 10
25.8389908581001
 20
11.39434300420964
 42
-1.0
 10
25.83899085810008
 20
11.12834300420965
 10
25.69899085810008
 20
11.12834300420965
 42
-1.0
 10
25.69899085810008
 20
11.39434300420964
  0
TEXT
  5
496A
330
1F
100
AcDbEntity
  8
DIM
100
AcDbText
 10
16.10156448195524
 20
8.979019446037674
 30
0.0
 40
0.2504006400518959
  1
GROUNDING TYPE RECEPTACLE (8 PLCS.)
 41
0.75
  7
TXT
 11
16.10156448195524
 21
9.104219766063622
 31
0.0
100
AcDbText
 73
     2
  0
TEXT
  5
496B
330
1F
100
AcDbEntity
  8
DIM
100
AcDbText
 10
16.10156448195524
 20
8.561685045951188
 30
0.0
 40
0.2504006400518959
  1
15 AMP 125 VOLT
 41
0.75
  7
TXT
 11
16.10156448195524
 21
8.686885365977137
 31
0.0
100
AcDbText
 73
     2
  0
LWPOLYLINE
  5
496F
330
1F
100
AcDbEntity
  8
DIM
100
AcDbPolyline
 90
        4
 70
     0
 10
14.86076127891057
 20
10.07545243454337
 40
0.0
 41
0.1352163456280238
 10
15.07862726583673
 20
9.754476833344526
 40
0.0
 41
0.0
 10
15.56069909944314
 20
9.104219766063622
 40
0.0
 41
0.0
 10
15.92127602111785
 20
9.104219766063622
 40
0.0
 41
0.0
  0
TEXT
  5
49E7
330
1F
100
AcDbEntity
  8
DIM
100
AcDbText
 10
16.10156448195524
 20
8.152650988723734
 30
0.0
 40
0.2504006400518959
  1
COLOR - BLACK
 41
0.75
  7
TXT
 11
16.10156448195524
 21
8.277851308749682
 31
0.0
100
AcDbText
 73
     2
  0
LINE
  5
4A31
330
1F
100
AcDbEntity
  8
OBJECT
100
AcDbLine
 10
22.48849085810008
 20
11.15184300420963
 30
0.0
 11
22.48849085810008
 21
10.09184300420963
 31
0.0
  0
LINE
  5
4A33
330
1F
100
AcDbEntity
  8
OBJECT
100
AcDbLine
 10
21.39049085810008
 20
11.15184300420963
 30
0.0
 11
21.39049085810008
 21
10.09184300420963
 31
0.0
  0
LINE
  5
4A35
330
1F
100
AcDbEntity
  8
OBJECT
100
AcDbLine
 10
22.48849085810008
 20
11.15184300420963
 30
0.0
 11
21.39049085810008
 21
11.15184300420963
 31
0.0
  0
LINE
  5
4A36
330
1F
100
AcDbEntity
  8
OBJECT
100
AcDbLine
 10
22.48849085810008
 20
10.09184300420963
 30
0.0
 11
21.39049085810008
 21
10.09184300420963
 31
0.0
  0
LINE
  5
4A39
330
1F
100
AcDbEntity
  8
0
100
AcDbLine
 10
21.5544908581001
 20
10.8518430042096
 30
0.0
 11
21.5544908581001
 21
10.93684300420963
 31
0.0
  0
LINE
  5
4A3A
330
1F
100
AcDbEntity
  8
0
100
AcDbLine
 10
21.83949085810007
 20
10.8518430042096
 30
0.0
 11
21.83949085810007
 21
10.93684300420963
 31
0.0
  0
LINE
  5
4A3B
330
1F
100
AcDbEntity
  8
0
100
AcDbLine
 10
21.51449085810008
 20
10.30684300420966
 30
0.0
 11
21.51449085810008
 21
10.39184300420967
 31
0.0
  0
LINE
  5
4A3C
330
1F
100
AcDbEntity
  8
0
100
AcDbLine
 10
21.87949085810009
 20
10.30684300420964
 30
0.0
 11
21.87949085810009
 21
10.39184300420967
 31
0.0
  0
LINE
  5
4A3D
330
1F
100
AcDbEntity
  8
0
100
AcDbLine
 10
21.87949085810009
 20
10.30684300420964
 30
0.0
 11
21.51449085810008
 21
10.30684300420966
 31
0.0
  0
LINE
  5
4A3E
330
1F
100
AcDbEntity
  8
0
100
AcDbLine
 10
21.87949085810009
 20
10.39184300420964
 30
0.0
 11
21.51449085810008
 21
10.39184300420964
 31
0.0
  0
LINE
  5
4A3F
330
1F
100
AcDbEntity
  8
0
100
AcDbLine
 10
21.83949085810007
 20
10.85184300420962
 30
0.0
 11
21.5544908581001
 21
10.85184300420962
 31
0.0
  0
LINE
  5
4A40
330
1F
100
AcDbEntity
  8
0
100
AcDbLine
 10
22.31949085810009
 20
10.73184300420962
 30
0.0
 11
22.20949085810062
 21
10.73184300420962
 31
0.0
  0
LINE
  5
4A41
330
1F
100
AcDbEntity
  8
0
100
AcDbLine
 10
22.31949085810009
 20
10.51184300420959
 30
0.0
 11
22.20949085810062
 21
10.51184300420956
 31
0.0
  0
LINE
  5
4A42
330
1F
100
AcDbEntity
  8
0
100
AcDbLine
 10
22.31949085810009
 20
10.51184300420959
 30
0.0
 11
22.31949085810009
 21
10.73184300420962
 31
0.0
  0
ARC
  5
4A43
330
1F
100
AcDbEntity
  8
0
100
AcDbCircle
 10
22.20949085810064
 20
10.62184300421738
 30
0.0
 40
0.1100000000077728
100
AcDbArc
 50
90.00000000027757
 51
269.9999999997261
  0
LINE
  5
4A44
330
1F
100
AcDbEntity
  8
0
100
AcDbLine
 10
21.83949085810007
 20
10.93684300420963
 30
0.0
 11
21.5544908581001
 21
10.93684300420963
 31
0.0
  0
LINE
  5
4A45
330
1F
100
AcDbEntity
  8
OBJECT
100
AcDbLine
 10
20.95749085810008
 20
10.09184300420963
 30
0.0
 11
19.85949085810008
 21
10.09184300420963
 31
0.0
  0
LINE
  5
4A46
330
1F
100
AcDbEntity
  8
OBJECT
100
AcDbLine
 10
20.95749085810008
 20
11.15184300420963
 30
0.0
 11
19.85949085810008
 21
11.15184300420963
 31
0.0
  0
LINE
  5
4A47
330
1F
100
AcDbEntity
  8
OBJECT
100
AcDbLine
 10
19.85949085810008
 20
11.15184300420963
 30
0.0
 11
19.85949085810008
 21
10.09184300420963
 31
0.0
  0
LINE
  5
4A48
330
1F
100
AcDbEntity
  8
0
100
AcDbLine
 10
20.30849085810007
 20
10.93684300420963
 30
0.0
 11
20.0234908581001
 21
10.93684300420963
 31
0.0
  0
LINE
  5
4A49
330
1F
100
AcDbEntity
  8
0
100
AcDbLine
 10
20.30849085810007
 20
10.85184300420962
 30
0.0
 11
20.0234908581001
 21
10.85184300420962
 31
0.0
  0
LINE
  5
4A4A
330
1F
100
AcDbEntity
  8
0
100
AcDbLine
 10
20.34849085810009
 20
10.39184300420964
 30
0.0
 11
19.98349085810008
 21
10.39184300420964
 31
0.0
  0
LINE
  5
4A4B
330
1F
100
AcDbEntity
  8
0
100
AcDbLine
 10
20.34849085810009
 20
10.30684300420964
 30
0.0
 11
19.98349085810008
 21
10.30684300420966
 31
0.0
  0
LINE
  5
4A4C
330
1F
100
AcDbEntity
  8
0
100
AcDbLine
 10
19.98349085810008
 20
10.30684300420966
 30
0.0
 11
19.98349085810008
 21
10.39184300420967
 31
0.0
  0
LINE
  5
4A4D
330
1F
100
AcDbEntity
  8
0
100
AcDbLine
 10
20.0234908581001
 20
10.8518430042096
 30
0.0
 11
20.0234908581001
 21
10.93684300420963
 31
0.0
  0
LINE
  5
4A4E
330
1F
100
AcDbEntity
  8
0
100
AcDbLine
 10
20.34849085810009
 20
10.30684300420964
 30
0.0
 11
20.34849085810009
 21
10.39184300420967
 31
0.0
  0
LINE
  5
4A4F
330
1F
100
AcDbEntity
  8
0
100
AcDbLine
 10
20.30849085810007
 20
10.8518430042096
 30
0.0
 11
20.30849085810007
 21
10.93684300420963
 31
0.0
  0
ARC
  5
4A50
330
1F
100
AcDbEntity
  8
0
100
AcDbCircle
 10
20.67849085810064
 20
10.62184300421738
 30
0.0
 40
0.1100000000077728
100
AcDbArc
 50
90.00000000027757
 51
269.9999999997261
  0
LINE
  5
4A51
330
1F
100
AcDbEntity
  8
0
100
AcDbLine
 10
20.78849085810009
 20
10.51184300420959
 30
0.0
 11
20.78849085810009
 21
10.73184300420962
 31
0.0
  0
LINE
  5
4A52
330
1F
100
AcDbEntity
  8
0
100
AcDbLine
 10
20.78849085810009
 20
10.51184300420959
 30
0.0
 11
20.67849085810062
 21
10.51184300420956
 31
0.0
  0
LINE
  5
4A53
330
1F
100
AcDbEntity
  8
0
100
AcDbLine
 10
20.78849085810009
 20
10.73184300420962
 30
0.0
 11
20.67849085810062
 21
10.73184300420962
 31
0.0
  0
LINE
  5
4A54
330
1F
100
AcDbEntity
  8
OBJECT
100
AcDbLine
 10
20.95749085810008
 20
11.15184300420963
 30
0.0
 11
20.95749085810008
 21
10.09184300420963
 31
0.0
  0
LINE
  5
4A55
330
1F
100
AcDbEntity
  8
OBJECT
100
AcDbLine
 10
19.42649085810007
 20
10.09184300420963
 30
0.0
 11
18.32849085810008
 21
10.09184300420963
 31
0.0
  0
LINE
  5
4A56
330
1F
100
AcDbEntity
  8
OBJECT
100
AcDbLine
 10
19.42649085810007
 20
11.15184300420963
 30
0.0
 11
18.32849085810008
 21
11.15184300420963
 31
0.0
  0
LINE
  5
4A57
330
1F
100
AcDbEntity
  8
OBJECT
100
AcDbLine
 10
18.32849085810008
 20
11.15184300420963
 30
0.0
 11
18.32849085810008
 21
10.09184300420963
 31
0.0
  0
LINE
  5
4A58
330
1F
100
AcDbEntity
  8
0
100
AcDbLine
 10
18.77749085810007
 20
10.93684300420963
 30
0.0
 11
18.4924908581001
 21
10.93684300420963
 31
0.0
  0
LINE
  5
4A59
330
1F
100
AcDbEntity
  8
0
100
AcDbLine
 10
18.77749085810007
 20
10.85184300420962
 30
0.0
 11
18.4924908581001
 21
10.85184300420962
 31
0.0
  0
LINE
  5
4A5A
330
1F
100
AcDbEntity
  8
0
100
AcDbLine
 10
18.81749085810009
 20
10.39184300420964
 30
0.0
 11
18.45249085810008
 21
10.39184300420964
 31
0.0
  0
LINE
  5
4A5B
330
1F
100
AcDbEntity
  8
0
100
AcDbLine
 10
18.81749085810009
 20
10.30684300420964
 30
0.0
 11
18.45249085810008
 21
10.30684300420966
 31
0.0
  0
LINE
  5
4A5C
330
1F
100
AcDbEntity
  8
0
100
AcDbLine
 10
18.45249085810008
 20
10.30684300420966
 30
0.0
 11
18.45249085810008
 21
10.39184300420967
 31
0.0
  0
LINE
  5
4A5D
330
1F
100
AcDbEntity
  8
0
100
AcDbLine
 10
18.4924908581001
 20
10.8518430042096
 30
0.0
 11
18.4924908581001
 21
10.93684300420963
 31
0.0
  0
LINE
  5
4A5E
330
1F
100
AcDbEntity
  8
0
100
AcDbLine
 10
18.81749085810009
 20
10.30684300420964
 30
0.0
 11
18.81749085810009
 21
10.39184300420967
 31
0.0
  0
LINE
  5
4A5F
330
1F
100
AcDbEntity
  8
0
100
AcDbLine
 10
18.77749085810007
 20
10.8518430042096
 30
0.0
 11
18.77749085810007
 21
10.93684300420963
 31
0.0
  0
ARC
  5
4A60
330
1F
100
AcDbEntity
  8
0
100
AcDbCircle
 10
19.14749085810064
 20
10.62184300421738
 30
0.0
 40
0.1100000000077728
100
AcDbArc
 50
90.00000000027757
 51
269.9999999997261
  0
LINE
  5
4A61
330
1F
100
AcDbEntity
  8
0
100
AcDbLine
 10
19.25749085810009
 20
10.51184300420959
 30
0.0
 11
19.25749085810009
 21
10.73184300420962
 31
0.0
  0
LINE
  5
4A62
330
1F
100
AcDbEntity
  8
0
100
AcDbLine
 10
19.25749085810009
 20
10.51184300420959
 30
0.0
 11
19.14749085810061
 21
10.51184300420956
 31
0.0
  0
LINE
  5
4A63
330
1F
100
AcDbEntity
  8
0
100
AcDbLine
 10
19.25749085810009
 20
10.73184300420962
 30
0.0
 11
19.14749085810061
 21
10.73184300420962
 31
0.0
  0
LINE
  5
4A64
330
1F
100
AcDbEntity
  8
OBJECT
100
AcDbLine
 10
19.42649085810007
 20
11.15184300420963
 30
0.0
 11
19.42649085810007
 21
10.09184300420963
 31
0.0
  0
LINE
  5
4A65
330
1F
100
AcDbEntity
  8
OBJECT
100
AcDbLine
 10
17.89549085810008
 20
10.09184300420963
 30
0.0
 11
16.79749085810008
 21
10.09184300420963
 31
0.0
  0
LINE
  5
4A66
330
1F
100
AcDbEntity
  8
OBJECT
100
AcDbLine
 10
17.89549085810008
 20
11.15184300420963
 30
0.0
 11
16.79749085810008
 21
11.15184300420963
 31
0.0
  0
LINE
  5
4A67
330
1F
100
AcDbEntity
  8
OBJECT
100
AcDbLine
 10
16.79749085810008
 20
11.15184300420963
 30
0.0
 11
16.79749085810008
 21
10.09184300420963
 31
0.0
  0
LINE
  5
4A68
330
1F
100
AcDbEntity
  8
0
100
AcDbLine
 10
17.24649085810007
 20
10.93684300420963
 30
0.0
 11
16.9614908581001
 21
10.93684300420963
 31
0.0
  0
LINE
  5
4A69
330
1F
100
AcDbEntity
  8
0
100
AcDbLine
 10
17.24649085810007
 20
10.85184300420962
 30
0.0
 11
16.9614908581001
 21
10.85184300420962
 31
0.0
  0
LINE
  5
4A6A
330
1F
100
AcDbEntity
  8
0
100
AcDbLine
 10
17.28649085810009
 20
10.39184300420964
 30
0.0
 11
16.92149085810008
 21
10.39184300420964
 31
0.0
  0
LINE
  5
4A6B
330
1F
100
AcDbEntity
  8
0
100
AcDbLine
 10
17.28649085810009
 20
10.30684300420964
 30
0.0
 11
16.92149085810008
 21
10.30684300420966
 31
0.0
  0
LINE
  5
4A6C
330
1F
100
AcDbEntity
  8
0
100
AcDbLine
 10
16.92149085810008
 20
10.30684300420966
 30
0.0
 11
16.92149085810008
 21
10.39184300420967
 31
0.0
  0
LINE
  5
4A6D
330
1F
100
AcDbEntity
  8
0
100
AcDbLine
 10
16.9614908581001
 20
10.8518430042096
 30
0.0
 11
16.9614908581001
 21
10.93684300420963
 31
0.0
  0
LINE
  5
4A6E
330
1F
100
AcDbEntity
  8
0
100
AcDbLine
 10
17.28649085810009
 20
10.30684300420964
 30
0.0
 11
17.28649085810009
 21
10.39184300420967
 31
0.0
  0
LINE
  5
4A6F
330
1F
100
AcDbEntity
  8
0
100
AcDbLine
 10
17.24649085810007
 20
10.8518430042096
 30
0.0
 11
17.24649085810007
 21
10.93684300420963
 31
0.0
  0
ARC
  5
4A70
330
1F
100
AcDbEntity
  8
0
100
AcDbCircle
 10
17.61649085810064
 20
10.62184300421738
 30
0.0
 40
0.1100000000077728
100
AcDbArc
 50
90.00000000027757
 51
269.9999999997261
  0
LINE
  5
4A71
330
1F
100
AcDbEntity
  8
0
100
AcDbLine
 10
17.72649085810009
 20
10.51184300420959
 30
0.0
 11
17.72649085810009
 21
10.73184300420962
 31
0.0
  0
LINE
  5
4A72
330
1F
100
AcDbEntity
  8
0
100
AcDbLine
 10
17.72649085810009
 20
10.51184300420959
 30
0.0
 11
17.61649085810062
 21
10.51184300420956
 31
0.0
  0
LINE
  5
4A73
330
1F
100
AcDbEntity
  8
0
100
AcDbLine
 10
17.72649085810009
 20
10.73184300420962
 30
0.0
 11
17.61649085810062
 21
10.73184300420962
 31
0.0
  0
LINE
  5
4A74
330
1F
100
AcDbEntity
  8
OBJECT
100
AcDbLine
 10
17.89549085810008
 20
11.15184300420963
 30
0.0
 11
17.89549085810008
 21
10.09184300420963
 31
0.0
  0
LINE
  5
4A75
330
1F
100
AcDbEntity
  8
OBJECT
100
AcDbLine
 10
16.36449085810008
 20
10.09184300420963
 30
0.0
 11
15.26649085810008
 21
10.09184300420963
 31
0.0
  0
LINE
  5
4A76
330
1F
100
AcDbEntity
  8
OBJECT
100
AcDbLine
 10
16.36449085810008
 20
11.15184300420963
 30
0.0
 11
15.26649085810008
 21
11.15184300420963
 31
0.0
  0
LINE
  5
4A77
330
1F
100
AcDbEntity
  8
OBJECT
100
AcDbLine
 10
15.26649085810008
 20
11.15184300420963
 30
0.0
 11
15.26649085810008
 21
10.09184300420963
 31
0.0
  0
LINE
  5
4A78
330
1F
100
AcDbEntity
  8
0
100
AcDbLine
 10
15.71549085810007
 20
10.93684300420963
 30
0.0
 11
15.4304908581001
 21
10.93684300420963
 31
0.0
  0
LINE
  5
4A79
330
1F
100
AcDbEntity
  8
0
100
AcDbLine
 10
15.71549085810007
 20
10.85184300420962
 30
0.0
 11
15.4304908581001
 21
10.85184300420962
 31
0.0
  0
LINE
  5
4A7A
330
1F
100
AcDbEntity
  8
0
100
AcDbLine
 10
15.75549085810009
 20
10.39184300420964
 30
0.0
 11
15.39049085810008
 21
10.39184300420964
 31
0.0
  0
LINE
  5
4A7B
330
1F
100
AcDbEntity
  8
0
100
AcDbLine
 10
15.75549085810009
 20
10.30684300420964
 30
0.0
 11
15.39049085810008
 21
10.30684300420966
 31
0.0
  0
LINE
  5
4A7C
330
1F
100
AcDbEntity
  8
0
100
AcDbLine
 10
15.39049085810008
 20
10.30684300420966
 30
0.0
 11
15.39049085810008
 21
10.39184300420967
 31
0.0
  0
LINE
  5
4A7D
330
1F
100
AcDbEntity
  8
0
100
AcDbLine
 10
15.4304908581001
 20
10.8518430042096
 30
0.0
 11
15.4304908581001
 21
10.93684300420963
 31
0.0
  0
LINE
  5
4A7E
330
1F
100
AcDbEntity
  8
0
100
AcDbLine
 10
15.75549085810009
 20
10.30684300420964
 30
0.0
 11
15.75549085810009
 21
10.39184300420967
 31
0.0
  0
LINE
  5
4A7F
330
1F
100
AcDbEntity
  8
0
100
AcDbLine
 10
15.71549085810007
 20
10.8518430042096
 30
0.0
 11
15.71549085810007
 21
10.93684300420963
 31
0.0
  0
ARC
  5
4A80
330
1F
100
AcDbEntity
  8
0
100
AcDbCircle
 10
16.08549085810064
 20
10.62184300421738
 30
0.0
 40
0.1100000000077728
100
AcDbArc
 50
90.00000000027757
 51
269.9999999997261
  0
LINE
  5
4A81
330
1F
100
AcDbEntity
  8
0
100
AcDbLine
 10
16.19549085810009
 20
10.51184300420959
 30
0.0
 11
16.19549085810009
 21
10.73184300420962
 31
0.0
  0
LINE
  5
4A82
330
1F
100
AcDbEntity
  8
0
100
AcDbLine
 10
16.19549085810009
 20
10.51184300420959
 30
0.0
 11
16.08549085810062
 21
10.51184300420956
 31
0.0
  0
LINE
  5
4A83
330
1F
100
AcDbEntity
  8
0
100
AcDbLine
 10
16.19549085810009
 20
10.73184300420962
 30
0.0
 11
16.08549085810062
 21
10.73184300420962
 31
0.0
  0
LINE
  5
4A84
330
1F
100
AcDbEntity
  8
OBJECT
100
AcDbLine
 10
16.36449085810008
 20
11.15184300420963
 30
0.0
 11
16.36449085810008
 21
10.09184300420963
 31
0.0
  0
LINE
  5
4A85
330
1F
100
AcDbEntity
  8
OBJECT
100
AcDbLine
 10
14.83349085810008
 20
10.09184300420963
 30
0.0
 11
13.73549085810008
 21
10.09184300420963
 31
0.0
  0
LINE
  5
4A86
330
1F
100
AcDbEntity
  8
OBJECT
100
AcDbLine
 10
14.83349085810008
 20
11.15184300420963
 30
0.0
 11
13.73549085810008
 21
11.15184300420963
 31
0.0
  0
LINE
  5
4A87
330
1F
100
AcDbEntity
  8
OBJECT
100
AcDbLine
 10
13.73549085810008
 20
11.15184300420963
 30
0.0
 11
13.73549085810008
 21
10.09184300420963
 31
0.0
  0
LINE
  5
4A88
330
1F
100
AcDbEntity
  8
0
100
AcDbLine
 10
14.18449085810007
 20
10.93684300420963
 30
0.0
 11
13.8994908581001
 21
10.93684300420963
 31
0.0
  0
LINE
  5
4A89
330
1F
100
AcDbEntity
  8
0
100
AcDbLine
 10
14.18449085810007
 20
10.85184300420962
 30
0.0
 11
13.8994908581001
 21
10.85184300420962
 31
0.0
  0
LINE
  5
4A8A
330
1F
100
AcDbEntity
  8
0
100
AcDbLine
 10
14.22449085810009
 20
10.39184300420964
 30
0.0
 11
13.85949085810008
 21
10.39184300420964
 31
0.0
  0
LINE
  5
4A8B
330
1F
100
AcDbEntity
  8
0
100
AcDbLine
 10
14.22449085810009
 20
10.30684300420964
 30
0.0
 11
13.85949085810008
 21
10.30684300420966
 31
0.0
  0
LINE
  5
4A8C
330
1F
100
AcDbEntity
  8
0
100
AcDbLine
 10
13.85949085810008
 20
10.30684300420966
 30
0.0
 11
13.85949085810008
 21
10.39184300420967
 31
0.0
  0
LINE
  5
4A8D
330
1F
100
AcDbEntity
  8
0
100
AcDbLine
 10
13.8994908581001
 20
10.8518430042096
 30
0.0
 11
13.8994908581001
 21
10.93684300420963
 31
0.0
  0
LINE
  5
4A8E
330
1F
100
AcDbEntity
  8
0
100
AcDbLine
 10
14.22449085810009
 20
10.30684300420964
 30
0.0
 11
14.22449085810009
 21
10.39184300420967
 31
0.0
  0
LINE
  5
4A8F
330
1F
100
AcDbEntity
  8
0
100
AcDbLine
 10
14.18449085810007
 20
10.8518430042096
 30
0.0
 11
14.18449085810007
 21
10.93684300420963
 31
0.0
  0
ARC
  5
4A90
330
1F
100
AcDbEntity
  8
0
100
AcDbCircle
 10
14.55449085810064
 20
10.62184300421738
 30
0.0
 40
0.1100000000077728
100
AcDbArc
 50
90.00000000027757
 51
269.9999999997261
  0
LINE
  5
4A91
330
1F
100
AcDbEntity
  8
0
100
AcDbLine
 10
14.66449085810009
 20
10.51184300420959
 30
0.0
 11
14.66449085810009
 21
10.73184300420962
 31
0.0
  0
LINE
  5
4A92
330
1F
100
AcDbEntity
  8
0
100
AcDbLine
 10
14.66449085810009
 20
10.51184300420959
 30
0.0
 11
14.55449085810061
 21
10.51184300420956
 31
0.0
  0
LINE
  5
4A93
330
1F
100
AcDbEntity
  8
0
100
AcDbLine
 10
14.66449085810009
 20
10.73184300420962
 30
0.0
 11
14.55449085810061
 21
10.73184300420962
 31
0.0
  0
LINE
  5
4A94
330
1F
100
AcDbEntity
  8
OBJECT
100
AcDbLine
 10
14.83349085810008
 20
11.15184300420963
 30
0.0
 11
14.83349085810008
 21
10.09184300420963
 31
0.0
  0
LINE
  5
4A95
330
1F
100
AcDbEntity
  8
OBJECT
100
AcDbLine
 10
13.30249085810008
 20
10.09184300420963
 30
0.0
 11
12.20449085810008
 21
10.09184300420963
 31
0.0
  0
LINE
  5
4A96
330
1F
100
AcDbEntity
  8
OBJECT
100
AcDbLine
 10
13.30249085810008
 20
11.15184300420963
 30
0.0
 11
12.20449085810008
 21
11.15184300420963
 31
0.0
  0
LINE
  5
4A97
330
1F
100
AcDbEntity
  8
OBJECT
100
AcDbLine
 10
12.20449085810008
 20
11.15184300420963
 30
0.0
 11
12.20449085810008
 21
10.09184300420963
 31
0.0
  0
LINE
  5
4A98
330
1F
100
AcDbEntity
  8
0
100
AcDbLine
 10
12.65349085810007
 20
10.93684300420963
 30
0.0
 11
12.3684908581001
 21
10.93684300420963
 31
0.0
  0
LINE
  5
4A99
330
1F
100
AcDbEntity
  8
0
100
AcDbLine
 10
12.65349085810007
 20
10.85184300420962
 30
0.0
 11
12.3684908581001
 21
10.85184300420962
 31
0.0
  0
LINE
  5
4A9A
330
1F
100
AcDbEntity
  8
0
100
AcDbLine
 10
12.69349085810009
 20
10.39184300420964
 30
0.0
 11
12.32849085810008
 21
10.39184300420964
 31
0.0
  0
LINE
  5
4A9B
330
1F
100
AcDbEntity
  8
0
100
AcDbLine
 10
12.69349085810009
 20
10.30684300420964
 30
0.0
 11
12.32849085810008
 21
10.30684300420966
 31
0.0
  0
LINE
  5
4A9C
330
1F
100
AcDbEntity
  8
0
100
AcDbLine
 10
12.32849085810008
 20
10.30684300420966
 30
0.0
 11
12.32849085810008
 21
10.39184300420967
 31
0.0
  0
LINE
  5
4A9D
330
1F
100
AcDbEntity
  8
0
100
AcDbLine
 10
12.3684908581001
 20
10.8518430042096
 30
0.0
 11
12.3684908581001
 21
10.93684300420963
 31
0.0
  0
LINE
  5
4A9E
330
1F
100
AcDbEntity
  8
0
100
AcDbLine
 10
12.69349085810009
 20
10.30684300420964
 30
0.0
 11
12.69349085810009
 21
10.39184300420967
 31
0.0
  0
LINE
  5
4A9F
330
1F
100
AcDbEntity
  8
0
100
AcDbLine
 10
12.65349085810007
 20
10.8518430042096
 30
0.0
 11
12.65349085810007
 21
10.93684300420963
 31
0.0
  0
ARC
  5
4AA0
330
1F
100
AcDbEntity
  8
0
100
AcDbCircle
 10
13.02349085810064
 20
10.62184300421738
 30
0.0
 40
0.1100000000077728
100
AcDbArc
 50
90.00000000027757
 51
269.9999999997261
  0
LINE
  5
4AA1
330
1F
100
AcDbEntity
  8
0
100
AcDbLine
 10
13.13349085810009
 20
10.51184300420959
 30
0.0
 11
13.13349085810009
 21
10.73184300420962
 31
0.0
  0
LINE
  5
4AA2
330
1F
100
AcDbEntity
  8
0
100
AcDbLine
 10
13.13349085810009
 20
10.51184300420959
 30
0.0
 11
13.02349085810062
 21
10.51184300420956
 31
0.0
  0
LINE
  5
4AA3
330
1F
100
AcDbEntity
  8
0
100
AcDbLine
 10
13.13349085810009
 20
10.73184300420962
 30
0.0
 11
13.02349085810062
 21
10.73184300420962
 31
0.0
  0
LINE
  5
4AA4
330
1F
100
AcDbEntity
  8
OBJECT
100
AcDbLine
 10
13.30249085810008
 20
11.15184300420963
 30
0.0
 11
13.30249085810008
 21
10.09184300420963
 31
0.0
  0
LINE
  5
4AA5
330
1F
100
AcDbEntity
  8
OBJECT
100
AcDbLine
 10
11.77149085810008
 20
10.09184300420963
 30
0.0
 11
10.67349085810008
 21
10.09184300420963
 31
0.0
  0
LINE
  5
4AA6
330
1F
100
AcDbEntity
  8
OBJECT
100
AcDbLine
 10
11.77149085810008
 20
11.15184300420963
 30
0.0
 11
10.67349085810008
 21
11.15184300420963
 31
0.0
  0
LINE
  5
4AA7
330
1F
100
AcDbEntity
  8
OBJECT
100
AcDbLine
 10
10.67349085810008
 20
11.15184300420963
 30
0.0
 11
10.67349085810008
 21
10.09184300420963
 31
0.0
  0
LINE
  5
4AA8
330
1F
100
AcDbEntity
  8
0
100
AcDbLine
 10
11.12249085810007
 20
10.93684300420963
 30
0.0
 11
10.8374908581001
 21
10.93684300420963
 31
0.0
  0
LINE
  5
4AA9
330
1F
100
AcDbEntity
  8
0
100
AcDbLine
 10
11.12249085810007
 20
10.85184300420962
 30
0.0
 11
10.8374908581001
 21
10.85184300420962
 31
0.0
  0
LINE
  5
4AAA
330
1F
100
AcDbEntity
  8
0
100
AcDbLine
 10
11.16249085810009
 20
10.39184300420964
 30
0.0
 11
10.79749085810008
 21
10.39184300420964
 31
0.0
  0
LINE
  5
4AAB
330
1F
100
AcDbEntity
  8
0
100
AcDbLine
 10
11.16249085810009
 20
10.30684300420964
 30
0.0
 11
10.79749085810008
 21
10.30684300420966
 31
0.0
  0
LINE
  5
4AAC
330
1F
100
AcDbEntity
  8
0
100
AcDbLine
 10
10.79749085810008
 20
10.30684300420966
 30
0.0
 11
10.79749085810008
 21
10.39184300420967
 31
0.0
  0
LINE
  5
4AAD
330
1F
100
AcDbEntity
  8
0
100
AcDbLine
 10
10.8374908581001
 20
10.8518430042096
 30
0.0
 11
10.8374908581001
 21
10.93684300420963
 31
0.0
  0
LINE
  5
4AAE
330
1F
100
AcDbEntity
  8
0
100
AcDbLine
 10
11.16249085810009
 20
10.30684300420964
 30
0.0
 11
11.16249085810009
 21
10.39184300420967
 31
0.0
  0
LINE
  5
4AAF
330
1F
100
AcDbEntity
  8
0
100
AcDbLine
 10
11.12249085810007
 20
10.8518430042096
 30
0.0
 11
11.12249085810007
 21
10.93684300420963
 31
0.0
  0
ARC
  5
4AB0
330
1F
100
AcDbEntity
  8
0
100
AcDbCircle
 10
11.49249085810064
 20
10.62184300421738
 30
0.0
 40
0.1100000000077728
100
AcDbArc
 50
90.00000000027757
 51
269.9999999997261
  0
LINE
  5
4AB1
330
1F
100
AcDbEntity
  8
0
100
AcDbLine
 10
11.60249085810009
 20
10.51184300420959
 30
0.0
 11
11.60249085810009
 21
10.73184300420962
 31
0.0
  0
LINE
  5
4AB2
330
1F
100
AcDbEntity
  8
0
100
AcDbLine
 10
11.60249085810009
 20
10.51184300420959
 30
0.0
 11
11.49249085810062
 21
10.51184300420956
 31
0.0
  0
LINE
  5
4AB3
330
1F
100
AcDbEntity
  8
0
100
AcDbLine
 10
11.60249085810009
 20
10.73184300420962
 30
0.0
 11
11.49249085810062
 21
10.73184300420962
 31
0.0
  0
LINE
  5
4AB4
330
1F
100
AcDbEntity
  8
OBJECT
100
AcDbLine
 10
11.77149085810008
 20
11.15184300420963
 30
0.0
 11
11.77149085810008
 21
10.09184300420963
 31
0.0
  0
LINE
  5
4AB6
330
1F
100
AcDbEntity
  8
0
100
AcDbLine
 10
7.95599085810008
 20
2.473711659703681
 30
0.0
 11
7.955990858100066
 21
0.769711659703681
 31
0.0
  0
LINE
  5
4AD6
330
1F
100
AcDbEntity
  8
0
100
AcDbLine
 10
7.955990858100066
 20
7.250580166314222
 30
0.0
 11
7.95599085810008
 21
3.514580166314259
 31
0.0
  0
CIRCLE
  5
4AF6
330
1F
100
AcDbEntity
  8
0
100
AcDbCircle
 10
21.17399085810008
 20
10.62184300420963
 30
0.0
 40
0.1325000000000003
  0
LINE
  5
4AF7
330
1F
100
AcDbEntity
  8
0
100
AcDbLine
 10
21.15399085810008
 20
10.69184300420963
 30
0.0
 11
21.15399085810009
 21
10.64184300420962
 31
0.0
  0
LINE
  5
4AF8
330
1F
100
AcDbEntity
  8
0
100
AcDbLine
 10
21.19399085810007
 20
10.69184300420963
 30
0.0
 11
21.19399085810009
 21
10.64184300420967
 31
0.0
  0
LINE
  5
4AF9
330
1F
100
AcDbEntity
  8
0
100
AcDbLine
 10
21.10399085810008
 20
10.64184300420964
 30
0.0
 11
21.15399085810009
 21
10.64184300420967
 31
0.0
  0
LINE
  5
4AFA
330
1F
100
AcDbEntity
  8
0
100
AcDbLine
 10
21.10399085810008
 20
10.60184300420962
 30
0.0
 11
21.15399085810008
 21
10.60184300420962
 31
0.0
  0
LINE
  5
4AFB
330
1F
100
AcDbEntity
  8
0
100
AcDbLine
 10
21.15399085810008
 20
10.55184300420964
 30
0.0
 11
21.19399085810009
 21
10.55184300420964
 31
0.0
  0
LINE
  5
4AFC
330
1F
100
AcDbEntity
  8
0
100
AcDbLine
 10
21.15399085810008
 20
10.6918430042096
 30
0.0
 11
21.19399085810009
 21
10.69184300420963
 31
0.0
  0
LINE
  5
4AFD
330
1F
100
AcDbEntity
  8
0
100
AcDbLine
 10
21.10399085810008
 20
10.64184300420964
 30
0.0
 11
21.10399085810008
 21
10.60184300420962
 31
0.0
  0
LINE
  5
4AFE
330
1F
100
AcDbEntity
  8
0
100
AcDbLine
 10
21.24399085810008
 20
10.64184300420964
 30
0.0
 11
21.24399085810007
 21
10.60184300420962
 31
0.0
  0
LINE
  5
4AFF
330
1F
100
AcDbEntity
  8
0
100
AcDbLine
 10
21.19399085810009
 20
10.64184300420964
 30
0.0
 11
21.24399085810007
 21
10.64184300420964
 31
0.0
  0
LINE
  5
4B00
330
1F
100
AcDbEntity
  8
0
100
AcDbLine
 10
21.19399085810006
 20
10.6018430042096
 30
0.0
 11
21.19399085810007
 21
10.55184300420964
 31
0.0
  0
LINE
  5
4B01
330
1F
100
AcDbEntity
  8
0
100
AcDbLine
 10
21.19399085810006
 20
10.60184300420962
 30
0.0
 11
21.24399085810007
 21
10.60184300420962
 31
0.0
  0
LINE
  5
4B02
330
1F
100
AcDbEntity
  8
0
100
AcDbLine
 10
21.15399085810009
 20
10.60184300420962
 30
0.0
 11
21.15399085810008
 21
10.55184300420964
 31
0.0
  0
LINE
  5
4B03
330
1F
100
AcDbEntity
  8
0
100
AcDbLine
 10
18.09199085810009
 20
10.60184300420962
 30
0.0
 11
18.09199085810008
 21
10.55184300420964
 31
0.0
  0
LINE
  5
4B04
330
1F
100
AcDbEntity
  8
0
100
AcDbLine
 10
18.13199085810006
 20
10.60184300420962
 30
0.0
 11
18.18199085810007
 21
10.60184300420962
 31
0.0
  0
LINE
  5
4B05
330
1F
100
AcDbEntity
  8
0
100
AcDbLine
 10
18.13199085810006
 20
10.6018430042096
 30
0.0
 11
18.13199085810007
 21
10.55184300420964
 31
0.0
  0
LINE
  5
4B06
330
1F
100
AcDbEntity
  8
0
100
AcDbLine
 10
18.13199085810009
 20
10.64184300420964
 30
0.0
 11
18.18199085810007
 21
10.64184300420964
 31
0.0
  0
LINE
  5
4B07
330
1F
100
AcDbEntity
  8
0
100
AcDbLine
 10
18.18199085810008
 20
10.64184300420964
 30
0.0
 11
18.18199085810007
 21
10.60184300420962
 31
0.0
  0
LINE
  5
4B08
330
1F
100
AcDbEntity
  8
0
100
AcDbLine
 10
18.09199085810008
 20
10.6918430042096
 30
0.0
 11
18.13199085810009
 21
10.69184300420963
 31
0.0
  0
LINE
  5
4B09
330
1F
100
AcDbEntity
  8
0
100
AcDbLine
 10
18.09199085810008
 20
10.55184300420964
 30
0.0
 11
18.13199085810009
 21
10.55184300420964
 31
0.0
  0
LINE
  5
4B0A
330
1F
100
AcDbEntity
  8
0
100
AcDbLine
 10
18.04199085810008
 20
10.60184300420962
 30
0.0
 11
18.09199085810008
 21
10.60184300420962
 31
0.0
  0
LINE
  5
4B0B
330
1F
100
AcDbEntity
  8
0
100
AcDbLine
 10
18.04199085810008
 20
10.64184300420964
 30
0.0
 11
18.09199085810009
 21
10.64184300420967
 31
0.0
  0
LINE
  5
4B0C
330
1F
100
AcDbEntity
  8
0
100
AcDbLine
 10
18.13199085810007
 20
10.69184300420963
 30
0.0
 11
18.13199085810009
 21
10.64184300420967
 31
0.0
  0
LINE
  5
4B0D
330
1F
100
AcDbEntity
  8
0
100
AcDbLine
 10
18.09199085810008
 20
10.69184300420963
 30
0.0
 11
18.09199085810009
 21
10.64184300420962
 31
0.0
  0
CIRCLE
  5
4B0E
330
1F
100
AcDbEntity
  8
0
100
AcDbCircle
 10
18.11199085810008
 20
10.62184300420963
 30
0.0
 40
0.1325000000000003
  0
LINE
  5
4B0F
330
1F
100
AcDbEntity
  8
0
100
AcDbLine
 10
18.04199085810008
 20
10.64184300420964
 30
0.0
 11
18.04199085810008
 21
10.60184300420962
 31
0.0
  0
LINE
  5
4B10
330
1F
100
AcDbEntity
  8
0
100
AcDbLine
 10
15.0299908581001
 20
10.60184300420962
 30
0.0
 11
15.02999085810008
 21
10.55184300420964
 31
0.0
  0
LINE
  5
4B11
330
1F
100
AcDbEntity
  8
0
100
AcDbLine
 10
15.06999085810006
 20
10.60184300420962
 30
0.0
 11
15.11999085810007
 21
10.60184300420962
 31
0.0
  0
LINE
  5
4B12
330
1F
100
AcDbEntity
  8
0
100
AcDbLine
 10
15.06999085810006
 20
10.6018430042096
 30
0.0
 11
15.06999085810007
 21
10.55184300420964
 31
0.0
  0
LINE
  5
4B13
330
1F
100
AcDbEntity
  8
0
100
AcDbLine
 10
15.06999085810009
 20
10.64184300420964
 30
0.0
 11
15.11999085810007
 21
10.64184300420964
 31
0.0
  0
LINE
  5
4B14
330
1F
100
AcDbEntity
  8
0
100
AcDbLine
 10
15.11999085810008
 20
10.64184300420964
 30
0.0
 11
15.11999085810007
 21
10.60184300420962
 31
0.0
  0
LINE
  5
4B15
330
1F
100
AcDbEntity
  8
0
100
AcDbLine
 10
14.97999085810008
 20
10.64184300420964
 30
0.0
 11
14.97999085810008
 21
10.60184300420962
 31
0.0
  0
LINE
  5
4B16
330
1F
100
AcDbEntity
  8
0
100
AcDbLine
 10
15.02999085810008
 20
10.6918430042096
 30
0.0
 11
15.06999085810009
 21
10.69184300420963
 31
0.0
  0
LINE
  5
4B17
330
1F
100
AcDbEntity
  8
0
100
AcDbLine
 10
15.02999085810008
 20
10.55184300420964
 30
0.0
 11
15.06999085810009
 21
10.55184300420964
 31
0.0
  0
LINE
  5
4B18
330
1F
100
AcDbEntity
  8
0
100
AcDbLine
 10
14.97999085810008
 20
10.60184300420962
 30
0.0
 11
15.02999085810008
 21
10.60184300420962
 31
0.0
  0
LINE
  5
4B19
330
1F
100
AcDbEntity
  8
0
100
AcDbLine
 10
14.97999085810008
 20
10.64184300420964
 30
0.0
 11
15.0299908581001
 21
10.64184300420967
 31
0.0
  0
LINE
  5
4B1A
330
1F
100
AcDbEntity
  8
0
100
AcDbLine
 10
15.06999085810007
 20
10.69184300420963
 30
0.0
 11
15.06999085810009
 21
10.64184300420967
 31
0.0
  0
LINE
  5
4B1B
330
1F
100
AcDbEntity
  8
0
100
AcDbLine
 10
15.02999085810008
 20
10.69184300420963
 30
0.0
 11
15.0299908581001
 21
10.64184300420962
 31
0.0
  0
CIRCLE
  5
4B1C
330
1F
100
AcDbEntity
  8
0
100
AcDbCircle
 10
15.04999085810008
 20
10.62184300420963
 30
0.0
 40
0.1325000000000003
  0
CIRCLE
  5
4B1D
330
1F
100
AcDbEntity
  8
0
100
AcDbCircle
 10
11.98799085810008
 20
10.62184300420963
 30
0.0
 40
0.1325000000000003
  0
LINE
  5
4B1E
330
1F
100
AcDbEntity
  8
0
100
AcDbLine
 10
11.96799085810008
 20
10.55184300420964
 30
0.0
 11
12.00799085810009
 21
10.55184300420964
 31
0.0
  0
LINE
  5
4B1F
330
1F
100
AcDbEntity
  8
0
100
AcDbLine
 10
11.96799085810008
 20
10.6918430042096
 30
0.0
 11
12.00799085810009
 21
10.69184300420963
 31
0.0
  0
LINE
  5
4B20
330
1F
100
AcDbEntity
  8
0
100
AcDbLine
 10
11.91799085810008
 20
10.64184300420964
 30
0.0
 11
11.91799085810008
 21
10.60184300420962
 31
0.0
  0
LINE
  5
4B21
330
1F
100
AcDbEntity
  8
0
100
AcDbLine
 10
11.96799085810008
 20
10.69184300420963
 30
0.0
 11
11.96799085810009
 21
10.64184300420962
 31
0.0
  0
LINE
  5
4B22
330
1F
100
AcDbEntity
  8
0
100
AcDbLine
 10
11.91799085810008
 20
10.64184300420964
 30
0.0
 11
11.96799085810009
 21
10.64184300420967
 31
0.0
  0
LINE
  5
4B23
330
1F
100
AcDbEntity
  8
0
100
AcDbLine
 10
11.91799085810008
 20
10.60184300420962
 30
0.0
 11
11.96799085810008
 21
10.60184300420962
 31
0.0
  0
LINE
  5
4B24
330
1F
100
AcDbEntity
  8
0
100
AcDbLine
 10
11.96799085810009
 20
10.60184300420962
 30
0.0
 11
11.96799085810008
 21
10.55184300420964
 31
0.0
  0
LINE
  5
4B25
330
1F
100
AcDbEntity
  8
0
100
AcDbLine
 10
12.00799085810007
 20
10.69184300420963
 30
0.0
 11
12.00799085810009
 21
10.64184300420967
 31
0.0
  0
LINE
  5
4B26
330
1F
100
AcDbEntity
  8
0
100
AcDbLine
 10
12.05799085810008
 20
10.64184300420964
 30
0.0
 11
12.05799085810007
 21
10.60184300420962
 31
0.0
  0
LINE
  5
4B27
330
1F
100
AcDbEntity
  8
0
100
AcDbLine
 10
12.00799085810009
 20
10.64184300420964
 30
0.0
 11
12.05799085810007
 21
10.64184300420964
 31
0.0
  0
LINE
  5
4B28
330
1F
100
AcDbEntity
  8
0
100
AcDbLine
 10
12.00799085810006
 20
10.6018430042096
 30
0.0
 11
12.00799085810007
 21
10.55184300420964
 31
0.0
  0
LINE
  5
4B29
330
1F
100
AcDbEntity
  8
0
100
AcDbLine
 10
12.00799085810006
 20
10.60184300420962
 30
0.0
 11
12.05799085810007
 21
10.60184300420962
 31
0.0
  0
CIRCLE
  5
4B4D
330
1F
100
AcDbEntity
  8
OBJECT
100
AcDbCircle
 10
8.892990858100042
 20
10.64484300420963
 30
0.0
 40
0.0950000000000006
  0
CIRCLE
  5
4B4E
330
1F
100
AcDbEntity
  8
OBJECT
100
AcDbCircle
 10
9.642990858100042
 20
10.64484300420963
 30
0.0
 40
0.0950000000000006
  0
LINE
  5
4B5B
330
1F
100
AcDbEntity
  8
OBJECT
100
AcDbLine
 10
9.547990858100043
 20
7.371580166314224
 30
0.0
 11
9.547990858100043
 21
7.332830166314224
 31
0.0
  0
LINE
  5
4B5C
330
1F
100
AcDbEntity
  8
OBJECT
100
AcDbLine
 10
9.73799085810004
 20
7.371580166314224
 30
0.0
 11
9.737990858100044
 21
7.332830166314226
 31
0.0
  0
ARC
  5
4B5E
330
1F
100
AcDbEntity
  8
OBJECT
100
AcDbCircle
 10
9.642990858100042
 20
7.371580166314224
 30
0.0
 40
0.0950000000000006
100
AcDbArc
 50
0.0
 51
180.0
  0
LINE
  5
4B5F
330
1F
100
AcDbEntity
  8
0
100
AcDbLine
 10
8.742990858100043
 20
7.332830166314224
 30
0.0
 11
9.04299085810004
 21
7.332830166314224
 31
0.0
  0
LINE
  5
4B60
330
1F
100
AcDbEntity
  8
OBJECT
100
AcDbLine
 10
8.98799085810004
 20
7.371580166314224
 30
0.0
 11
8.987990858100044
 21
7.332830166314226
 31
0.0
  0
LINE
  5
4B61
330
1F
100
AcDbEntity
  8
OBJECT
100
AcDbLine
 10
8.797990858100043
 20
7.371580166314224
 30
0.0
 11
8.797990858100043
 21
7.332830166314224
 31
0.0
  0
ARC
  5
4B62
330
1F
100
AcDbEntity
  8
OBJECT
100
AcDbCircle
 10
8.892990858100042
 20
7.371580166314224
 30
0.0
 40
0.0950000000000006
100
AcDbArc
 50
0.0
 51
180.0
  0
LINE
  5
4B63
330
1F
100
AcDbEntity
  8
0
100
AcDbLine
 10
8.742990858100043
 20
7.332830166314224
 30
0.0
 11
8.742990858100057
 21
7.301580166314224
 31
0.0
  0
LINE
  5
4B64
330
1F
100
AcDbEntity
  8
0
100
AcDbLine
 10
9.04299085810004
 20
7.332830166314224
 30
0.0
 11
9.042990858100055
 21
7.301580166314224
 31
0.0
  0
LINE
  5
4B8E
330
1F
100
AcDbEntity
  8
0
100
AcDbLine
 10
15.26649085810008
 20
13.38580382294285
 30
0.0
 11
16.36449085810008
 21
13.38580382294291
 31
0.0
  0
LINE
  5
4B8F
330
1F
100
AcDbEntity
  8
0
100
AcDbLine
 10
21.68804740428845
 20
18.15497143887854
 30
0.0
 11
14.09673116750732
 21
18.15497143887854
 31
0.0
  0
LINE
  5
4B90
330
1F
100
AcDbEntity
  8
0
100
AcDbLine
 10
21.68828622389785
 20
18.52997143887851
 30
0.0
 11
14.09673116750731
 21
18.52997143887851
 31
0.0
  0
LINE
  5
4B91
330
1F
100
AcDbEntity
  8
0
100
AcDbLine
 10
7.924990858100081
 20
17.29780382294293
 30
0.0
 11
25.23699085810008
 21
17.29780382294293
 31
0.0
  0
LINE
  5
4B92
330
1F
100
AcDbEntity
  8
0
100
AcDbLine
 10
7.08099085810008
 20
13.51080382294294
 30
0.0
 11
26.08099085810008
 21
13.51080382294294
 31
0.0
  0
LINE
  5
4B94
330
1F
100
AcDbEntity
  8
0
100
AcDbLine
 10
7.924990858100067
 20
13.56180382294294
 30
0.0
 11
7.924990858100081
 21
17.2978038229429
 31
0.0
  0
LINE
  5
4B95
330
1F
100
AcDbEntity
  8
0
100
AcDbLine
 10
12.20449085810008
 20
13.38580382294285
 30
0.0
 11
13.30249085810008
 21
13.38580382294291
 31
0.0
  0
LINE
  5
4B96
330
1F
100
AcDbEntity
  8
0
100
AcDbLine
 10
14.09673116750731
 20
18.02997143887851
 30
0.0
 11
13.78423116750731
 21
18.02997143887851
 31
0.0
  0
LINE
  5
4B97
330
1F
100
AcDbEntity
  8
0
100
AcDbLine
 10
14.09673116750731
 20
18.65497143887851
 30
0.0
 11
13.78423116750731
 21
18.65497143887851
 31
0.0
  0
ARC
  5
4B98
330
1F
100
AcDbEntity
  8
0
100
AcDbCircle
 10
11.98799085810008
 20
13.6153616933587
 30
0.0
 40
0.1895578703996216
100
AcDbArc
 50
225.6535733120778
 51
314.3464266899278
  0
LINE
  5
4B99
330
1F
100
AcDbEntity
  8
0
100
AcDbLine
 10
11.85549085810472
 20
13.47980382294291
 30
0.0
 11
12.1204908581047
 21
13.47980382294293
 31
0.0
  0
LINE
  5
4B9A
330
1F
100
AcDbEntity
  8
0
100
AcDbLine
 10
13.40973116750731
 20
17.88247143887856
 30
0.0
 11
12.5347311675073
 21
17.88247143887853
 31
0.0
  0
LINE
  5
4B9B
330
1F
100
AcDbEntity
  8
0
100
AcDbLine
 10
13.40973116750731
 20
18.80247143887861
 30
0.0
 11
12.53473116750732
 21
18.80247143887855
 31
0.0
  0
LINE
  5
4B9C
330
1F
100
AcDbEntity
  8
0
100
AcDbLine
 10
12.53473116750731
 20
17.88247143887853
 30
0.0
 11
12.53473116750731
 21
18.80247143887858
 31
0.0
  0
LINE
  5
4B9D
330
1F
100
AcDbEntity
  8
0
100
AcDbLine
 10
12.53473116750731
 20
18.0699714388785
 30
0.0
 11
11.8787311675073
 21
18.06997143887848
 31
0.0
  0
LINE
  5
4B9E
330
1F
100
AcDbEntity
  8
0
100
AcDbLine
 10
12.53473116750731
 20
18.1324714388785
 30
0.0
 11
11.8787311675073
 21
18.13247143887848
 31
0.0
  0
LINE
  5
4B9F
330
1F
100
AcDbEntity
  8
0
100
AcDbLine
 10
12.5347311675073
 20
18.24847143887855
 30
0.0
 11
11.81623116750676
 21
18.24847143887855
 31
0.0
  0
LINE
  5
4BA0
330
1F
100
AcDbEntity
  8
0
100
AcDbLine
 10
12.53473116750731
 20
18.61497143887855
 30
0.0
 11
11.8787311675073
 21
18.61497143887855
 31
0.0
  0
LINE
  5
4BA1
330
1F
100
AcDbEntity
  8
0
100
AcDbLine
 10
12.53473116750731
 20
18.55247143887855
 30
0.0
 11
11.8787311675073
 21
18.55247143887855
 31
0.0
  0
LINE
  5
4BA2
330
1F
100
AcDbEntity
  8
0
100
AcDbLine
 10
12.5347311675073
 20
18.43647143887853
 30
0.0
 11
11.81623116750676
 21
18.43647143887853
 31
0.0
  0
ARC
  5
4BA3
330
1F
100
AcDbEntity
  8
0
100
AcDbCircle
 10
11.81623116750676
 20
18.34247143886882
 30
0.0
 40
0.0939999999902454
100
AcDbArc
 50
89.99999999967066
 51
270.0000000003294
  0
LINE
  5
4BA4
330
1F
100
AcDbEntity
  8
0
100
AcDbLine
 10
11.87873116750729
 20
18.06997143887848
 30
0.0
 11
11.8787311675073
 21
18.1324714388785
 31
0.0
  0
LINE
  5
4BA5
330
1F
100
AcDbEntity
  8
0
100
AcDbLine
 10
11.8787311675073
 20
18.55247143887852
 30
0.0
 11
11.8787311675073
 21
18.61497143887849
 31
0.0
  0
LINE
  5
4BA6
330
1F
100
AcDbEntity
  8
0
100
AcDbLine
 10
10.67349085810008
 20
13.38580382294285
 30
0.0
 11
11.77149085810008
 21
13.38580382294291
 31
0.0
  0
LINE
  5
4BA7
330
1F
100
AcDbEntity
  8
0
100
AcDbLine
 10
10.67349085810008
 20
13.51080382294294
 30
0.0
 11
10.67349085810008
 21
13.38580382294294
 31
0.0
  0
LINE
  5
4BA8
330
1F
100
AcDbEntity
  8
0
100
AcDbLine
 10
11.85549085810472
 20
13.47980382294291
 30
0.0
 11
11.8554908581047
 21
13.51080382294297
 31
0.0
  0
LINE
  5
4BA9
330
1F
100
AcDbEntity
  8
0
100
AcDbLine
 10
11.77149085810008
 20
13.51080382294294
 30
0.0
 11
11.77149085810008
 21
13.38580382294291
 31
0.0
  0
LINE
  5
4BAA
330
1F
100
AcDbEntity
  8
0
100
AcDbLine
 10
13.78423116750731
 20
18.02997143887851
 30
0.0
 11
13.78423116750731
 21
18.65497143887851
 31
0.0
  0
LINE
  5
4BAB
330
1F
100
AcDbEntity
  8
0
100
AcDbLine
 10
13.40973116750731
 20
18.80247143887861
 30
0.0
 11
13.78423116750731
 21
18.65497143887851
 31
0.0
  0
LINE
  5
4BAC
330
1F
100
AcDbEntity
  8
0
100
AcDbLine
 10
12.1204908581047
 20
13.47980382295194
 30
0.0
 11
12.1204908581047
 21
13.51080382294297
 31
0.0
  0
LINE
  5
4BAD
330
1F
100
AcDbEntity
  8
0
100
AcDbLine
 10
12.20449085810008
 20
13.51080382294294
 30
0.0
 11
12.20449085810008
 21
13.38580382294294
 31
0.0
  0
LINE
  5
4BAE
330
1F
100
AcDbEntity
  8
0
100
AcDbLine
 10
13.40973116750731
 20
17.88247143887856
 30
0.0
 11
13.78423116750731
 21
18.02997143887851
 31
0.0
  0
LINE
  5
4BAF
330
1F
100
AcDbEntity
  8
0
100
AcDbLine
 10
13.73549085810008
 20
13.38580382294285
 30
0.0
 11
14.83349085810008
 21
13.38580382294291
 31
0.0
  0
LINE
  5
4BB0
330
1F
100
AcDbEntity
  8
0
100
AcDbLine
 10
14.09673116750731
 20
18.02997143887851
 30
0.0
 11
14.09673116750731
 21
18.65497143887851
 31
0.0
  0
LINE
  5
4BB1
330
1F
100
AcDbEntity
  8
0
100
AcDbLine
 10
13.30249085810008
 20
13.51080382294294
 30
0.0
 11
13.30249085810008
 21
13.38580382294291
 31
0.0
  0
LINE
  5
4BB2
330
1F
100
AcDbEntity
  8
0
100
AcDbLine
 10
13.73549085810008
 20
13.51080382294294
 30
0.0
 11
13.73549085810008
 21
13.38580382294294
 31
0.0
  0
LINE
  5
4BB3
330
1F
100
AcDbEntity
  8
0
100
AcDbLine
 10
14.83349085810008
 20
13.51080382294294
 30
0.0
 11
14.83349085810008
 21
13.38580382294291
 31
0.0
  0
LINE
  5
4BB4
330
1F
100
AcDbEntity
  8
0
100
AcDbLine
 10
15.1824908581047
 20
13.47980382295194
 30
0.0
 11
15.1824908581047
 21
13.51080382294297
 31
0.0
  0
LINE
  5
4BB5
330
1F
100
AcDbEntity
  8
0
100
AcDbLine
 10
14.91749085810472
 20
13.47980382294291
 30
0.0
 11
14.9174908581047
 21
13.51080382294297
 31
0.0
  0
LINE
  5
4BB6
330
1F
100
AcDbEntity
  8
0
100
AcDbLine
 10
14.91749085810472
 20
13.47980382294291
 30
0.0
 11
15.1824908581047
 21
13.47980382294293
 31
0.0
  0
ARC
  5
4BB7
330
1F
100
AcDbEntity
  8
0
100
AcDbCircle
 10
15.04999085810008
 20
13.6153616933587
 30
0.0
 40
0.1895578703996216
100
AcDbArc
 50
225.6535733120778
 51
314.3464266899278
  0
LINE
  5
4BB8
330
1F
100
AcDbEntity
  8
0
100
AcDbLine
 10
15.26649085810008
 20
13.51080382294294
 30
0.0
 11
15.26649085810008
 21
13.38580382294294
 31
0.0
  0
ARC
  5
4BB9
330
1F
100
AcDbEntity
  8
OBJECT
100
AcDbCircle
 10
8.892990858100042
 20
13.44080382294294
 30
0.0
 40
0.095
100
AcDbArc
 50
180.0
 51
0.0
  0
LINE
  5
4BBA
330
1F
100
AcDbEntity
  8
0
100
AcDbLine
 10
8.742990858100043
 20
13.47955382294294
 30
0.0
 11
9.04299085810004
 21
13.47955382294294
 31
0.0
  0
LINE
  5
4BBB
330
1F
100
AcDbEntity
  8
0
100
AcDbLine
 10
7.08099085810008
 20
13.54680382294294
 30
0.0
 11
7.970990858100066
 21
13.54680382294294
 31
0.0
  0
LINE
  5
4BBC
330
1F
100
AcDbEntity
  8
0
100
AcDbLine
 10
7.08099085810008
 20
13.51080382294294
 30
0.0
 11
7.08099085810008
 21
13.54680382294294
 31
0.0
  0
LINE
  5
4BBD
330
1F
100
AcDbEntity
  8
OBJECT
100
AcDbLine
 10
8.797990858100043
 20
13.44080382294294
 30
0.0
 11
8.797990858100043
 21
13.47955382294294
 31
0.0
  0
LINE
  5
4BBE
330
1F
100
AcDbEntity
  8
0
100
AcDbLine
 10
8.742990858100043
 20
13.47955382294294
 30
0.0
 11
8.742990858100057
 21
13.51080382294294
 31
0.0
  0
LINE
  5
4BBF
330
1F
100
AcDbEntity
  8
OBJECT
100
AcDbLine
 10
8.98799085810004
 20
13.44080382294294
 30
0.0
 11
8.987990858100048
 21
13.47955382294294
 31
0.0
  0
LINE
  5
4BC0
330
1F
100
AcDbEntity
  8
0
100
AcDbLine
 10
9.04299085810004
 20
13.47955382294294
 30
0.0
 11
9.042990858100055
 21
13.51080382294294
 31
0.0
  0
LINE
  5
4BC1
330
1F
100
AcDbEntity
  8
OBJECT
100
AcDbLine
 10
9.73799085810004
 20
13.44080382294294
 30
0.0
 11
9.737990858100048
 21
13.47955382294294
 31
0.0
  0
LINE
  5
4BC2
330
1F
100
AcDbEntity
  8
OBJECT
100
AcDbLine
 10
9.547990858100043
 20
13.44080382294294
 30
0.0
 11
9.547990858100043
 21
13.47955382294294
 31
0.0
  0
LINE
  5
4BC3
330
1F
100
AcDbEntity
  8
0
100
AcDbLine
 10
9.492990858100043
 20
13.47955382294294
 30
0.0
 11
9.79299085810004
 21
13.47955382294294
 31
0.0
  0
LINE
  5
4BC4
330
1F
100
AcDbEntity
  8
0
100
AcDbLine
 10
9.492990858100043
 20
13.47955382294294
 30
0.0
 11
9.492990858100057
 21
13.51080382294294
 31
0.0
  0
LINE
  5
4BC5
330
1F
100
AcDbEntity
  8
0
100
AcDbLine
 10
9.79299085810004
 20
13.47955382294294
 30
0.0
 11
9.792990858100055
 21
13.51080382294294
 31
0.0
  0
ARC
  5
4BC6
330
1F
100
AcDbEntity
  8
OBJECT
100
AcDbCircle
 10
9.642990858100042
 20
13.44080382294294
 30
0.0
 40
0.095
100
AcDbArc
 50
180.0
 51
0.0
  0
LINE
  5
4BC9
330
1F
100
AcDbEntity
  8
0
100
AcDbLine
 10
18.32849085810008
 20
13.38580382294285
 30
0.0
 11
19.42649085810007
 21
13.38580382294291
 31
0.0
  0
LINE
  5
4BCA
330
1F
100
AcDbEntity
  8
0
100
AcDbLine
 10
16.79749085810008
 20
13.38580382294285
 30
0.0
 11
17.89549085810008
 21
13.38580382294291
 31
0.0
  0
LINE
  5
4BCB
330
1F
100
AcDbEntity
  8
0
100
AcDbLine
 10
16.36449085810008
 20
13.51080382294294
 30
0.0
 11
16.36449085810008
 21
13.38580382294291
 31
0.0
  0
LINE
  5
4BCC
330
1F
100
AcDbEntity
  8
0
100
AcDbLine
 10
16.79749085810008
 20
13.51080382294294
 30
0.0
 11
16.79749085810008
 21
13.38580382294294
 31
0.0
  0
LINE
  5
4BCD
330
1F
100
AcDbEntity
  8
0
100
AcDbLine
 10
17.97949085810471
 20
13.47980382294291
 30
0.0
 11
18.2444908581047
 21
13.47980382294293
 31
0.0
  0
ARC
  5
4BCE
330
1F
100
AcDbEntity
  8
0
100
AcDbCircle
 10
18.11199085810008
 20
13.6153616933587
 30
0.0
 40
0.1895578703996216
100
AcDbArc
 50
225.6535733120778
 51
314.3464266899278
  0
LINE
  5
4BCF
330
1F
100
AcDbEntity
  8
0
100
AcDbLine
 10
17.97949085810471
 20
13.47980382294291
 30
0.0
 11
17.9794908581047
 21
13.51080382294297
 31
0.0
  0
LINE
  5
4BD0
330
1F
100
AcDbEntity
  8
0
100
AcDbLine
 10
17.89549085810008
 20
13.51080382294294
 30
0.0
 11
17.89549085810008
 21
13.38580382294291
 31
0.0
  0
LINE
  5
4BD1
330
1F
100
AcDbEntity
  8
0
100
AcDbLine
 10
18.2444908581047
 20
13.47980382295194
 30
0.0
 11
18.2444908581047
 21
13.51080382294297
 31
0.0
  0
LINE
  5
4BD2
330
1F
100
AcDbEntity
  8
0
100
AcDbLine
 10
18.32849085810008
 20
13.51080382294294
 30
0.0
 11
18.32849085810008
 21
13.38580382294294
 31
0.0
  0
LINE
  5
4BD3
330
1F
100
AcDbEntity
  8
0
100
AcDbLine
 10
19.42649085810007
 20
13.51080382294294
 30
0.0
 11
19.42649085810007
 21
13.38580382294291
 31
0.0
  0
LINE
  5
4BD4
330
1F
100
AcDbEntity
  8
0
100
AcDbLine
 10
21.63956311364667
 20
18.24142575479809
 30
0.0
 11
21.78530508870029
 21
18.38695864513111
 31
0.0
  0
LINE
  5
4BD5
330
1F
100
AcDbEntity
  8
0
100
AcDbLine
 10
21.68804740428846
 20
18.15497143887848
 30
0.0
 11
21.63956311364667
 21
18.24142575479809
 31
0.0
  0
LINE
  5
4BD6
330
1F
100
AcDbEntity
  8
0
100
AcDbLine
 10
21.78530508870029
 20
18.38695864513111
 30
0.0
 11
21.68828622389788
 21
18.52997143887851
 31
0.0
  0
LINE
  5
4BD7
330
1F
100
AcDbEntity
  8
0
100
AcDbLine
 10
19.85949085810008
 20
13.38580382294285
 30
0.0
 11
20.95749085810008
 21
13.38580382294291
 31
0.0
  0
LINE
  5
4BD8
330
1F
100
AcDbEntity
  8
0
100
AcDbLine
 10
19.85949085810008
 20
13.51080382294294
 30
0.0
 11
19.85949085810008
 21
13.38580382294294
 31
0.0
  0
LINE
  5
4BD9
330
1F
100
AcDbEntity
  8
0
100
AcDbLine
 10
20.95749085810008
 20
13.51080382294294
 30
0.0
 11
20.95749085810008
 21
13.38580382294291
 31
0.0
  0
ARC
  5
4BDA
330
1F
100
AcDbEntity
  8
0
100
AcDbCircle
 10
24.18066107206861
 20
17.90497143887848
 30
0.0
 40
0.25
100
AcDbArc
 50
359.9999999999994
 51
90.00000000000003
  0
LINE
  5
4BDB
330
1F
100
AcDbEntity
  8
0
100
AcDbLine
 10
24.93875317503834
 20
17.60980382294294
 30
0.0
 11
24.28522854116182
 21
17.60980382294292
 31
0.0
  0
ARC
  5
4BDC
330
1F
100
AcDbEntity
  8
0
100
AcDbCircle
 10
24.30566107206861
 20
18.02997143887848
 30
0.0
 40
0.5
100
AcDbArc
 50
359.9999999999996
 51
90.00000000000003
  0
LINE
  5
4BDD
330
1F
100
AcDbEntity
  8
0
100
AcDbLine
 10
21.39049085810008
 20
13.38580382294285
 30
0.0
 11
22.48849085810008
 21
13.38580382294291
 31
0.0
  0
LINE
  5
4BDE
330
1F
100
AcDbEntity
  8
0
100
AcDbLine
 10
24.18066107206861
 20
18.15497143887848
 30
0.0
 11
22.20956032979078
 21
18.15497143887846
 31
0.0
  0
LINE
  5
4BDF
330
1F
100
AcDbEntity
  8
0
100
AcDbLine
 10
24.30566107206861
 20
18.52997143887848
 30
0.0
 11
22.20979914940018
 21
18.52997143887848
 31
0.0
  0
LINE
  5
4BE0
330
1F
100
AcDbEntity
  8
0
100
AcDbLine
 10
22.16107603914897
 20
18.24142575479807
 30
0.0
 11
22.3068180142026
 21
18.38695864513108
 31
0.0
  0
LINE
  5
4BE1
330
1F
100
AcDbEntity
  8
0
100
AcDbLine
 10
22.20956032979078
 20
18.15497143887846
 30
0.0
 11
22.16107603914897
 21
18.24142575479807
 31
0.0
  0
LINE
  5
4BE2
330
1F
100
AcDbEntity
  8
0
100
AcDbLine
 10
22.3068180142026
 20
18.38695864513108
 30
0.0
 11
22.20979914940018
 21
18.52997143887848
 31
0.0
  0
ARC
  5
4BE3
330
1F
100
AcDbEntity
  8
0
100
AcDbCircle
 10
21.17399085810008
 20
13.6153616933587
 30
0.0
 40
0.1895578703996216
100
AcDbArc
 50
225.6535733120778
 51
314.3464266899278
  0
LINE
  5
4BE4
330
1F
100
AcDbEntity
  8
0
100
AcDbLine
 10
21.04149085810472
 20
13.47980382294291
 30
0.0
 11
21.3064908581047
 21
13.47980382294293
 31
0.0
  0
LINE
  5
4BE5
330
1F
100
AcDbEntity
  8
0
100
AcDbLine
 10
21.04149085810472
 20
13.47980382294291
 30
0.0
 11
21.0414908581047
 21
13.51080382294297
 31
0.0
  0
LINE
  5
4BE6
330
1F
100
AcDbEntity
  8
0
100
AcDbLine
 10
21.3064908581047
 20
13.47980382295194
 30
0.0
 11
21.3064908581047
 21
13.51080382294297
 31
0.0
  0
LINE
  5
4BE7
330
1F
100
AcDbEntity
  8
0
100
AcDbLine
 10
21.39049085810008
 20
13.51080382294294
 30
0.0
 11
21.39049085810008
 21
13.38580382294294
 31
0.0
  0
LINE
  5
4BE8
330
1F
100
AcDbEntity
  8
0
100
AcDbLine
 10
22.48849085810008
 20
13.51080382294294
 30
0.0
 11
22.48849085810008
 21
13.38580382294291
 31
0.0
  0
LINE
  5
4BE9
330
1F
100
AcDbEntity
  8
0
100
AcDbLine
 10
24.22322854116182
 20
17.29780382294293
 30
0.0
 11
24.22322854116184
 21
17.5478038229429
 31
0.0
  0
ARC
  5
4BEA
330
1F
100
AcDbEntity
  8
0
100
AcDbCircle
 10
24.28522854116182
 20
17.5478038229429
 30
0.0
 40
0.062
100
AcDbArc
 50
90.00000000000003
 51
179.9999999999987
  0
LINE
  5
4BEB
330
1F
100
AcDbEntity
  8
0
100
AcDbLine
 10
25.00075317503833
 20
17.29780382294293
 30
0.0
 11
25.00075317503832
 21
17.54780382294293
 31
0.0
  0
LINE
  5
4BEC
330
1F
100
AcDbEntity
  8
0
100
AcDbLine
 10
24.4306610720686
 20
17.60980382294297
 30
0.0
 11
24.43066107206861
 21
17.90497143887848
 31
0.0
  0
ARC
  5
4BED
330
1F
100
AcDbEntity
  8
0
100
AcDbCircle
 10
24.93875317503834
 20
17.54780382294293
 30
0.0
 40
0.062
100
AcDbArc
 50
0.0
 51
90.00000000000003
  0
LINE
  5
4BEE
330
1F
100
AcDbEntity
  8
0
100
AcDbLine
 10
24.8056610720686
 20
17.60980382294297
 30
0.0
 11
24.80566107206861
 21
18.02997143887848
 31
0.0
  0
ARC
  5
4BF8
330
1F
100
AcDbEntity
  8
0
100
AcDbCircle
 10
23.34475356053204
 20
13.20705382294294
 30
0.0
 40
0.03125
100
AcDbArc
 50
180.000000000002
 51
269.999999999989
  0
LINE
  5
4C23
330
1F
100
AcDbEntity
  8
0
100
AcDbLine
 10
24.4359908581001
 20
13.89680382294293
 30
0.0
 11
24.43599085810009
 21
13.84680382294295
 31
0.0
  0
LINE
  5
4C24
330
1F
100
AcDbEntity
  8
0
100
AcDbLine
 10
24.47599085810007
 20
13.8968038229429
 30
0.0
 11
24.47599085810008
 21
13.84680382294295
 31
0.0
  0
CIRCLE
  5
4C25
330
1F
100
AcDbEntity
  8
0
100
AcDbCircle
 10
24.45599085810008
 20
13.91680382294294
 30
0.0
 40
0.1325
  0
LINE
  5
4C26
330
1F
100
AcDbEntity
  8
0
100
AcDbLine
 10
24.43599085810009
 20
13.84680382294295
 30
0.0
 11
24.47599085810009
 21
13.84680382294295
 31
0.0
  0
LINE
  5
4C27
330
1F
100
AcDbEntity
  8
0
100
AcDbLine
 10
24.47599085810007
 20
13.89680382294293
 30
0.0
 11
24.52599085810008
 21
13.89680382294293
 31
0.0
  0
LINE
  5
4C28
330
1F
100
AcDbEntity
  8
0
100
AcDbLine
 10
24.47599085810009
 20
13.93680382294295
 30
0.0
 11
24.52599085810008
 21
13.93680382294295
 31
0.0
  0
LINE
  5
4C29
330
1F
100
AcDbEntity
  8
0
100
AcDbLine
 10
24.52599085810009
 20
13.93680382294295
 30
0.0
 11
24.52599085810008
 21
13.89680382294293
 31
0.0
  0
LINE
  5
4C2A
330
1F
100
AcDbEntity
  8
0
100
AcDbLine
 10
24.38599085810009
 20
13.93680382294295
 30
0.0
 11
24.38599085810009
 21
13.89680382294293
 31
0.0
  0
LINE
  5
4C2B
330
1F
100
AcDbEntity
  8
0
100
AcDbLine
 10
24.43599085810009
 20
13.9868038229429
 30
0.0
 11
24.47599085810009
 21
13.98680382294293
 31
0.0
  0
LINE
  5
4C2C
330
1F
100
AcDbEntity
  8
0
100
AcDbLine
 10
24.38599085810009
 20
13.89680382294293
 30
0.0
 11
24.43599085810009
 21
13.89680382294293
 31
0.0
  0
LINE
  5
4C2D
330
1F
100
AcDbEntity
  8
0
100
AcDbLine
 10
24.38599085810009
 20
13.93680382294295
 30
0.0
 11
24.4359908581001
 21
13.93680382294298
 31
0.0
  0
LINE
  5
4C2E
330
1F
100
AcDbEntity
  8
0
100
AcDbLine
 10
24.47599085810008
 20
13.98680382294293
 30
0.0
 11
24.47599085810009
 21
13.93680382294298
 31
0.0
  0
LINE
  5
4C2F
330
1F
100
AcDbEntity
  8
0
100
AcDbLine
 10
24.43599085810009
 20
13.98680382294293
 30
0.0
 11
24.4359908581001
 21
13.93680382294292
 31
0.0
  0
CIRCLE
  5
4C33
330
1F
100
AcDbEntity
  8
0
100
AcDbCircle
 10
24.45599085810008
 20
17.04780382294293
 30
0.0
 40
0.1325
  0
LINE
  5
4C34
330
1F
100
AcDbEntity
  8
0
100
AcDbLine
 10
24.47599085810009
 20
17.06780382294294
 30
0.0
 11
24.52599085810008
 21
17.06780382294294
 31
0.0
  0
LINE
  5
4C35
330
1F
100
AcDbEntity
  8
0
100
AcDbLine
 10
24.43599085810009
 20
17.11780382294292
 30
0.0
 11
24.4359908581001
 21
17.06780382294291
 31
0.0
  0
LINE
  5
4C36
330
1F
100
AcDbEntity
  8
0
100
AcDbLine
 10
24.47599085810008
 20
17.11780382294292
 30
0.0
 11
24.47599085810009
 21
17.06780382294297
 31
0.0
  0
LINE
  5
4C37
330
1F
100
AcDbEntity
  8
0
100
AcDbLine
 10
24.38599085810009
 20
17.06780382294294
 30
0.0
 11
24.4359908581001
 21
17.06780382294297
 31
0.0
  0
LINE
  5
4C38
330
1F
100
AcDbEntity
  8
0
100
AcDbLine
 10
24.43599085810009
 20
17.1178038229429
 30
0.0
 11
24.47599085810009
 21
17.11780382294292
 31
0.0
  0
LINE
  5
4C39
330
1F
100
AcDbEntity
  8
0
100
AcDbLine
 10
24.47599085810007
 20
17.02780382294292
 30
0.0
 11
24.52599085810008
 21
17.02780382294292
 31
0.0
  0
LINE
  5
4C3A
330
1F
100
AcDbEntity
  8
0
100
AcDbLine
 10
24.38599085810009
 20
17.02780382294292
 30
0.0
 11
24.43599085810009
 21
17.02780382294292
 31
0.0
  0
LINE
  5
4C3B
330
1F
100
AcDbEntity
  8
0
100
AcDbLine
 10
24.43599085810009
 20
16.97780382294294
 30
0.0
 11
24.47599085810009
 21
16.97780382294294
 31
0.0
  0
LINE
  5
4C3C
330
1F
100
AcDbEntity
  8
0
100
AcDbLine
 10
24.47599085810007
 20
17.02780382294289
 30
0.0
 11
24.47599085810008
 21
16.97780382294294
 31
0.0
  0
LINE
  5
4C3D
330
1F
100
AcDbEntity
  8
0
100
AcDbLine
 10
24.4359908581001
 20
17.02780382294292
 30
0.0
 11
24.43599085810009
 21
16.97780382294294
 31
0.0
  0
LINE
  5
4C3E
330
1F
100
AcDbEntity
  8
0
100
AcDbLine
 10
24.38599085810009
 20
17.06780382294294
 30
0.0
 11
24.38599085810009
 21
17.02780382294292
 31
0.0
  0
LINE
  5
4C3F
330
1F
100
AcDbEntity
  8
0
100
AcDbLine
 10
24.52599085810009
 20
17.06780382294294
 30
0.0
 11
24.52599085810008
 21
17.02780382294292
 31
0.0
  0
CIRCLE
  5
4C40
330
1F
100
AcDbEntity
  8
0
100
AcDbCircle
 10
8.70599085810008
 20
17.04780382294293
 30
0.0
 40
0.1325
  0
CIRCLE
  5
4C41
330
1F
100
AcDbEntity
  8
0
100
AcDbCircle
 10
8.70599085810008
 20
13.91680382294294
 30
0.0
 40
0.1325
  0
LINE
  5
4C42
330
1F
100
AcDbEntity
  8
0
100
AcDbLine
 10
8.68599085810007
 20
13.93680382294295
 30
0.0
 11
8.635990858100087
 21
13.93680382294295
 31
0.0
  0
LINE
  5
4C43
330
1F
100
AcDbEntity
  8
0
100
AcDbLine
 10
8.725990858100076
 20
13.98680382294293
 30
0.0
 11
8.725990858100062
 21
13.93680382294292
 31
0.0
  0
LINE
  5
4C44
330
1F
100
AcDbEntity
  8
0
100
AcDbLine
 10
8.685990858100084
 20
13.98680382294293
 30
0.0
 11
8.68599085810007
 21
13.93680382294298
 31
0.0
  0
LINE
  5
4C45
330
1F
100
AcDbEntity
  8
0
100
AcDbLine
 10
8.775990858100073
 20
13.93680382294295
 30
0.0
 11
8.725990858100062
 21
13.93680382294298
 31
0.0
  0
LINE
  5
4C46
330
1F
100
AcDbEntity
  8
0
100
AcDbLine
 10
8.725990858100076
 20
13.9868038229429
 30
0.0
 11
8.68599085810007
 21
13.98680382294293
 31
0.0
  0
LINE
  5
4C47
330
1F
100
AcDbEntity
  8
0
100
AcDbLine
 10
8.685990858100098
 20
13.89680382294293
 30
0.0
 11
8.635990858100087
 21
13.89680382294293
 31
0.0
  0
LINE
  5
4C48
330
1F
100
AcDbEntity
  8
0
100
AcDbLine
 10
8.775990858100073
 20
13.89680382294293
 30
0.0
 11
8.725990858100076
 21
13.89680382294293
 31
0.0
  0
LINE
  5
4C49
330
1F
100
AcDbEntity
  8
0
100
AcDbLine
 10
8.725990858100076
 20
13.84680382294295
 30
0.0
 11
8.68599085810007
 21
13.84680382294295
 31
0.0
  0
LINE
  5
4C4A
330
1F
100
AcDbEntity
  8
0
100
AcDbLine
 10
8.685990858100098
 20
13.8968038229429
 30
0.0
 11
8.685990858100084
 21
13.84680382294295
 31
0.0
  0
LINE
  5
4C4B
330
1F
100
AcDbEntity
  8
0
100
AcDbLine
 10
8.725990858100062
 20
13.89680382294293
 30
0.0
 11
8.725990858100076
 21
13.84680382294295
 31
0.0
  0
LINE
  5
4C4C
330
1F
100
AcDbEntity
  8
0
100
AcDbLine
 10
8.775990858100073
 20
13.93680382294295
 30
0.0
 11
8.775990858100073
 21
13.89680382294293
 31
0.0
  0
LINE
  5
4C4D
330
1F
100
AcDbEntity
  8
0
100
AcDbLine
 10
8.635990858100072
 20
13.93680382294295
 30
0.0
 11
8.635990858100087
 21
13.89680382294293
 31
0.0
  0
LINE
  5
4C4E
330
1F
100
AcDbEntity
  8
0
100
AcDbLine
 10
8.635990858100072
 20
17.06780382294294
 30
0.0
 11
8.635990858100087
 21
17.02780382294292
 31
0.0
  0
LINE
  5
4C4F
330
1F
100
AcDbEntity
  8
0
100
AcDbLine
 10
8.775990858100073
 20
17.06780382294294
 30
0.0
 11
8.775990858100073
 21
17.02780382294292
 31
0.0
  0
LINE
  5
4C50
330
1F
100
AcDbEntity
  8
0
100
AcDbLine
 10
8.725990858100062
 20
17.02780382294292
 30
0.0
 11
8.725990858100076
 21
16.97780382294294
 31
0.0
  0
LINE
  5
4C51
330
1F
100
AcDbEntity
  8
0
100
AcDbLine
 10
8.685990858100098
 20
17.02780382294289
 30
0.0
 11
8.685990858100084
 21
16.97780382294294
 31
0.0
  0
LINE
  5
4C52
330
1F
100
AcDbEntity
  8
0
100
AcDbLine
 10
8.725990858100076
 20
16.97780382294294
 30
0.0
 11
8.68599085810007
 21
16.97780382294294
 31
0.0
  0
LINE
  5
4C53
330
1F
100
AcDbEntity
  8
0
100
AcDbLine
 10
8.775990858100073
 20
17.02780382294292
 30
0.0
 11
8.725990858100076
 21
17.02780382294292
 31
0.0
  0
LINE
  5
4C54
330
1F
100
AcDbEntity
  8
0
100
AcDbLine
 10
8.685990858100098
 20
17.02780382294292
 30
0.0
 11
8.635990858100087
 21
17.02780382294292
 31
0.0
  0
LINE
  5
4C55
330
1F
100
AcDbEntity
  8
0
100
AcDbLine
 10
8.725990858100076
 20
17.1178038229429
 30
0.0
 11
8.68599085810007
 21
17.11780382294292
 31
0.0
  0
LINE
  5
4C56
330
1F
100
AcDbEntity
  8
0
100
AcDbLine
 10
8.775990858100073
 20
17.06780382294294
 30
0.0
 11
8.725990858100062
 21
17.06780382294297
 31
0.0
  0
LINE
  5
4C57
330
1F
100
AcDbEntity
  8
0
100
AcDbLine
 10
8.685990858100084
 20
17.11780382294292
 30
0.0
 11
8.68599085810007
 21
17.06780382294297
 31
0.0
  0
LINE
  5
4C58
330
1F
100
AcDbEntity
  8
0
100
AcDbLine
 10
8.725990858100076
 20
17.11780382294292
 30
0.0
 11
8.725990858100062
 21
17.06780382294291
 31
0.0
  0
LINE
  5
4C59
330
1F
100
AcDbEntity
  8
0
100
AcDbLine
 10
8.68599085810007
 20
17.06780382294294
 30
0.0
 11
8.635990858100087
 21
17.06780382294294
 31
0.0
  0
CIRCLE
  5
4C5B
330
1F
100
AcDbEntity
  8
0
100
AcDbCircle
 10
16.58099085810008
 20
13.91680382294294
 30
0.0
 40
0.1325
  0
CIRCLE
  5
4C5C
330
1F
100
AcDbEntity
  8
0
100
AcDbCircle
 10
16.58099085810008
 20
17.04780382294293
 30
0.0
 40
0.1325
  0
LINE
  5
4C5D
330
1F
100
AcDbEntity
  8
0
100
AcDbLine
 10
16.51099085810007
 20
13.93680382294295
 30
0.0
 11
16.51099085810009
 21
13.89680382294293
 31
0.0
  0
LINE
  5
4C5E
330
1F
100
AcDbEntity
  8
0
100
AcDbLine
 10
16.65099085810007
 20
13.93680382294295
 30
0.0
 11
16.65099085810007
 21
13.89680382294293
 31
0.0
  0
LINE
  5
4C5F
330
1F
100
AcDbEntity
  8
0
100
AcDbLine
 10
16.60099085810006
 20
13.89680382294293
 30
0.0
 11
16.60099085810008
 21
13.84680382294295
 31
0.0
  0
LINE
  5
4C60
330
1F
100
AcDbEntity
  8
0
100
AcDbLine
 10
16.5609908581001
 20
13.8968038229429
 30
0.0
 11
16.56099085810008
 21
13.84680382294295
 31
0.0
  0
LINE
  5
4C61
330
1F
100
AcDbEntity
  8
0
100
AcDbLine
 10
16.60099085810008
 20
13.84680382294295
 30
0.0
 11
16.56099085810007
 21
13.84680382294295
 31
0.0
  0
LINE
  5
4C62
330
1F
100
AcDbEntity
  8
0
100
AcDbLine
 10
16.65099085810007
 20
13.89680382294293
 30
0.0
 11
16.60099085810008
 21
13.89680382294293
 31
0.0
  0
LINE
  5
4C63
330
1F
100
AcDbEntity
  8
0
100
AcDbLine
 10
16.5609908581001
 20
13.89680382294293
 30
0.0
 11
16.51099085810009
 21
13.89680382294293
 31
0.0
  0
LINE
  5
4C64
330
1F
100
AcDbEntity
  8
0
100
AcDbLine
 10
16.60099085810008
 20
13.9868038229429
 30
0.0
 11
16.56099085810007
 21
13.98680382294293
 31
0.0
  0
LINE
  5
4C65
330
1F
100
AcDbEntity
  8
0
100
AcDbLine
 10
16.65099085810007
 20
13.93680382294295
 30
0.0
 11
16.60099085810006
 21
13.93680382294298
 31
0.0
  0
LINE
  5
4C66
330
1F
100
AcDbEntity
  8
0
100
AcDbLine
 10
16.56099085810008
 20
13.98680382294293
 30
0.0
 11
16.56099085810007
 21
13.93680382294298
 31
0.0
  0
LINE
  5
4C67
330
1F
100
AcDbEntity
  8
0
100
AcDbLine
 10
16.60099085810008
 20
13.98680382294293
 30
0.0
 11
16.60099085810006
 21
13.93680382294292
 31
0.0
  0
LINE
  5
4C68
330
1F
100
AcDbEntity
  8
0
100
AcDbLine
 10
16.56099085810007
 20
13.93680382294295
 30
0.0
 11
16.51099085810009
 21
13.93680382294295
 31
0.0
  0
LINE
  5
4C69
330
1F
100
AcDbEntity
  8
0
100
AcDbLine
 10
16.65099085810007
 20
17.06780382294294
 30
0.0
 11
16.65099085810007
 21
17.02780382294292
 31
0.0
  0
LINE
  5
4C6A
330
1F
100
AcDbEntity
  8
0
100
AcDbLine
 10
16.51099085810007
 20
17.06780382294294
 30
0.0
 11
16.51099085810009
 21
17.02780382294292
 31
0.0
  0
LINE
  5
4C6B
330
1F
100
AcDbEntity
  8
0
100
AcDbLine
 10
16.5609908581001
 20
17.02780382294292
 30
0.0
 11
16.51099085810009
 21
17.02780382294292
 31
0.0
  0
LINE
  5
4C6C
330
1F
100
AcDbEntity
  8
0
100
AcDbLine
 10
16.65099085810007
 20
17.02780382294292
 30
0.0
 11
16.60099085810008
 21
17.02780382294292
 31
0.0
  0
LINE
  5
4C6D
330
1F
100
AcDbEntity
  8
0
100
AcDbLine
 10
16.60099085810008
 20
16.97780382294294
 30
0.0
 11
16.56099085810007
 21
16.97780382294294
 31
0.0
  0
LINE
  5
4C6E
330
1F
100
AcDbEntity
  8
0
100
AcDbLine
 10
16.5609908581001
 20
17.02780382294289
 30
0.0
 11
16.56099085810008
 21
16.97780382294294
 31
0.0
  0
LINE
  5
4C6F
330
1F
100
AcDbEntity
  8
0
100
AcDbLine
 10
16.60099085810006
 20
17.02780382294292
 30
0.0
 11
16.60099085810008
 21
16.97780382294294
 31
0.0
  0
LINE
  5
4C70
330
1F
100
AcDbEntity
  8
0
100
AcDbLine
 10
16.56099085810007
 20
17.06780382294294
 30
0.0
 11
16.51099085810009
 21
17.06780382294294
 31
0.0
  0
LINE
  5
4C71
330
1F
100
AcDbEntity
  8
0
100
AcDbLine
 10
16.60099085810008
 20
17.11780382294292
 30
0.0
 11
16.60099085810006
 21
17.06780382294291
 31
0.0
  0
LINE
  5
4C72
330
1F
100
AcDbEntity
  8
0
100
AcDbLine
 10
16.56099085810008
 20
17.11780382294292
 30
0.0
 11
16.56099085810007
 21
17.06780382294297
 31
0.0
  0
LINE
  5
4C73
330
1F
100
AcDbEntity
  8
0
100
AcDbLine
 10
16.65099085810007
 20
17.06780382294294
 30
0.0
 11
16.60099085810006
 21
17.06780382294297
 31
0.0
  0
LINE
  5
4C74
330
1F
100
AcDbEntity
  8
0
100
AcDbLine
 10
16.60099085810008
 20
17.1178038229429
 30
0.0
 11
16.56099085810007
 21
17.11780382294292
 31
0.0
  0
LWPOLYLINE
  5
4C8B
330
1F
100
AcDbEntity
  8
DIM
100
AcDbPolyline
 90
        4
 70
     0
 10
8.756279069088368
 20
10.56743718986199
 40
0.0
 41
0.1352163456280238
 10
8.551642431355045
 20
10.35140594494207
 40
0.0
 41
0.0
 10
7.528709519226332
 20
9.116877776712787
 40
0.0
 41
0.0
 10
7.168132597551603
 20
9.116877776712787
 40
0.0
 41
0.0
  0
TEXT
  5
4C8D
330
1F
100
AcDbEntity
  8
DIM
100
AcDbText
 10
1.377961082422704
 20
9.025582734681524
 30
0.0
 40
0.2504006409533381
  1
SURGE PROTECTION INDICATOR LAMP
 41
0.75
  7
TXT
 72
     2
 11
6.95187935004401
 21
9.150783055158193
 31
0.0
100
AcDbText
 73
     2
  0
TEXT
  5
4C8E
330
1F
100
AcDbEntity
  8
DIM
100
AcDbText
 10
0.9864003048560717
 20
8.608248333092629
 30
0.0
 40
0.2504006409533381
  1
15 AMP 125 VOLT, LENS COLOR - RED
 41
0.75
  7
TXT
 72
     2
 11
6.965967610821785
 21
8.733448653569297
 31
0.0
100
AcDbText
 73
     2
  0
TEXT
  5
4CA8
330
1F
100
AcDbEntity
  8
DIM
100
AcDbText
 10
27.08988332966286
 20
2.157775991982781
 30
0.0
 40
0.2504006400518959
  1
COLOR - BLACK
 50
0.1383357871449547
 41
0.75
  7
TXT
 72
     2
 11
29.46900619119731
 21
2.288720877918944
 31
0.0
100
AcDbText
 73
     2
  0
TEXT
  5
4CA9
330
1F
100
AcDbEntity
  8
DIM
100
AcDbText
 10
27.08736838342973
 20
2.555006970565108
 30
0.0
 40
0.2504006400518959
  1
STRAIN RELIEF CORD SET TYPE
 41
0.75
  7
TXT
 72
     2
 11
31.97205886924209
 21
2.680207290591056
 31
0.0
100
AcDbText
 73
     2
  0
LWPOLYLINE
  5
4CAA
330
1F
100
AcDbEntity
  8
DIM
100
AcDbPolyline
 90
        4
 70
     0
 10
25.01864629092388
 20
3.37527944986503
 40
0.0
 41
0.1352163456280238
 10
25.28257183214787
 20
3.230406160331398
 40
0.0
 41
0.0
 10
26.54838100571802
 20
2.68020729059106
 40
0.0
 41
0.0
 10
26.90895792739275
 20
2.68020729059106
 40
0.0
 41
0.0
  0
TEXT
  5
4CAE
330
1F
100
AcDbEntity
  8
DIM
100
AcDbText
 10
7.939260373353804
 20
18.42065324091001
 30
0.0
 40
0.2504006409533381
  1
15 AMP 125 VOLT
 41
0.75
  7
TXT
 11
7.939260373353804
 21
18.54585356138668
 31
0.0
100
AcDbText
 73
     2
  0
TEXT
  5
4CAF
330
1F
100
AcDbEntity
  8
DIM
100
AcDbText
 10
6.562056848110444
 20
18.82605187861347
 30
0.0
 40
0.2504006409533381
  1
MOLDED ON 3-PRONG PLUG
 41
0.75
  7
TXT
 11
6.562056848110444
 21
18.95125219909014
 31
0.0
100
AcDbText
 73
     2
  0
LWPOLYLINE
  5
4CB0
330
1F
100
AcDbEntity
  8
DIM
100
AcDbPolyline
 90
        4
 70
     0
 10
11.73753600552696
 20
18.41863493990469
 40
0.0
 41
0.1352163461148026
 10
11.51127493533654
 20
18.62362456167849
 40
0.0
 41
0.0
 10
11.17193264806141
 20
18.95125219909014
 40
0.0
 41
0.0
 10
10.8113557250886
 20
18.95125219909014
 40
0.0
 41
0.0
  0
DIMENSION
  5
4CC9
330
1F
100
AcDbEntity
  8
OBJECT
100
AcDbDimension
  2
*D5
 10
26.81815503808797
 20
13.51080382294294
 30
0.0
 11
26.81815503808796
 21
15.40430382294294
 31
0.0
 70
    32
  3
23NSTD
100
AcDbAlignedDimension
 13
25.23699085810008
 23
17.29780382294293
 33
0.0
 14
26.08099085810008
 24
13.51080382294294
 34
0.0
 50
90.0
100
AcDbRotatedDimension
  0
DIMENSION
  5
4D14
330
1F
100
AcDbEntity
  8
OBJECT
100
AcDbDimension
  2
*D12
 10
12.75349085810008
 20
9.2749894831237
 30
0.0
 11
11.98799085810008
 21
9.2749894831237
 31
0.0
 70
    32
  3
23NSTD
100
AcDbAlignedDimension
 13
11.22249085810008
 23
10.09184300420963
 33
0.0
 14
12.75349085810008
 24
10.09184300420963
 34
0.0
100
AcDbRotatedDimension
  0
TEXT
  5
4D4B
330
1F
100
AcDbEntity
  8
DIM
100
AcDbText
 10
27.08440978482425
 20
17.97608320560296
 30
0.0
 40
0.2504006400518959
  1
COLOR - BLACK
 41
0.75
  7
TXT
 72
     2
 11
29.46384186691739
 21
18.1012835256289
 31
0.0
100
AcDbText
 73
     2
  0
TEXT
  5
4D4C
330
1F
100
AcDbEntity
  8
DIM
100
AcDbText
 10
27.08440978482424
 20
18.79195463499664
 30
0.0
 40
0.2504006400518959
  1
14/3 SJT POWER CORD
 41
0.75
  7
TXT
 72
     2
 11
30.59064474715091
 21
18.91715495502259
 31
0.0
100
AcDbText
 73
     2
  0
TEXT
  5
4D4D
330
1F
100
AcDbEntity
  8
DIM
100
AcDbText
 10
27.08378378322411
 20
18.37462023491015
 30
0.0
 40
0.2504006400518959
  1
15 FOOT LONG
 41
0.75
  7
TXT
 72
     2
 11
29.21344122686548
 21
18.49982055493609
 31
0.0
100
AcDbText
 73
     2
  0
LWPOLYLINE
  5
4D4E
330
1F
100
AcDbEntity
  8
DIM
100
AcDbPolyline
 90
        4
 70
     0
 10
24.81640110710985
 20
18.0889410525974
 40
0.0
 41
0.1352163456280238
 10
25.06585157970305
 20
18.24252466957837
 40
0.0
 41
0.0
 10
26.54417040391228
 20
18.91715495502259
 40
0.0
 41
0.0
 10
26.90474732558701
 20
18.91715495502259
 40
0.0
 41
0.0
  0
TEXT
  5
4D71
330
1F
100
AcDbEntity
  8
TEXT
100
AcDbText
 10
0.7649260652580452
 20
15.54882979791245
 30
0.0
 40
0.2504006410434824
  1
   14 AWG SOLID TW CONDUCTOR
 41
0.75
  7
TXT
100
AcDbText
  0
TEXT
  5
4D72
330
1F
100
AcDbEntity
  8
TEXT
100
AcDbText
 10
0.7649260652580452
 20
14.2920720026102
 30
0.0
 40
0.2504006410434824
  1
   VOLTAGE:  330 V.
 41
0.75
  7
TXT
100
AcDbText
  0
TEXT
  5
4D73
330
1F
100
AcDbEntity
  8
TEXT
100
AcDbText
 10
0.7649260652580452
 20
13.45423347240871
 30
0.0
 40
0.2504006410434824
  1
   U.L. FILE #E203236
 41
0.75
  7
TXT
100
AcDbText
  0
CIRCLE
  5
4D85
330
1F
100
AcDbEntity
  8
OBJECT
100
AcDbCircle
 10
23.46250356053204
 20
10.64484300420963
 30
0.0
 40
0.1490000000000009
  0
CIRCLE
  5
4D86
330
1F
100
AcDbEntity
  8
OBJECT
100
AcDbCircle
 10
23.46250356053204
 20
10.64484300420963
 30
0.0
 40
0.2109999999999985
  0
CIRCLE
  5
4D87
330
1F
100
AcDbEntity
  8
OBJECT
100
AcDbCircle
 10
23.46250356053204
 20
10.64484300420963
 30
0.0
 40
0.370000000000001
  0
LINE
  5
4DC1
330
1F
100
AcDbEntity
  8
OBJECT
100
AcDbLine
 10
23.54890234524571
 20
10.83734300420963
 30
0.0
 11
23.37610477581837
 21
10.83734300420963
 31
0.0
  0
LINE
  5
4DC2
330
1F
100
AcDbEntity
  8
OBJECT
100
AcDbLine
 10
23.54890234524571
 20
10.45234300420963
 30
0.0
 11
23.37610477581837
 21
10.45234300420963
 31
0.0
  0
LINE
  5
4DC4
330
1F
100
AcDbEntity
  8
OBJECT
100
AcDbLine
 10
4.61237709465466
 20
11.52306719196303
 30
0.0
 11
0.8253770946546606
 21
11.52306719196304
 31
0.0
  0
LINE
  5
4DC5
330
1F
100
AcDbEntity
  8
OBJECT
100
AcDbLine
 10
4.61237709465466
 20
9.788067191963032
 30
0.0
 11
0.8253770946546606
 21
9.788067191963036
 31
0.0
  0
LINE
  5
4DC6
330
1F
100
AcDbEntity
  8
OBJECT
100
AcDbLine
 10
4.61237709465466
 20
11.52306719196303
 30
0.0
 11
4.61237709465466
 21
11.49206719196303
 31
0.0
  0
LINE
  5
4DC7
330
1F
100
AcDbEntity
  8
OBJECT
100
AcDbLine
 10
4.581377094654661
 20
11.47706719196304
 30
0.0
 11
4.581377094654661
 21
9.788067191963034
 31
0.0
  0
LINE
  5
4DC8
330
1F
100
AcDbEntity
  8
OBJECT
100
AcDbLine
 10
0.8253770946546606
 20
11.52306719196303
 30
0.0
 11
0.8253770946546606
 21
9.788067191963034
 31
0.0
  0
CIRCLE
  5
4DC9
330
1F
100
AcDbEntity
  8
0
100
AcDbCircle
 10
1.263377094654656
 20
10.03806719196304
 30
0.0
 40
0.1325000000000001
  0
LINE
  5
4DCA
330
1F
100
AcDbEntity
  8
0
100
AcDbLine
 10
1.193377094654648
 20
10.05806719196305
 30
0.0
 11
1.193377094654663
 21
10.01806719196303
 31
0.0
  0
LINE
  5
4DCB
330
1F
100
AcDbEntity
  8
0
100
AcDbLine
 10
1.333377094654649
 20
10.05806719196305
 30
0.0
 11
1.333377094654649
 21
10.01806719196303
 31
0.0
  0
LINE
  5
4DCC
330
1F
100
AcDbEntity
  8
0
100
AcDbLine
 10
1.283377094654638
 20
10.01806719196303
 30
0.0
 11
1.283377094654652
 21
9.968067191963042
 31
0.0
  0
LINE
  5
4DCD
330
1F
100
AcDbEntity
  8
0
100
AcDbLine
 10
1.243377094654674
 20
10.018067191963
 30
0.0
 11
1.24337709465466
 21
9.968067191963042
 31
0.0
  0
LINE
  5
4DCE
330
1F
100
AcDbEntity
  8
0
100
AcDbLine
 10
1.283377094654652
 20
9.968067191963042
 30
0.0
 11
1.243377094654646
 21
9.968067191963042
 31
0.0
  0
LINE
  5
4DCF
330
1F
100
AcDbEntity
  8
0
100
AcDbLine
 10
1.333377094654649
 20
10.01806719196303
 30
0.0
 11
1.283377094654652
 21
10.01806719196303
 31
0.0
  0
LINE
  5
4DD0
330
1F
100
AcDbEntity
  8
0
100
AcDbLine
 10
1.243377094654674
 20
10.01806719196303
 30
0.0
 11
1.193377094654663
 21
10.01806719196303
 31
0.0
  0
LINE
  5
4DD1
330
1F
100
AcDbEntity
  8
0
100
AcDbLine
 10
1.283377094654652
 20
10.108067191963
 30
0.0
 11
1.243377094654646
 21
10.10806719196303
 31
0.0
  0
LINE
  5
4DD2
330
1F
100
AcDbEntity
  8
0
100
AcDbLine
 10
1.333377094654649
 20
10.05806719196305
 30
0.0
 11
1.283377094654638
 21
10.05806719196307
 31
0.0
  0
LINE
  5
4DD3
330
1F
100
AcDbEntity
  8
0
100
AcDbLine
 10
1.24337709465466
 20
10.10806719196303
 30
0.0
 11
1.243377094654646
 21
10.05806719196307
 31
0.0
  0
LINE
  5
4DD4
330
1F
100
AcDbEntity
  8
0
100
AcDbLine
 10
1.283377094654652
 20
10.10806719196303
 30
0.0
 11
1.283377094654638
 21
10.05806719196302
 31
0.0
  0
LINE
  5
4DD5
330
1F
100
AcDbEntity
  8
0
100
AcDbLine
 10
1.243377094654646
 20
10.05806719196305
 30
0.0
 11
1.193377094654663
 21
10.05806719196305
 31
0.0
  0
CIRCLE
  5
4DD9
330
1F
100
AcDbEntity
  8
0
100
AcDbCircle
 10
4.174377094654661
 20
10.03806719196304
 30
0.0
 40
0.1325000000000003
  0
LINE
  5
4DDA
330
1F
100
AcDbEntity
  8
0
100
AcDbLine
 10
4.244377094654668
 20
10.05806719196305
 30
0.0
 11
4.244377094654654
 21
10.01806719196303
 31
0.0
  0
LINE
  5
4DDB
330
1F
100
AcDbEntity
  8
0
100
AcDbLine
 10
4.104377094654668
 20
10.05806719196305
 30
0.0
 11
4.104377094654668
 21
10.01806719196303
 31
0.0
  0
LINE
  5
4DDC
330
1F
100
AcDbEntity
  8
0
100
AcDbLine
 10
4.154377094654679
 20
10.01806719196303
 30
0.0
 11
4.154377094654665
 21
9.968067191963042
 31
0.0
  0
LINE
  5
4DDD
330
1F
100
AcDbEntity
  8
0
100
AcDbLine
 10
4.194377094654643
 20
10.018067191963
 30
0.0
 11
4.194377094654657
 21
9.968067191963042
 31
0.0
  0
LINE
  5
4DDE
330
1F
100
AcDbEntity
  8
0
100
AcDbLine
 10
4.154377094654665
 20
9.968067191963042
 30
0.0
 11
4.194377094654671
 21
9.968067191963042
 31
0.0
  0
LINE
  5
4DDF
330
1F
100
AcDbEntity
  8
0
100
AcDbLine
 10
4.104377094654668
 20
10.01806719196303
 30
0.0
 11
4.154377094654665
 21
10.01806719196303
 31
0.0
  0
LINE
  5
4DE0
330
1F
100
AcDbEntity
  8
0
100
AcDbLine
 10
4.194377094654643
 20
10.01806719196303
 30
0.0
 11
4.244377094654654
 21
10.01806719196303
 31
0.0
  0
LINE
  5
4DE1
330
1F
100
AcDbEntity
  8
0
100
AcDbLine
 10
4.154377094654665
 20
10.108067191963
 30
0.0
 11
4.194377094654671
 21
10.10806719196303
 31
0.0
  0
LINE
  5
4DE2
330
1F
100
AcDbEntity
  8
0
100
AcDbLine
 10
4.104377094654668
 20
10.05806719196305
 30
0.0
 11
4.154377094654679
 21
10.05806719196307
 31
0.0
  0
LINE
  5
4DE3
330
1F
100
AcDbEntity
  8
0
100
AcDbLine
 10
4.194377094654657
 20
10.10806719196303
 30
0.0
 11
4.194377094654671
 21
10.05806719196307
 31
0.0
  0
LINE
  5
4DE4
330
1F
100
AcDbEntity
  8
0
100
AcDbLine
 10
4.154377094654665
 20
10.10806719196303
 30
0.0
 11
4.154377094654679
 21
10.05806719196302
 31
0.0
  0
LINE
  5
4DE5
330
1F
100
AcDbEntity
  8
0
100
AcDbLine
 10
4.194377094654671
 20
10.05806719196305
 30
0.0
 11
4.244377094654654
 21
10.05806719196305
 31
0.0
  0
LINE
  5
4E37
330
1F
100
AcDbEntity
  8
OBJECT
100
AcDbLine
 10
24.10449085810003
 20
11.23034300420963
 30
0.0
 11
24.10449085810003
 21
10.05934300420963
 31
0.0
  0
LINE
  5
4E38
330
1F
100
AcDbEntity
  8
OBJECT
100
AcDbLine
 10
24.68249085810003
 20
11.23034300420963
 30
0.0
 11
24.68249085810003
 21
10.05934300420963
 31
0.0
  0
LINE
  5
4E39
330
1F
100
AcDbEntity
  8
OBJECT
100
AcDbLine
 10
24.08099085810003
 20
11.25384300420964
 30
0.0
 11
24.10449085810003
 21
11.23034300420963
 31
0.0
  0
LINE
  5
4E3A
330
1F
100
AcDbEntity
  8
OBJECT
100
AcDbLine
 10
24.10449085810003
 20
11.23034300420964
 30
0.0
 11
24.68249085810003
 21
11.23034300420963
 31
0.0
  0
LINE
  5
4E3B
330
1F
100
AcDbEntity
  8
OBJECT
100
AcDbLine
 10
24.70599085810003
 20
11.25384300420964
 30
0.0
 11
24.68249085810003
 21
11.23034300420963
 31
0.0
  0
LINE
  5
4E3C
330
1F
100
AcDbEntity
  8
OBJECT
100
AcDbLine
 10
24.08099085810003
 20
10.03584300420963
 30
0.0
 11
24.10449085810003
 21
10.05934300420963
 31
0.0
  0
LINE
  5
4E3D
330
1F
100
AcDbEntity
  8
OBJECT
100
AcDbLine
 10
24.10449085810003
 20
10.05934300420963
 30
0.0
 11
24.68249085810003
 21
10.05934300420963
 31
0.0
  0
LINE
  5
4E3E
330
1F
100
AcDbEntity
  8
OBJECT
100
AcDbLine
 10
24.70599085810003
 20
10.03584300420963
 30
0.0
 11
24.68249085810003
 21
10.05934300420963
 31
0.0
  0
LINE
  5
4E3F
330
1F
100
AcDbEntity
  8
OBJECT
100
AcDbLine
 10
24.20449085810003
 20
11.05234300420964
 30
0.0
 11
24.20449085810003
 21
10.23734300420963
 31
0.0
  0
LINE
  5
4E40
330
1F
100
AcDbEntity
  8
OBJECT
100
AcDbLine
 10
24.58249085810003
 20
11.05234300420964
 30
0.0
 11
24.58249085810003
 21
10.23734300420963
 31
0.0
  0
LINE
  5
4E41
330
1F
100
AcDbEntity
  8
OBJECT
100
AcDbLine
 10
24.58249085810003
 20
11.05234300420964
 30
0.0
 11
24.20449085810003
 21
11.05234300420964
 31
0.0
  0
LINE
  5
4E42
330
1F
100
AcDbEntity
  8
OBJECT
100
AcDbLine
 10
24.58249085810003
 20
10.23734300420963
 30
0.0
 11
24.20449085810003
 21
10.23734300420963
 31
0.0
  0
LINE
  5
4E45
330
1F
100
AcDbEntity
  8
OBJECT
100
AcDbLine
 10
24.58249085810003
 20
10.59434300420963
 30
0.0
 11
24.20449085810003
 21
10.59434300420963
 31
0.0
  0
LINE
  5
4E46
330
1F
100
AcDbEntity
  8
OBJECT
100
AcDbLine
 10
24.58249085810003
 20
10.87534300420964
 30
0.0
 11
24.20449085810003
 21
10.87534300420964
 31
0.0
  0
CIRCLE
  5
4E47
330
1F
100
AcDbEntity
  8
OBJECT
100
AcDbCircle
 10
24.39349085810003
 20
11.14134300420964
 30
0.0
 40
0.0375000000000014
  0
LINE
  5
4E49
330
1F
100
AcDbEntity
  8
0
100
AcDbLine
 10
7.924990858100067
 20
13.56180382294295
 30
0.0
 11
7.970990858100066
 21
13.56180382294295
 31
0.0
  0
LINE
  5
4E4B
330
1F
100
AcDbEntity
  8
0
100
AcDbLine
 10
7.970990858100066
 20
13.51080382294294
 30
0.0
 11
7.970990858100066
 21
13.56180382294295
 31
0.0
  0
LINE
  5
4E4C
330
1F
100
AcDbEntity
  8
0
100
AcDbLine
 10
26.08099085810008
 20
13.54680382294294
 30
0.0
 11
25.19099085810009
 21
13.54680382294294
 31
0.0
  0
LINE
  5
4E4D
330
1F
100
AcDbEntity
  8
0
100
AcDbLine
 10
26.08099085810008
 20
13.51080382294294
 30
0.0
 11
26.08099085810008
 21
13.54680382294294
 31
0.0
  0
LINE
  5
4E4E
330
1F
100
AcDbEntity
  8
0
100
AcDbLine
 10
25.23699085810009
 20
13.56180382294295
 30
0.0
 11
25.19099085810009
 21
13.56180382294295
 31
0.0
  0
LINE
  5
4E4F
330
1F
100
AcDbEntity
  8
0
100
AcDbLine
 10
25.19099085810009
 20
13.51080382294294
 30
0.0
 11
25.19099085810009
 21
13.56180382294295
 31
0.0
  0
LINE
  5
4E50
330
1F
100
AcDbEntity
  8
0
100
AcDbLine
 10
25.23699085810009
 20
13.56180382294294
 30
0.0
 11
25.23699085810008
 21
17.2978038229429
 31
0.0
  0
LINE
  5
4E51
330
1F
100
AcDbEntity
  8
OBJECT
100
AcDbLine
 10
4.61237709465466
 20
11.49206719196303
 30
0.0
 11
4.56637709465466
 21
11.49206719196303
 31
0.0
  0
LINE
  5
4E52
330
1F
100
AcDbEntity
  8
OBJECT
100
AcDbLine
 10
4.61237709465466
 20
11.47706719196303
 30
0.0
 11
4.56637709465466
 21
11.47706719196304
 31
0.0
  0
LINE
  5
4E6B
330
1F
100
AcDbEntity
  8
OBJECT
100
AcDbLine
 10
4.61237709465466
 20
11.47706719196304
 30
0.0
 11
4.61237709465466
 21
9.788067191963034
 31
0.0
  0
LINE
  5
4E6C
330
1F
100
AcDbEntity
  8
OBJECT
100
AcDbLine
 10
4.56637709465466
 20
11.52306719196303
 30
0.0
 11
4.56637709465466
 21
9.788067191963034
 31
0.0
  0
LINE
  5
4E6E
330
1F
100
AcDbEntity
  8
OBJECT
100
AcDbLine
 10
4.581377094654661
 20
11.44606719196304
 30
0.0
 11
4.566377094654657
 21
11.44606719196304
 31
0.0
  0
LINE
  5
4E72
330
1F
100
AcDbEntity
  8
OBJECT
100
AcDbLine
 10
23.09250356053204
 20
13.37580382294294
 30
0.0
 11
23.09250356053204
 21
13.51080382294294
 31
0.0
  0
LINE
  5
4E73
330
1F
100
AcDbEntity
  8
OBJECT
100
AcDbLine
 10
23.83250356053205
 20
13.37580382294294
 30
0.0
 11
23.83250356053204
 21
13.51080382294294
 31
0.0
  0
LINE
  5
4E74
330
1F
100
AcDbEntity
  8
OBJECT
100
AcDbLine
 10
23.25150356053204
 20
13.23580382294294
 30
0.0
 11
23.25150356053204
 21
13.37580382294294
 31
0.0
  0
LINE
  5
4E75
330
1F
100
AcDbEntity
  8
OBJECT
100
AcDbLine
 10
23.67350356053204
 20
13.23580382294294
 30
0.0
 11
23.67350356053204
 21
13.37580382294294
 31
0.0
  0
LINE
  5
4E76
330
1F
100
AcDbEntity
  8
OBJECT
100
AcDbLine
 10
23.31350356053204
 20
13.20705382294294
 30
0.0
 11
23.31350356053204
 21
13.23580382294294
 31
0.0
  0
LINE
  5
4E77
330
1F
100
AcDbEntity
  8
OBJECT
100
AcDbLine
 10
23.61150356053204
 20
13.20705382294294
 30
0.0
 11
23.61150356053204
 21
13.23580382294294
 31
0.0
  0
LINE
  5
4E7C
330
1F
100
AcDbEntity
  8
OBJECT
100
AcDbLine
 10
24.20449085810003
 20
13.21480382294294
 30
0.0
 11
24.20449085810003
 21
13.43280382294294
 31
0.0
  0
LINE
  5
4E7D
330
1F
100
AcDbEntity
  8
OBJECT
100
AcDbLine
 10
24.58249085810003
 20
13.21480382294294
 30
0.0
 11
24.58249085810003
 21
13.43280382294294
 31
0.0
  0
LINE
  5
4E82
330
1F
100
AcDbEntity
  8
OBJECT
100
AcDbLine
 10
7.924990858100067
 20
11.51234300420963
 30
0.0
 11
25.23699085810009
 21
11.51234300420963
 31
0.0
  0
LINE
  5
4E83
330
1F
100
AcDbEntity
  8
OBJECT
100
AcDbLine
 10
7.970990858100066
 20
11.51234300420963
 30
0.0
 11
7.970990858100066
 21
11.48134300420964
 31
0.0
  0
LINE
  5
4E84
330
1F
100
AcDbEntity
  8
OBJECT
100
AcDbLine
 10
7.924990858100067
 20
11.51234300420963
 30
0.0
 11
7.924990858100067
 21
11.46634300420963
 31
0.0
  0
LINE
  5
4E85
330
1F
100
AcDbEntity
  8
OBJECT
100
AcDbLine
 10
7.955990858100066
 20
11.48134300420964
 30
0.0
 11
25.20599085810009
 21
11.4813430042096
 31
0.0
  0
LINE
  5
4E86
330
1F
100
AcDbEntity
  8
OBJECT
100
AcDbLine
 10
7.955990858100066
 20
11.48134300420964
 30
0.0
 11
7.955990858100066
 21
11.46634300420963
 31
0.0
  0
LINE
  5
4E87
330
1F
100
AcDbEntity
  8
OBJECT
100
AcDbLine
 10
26.08099085810007
 20
11.34134300420963
 30
0.0
 11
26.08099085810007
 21
9.902343004209634
 31
0.0
  0
ARC
  5
4E88
330
1F
100
AcDbEntity
  8
OBJECT
100
AcDbCircle
 10
25.95599085810007
 20
11.34134300420963
 30
0.0
 40
0.125
100
AcDbArc
 50
0.0
 51
89.99999999999999
  0
LINE
  5
4E89
330
1F
100
AcDbEntity
  8
OBJECT
100
AcDbLine
 10
25.20599085810009
 20
11.48134300420964
 30
0.0
 11
25.20599085810009
 21
11.46634300420963
 31
0.0
  0
LINE
  5
4E8A
330
1F
100
AcDbEntity
  8
OBJECT
100
AcDbLine
 10
25.19099085810009
 20
11.51234300420963
 30
0.0
 11
25.19099085810009
 21
11.48134300420964
 31
0.0
  0
LINE
  5
4E8B
330
1F
100
AcDbEntity
  8
OBJECT
100
AcDbLine
 10
25.23699085810009
 20
11.51234300420963
 30
0.0
 11
25.23699085810009
 21
11.46634300420963
 31
0.0
  0
LINE
  5
4E8D
330
1F
100
AcDbEntity
  8
0
100
AcDbLine
 10
7.970990858100066
 20
7.13558016631422
 30
0.0
 11
7.97099085810008
 21
3.514580166314259
 31
0.0
  0
LINE
  5
4E8F
330
1F
100
AcDbEntity
  8
0
100
AcDbLine
 10
7.924990858100067
 20
7.250580166314222
 30
0.0
 11
7.955990858100066
 21
7.250580166314222
 31
0.0
  0
LINE
  5
4E91
330
1F
100
AcDbEntity
  8
0
100
AcDbLine
 10
8.016990858100066
 20
7.265580166314219
 30
0.0
 11
8.016990858100066
 21
7.13558016631422
 31
0.0
  0
LINE
  5
4E92
330
1F
100
AcDbEntity
  8
0
100
AcDbLine
 10
7.970990858100066
 20
7.13558016631422
 30
0.0
 11
8.016990858100066
 21
7.13558016631422
 31
0.0
  0
LINE
  5
4E93
330
1F
100
AcDbEntity
  8
0
100
AcDbLine
 10
25.19099085810009
 20
7.13558016631422
 30
0.0
 11
25.19099085810008
 21
3.514580166314259
 31
0.0
  0
LINE
  5
4E94
330
1F
100
AcDbEntity
  8
0
100
AcDbLine
 10
25.20599085810009
 20
7.250580166314222
 30
0.0
 11
25.20599085810008
 21
3.514580166314259
 31
0.0
  0
LINE
  5
4E95
330
1F
100
AcDbEntity
  8
0
100
AcDbLine
 10
25.23699085810009
 20
7.25058016631422
 30
0.0
 11
25.23699085810008
 21
3.514580166314259
 31
0.0
  0
LINE
  5
4E96
330
1F
100
AcDbEntity
  8
0
100
AcDbLine
 10
26.08099085810008
 20
7.265580166314223
 30
0.0
 11
25.14499085810009
 21
7.265580166314219
 31
0.0
  0
LINE
  5
4E97
330
1F
100
AcDbEntity
  8
0
100
AcDbLine
 10
26.08099085810008
 20
7.301580166314224
 30
0.0
 11
26.08099085810008
 21
7.265580166314223
 31
0.0
  0
LINE
  5
4E98
330
1F
100
AcDbEntity
  8
0
100
AcDbLine
 10
25.14499085810009
 20
7.265580166314219
 30
0.0
 11
25.14499085810009
 21
7.13558016631422
 31
0.0
  0
LINE
  5
4E99
330
1F
100
AcDbEntity
  8
0
100
AcDbLine
 10
25.19099085810009
 20
7.13558016631422
 30
0.0
 11
25.14499085810009
 21
7.13558016631422
 31
0.0
  0
LINE
  5
4E9A
330
1F
100
AcDbEntity
  8
0
100
AcDbLine
 10
25.23699085810009
 20
7.250580166314222
 30
0.0
 11
25.20599085810009
 21
7.250580166314222
 31
0.0
  0
LINE
  5
4E9C
330
1F
100
AcDbEntity
  8
OBJECT
100
AcDbLine
 10
7.080990858100087
 20
0.9097116597036816
 30
0.0
 11
7.080990858100087
 21
2.348711659703682
 31
0.0
  0
LWPOLYLINE
  5
4E9D
330
1F
100
AcDbEntity
  8
OBJECT
100
AcDbPolyline
 90
        4
 70
     1
 43
0.0
 10
7.322990858100077
 20
0.8567116597036772
 42
-1.0
 10
7.322990858100077
 20
1.122711659703668
 10
7.462990858100078
 20
1.122711659703668
 42
-1.0
 10
7.462990858100078
 20
0.8567116597036772
  0
LWPOLYLINE
  5
4E9E
330
1F
100
AcDbEntity
  8
OBJECT
100
AcDbPolyline
 90
        4
 70
     1
 43
0.0
 10
7.322990858100077
 20
2.106711659703677
 42
-1.0
 10
7.322990858100077
 20
2.372711659703668
 10
7.462990858100078
 20
2.372711659703668
 42
-1.0
 10
7.462990858100078
 20
2.106711659703677
  0
ARC
  5
4E9F
330
1F
100
AcDbEntity
  8
OBJECT
100
AcDbCircle
 10
7.205990858100087
 20
2.348711659703682
 30
0.0
 40
0.125
100
AcDbArc
 50
90.00000000000003
 51
180.0
  0
ARC
  5
4EA0
330
1F
100
AcDbEntity
  8
OBJECT
100
AcDbCircle
 10
7.205990858100087
 20
0.9097116597036816
 30
0.0
 40
0.125
100
AcDbArc
 50
180.0
 51
270.0
  0
LINE
  5
4EA1
330
1F
100
AcDbEntity
  8
OBJECT
100
AcDbLine
 10
7.205990858100087
 20
0.7847116597036816
 30
0.0
 11
7.924990858100067
 21
0.7847116597036816
 31
0.0
  0
LINE
  5
4EA2
330
1F
100
AcDbEntity
  8
OBJECT
100
AcDbLine
 10
7.205990858100087
 20
2.473711659703682
 30
0.0
 11
25.95599085810007
 21
2.473711659703682
 31
0.0
  0
LINE
  5
4EA3
330
1F
100
AcDbEntity
  8
OBJECT
100
AcDbLine
 10
7.924990858100067
 20
0.7387116597036805
 30
0.0
 11
25.23699085810009
 21
0.7387116597036805
 31
0.0
  0
LINE
  5
4EA4
330
1F
100
AcDbEntity
  8
OBJECT
100
AcDbLine
 10
7.955990858100066
 20
0.7697116597036793
 30
0.0
 11
7.955990858100066
 21
0.7847116597036816
 31
0.0
  0
LINE
  5
4EA5
330
1F
100
AcDbEntity
  8
OBJECT
100
AcDbLine
 10
7.970990858100066
 20
0.7847116597036816
 30
0.0
 11
7.970990858100116
 21
2.473711659703681
 31
0.0
  0
LINE
  5
4EA6
330
1F
100
AcDbEntity
  8
OBJECT
100
AcDbLine
 10
7.924990858100067
 20
0.7387116597036805
 30
0.0
 11
7.924990858100067
 21
0.7847116597036816
 31
0.0
  0
LINE
  5
4EA7
330
1F
100
AcDbEntity
  8
OBJECT
100
AcDbLine
 10
26.08099085810007
 20
0.9097116597036816
 30
0.0
 11
26.08099085810007
 21
2.348711659703682
 31
0.0
  0
LWPOLYLINE
  5
4EA8
330
1F
100
AcDbEntity
  8
OBJECT
100
AcDbPolyline
 90
        4
 70
     1
 43
0.0
 10
25.8389908581001
 20
0.8567116597036772
 42
1.0
 10
25.83899085810008
 20
1.122711659703668
 10
25.69899085810008
 20
1.122711659703668
 42
1.0
 10
25.69899085810008
 20
0.8567116597036772
  0
LWPOLYLINE
  5
4EA9
330
1F
100
AcDbEntity
  8
OBJECT
100
AcDbPolyline
 90
        4
 70
     1
 43
0.0
 10
25.83899085810008
 20
2.106711659703677
 42
1.0
 10
25.83899085810008
 20
2.372711659703668
 10
25.69899085810008
 20
2.372711659703668
 42
1.0
 10
25.69899085810008
 20
2.106711659703677
  0
ARC
  5
4EAA
330
1F
100
AcDbEntity
  8
OBJECT
100
AcDbCircle
 10
25.95599085810007
 20
2.348711659703682
 30
0.0
 40
0.125
100
AcDbArc
 50
0.0
 51
90.00000000000003
  0
ARC
  5
4EAB
330
1F
100
AcDbEntity
  8
OBJECT
100
AcDbCircle
 10
25.95599085810007
 20
0.9097116597036816
 30
0.0
 40
0.125
100
AcDbArc
 50
270.0
 51
0.0
  0
LINE
  5
4EB0
330
1F
100
AcDbEntity
  8
OBJECT
100
AcDbLine
 10
7.955990858100066
 20
0.769711659703681
 30
0.0
 11
25.20599085810009
 21
0.769711659703681
 31
0.0
  0
LINE
  5
4EB1
330
1F
100
AcDbEntity
  8
OBJECT
100
AcDbLine
 10
7.970990858100066
 20
0.7847116597036816
 30
0.0
 11
25.19099085810009
 21
0.7847116597036816
 31
0.0
  0
LINE
  5
4EB2
330
1F
100
AcDbEntity
  8
OBJECT
100
AcDbLine
 10
25.19099085810009
 20
0.7847116597036816
 30
0.0
 11
25.19099085810004
 21
2.473711659703681
 31
0.0
  0
LINE
  5
4EB3
330
1F
100
AcDbEntity
  8
0
100
AcDbLine
 10
25.20599085810008
 20
2.473711659703681
 30
0.0
 11
25.20599085810009
 21
0.769711659703681
 31
0.0
  0
LINE
  5
4EB4
330
1F
100
AcDbEntity
  8
0
100
AcDbLine
 10
25.23699085810008
 20
2.473711659703682
 30
0.0
 11
25.23699085810009
 21
0.7472116597036802
 31
0.0
  0
LINE
  5
4EB5
330
1F
100
AcDbEntity
  8
OBJECT
100
AcDbLine
 10
25.23699085810009
 20
0.7387116597036805
 30
0.0
 11
25.23699085810009
 21
0.7847116597036816
 31
0.0
  0
LINE
  5
4EB6
330
1F
100
AcDbEntity
  8
OBJECT
100
AcDbLine
 10
25.20599085810009
 20
0.7697116597036793
 30
0.0
 11
25.20599085810009
 21
0.7847116597036816
 31
0.0
  0
LINE
  5
4EB7
330
1F
100
AcDbEntity
  8
OBJECT
100
AcDbLine
 10
25.23699085810009
 20
0.7847116597036816
 30
0.0
 11
25.95599085810007
 21
0.7847116597036816
 31
0.0
  0
LINE
  5
4EB9
330
1F
100
AcDbEntity
  8
0
100
AcDbLine
 10
23.09250356053204
 20
13.37580382294294
 30
0.0
 11
23.83250356053205
 21
13.37580382294294
 31
0.0
  0
LINE
  5
4EBA
330
1F
100
AcDbEntity
  8
0
100
AcDbLine
 10
23.25150356053204
 20
13.23580382294294
 30
0.0
 11
23.67350356053204
 21
13.23580382294294
 31
0.0
  0
LINE
  5
4EBB
330
1F
100
AcDbEntity
  8
0
100
AcDbLine
 10
23.34475356053204
 20
13.17580382294294
 30
0.0
 11
23.58025356053204
 21
13.17580382294294
 31
0.0
  0
ARC
  5
4EBC
330
1F
100
AcDbEntity
  8
0
100
AcDbCircle
 10
23.58025356053204
 20
13.20705382294294
 30
0.0
 40
0.03125
100
AcDbArc
 50
270.000000000011
 51
359.999999999998
  0
LINE
  5
4EBE
330
1F
100
AcDbEntity
  8
OBJECT
100
AcDbLine
 10
23.37610477581837
 20
13.23580382294294
 30
0.0
 11
23.37610477581837
 21
13.37580382294294
 31
0.0
  0
LINE
  5
4EBF
330
1F
100
AcDbEntity
  8
OBJECT
100
AcDbLine
 10
23.54890234524571
 20
13.23580382294294
 30
0.0
 11
23.54890234524571
 21
13.37580382294294
 31
0.0
  0
LINE
  5
4EC0
330
1F
100
AcDbEntity
  8
0
100
AcDbLine
 10
24.10449085810004
 20
13.43280382294294
 30
0.0
 11
24.68249085810003
 21
13.43280382294294
 31
0.0
  0
LINE
  5
4EC2
330
1F
100
AcDbEntity
  8
OBJECT
100
AcDbLine
 10
24.08099085810003
 20
13.51080382294294
 30
0.0
 11
24.10449085810003
 21
13.43280382294294
 31
0.0
  0
LINE
  5
4EC3
330
1F
100
AcDbEntity
  8
OBJECT
100
AcDbLine
 10
24.68249085810003
 20
13.43280382294294
 30
0.0
 11
24.70599085810003
 21
13.51080382294294
 31
0.0
  0
LINE
  5
4EC4
330
1F
100
AcDbEntity
  8
0
100
AcDbLine
 10
24.20449085810003
 20
13.21480382294294
 30
0.0
 11
24.58249085810003
 21
13.21480382294294
 31
0.0
  0
LINE
  5
4ECB
330
1F
100
AcDbEntity
  8
0
100
AcDbLine
 10
4.64362709465466
 20
10.50556719196303
 30
0.0
 11
4.64362709465466
 21
10.80556719196302
 31
0.0
  0
ARC
  5
4ECC
330
1F
100
AcDbEntity
  8
OBJECT
100
AcDbCircle
 10
4.68237709465466
 20
10.65556719196303
 30
0.0
 40
0.0950000000000006
100
AcDbArc
 50
270.0
 51
90.0
  0
LINE
  5
4ECD
330
1F
100
AcDbEntity
  8
0
100
AcDbLine
 10
4.64362709465466
 20
10.50556719196303
 30
0.0
 11
4.61237709465466
 21
10.50556719196304
 31
0.0
  0
LINE
  5
4ECE
330
1F
100
AcDbEntity
  8
OBJECT
100
AcDbLine
 10
4.68237709465466
 20
10.56056719196303
 30
0.0
 11
4.64362709465466
 21
10.56056719196303
 31
0.0
  0
LINE
  5
4ECF
330
1F
100
AcDbEntity
  8
0
100
AcDbLine
 10
4.64362709465466
 20
10.80556719196302
 30
0.0
 11
4.61237709465466
 21
10.80556719196304
 31
0.0
  0
LINE
  5
4ED0
330
1F
100
AcDbEntity
  8
OBJECT
100
AcDbLine
 10
4.68237709465466
 20
10.75056719196303
 30
0.0
 11
4.64362709465466
 21
10.75056719196303
 31
0.0
  0
LINE
  5
4ED1
330
1F
100
AcDbEntity
  8
OBJECT
100
AcDbLine
 10
4.91612709465466
 20
10.80456719196303
 30
0.0
 11
4.887377094654658
 21
10.80456719196303
 31
0.0
  0
LINE
  5
4ED2
330
1F
100
AcDbEntity
  8
OBJECT
100
AcDbLine
 10
4.916127094654657
 20
10.50656719196302
 30
0.0
 11
4.887377094654658
 21
10.50656719196302
 31
0.0
  0
LINE
  5
4ED3
330
1F
100
AcDbEntity
  8
0
100
AcDbLine
 10
4.947377094654657
 20
10.53781719196302
 30
0.0
 11
4.947377094654657
 21
10.77331719196303
 31
0.0
  0
ARC
  5
4ED4
330
1F
100
AcDbEntity
  8
0
100
AcDbCircle
 10
4.91612709465466
 20
10.53781719196302
 30
0.0
 40
0.03125
100
AcDbArc
 50
270.0000000000016
 51
359.9999999999886
  0
ARC
  5
4ED5
330
1F
100
AcDbEntity
  8
0
100
AcDbCircle
 10
4.91612709465466
 20
10.77331719196303
 30
0.0
 40
0.03125
100
AcDbArc
 50
0.0000000000097707
 51
89.99999999999675
  0
LINE
  5
4ED6
330
1F
100
AcDbEntity
  8
0
100
AcDbLine
 10
4.747377094654658
 20
10.28556719196302
 30
0.0
 11
4.747377094654658
 21
10.58628515966027
 31
0.0
  0
LINE
  5
4ED7
330
1F
100
AcDbEntity
  8
0
100
AcDbLine
 10
4.887377094654658
 20
10.44456719196303
 30
0.0
 11
4.887377094654658
 21
10.86656719196302
 31
0.0
  0
LINE
  5
4ED9
330
1F
100
AcDbEntity
  8
OBJECT
100
AcDbLine
 10
4.887377094654658
 20
10.44456719196302
 30
0.0
 11
4.747377094654658
 21
10.44456719196303
 31
0.0
  0
LINE
  5
4EDA
330
1F
100
AcDbEntity
  8
OBJECT
100
AcDbLine
 10
4.747377094654658
 20
10.28556719196302
 30
0.0
 11
4.737377094654688
 21
10.28556719196302
 31
0.0
  0
LINE
  5
4EDC
330
1F
100
AcDbEntity
  8
OBJECT
100
AcDbLine
 10
4.887377094654658
 20
10.86656719196302
 30
0.0
 11
4.747377094654654
 21
10.86656719196302
 31
0.0
  0
LINE
  5
4EDD
330
1F
100
AcDbEntity
  8
OBJECT
100
AcDbLine
 10
4.747377094654658
 20
11.02556719196303
 30
0.0
 11
4.737377094654688
 21
11.02556719196303
 31
0.0
  0
LINE
  5
4EDE
330
1F
100
AcDbEntity
  8
0
100
AcDbLine
 10
4.747377094654658
 20
10.72484922426579
 30
0.0
 11
4.747377094654658
 21
11.02556719196303
 31
0.0
  0
LINE
  5
4F0F
330
1F
100
AcDbEntity
  8
0
100
AcDbLine
 10
27.56442867533595
 20
11.23034300420963
 30
0.0
 11
27.56442867533595
 21
10.05934300420963
 31
0.0
  0
LINE
  5
4F11
330
1F
100
AcDbEntity
  8
OBJECT
100
AcDbLine
 10
27.64242867533595
 20
11.25384300420964
 30
0.0
 11
27.56442867533595
 21
11.23034300420964
 31
0.0
  0
LINE
  5
4F13
330
1F
100
AcDbEntity
  8
OBJECT
100
AcDbLine
 10
27.56442867533595
 20
10.05934300420964
 30
0.0
 11
27.64242867533595
 21
10.03584300420963
 31
0.0
  0
LINE
  5
4F1D
330
1F
100
AcDbEntity
  8
OBJECT
100
AcDbLine
 10
27.47242867533595
 20
10.23734300420964
 30
0.0
 11
27.56442867533595
 21
10.23734300420964
 31
0.0
  0
LINE
  5
4F20
330
1F
100
AcDbEntity
  8
0
100
AcDbLine
 10
27.47242867533596
 20
10.59434300420962
 30
0.0
 11
27.47242867533596
 21
10.23734300420964
 31
0.0
  0
LINE
  5
4F21
330
1F
100
AcDbEntity
  8
OBJECT
100
AcDbLine
 10
27.34642867533595
 20
10.87534300420964
 30
0.0
 11
27.56442867533595
 21
11.05234300420964
 31
0.0
  0
LINE
  5
4F22
330
1F
100
AcDbEntity
  8
OBJECT
100
AcDbLine
 10
27.34642867533595
 20
10.87534300420964
 30
0.0
 11
27.47242867533596
 21
10.59434300420963
 31
0.0
  0
LINE
  5
4F25
330
1F
100
AcDbEntity
  8
0
100
AcDbLine
 10
24.20449085810003
 20
7.597580166314225
 30
0.0
 11
24.58249085810003
 21
7.597580166314225
 31
0.0
  0
LINE
  5
4F26
330
1F
100
AcDbEntity
  8
0
100
AcDbLine
 10
24.10449085810004
 20
7.379580166314225
 30
0.0
 11
24.68249085810003
 21
7.379580166314225
 31
0.0
  0
LINE
  5
4F27
330
1F
100
AcDbEntity
  8
0
100
AcDbLine
 10
23.09250356053204
 20
7.436580166314222
 30
0.0
 11
23.83250356053205
 21
7.436580166314222
 31
0.0
  0
LINE
  5
4F28
330
1F
100
AcDbEntity
  8
0
100
AcDbLine
 10
23.34475356053204
 20
7.636580166314221
 30
0.0
 11
23.58025356053204
 21
7.636580166314223
 31
0.0
  0
LINE
  5
4F29
330
1F
100
AcDbEntity
  8
0
100
AcDbLine
 10
23.25150356053204
 20
7.576580166314223
 30
0.0
 11
23.67350356053204
 21
7.576580166314223
 31
0.0
  0
LINE
  5
4F2A
330
1F
100
AcDbEntity
  8
OBJECT
100
AcDbLine
 10
23.37610477581837
 20
7.576580166314223
 30
0.0
 11
23.37610477581837
 21
7.436580166314222
 31
0.0
  0
LINE
  5
4F2B
330
1F
100
AcDbEntity
  8
OBJECT
100
AcDbLine
 10
23.31350356053204
 20
7.605330166314223
 30
0.0
 11
23.31350356053204
 21
7.576580166314223
 31
0.0
  0
LINE
  5
4F2C
330
1F
100
AcDbEntity
  8
OBJECT
100
AcDbLine
 10
23.25150356053204
 20
7.576580166314224
 30
0.0
 11
23.25150356053204
 21
7.436580166314222
 31
0.0
  0
LINE
  5
4F2D
330
1F
100
AcDbEntity
  8
OBJECT
100
AcDbLine
 10
23.09250356053204
 20
7.436580166314222
 30
0.0
 11
23.09250356053204
 21
7.301580166314226
 31
0.0
  0
ARC
  5
4F2E
330
1F
100
AcDbEntity
  8
0
100
AcDbCircle
 10
23.34475356053204
 20
7.605330166314223
 30
0.0
 40
0.03125
100
AcDbArc
 50
90.00000000001303
 51
180.0
  0
LINE
  5
4F2F
330
1F
100
AcDbEntity
  8
OBJECT
100
AcDbLine
 10
23.54890234524571
 20
7.576580166314223
 30
0.0
 11
23.54890234524571
 21
7.436580166314222
 31
0.0
  0
ARC
  5
4F30
330
1F
100
AcDbEntity
  8
0
100
AcDbCircle
 10
23.58025356053204
 20
7.605330166314223
 30
0.0
 40
0.03125
100
AcDbArc
 50
0.0000000000016284
 51
89.9999999999886
  0
LINE
  5
4F31
330
1F
100
AcDbEntity
  8
OBJECT
100
AcDbLine
 10
23.61150356053204
 20
7.605330166314225
 30
0.0
 11
23.61150356053204
 21
7.576580166314223
 31
0.0
  0
LINE
  5
4F32
330
1F
100
AcDbEntity
  8
OBJECT
100
AcDbLine
 10
23.67350356053204
 20
7.576580166314223
 30
0.0
 11
23.67350356053204
 21
7.43658016631422
 31
0.0
  0
LINE
  5
4F33
330
1F
100
AcDbEntity
  8
OBJECT
100
AcDbLine
 10
23.83250356053205
 20
7.436580166314222
 30
0.0
 11
23.83250356053204
 21
7.301580166314226
 31
0.0
  0
LINE
  5
4F34
330
1F
100
AcDbEntity
  8
OBJECT
100
AcDbLine
 10
24.08099085810003
 20
7.301580166314226
 30
0.0
 11
24.10449085810003
 21
7.379580166314225
 31
0.0
  0
LINE
  5
4F35
330
1F
100
AcDbEntity
  8
OBJECT
100
AcDbLine
 10
24.20449085810003
 20
7.597580166314225
 30
0.0
 11
24.20449085810003
 21
7.379580166314224
 31
0.0
  0
LINE
  5
4F36
330
1F
100
AcDbEntity
  8
OBJECT
100
AcDbLine
 10
24.68249085810003
 20
7.379580166314225
 30
0.0
 11
24.70599085810003
 21
7.301580166314224
 31
0.0
  0
LINE
  5
4F37
330
1F
100
AcDbEntity
  8
OBJECT
100
AcDbLine
 10
24.58249085810003
 20
7.597580166314225
 30
0.0
 11
24.58249085810003
 21
7.379580166314227
 31
0.0
  0
LINE
  5
4F38
330
1F
100
AcDbEntity
  8
0
100
AcDbLine
 10
24.20449085810003
 20
7.469580166314223
 30
0.0
 11
24.58249085810003
 21
7.469580166314223
 31
0.0
  0
LINE
  5
4F39
330
1F
100
AcDbEntity
  8
OBJECT
100
AcDbLine
 10
27.68842867533595
 20
11.51234300420963
 30
0.0
 11
27.68842867533595
 21
9.777343004209634
 31
0.0
  0
LINE
  5
4F3A
330
1F
100
AcDbEntity
  8
OBJECT
100
AcDbLine
 10
27.64242867533595
 20
11.46634300420964
 30
0.0
 11
27.64242867533595
 21
9.777343004209634
 31
0.0
  0
LINE
  5
4F3B
330
1F
100
AcDbEntity
  8
0
100
AcDbLine
 10
28.06042867533597
 20
10.0073430042096
 30
0.0
 11
28.06042867533595
 21
9.957343004209642
 31
0.0
  0
LINE
  5
4F3C
330
1F
100
AcDbEntity
  8
0
100
AcDbLine
 10
28.10042867533593
 20
10.00734300420963
 30
0.0
 11
28.10042867533594
 21
9.957343004209642
 31
0.0
  0
CIRCLE
  5
4F3D
330
1F
100
AcDbEntity
  8
0
100
AcDbCircle
 10
28.08042867533595
 20
10.02734300420964
 30
0.0
 40
0.1325000000000003
  0
LINE
  5
4F3E
330
1F
100
AcDbEntity
  8
0
100
AcDbLine
 10
31.01142867533594
 20
10.0073430042096
 30
0.0
 11
31.01142867533595
 21
9.957343004209642
 31
0.0
  0
LINE
  5
4F3F
330
1F
100
AcDbEntity
  8
0
100
AcDbLine
 10
30.97142867533597
 20
10.00734300420963
 30
0.0
 11
30.97142867533596
 21
9.957343004209642
 31
0.0
  0
CIRCLE
  5
4F40
330
1F
100
AcDbEntity
  8
0
100
AcDbCircle
 10
30.99142867533595
 20
10.02734300420964
 30
0.0
 40
0.1325000000000003
  0
LINE
  5
4F41
330
1F
100
AcDbEntity
  8
OBJECT
100
AcDbLine
 10
31.42942867533595
 20
11.51234300420963
 30
0.0
 11
31.42942867533595
 21
9.777343004209634
 31
0.0
  0
LINE
  5
4F42
330
1F
100
AcDbEntity
  8
OBJECT
100
AcDbLine
 10
27.67342867533595
 20
11.46634300420964
 30
0.0
 11
27.67342867533595
 21
9.777343004209634
 31
0.0
  0
LINE
  5
4F43
330
1F
100
AcDbEntity
  8
OBJECT
100
AcDbLine
 10
27.64242867533595
 20
9.777343004209632
 30
0.0
 11
31.42942867533595
 21
9.777343004209635
 31
0.0
  0
LINE
  5
4F44
330
1F
100
AcDbEntity
  8
0
100
AcDbLine
 10
30.97142867533596
 20
9.957343004209642
 30
0.0
 11
31.01142867533596
 21
9.957343004209642
 31
0.0
  0
LINE
  5
4F45
330
1F
100
AcDbEntity
  8
0
100
AcDbLine
 10
28.10042867533594
 20
9.957343004209642
 30
0.0
 11
28.06042867533594
 21
9.957343004209642
 31
0.0
  0
LINE
  5
4F46
330
1F
100
AcDbEntity
  8
OBJECT
100
AcDbLine
 10
27.64242867533595
 20
11.51234300420963
 30
0.0
 11
31.42942867533595
 21
11.51234300420964
 31
0.0
  0
LINE
  5
4F49
330
1F
100
AcDbEntity
  8
0
100
AcDbLine
 10
31.01142867533596
 20
10.04734300420965
 30
0.0
 11
31.06142867533595
 21
10.04734300420965
 31
0.0
  0
LINE
  5
4F4A
330
1F
100
AcDbEntity
  8
0
100
AcDbLine
 10
30.97142867533596
 20
10.09734300420963
 30
0.0
 11
30.97142867533597
 21
10.04734300420962
 31
0.0
  0
LINE
  5
4F4B
330
1F
100
AcDbEntity
  8
0
100
AcDbLine
 10
31.01142867533595
 20
10.09734300420963
 30
0.0
 11
31.01142867533596
 21
10.04734300420967
 31
0.0
  0
LINE
  5
4F4C
330
1F
100
AcDbEntity
  8
0
100
AcDbLine
 10
30.92142867533596
 20
10.04734300420965
 30
0.0
 11
30.97142867533597
 21
10.04734300420967
 31
0.0
  0
LINE
  5
4F4D
330
1F
100
AcDbEntity
  8
0
100
AcDbLine
 10
30.97142867533596
 20
10.0973430042096
 30
0.0
 11
31.01142867533596
 21
10.09734300420963
 31
0.0
  0
LINE
  5
4F4E
330
1F
100
AcDbEntity
  8
0
100
AcDbLine
 10
31.01142867533594
 20
10.00734300420963
 30
0.0
 11
31.06142867533595
 21
10.00734300420963
 31
0.0
  0
LINE
  5
4F4F
330
1F
100
AcDbEntity
  8
0
100
AcDbLine
 10
30.92142867533596
 20
10.00734300420963
 30
0.0
 11
30.97142867533596
 21
10.00734300420963
 31
0.0
  0
LINE
  5
4F50
330
1F
100
AcDbEntity
  8
0
100
AcDbLine
 10
30.92142867533596
 20
10.04734300420965
 30
0.0
 11
30.92142867533596
 21
10.00734300420963
 31
0.0
  0
LINE
  5
4F51
330
1F
100
AcDbEntity
  8
0
100
AcDbLine
 10
31.06142867533596
 20
10.04734300420965
 30
0.0
 11
31.06142867533595
 21
10.00734300420963
 31
0.0
  0
LINE
  5
4F53
330
1F
100
AcDbEntity
  8
0
100
AcDbLine
 10
28.06042867533594
 20
10.04734300420965
 30
0.0
 11
28.01042867533596
 21
10.04734300420965
 31
0.0
  0
LINE
  5
4F54
330
1F
100
AcDbEntity
  8
0
100
AcDbLine
 10
28.10042867533594
 20
10.09734300420963
 30
0.0
 11
28.10042867533593
 21
10.04734300420962
 31
0.0
  0
LINE
  5
4F55
330
1F
100
AcDbEntity
  8
0
100
AcDbLine
 10
28.06042867533595
 20
10.09734300420963
 30
0.0
 11
28.06042867533594
 21
10.04734300420967
 31
0.0
  0
LINE
  5
4F56
330
1F
100
AcDbEntity
  8
0
100
AcDbLine
 10
28.15042867533594
 20
10.04734300420965
 30
0.0
 11
28.10042867533593
 21
10.04734300420967
 31
0.0
  0
LINE
  5
4F57
330
1F
100
AcDbEntity
  8
0
100
AcDbLine
 10
28.10042867533594
 20
10.0973430042096
 30
0.0
 11
28.06042867533594
 21
10.09734300420963
 31
0.0
  0
LINE
  5
4F58
330
1F
100
AcDbEntity
  8
0
100
AcDbLine
 10
28.06042867533597
 20
10.00734300420963
 30
0.0
 11
28.01042867533596
 21
10.00734300420963
 31
0.0
  0
LINE
  5
4F59
330
1F
100
AcDbEntity
  8
0
100
AcDbLine
 10
28.15042867533594
 20
10.00734300420963
 30
0.0
 11
28.10042867533594
 21
10.00734300420963
 31
0.0
  0
LINE
  5
4F5A
330
1F
100
AcDbEntity
  8
0
100
AcDbLine
 10
28.15042867533594
 20
10.04734300420965
 30
0.0
 11
28.15042867533594
 21
10.00734300420963
 31
0.0
  0
LINE
  5
4F5B
330
1F
100
AcDbEntity
  8
0
100
AcDbLine
 10
28.01042867533594
 20
10.04734300420965
 30
0.0
 11
28.01042867533596
 21
10.00734300420963
 31
0.0
  0
LINE
  5
4F6E
330
1F
100
AcDbEntity
  8
OBJECT
100
AcDbLine
 10
27.67342867533595
 20
11.43534300420964
 30
0.0
 11
27.68842867533595
 21
11.43534300420964
 31
0.0
  0
LINE
  5
4F6F
330
1F
100
AcDbEntity
  8
OBJECT
100
AcDbLine
 10
27.64242867533595
 20
11.46634300420963
 30
0.0
 11
27.68842867533595
 21
11.46634300420964
 31
0.0
  0
LINE
  5
4F70
330
1F
100
AcDbEntity
  8
OBJECT
100
AcDbLine
 10
27.64242867533595
 20
11.48134300420963
 30
0.0
 11
27.68842867533595
 21
11.48134300420963
 31
0.0
  0
LINE
  5
4F71
330
1F
100
AcDbEntity
  8
OBJECT
100
AcDbLine
 10
27.64242867533595
 20
11.51234300420963
 30
0.0
 11
27.64242867533595
 21
11.48134300420963
 31
0.0
  0
LINE
  5
4F74
330
1F
100
AcDbEntity
  8
0
100
AcDbLine
 10
31.74142867533596
 20
11.02034300420963
 30
0.0
 11
31.74142867533593
 21
10.26934300420963
 31
0.0
  0
ARC
  5
4F76
330
1F
100
AcDbEntity
  8
0
100
AcDbCircle
 10
31.67942867533591
 20
10.26934300420963
 30
0.0
 40
0.0619999999999994
100
AcDbArc
 50
270.0
 51
359.9999999999987
  0
LINE
  5
4F78
330
1F
100
AcDbEntity
  8
0
100
AcDbLine
 10
31.74142867533599
 20
10.83851321817815
 30
0.0
 11
32.0529066819985
 21
10.83851321817816
 31
0.0
  0
LINE
  5
4F79
330
1F
100
AcDbEntity
  8
0
100
AcDbLine
 10
31.74142867533599
 20
10.46351321817815
 30
0.0
 11
32.05314550160791
 21
10.46351321817816
 31
0.0
  0
LINE
  5
4F7A
330
1F
100
AcDbEntity
  8
0
100
AcDbLine
 10
31.95588781719608
 20
10.69550042443075
 30
0.0
 11
32.0529066819985
 21
10.83851321817815
 31
0.0
  0
LINE
  5
4F7B
330
1F
100
AcDbEntity
  8
0
100
AcDbLine
 10
32.1016297922497
 20
10.54996753409773
 30
0.0
 11
31.95588781719608
 21
10.69550042443075
 31
0.0
  0
LINE
  5
4F7C
330
1F
100
AcDbEntity
  8
0
100
AcDbLine
 10
32.05314550160789
 20
10.46351321817812
 30
0.0
 11
32.1016297922497
 21
10.54996753409773
 31
0.0
  0
ARC
  5
4F7D
330
1F
100
AcDbEntity
  8
0
100
AcDbCircle
 10
31.67942867533594
 20
11.02034300420963
 30
0.0
 40
0.0620000000000012
100
AcDbArc
 50
0.0
 51
90.00000000000003
  0
LINE
  5
4F8F
330
1F
100
AcDbEntity
  8
OBJECT
100
AcDbLine
 10
31.42942867533595
 20
11.08234300420963
 30
0.0
 11
31.67942867533594
 21
11.08234300420964
 31
0.0
  0
LINE
  5
4F90
330
1F
100
AcDbEntity
  8
OBJECT
100
AcDbLine
 10
31.42942867533595
 20
10.20734300420963
 30
0.0
 11
31.67942867533591
 21
10.20734300420963
 31
0.0
  0
LINE
  5
4F92
330
1F
100
AcDbEntity
  8
OBJECT
100
AcDbLine
 10
16.90049085810008
 20
15.87280382294293
 30
0.0
 11
21.77649085810008
 21
15.87280382294293
 31
0.0
  0
LINE
  5
4F93
330
1F
100
AcDbEntity
  8
OBJECT
100
AcDbLine
 10
16.90049085810008
 20
17.17280382294293
 30
0.0
 11
21.77649085810008
 21
17.17280382294293
 31
0.0
  0
LINE
  5
4F94
330
1F
100
AcDbEntity
  8
OBJECT
100
AcDbLine
 10
16.83849085810008
 20
17.11080382294293
 30
0.0
 11
16.83849085810008
 21
15.93480382294293
 31
0.0
  0
LINE
  5
4F95
330
1F
100
AcDbEntity
  8
OBJECT
100
AcDbLine
 10
21.83849085810008
 20
17.11080382294293
 30
0.0
 11
21.83849085810008
 21
15.93480382294293
 31
0.0
  0
ARC
  5
4F96
330
1F
100
AcDbEntity
  8
OBJECT
100
AcDbCircle
 10
16.90049085810008
 20
17.11080382294293
 30
0.0
 40
0.062
100
AcDbArc
 50
90.0
 51
180.0
  0
ARC
  5
4F97
330
1F
100
AcDbEntity
  8
OBJECT
100
AcDbCircle
 10
21.77649085810008
 20
17.11080382294293
 30
0.0
 40
0.062
100
AcDbArc
 50
0.0
 51
90.0
  0
ARC
  5
4F98
330
1F
100
AcDbEntity
  8
OBJECT
100
AcDbCircle
 10
21.77649085810008
 20
15.93480382294293
 30
0.0
 40
0.062
100
AcDbArc
 50
270.0
 51
0.0
  0
ARC
  5
4F99
330
1F
100
AcDbEntity
  8
OBJECT
100
AcDbCircle
 10
16.90049085810008
 20
15.93480382294293
 30
0.0
 40
0.062
100
AcDbArc
 50
180.0
 51
270.0
  0
LEADER
  5
4F9D
330
1F
100
AcDbEntity
  8
OBJECT
100
AcDbLeader
  3
23NSTD
 73
     0
 75
     1
 76
     3
 10
19.36150247764509
 20
17.17280382294293
 30
0.0
 10
20.62359451875886
 20
19.08149335646048
 30
0.0
 10
20.44359451875886
 20
19.08149335646048
 30
0.0
340
4F9E
213
0.0
223
-0.125
233
0.0
1001
ACAD
1000
DSTYLE
1002
{
1070
     5
1000

1070
   147
1040
0.09
1070
    77
1070
     0
1002
}
  0
MTEXT
  5
4F9E
102
{ACAD_REACTORS
330
4F9D
102
}
330
1F
100
AcDbEntity
  8
OBJECT
100
AcDbMText
 10
20.62359451875886
 20
19.20649335646048
 30
0.0
 40
0.25
 41
0.0
 71
     1
 72
     1
  1
\A1;PRODUCT LABEL
  7
TXT
  0
LINE
  5
4FA3
330
1F
100
AcDbEntity
  8
OBJECT
100
AcDbLine
 10
4.737377094654688
 20
11.18556719196303
 30
0.0
 11
4.737377094654688
 21
10.73302685888715
 31
0.0
  0
LINE
  5
4FA4
330
1F
100
AcDbEntity
  8
0
100
AcDbLine
 10
4.612377094654688
 20
10.12556719196303
 30
0.0
 11
4.737377094654688
 21
10.12556719196303
 31
0.0
  0
LINE
  5
4FA5
330
1F
100
AcDbEntity
  8
0
100
AcDbLine
 10
4.61237709465466
 20
11.18556719196303
 30
0.0
 11
4.737377094654688
 21
11.18556719196303
 31
0.0
  0
LINE
  5
4FA6
330
1F
100
AcDbEntity
  8
OBJECT
100
AcDbLine
 10
4.737377094654688
 20
10.5781075250389
 30
0.0
 11
4.737377094654688
 21
10.12556719196303
 31
0.0
  0
LINE
  5
4FAE
330
1F
100
AcDbEntity
  8
0
100
AcDbLine
 10
10.67349085810008
 20
7.426580166314309
 30
0.0
 11
11.77149085810008
 21
7.426580166314253
 31
0.0
  0
LINE
  5
4FAF
330
1F
100
AcDbEntity
  8
0
100
AcDbLine
 10
10.67349085810008
 20
7.301580166314224
 30
0.0
 11
10.67349085810008
 21
7.426580166314224
 31
0.0
  0
LINE
  5
4FB0
330
1F
100
AcDbEntity
  8
0
100
AcDbLine
 10
13.73549085810008
 20
7.426580166314309
 30
0.0
 11
14.83349085810008
 21
7.426580166314253
 31
0.0
  0
LINE
  5
4FB1
330
1F
100
AcDbEntity
  8
0
100
AcDbLine
 10
12.20449085810008
 20
7.426580166314309
 30
0.0
 11
13.30249085810008
 21
7.426580166314253
 31
0.0
  0
LINE
  5
4FB2
330
1F
100
AcDbEntity
  8
0
100
AcDbLine
 10
12.20449085810008
 20
7.301580166314224
 30
0.0
 11
12.20449085810008
 21
7.426580166314224
 31
0.0
  0
LINE
  5
4FB3
330
1F
100
AcDbEntity
  8
0
100
AcDbLine
 10
11.77149085810008
 20
7.301580166314224
 30
0.0
 11
11.77149085810008
 21
7.426580166314253
 31
0.0
  0
LINE
  5
4FB4
330
1F
100
AcDbEntity
  8
0
100
AcDbLine
 10
11.85549085810472
 20
7.332580166314257
 30
0.0
 11
12.1204908581047
 21
7.332580166314228
 31
0.0
  0
ARC
  5
4FB5
330
1F
100
AcDbEntity
  8
0
100
AcDbCircle
 10
11.98799085810008
 20
7.197022295898462
 30
0.0
 40
0.1895578703996213
100
AcDbArc
 50
45.65357331007236
 51
134.3464266879223
  0
LINE
  5
4FB6
330
1F
100
AcDbEntity
  8
0
100
AcDbLine
 10
11.85549085810472
 20
7.332580166314257
 30
0.0
 11
11.8554908581047
 21
7.301580166314194
 31
0.0
  0
LINE
  5
4FB7
330
1F
100
AcDbEntity
  8
0
100
AcDbLine
 10
12.1204908581047
 20
7.332580166305219
 30
0.0
 11
12.1204908581047
 21
7.301580166314194
 31
0.0
  0
LINE
  5
4FB8
330
1F
100
AcDbEntity
  8
0
100
AcDbLine
 10
13.73549085810008
 20
7.301580166314224
 30
0.0
 11
13.73549085810008
 21
7.426580166314224
 31
0.0
  0
LINE
  5
4FB9
330
1F
100
AcDbEntity
  8
0
100
AcDbLine
 10
13.30249085810008
 20
7.301580166314224
 30
0.0
 11
13.30249085810008
 21
7.426580166314253
 31
0.0
  0
LINE
  5
4FBA
330
1F
100
AcDbEntity
  8
0
100
AcDbLine
 10
15.26649085810008
 20
7.426580166314309
 30
0.0
 11
16.36449085810008
 21
7.426580166314253
 31
0.0
  0
LINE
  5
4FBB
330
1F
100
AcDbEntity
  8
0
100
AcDbLine
 10
15.26649085810008
 20
7.301580166314224
 30
0.0
 11
15.26649085810008
 21
7.426580166314224
 31
0.0
  0
LINE
  5
4FBC
330
1F
100
AcDbEntity
  8
0
100
AcDbLine
 10
14.83349085810008
 20
7.301580166314224
 30
0.0
 11
14.83349085810008
 21
7.426580166314253
 31
0.0
  0
ARC
  5
4FBD
330
1F
100
AcDbEntity
  8
0
100
AcDbCircle
 10
15.04999085810008
 20
7.197022295898462
 30
0.0
 40
0.1895578703996213
100
AcDbArc
 50
45.65357331007236
 51
134.3464266879223
  0
LINE
  5
4FBE
330
1F
100
AcDbEntity
  8
0
100
AcDbLine
 10
14.91749085810472
 20
7.332580166314257
 30
0.0
 11
15.1824908581047
 21
7.332580166314228
 31
0.0
  0
LINE
  5
4FBF
330
1F
100
AcDbEntity
  8
0
100
AcDbLine
 10
14.91749085810472
 20
7.332580166314257
 30
0.0
 11
14.9174908581047
 21
7.301580166314194
 31
0.0
  0
LINE
  5
4FC0
330
1F
100
AcDbEntity
  8
0
100
AcDbLine
 10
15.1824908581047
 20
7.332580166305219
 30
0.0
 11
15.1824908581047
 21
7.301580166314194
 31
0.0
  0
LINE
  5
4FC1
330
1F
100
AcDbEntity
  8
0
100
AcDbLine
 10
16.36449085810008
 20
7.301580166314224
 30
0.0
 11
16.36449085810008
 21
7.426580166314253
 31
0.0
  0
LINE
  5
4FC2
330
1F
100
AcDbEntity
  8
0
100
AcDbLine
 10
21.39049085810008
 20
7.426580166314309
 30
0.0
 11
22.48849085810008
 21
7.426580166314253
 31
0.0
  0
LINE
  5
4FC3
330
1F
100
AcDbEntity
  8
0
100
AcDbLine
 10
18.32849085810008
 20
7.426580166314309
 30
0.0
 11
19.42649085810007
 21
7.426580166314253
 31
0.0
  0
LINE
  5
4FC4
330
1F
100
AcDbEntity
  8
0
100
AcDbLine
 10
17.89549085810008
 20
7.301580166314224
 30
0.0
 11
17.89549085810008
 21
7.426580166314253
 31
0.0
  0
LINE
  5
4FC5
330
1F
100
AcDbEntity
  8
0
100
AcDbLine
 10
16.79749085810008
 20
7.301580166314224
 30
0.0
 11
16.79749085810008
 21
7.426580166314224
 31
0.0
  0
LINE
  5
4FC6
330
1F
100
AcDbEntity
  8
0
100
AcDbLine
 10
16.79749085810008
 20
7.426580166314309
 30
0.0
 11
17.89549085810008
 21
7.426580166314253
 31
0.0
  0
LINE
  5
4FC7
330
1F
100
AcDbEntity
  8
0
100
AcDbLine
 10
18.32849085810008
 20
7.301580166314224
 30
0.0
 11
18.32849085810008
 21
7.426580166314224
 31
0.0
  0
ARC
  5
4FC8
330
1F
100
AcDbEntity
  8
0
100
AcDbCircle
 10
18.11199085810008
 20
7.197022295898462
 30
0.0
 40
0.1895578703996225
100
AcDbArc
 50
45.65357331007198
 51
134.3464266879219
  0
LINE
  5
4FC9
330
1F
100
AcDbEntity
  8
0
100
AcDbLine
 10
17.97949085810471
 20
7.332580166314257
 30
0.0
 11
18.2444908581047
 21
7.332580166314228
 31
0.0
  0
LINE
  5
4FCA
330
1F
100
AcDbEntity
  8
0
100
AcDbLine
 10
17.97949085810471
 20
7.332580166314257
 30
0.0
 11
17.9794908581047
 21
7.301580166314194
 31
0.0
  0
LINE
  5
4FCB
330
1F
100
AcDbEntity
  8
0
100
AcDbLine
 10
18.2444908581047
 20
7.332580166305219
 30
0.0
 11
18.2444908581047
 21
7.301580166314194
 31
0.0
  0
LINE
  5
4FCC
330
1F
100
AcDbEntity
  8
0
100
AcDbLine
 10
19.85949085810008
 20
7.426580166314309
 30
0.0
 11
20.95749085810008
 21
7.426580166314253
 31
0.0
  0
LINE
  5
4FCD
330
1F
100
AcDbEntity
  8
0
100
AcDbLine
 10
19.85949085810008
 20
7.301580166314224
 30
0.0
 11
19.85949085810008
 21
7.426580166314224
 31
0.0
  0
LINE
  5
4FCE
330
1F
100
AcDbEntity
  8
0
100
AcDbLine
 10
19.42649085810007
 20
7.301580166314224
 30
0.0
 11
19.42649085810007
 21
7.426580166314253
 31
0.0
  0
LINE
  5
4FCF
330
1F
100
AcDbEntity
  8
0
100
AcDbLine
 10
21.39049085810008
 20
7.301580166314224
 30
0.0
 11
21.39049085810008
 21
7.426580166314224
 31
0.0
  0
LINE
  5
4FD0
330
1F
100
AcDbEntity
  8
0
100
AcDbLine
 10
20.95749085810008
 20
7.301580166314224
 30
0.0
 11
20.95749085810008
 21
7.426580166314253
 31
0.0
  0
LINE
  5
4FD1
330
1F
100
AcDbEntity
  8
0
100
AcDbLine
 10
21.04149085810472
 20
7.332580166314257
 30
0.0
 11
21.3064908581047
 21
7.332580166314228
 31
0.0
  0
ARC
  5
4FD2
330
1F
100
AcDbEntity
  8
0
100
AcDbCircle
 10
21.17399085810008
 20
7.197022295898462
 30
0.0
 40
0.1895578703996225
100
AcDbArc
 50
45.65357331007198
 51
134.3464266879219
  0
LINE
  5
4FD3
330
1F
100
AcDbEntity
  8
0
100
AcDbLine
 10
21.04149085810472
 20
7.332580166314257
 30
0.0
 11
21.0414908581047
 21
7.301580166314194
 31
0.0
  0
LINE
  5
4FD4
330
1F
100
AcDbEntity
  8
0
100
AcDbLine
 10
21.3064908581047
 20
7.332580166305219
 30
0.0
 11
21.3064908581047
 21
7.301580166314194
 31
0.0
  0
LINE
  5
4FD5
330
1F
100
AcDbEntity
  8
0
100
AcDbLine
 10
22.48849085810008
 20
7.301580166314224
 30
0.0
 11
22.48849085810008
 21
7.426580166314253
 31
0.0
  0
LWPOLYLINE
  5
4FF6
330
1F
100
AcDbEntity
  8
DIM
100
AcDbPolyline
 90
        4
 70
     0
 10
9.486081221549117
 20
10.55857878541827
 40
0.0
 41
0.1352163456280238
 10
9.319265508650329
 20
10.29124348944588
 40
0.0
 41
0.0
 10
8.062251310137434
 20
8.189722507295027
 40
0.0
 41
0.0
 10
7.701674388462704
 20
8.189722507295027
 40
0.0
 41
0.0
  0
TEXT
  5
4FF7
330
1F
100
AcDbEntity
  8
DIM
100
AcDbText
 10
3.734046893360303
 20
8.041526747895883
 30
0.0
 40
0.2504006409533381
  1
GROUND INDICATOR LAMP
 41
0.75
  7
TXT
 11
3.734046893360303
 21
8.166727068372552
 31
0.0
100
AcDbText
 73
     2
  0
TEXT
  5
4FF8
330
1F
100
AcDbEntity
  8
DIM
100
AcDbText
 10
1.136140243469427
 20
7.624192346306987
 30
0.0
 40
0.2504006409533381
  1
15 AMP 125 VOLT, LENS COLOR - GREEN
 41
0.75
  7
TXT
 11
1.136140243469427
 21
7.749392666783656
 31
0.0
100
AcDbText
 73
     2
  0
DIMENSION
  5
5029
330
1F
100
AcDbEntity
  8
OBJECT
100
AcDbDimension
  2
*D13
 10
6.417479569449596
 20
11.26134300420964
 30
0.0
 11
6.417479569449596
 21
10.63634300420964
 31
0.0
 70
    32
  3
23NSTD
100
AcDbAlignedDimension
 13
7.189990858100082
 23
10.01134300420964
 33
0.0
 14
7.189990858100082
 24
11.26134300420964
 34
0.0
 50
90.0
100
AcDbRotatedDimension
  0
MTEXT
  5
5037
102
{ACAD_REACTORS
330
5038
102
}
330
1F
100
AcDbEntity
  8
OBJECT
100
AcDbMText
 10
5.7916860674224
 20
12.35737993842761
 30
0.0
 40
0.25
 41
0.0
 71
     6
 72
     1
  1
0.266 x 0.406 OBLONG
  7
TXT
  0
LEADER
  5
5038
330
1F
100
AcDbEntity
  8
OBJECT
100
AcDbLeader
  3
23NSTD
 73
     0
 75
     1
 76
     3
 10
7.205990858100087
 20
11.34134300420963
 30
0.0
 10
6.1516860674224
 20
12.35737993842761
 30
0.0
 10
5.9716860674224
 20
12.35737993842761
 30
0.0
340
5037
1001
ACAD
1000
DSTYLE
1002
{
1070
     5
1000

1070
   176
1070
   256
1070
    77
1070
     0
1070
    40
1040
2.0
1070
   147
1040
0.09
1002
}
  0
DIMENSION
  5
5081
330
1F
100
AcDbEntity
  8
OBJECT
100
AcDbDimension
  2
*D16
 10
25.76899085810009
 20
12.0601481884905
 30
0.0
 11
16.58099085810008
 21
12.0601481884905
 31
0.0
 70
    32
  3
23NSTD
100
AcDbAlignedDimension
 13
7.392990858100077
 23
11.39434300420964
 33
0.0
 14
25.76899085810009
 24
11.39434300420964
 34
0.0
100
AcDbRotatedDimension
  0
ENDSEC
  0
SECTION
  2
OBJECTS
  0
DICTIONARY
  5
C
330
0
100
AcDbDictionary
  3
ACAD_COLOR
350
6C
  3
ACAD_GROUP
350
D
  3
ACAD_LAYOUT
350
1A
  3
ACAD_MATERIAL
350
6B
  3
ACAD_MLINESTYLE
350
17
  3
ACAD_PLOTSETTINGS
350
19
  3
ACAD_TABLESTYLE
350
92
  3
ACDBHEADERROUNDTRIPXREC
350
50CE
  3
ACDBVARIABLEDICTIONARY
350
59
  3
DWGPROPS
350
50F0
  0
DICTIONARY
  5
6C
102
{ACAD_REACTORS
330
C
102
}
330
C
100
AcDbDictionary
  0
DICTIONARY
  5
D
102
{ACAD_REACTORS
330
C
102
}
330
C
100
AcDbDictionary
  0
DICTIONARY
  5
1A
102
{ACAD_REACTORS
330
C
102
}
330
C
100
AcDbDictionary
  0
DICTIONARY
  5
6B
102
{ACAD_REACTORS
330
C
102
}
330
C
100
AcDbDictionary
  0
DICTIONARY
  5
17
102
{ACAD_REACTORS
330
C
102
}
330
C
100
AcDbDictionary
  3
STANDARD
350
18
  0
DICTIONARY
  5
19
102
{ACAD_REACTORS
330
C
102
}
330
C
100
AcDbDictionary
  0
DICTIONARY
  5
92
102
{ACAD_REACTORS
330
C
102
}
330
C
100
AcDbDictionary
  3
STANDARD
350
93
  0
DICTIONARY
  5
50CE
102
{ACAD_REACTORS
330
C
102
}
330
C
100
AcDbDictionary
  3
CEPSNTYPE
350
50D7
  3
COLORDICT
350
50EE
  3
DIMSTYLEDATA
350
50ED
  3
FINGERPRINTGUID
350
50D8
  3
HYPERLINKBASE
350
50D1
  3
INSUNITS
350
50D6
  3
LAYOUTDICT
350
50D3
  3
LWETCUNION
350
50D5
  3
MATERIALDICT
350
50EF
  3
PLOTSETDICT
350
50D4
  3
PSVPSCALE
350
50DA
  3
PUCSBASE
350
50DD
  3
PUCSORGBACK
350
50E3
  3
PUCSORGBOTTOM
350
50DF
  3
PUCSORGFRONT
350
50E2
  3
PUCSORGLEFT
350
50E0
  3
PUCSORGRIGHT
350
50E1
  3
PUCSORGTOP
350
50DE
  3
PUCSORTHOREF
350
50DB
  3
PUCSORTHOVIEW
350
50DC
  3
STYLESHEET
350
50D2
  3
TSTACKALIGN
350
50CF
  3
TSTACKSIZE
350
50D0
  3
UCSBASE
350
50E6
  3
UCSORGBACK
350
50EC
  3
UCSORGBOTTOM
350
50E8
  3
UCSORGFRONT
350
50EB
  3
UCSORGLEFT
350
50E9
  3
UCSORGRIGHT
350
50EA
  3
UCSORGTOP
350
50E7
  3
UCSORTHOREF
350
50E4
  3
UCSORTHOVIEW
350
50E5
  3
VERSIONGUID
350
50D9
  0
DICTIONARY
  5
59
102
{ACAD_REACTORS
330
C
102
}
330
C
100
AcDbDictionary
  3
CTABLESTYLE
350
98
  3
HIDETEXT
350
5010
  0
XRECORD
  5
50F0
102
{ACAD_REACTORS
330
C
102
}
330
C
100
AcDbXrecord
  1
DWGPROPS COOKIE
  2

  3

  4

  6

  7

  8
fottrem
  9

300
=
301
=
302
=
303
=
304
=
305
=
306
=
307
=
308
=
309
=
 40
0.0
 41
2453353.717125822
 42
2458859.534514155
  1

 90
        0
  0
MLINESTYLE
  5
18
102
{ACAD_REACTORS
330
17
102
}
330
17
100
AcDbMlineStyle
  2
Standard
 70
     0
  3

 62
   256
 51
90.0
 52
90.0
 71
     2
 49
0.5
 62
   256
  6
BYLAYER
 49
-0.5
 62
   256
  6
BYLAYER
  0
TABLESTYLE
  5
93
102
{ACAD_REACTORS
330
92
102
}
330
92
100
AcDbTableStyle
  3
Standard
 70
     0
 71
     0
 40
0.06
 41
0.06
280
     0
281
     0
  7
STANDARD
140
0.18
170
     2
 62
     0
 63
     7
283
     0
274
    -2
284
     1
 64
     0
275
    -2
285
     1
 65
     0
276
    -2
286
     1
 66
     0
277
    -2
287
     1
 67
     0
278
    -2
288
     1
 68
     0
279
    -2
289
     1
 69
     0
  7
STANDARD
140
0.25
170
     5
 62
     0
 63
     7
283
     0
274
    -2
284
     1
 64
     0
275
    -2
285
     1
 65
     0
276
    -2
286
     1
 66
     0
277
    -2
287
     1
 67
     0
278
    -2
288
     1
 68
     0
279
    -2
289
     1
 69
     0
  7
STANDARD
140
0.18
170
     5
 62
     0
 63
     7
283
     0
274
    -2
284
     1
 64
     0
275
    -2
285
     1
 65
     0
276
    -2
286
     1
 66
     0
277
    -2
287
     1
 67
     0
278
    -2
288
     1
 68
     0
279
    -2
289
     1
 69
     0
  0
XRECORD
  5
50D7
102
{ACAD_REACTORS
330
50CE
102
}
330
50CE
100
AcDbXrecord
 90
        0
  0
XRECORD
  5
50EE
102
{ACAD_REACTORS
330
50CE
102
}
330
50CE
100
AcDbXrecord
340
6C
  0
XRECORD
  5
50ED
102
{ACAD_REACTORS
330
50CE
102
}
330
50CE
100
AcDbXrecord
1000
DSTYLE
1002
{
1070
   271
 70
     2
1070
    43
 40
0.281
1070
    44
 40
0.093
1070
    42
 40
0.063
1070
    40
 40
2.0
1070
   272
 70
     2
1070
   340
340
2C52
1070
   140
 40
0.125
1002
}
  0
XRECORD
  5
50D8
102
{ACAD_REACTORS
330
50CE
102
}
330
50CE
100
AcDbXrecord
  1
{79D0D041-CE1B-4046-9B00-13DF52125DEB}
  0
XRECORD
  5
50D1
102
{ACAD_REACTORS
330
50CE
102
}
330
50CE
100
AcDbXrecord
  1

  0
XRECORD
  5
50D6
102
{ACAD_REACTORS
330
50CE
102
}
330
50CE
100
AcDbXrecord
 90
        0
  0
XRECORD
  5
50D3
102
{ACAD_REACTORS
330
50CE
102
}
330
50CE
100
AcDbXrecord
340
1A
  0
XRECORD
  5
50D5
102
{ACAD_REACTORS
330
50CE
102
}
330
50CE
100
AcDbXrecord
 90
    11805
  0
XRECORD
  5
50EF
102
{ACAD_REACTORS
330
50CE
102
}
330
50CE
100
AcDbXrecord
340
6B
  0
XRECORD
  5
50D4
102
{ACAD_REACTORS
330
50CE
102
}
330
50CE
100
AcDbXrecord
340
19
  0
XRECORD
  5
50DA
102
{ACAD_REACTORS
330
50CE
102
}
330
50CE
100
AcDbXrecord
 40
0.0
  0
XRECORD
  5
50DD
102
{ACAD_REACTORS
330
50CE
102
}
330
50CE
100
AcDbXrecord
340
0
  0
XRECORD
  5
50E3
102
{ACAD_REACTORS
330
50CE
102
}
330
50CE
100
AcDbXrecord
 10
0.0
 20
0.0
 30
0.0
  0
XRECORD
  5
50DF
102
{ACAD_REACTORS
330
50CE
102
}
330
50CE
100
AcDbXrecord
 10
0.0
 20
0.0
 30
0.0
  0
XRECORD
  5
50E2
102
{ACAD_REACTORS
330
50CE
102
}
330
50CE
100
AcDbXrecord
 10
0.0
 20
0.0
 30
0.0
  0
XRECORD
  5
50E0
102
{ACAD_REACTORS
330
50CE
102
}
330
50CE
100
AcDbXrecord
 10
0.0
 20
0.0
 30
0.0
  0
XRECORD
  5
50E1
102
{ACAD_REACTORS
330
50CE
102
}
330
50CE
100
AcDbXrecord
 10
0.0
 20
0.0
 30
0.0
  0
XRECORD
  5
50DE
102
{ACAD_REACTORS
330
50CE
102
}
330
50CE
100
AcDbXrecord
 10
0.0
 20
0.0
 30
0.0
  0
XRECORD
  5
50DB
102
{ACAD_REACTORS
330
50CE
102
}
330
50CE
100
AcDbXrecord
340
0
  0
XRECORD
  5
50DC
102
{ACAD_REACTORS
330
50CE
102
}
330
50CE
100
AcDbXrecord
 70
     0
  0
XRECORD
  5
50D2
102
{ACAD_REACTORS
330
50CE
102
}
330
50CE
100
AcDbXrecord
  1

  0
XRECORD
  5
50CF
102
{ACAD_REACTORS
330
50CE
102
}
330
50CE
100
AcDbXrecord
 90
        1
  0
XRECORD
  5
50D0
102
{ACAD_REACTORS
330
50CE
102
}
330
50CE
100
AcDbXrecord
 90
       70
  0
XRECORD
  5
50E6
102
{ACAD_REACTORS
330
50CE
102
}
330
50CE
100
AcDbXrecord
340
0
  0
XRECORD
  5
50EC
102
{ACAD_REACTORS
330
50CE
102
}
330
50CE
100
AcDbXrecord
 10
0.0
 20
0.0
 30
0.0
  0
XRECORD
  5
50E8
102
{ACAD_REACTORS
330
50CE
102
}
330
50CE
100
AcDbXrecord
 10
0.0
 20
0.0
 30
0.0
  0
XRECORD
  5
50EB
102
{ACAD_REACTORS
330
50CE
102
}
330
50CE
100
AcDbXrecord
 10
0.0
 20
0.0
 30
0.0
  0
XRECORD
  5
50E9
102
{ACAD_REACTORS
330
50CE
102
}
330
50CE
100
AcDbXrecord
 10
0.0
 20
0.0
 30
0.0
  0
XRECORD
  5
50EA
102
{ACAD_REACTORS
330
50CE
102
}
330
50CE
100
AcDbXrecord
 10
0.0
 20
0.0
 30
0.0
  0
XRECORD
  5
50E7
102
{ACAD_REACTORS
330
50CE
102
}
330
50CE
100
AcDbXrecord
 10
0.0
 20
0.0
 30
0.0
  0
XRECORD
  5
50E4
102
{ACAD_REACTORS
330
50CE
102
}
330
50CE
100
AcDbXrecord
340
0
  0
XRECORD
  5
50E5
102
{ACAD_REACTORS
330
50CE
102
}
330
50CE
100
AcDbXrecord
 70
     0
  0
XRECORD
  5
50D9
102
{ACAD_REACTORS
330
50CE
102
}
330
50CE
100
AcDbXrecord
  1
{27181F0D-E306-4C32-8ED3-DE139AB13205}
  0
DICTIONARYVAR
  5
98
102
{ACAD_REACTORS
330
59
102
}
330
59
100
DictionaryVariables
280
     0
  1
STANDARD
  0
DICTIONARYVAR
  5
5010
102
{ACAD_REACTORS
330
59
102
}
330
59
100
DictionaryVariables
280
     0
  1
1
  0
ENDSEC
  0
EOF
