  0
SECTION
  2
HEADER
  9
$ACADVER
  1
AC1009
  9
$INSBASE
 10
0.0
 20
0.0
 30
0.0
  9
$EXTMIN
 10
0.0
 20
0.0
 30
0.0
  9
$EXTMAX
 10
50.6
 20
77.5
 30
0.0
  9
$LIMMIN
 10
0.0
 20
0.0
  9
$LIMMAX
 10
50.6
 20
77.5
  9
$ORTHOMODE
 70
     1
  9
$REGENMODE
 70
     1
  9
$FILLMODE
 70
     1
  9
$QTEXTMODE
 70
     0
  9
$MIRRTEXT
 70
     0
  9
$DRAGMODE
 70
     2
  9
$LTSCALE
 40
2.5
  9
$OSMODE
 70
     1
  9
$ATTMODE
 70
     1
  9
$TEXTSIZE
 40
0.2
  9
$TRACEWID
 40
0.05
  9
$TEXTSTYLE
  7
TXT
  9
$CLAYER
  8
OBJECT
  9
$CELTYPE
  6
BYLAYER
  9
$CECOLOR
 62
   256
  9
$DIMSCALE
 40
5.0
  9
$DIMASZ
 40
0.18
  9
$DIMEXO
 40
0.063
  9
$DIMDLI
 40
0.281
  9
$DIMRND
 40
0.0
  9
$DIMDLE
 40
0.0
  9
$DIMEXE
 40
0.093
  9
$DIMTP
 40
0.0
  9
$DIMTM
 40
0.0
  9
$DIMTXT
 40
0.125
  9
$DIMCEN
 40
0.09
  9
$DIMTSZ
 40
0.0
  9
$DIMTOL
 70
     0
  9
$DIMLIM
 70
     0
  9
$DIMTIH
 70
     1
  9
$DIMTOH
 70
     1
  9
$DIMSE1
 70
     0
  9
$DIMSE2
 70
     0
  9
$DIMTAD
 70
     0
  9
$DIMZIN
 70
     0
  9
$DIMBLK
  1

  9
$DIMASO
 70
     1
  9
$DIMSHO
 70
     1
  9
$DIMPOST
  1

  9
$DIMAPOST
  1

  9
$DIMALT
 70
     0
  9
$DIMALTD
 70
     2
  9
$DIMALTF
 40
25.4
  9
$DIMLFAC
 40
1.0
  9
$DIMTOFL
 70
     0
  9
$DIMTVP
 40
0.0
  9
$DIMTIX
 70
     0
  9
$DIMSOXD
 70
     0
  9
$DIMSAH
 70
     0
  9
$DIMBLK1
  1

  9
$DIMBLK2
  1

  9
$DIMSTYLE
  2
23NSTD
  9
$DIMCLRD
 70
     0
  9
$DIMCLRE
 70
     0
  9
$DIMCLRT
 70
     0
  9
$DIMTFAC
 40
1.0
  9
$DIMGAP
 40
0.09
  9
$LUNITS
 70
     2
  9
$LUPREC
 70
     3
  9
$SKETCHINC
 40
0.1
  9
$FILLETRAD
 40
0.0
  9
$AUNITS
 70
     0
  9
$AUPREC
 70
     0
  9
$MENU
  1
acad
  9
$ELEVATION
 40
0.0
  9
$PELEVATION
 40
0.0
  9
$THICKNESS
 40
0.0
  9
$LIMCHECK
 70
     0
  9
$BLIPMODE
 70
     1
  9
$CHAMFERA
 40
0.0
  9
$CHAMFERB
 40
0.0
  9
$SKPOLY
 70
     0
  9
$TDCREATE
 40
2449904.340443287
  9
$TDUPDATE
 40
2451347.304849768
  9
$TDINDWG
 40
0.0845083333
  9
$TDUSRTIMER
 40
0.0845083333
  9
$USRTIMER
 70
     1
  9
$ANGBASE
 50
0.0
  9
$ANGDIR
 70
     0
  9
$PDMODE
 70
     0
  9
$PDSIZE
 40
0.0
  9
$PLINEWID
 40
0.0
  9
$COORDS
 70
     0
  9
$SPLFRAME
 70
     0
  9
$SPLINETYPE
 70
     6
  9
$SPLINESEGS
 70
     8
  9
$ATTDIA
 70
     0
  9
$ATTREQ
 70
     1
  9
$HANDLING
 70
     0
  9
$HANDSEED
  5
0
  9
$SURFTAB1
 70
     6
  9
$SURFTAB2
 70
     6
  9
$SURFTYPE
 70
     6
  9
$SURFU
 70
     6
  9
$SURFV
 70
     6
  9
$UCSNAME
  2

  9
$UCSORG
 10
0.0
 20
0.0
 30
0.0
  9
$UCSXDIR
 10
1.0
 20
0.0
 30
0.0
  9
$UCSYDIR
 10
0.0
 20
1.0
 30
0.0
  9
$PUCSNAME
  2

  9
$PUCSORG
 10
0.0
 20
0.0
 30
0.0
  9
$PUCSXDIR
 10
1.0
 20
0.0
 30
0.0
  9
$PUCSYDIR
 10
0.0
 20
1.0
 30
0.0
  9
$USERI1
 70
     0
  9
$USERI2
 70
     0
  9
$USERI3
 70
     0
  9
$USERI4
 70
     0
  9
$USERI5
 70
     0
  9
$USERR1
 40
0.0
  9
$USERR2
 40
0.0
  9
$USERR3
 40
0.0
  9
$USERR4
 40
0.0
  9
$USERR5
 40
0.0
  9
$WORLDVIEW
 70
     1
  9
$SHADEDGE
 70
     3
  9
$SHADEDIF
 70
    70
  9
$TILEMODE
 70
     1
  9
$MAXACTVP
 70
    16
  9
$PINSBASE
 10
0.0
 20
0.0
 30
0.0
  9
$PLIMCHECK
 70
     0
  9
$PEXTMIN
 10
1.000000E+20
 20
1.000000E+20
 30
1.000000E+20
  9
$PEXTMAX
 10
-1.000000E+20
 20
-1.000000E+20
 30
-1.000000E+20
  9
$PLIMMIN
 10
0.0
 20
0.0
  9
$PLIMMAX
 10
12.0
 20
9.0
  9
$UNITMODE
 70
     0
  9
$VISRETAIN
 70
     0
  9
$PLINEGEN
 70
     0
  9
$PSLTSCALE
 70
     1
  9
$TREEDEPTH
 70
  3020
  9
$DWGCODEPAGE
  3
ascii
  0
ENDSEC
  0
SECTION
  2
TABLES
  0
TABLE
  2
VPORT
 70
     2
  0
VPORT
  2
*ACTIVE
 70
     0
 10
0.0
 20
0.0
 11
1.0
 21
1.0
 12
52.790656
 22
38.75
 13
0.0
 23
0.0
 14
1.0
 24
1.0
 15
0.0
 25
0.0
 16
0.0
 26
0.0
 36
1.0
 17
0.0
 27
0.0
 37
0.0
 40
77.5
 41
1.36234
 42
50.0
 43
0.0
 44
0.0
 50
0.0
 51
0.0
 71
     0
 72
   100
 73
     1
 74
     0
 75
     0
 76
     0
 77
     0
 78
     0
  0
ENDTAB
  0
TABLE
  2
LTYPE
 70
     6
  0
LTYPE
  2
CONTINUOUS
 70
    64
  3
Solid line
 72
    65
 73
     0
 40
0.0
  0
LTYPE
  2
HIDDEN
 70
    64
  3
_ _ _ _ _ _ _ _ _ _ _ _ _ _ _ _ _ _ _ _ _ _ _
 72
    65
 73
     2
 40
0.375
 49
0.25
 49
-0.125
  0
LTYPE
  2
PHANTOM
 70
    64
  3
_____ _ _ _____ _ _ _____ _ _ _____ _ _ ____
 72
    65
 73
     6
 40
2.5
 49
1.25
 49
-0.25
 49
0.25
 49
-0.25
 49
0.25
 49
-0.25
  0
LTYPE
  2
CENTER
 70
    64
  3
____ _ ____ _ ____ _ ____ _ ____ _ ____ _ ____
 72
    65
 73
     4
 40
2.0
 49
1.25
 49
-0.25
 49
0.25
 49
-0.25
  0
LTYPE
  2
HIDDEN2
 70
    64
  3
_ _ _ _ _ _ _ _ _ _ _ _ _ _ _ _ _ _ _ _ _ _ _ _
 72
    65
 73
     2
 40
0.1875
 49
0.125
 49
-0.0625
  0
LTYPE
  2
PHANTOM2
 70
    64
  3
___ _ _ ___ _ _ ___ _ _ ___ _ _ ___ _ _ ___ _ _
 72
    65
 73
     6
 40
1.25
 49
0.625
 49
-0.125
 49
0.125
 49
-0.125
 49
0.125
 49
-0.125
  0
ENDTAB
  0
TABLE
  2
LAYER
 70
     9
  0
LAYER
  2
0
 70
    64
 62
     7
  6
CONTINUOUS
  0
LAYER
  2
OBJECT
 70
    64
 62
     7
  6
CONTINUOUS
  0
LAYER
  2
DIM
 70
    64
 62
     7
  6
CONTINUOUS
  0
LAYER
  2
HIDDEN
 70
    64
 62
     7
  6
HIDDEN
  0
LAYER
  2
BEND
 70
    64
 62
     7
  6
PHANTOM
  0
LAYER
  2
TEXT
 70
    64
 62
     7
  6
CONTINUOUS
  0
LAYER
  2
TITLE
 70
    64
 62
     7
  6
CONTINUOUS
  0
LAYER
  2
CENTER
 70
    64
 62
     7
  6
CENTER
  0
LAYER
  2
DEFPOINTS
 70
    64
 62
     7
  6
CONTINUOUS
  0
ENDTAB
  0
TABLE
  2
STYLE
 70
     2
  0
STYLE
  2
TXT
 70
    64
 40
0.0
 41
0.75
 50
0.0
 71
     0
 42
0.2
  3
TXT.shx
  4

  0
STYLE
  2
STANDARD
 70
     0
 40
0.0
 41
0.75
 50
0.0
 71
     0
 42
0.18
  3
TXT.shx
  4

  0
ENDTAB
  0
TABLE
  2
VIEW
 70
     0
  0
ENDTAB
  0
TABLE
  2
UCS
 70
     0
  0
ENDTAB
  0
TABLE
  2
APPID
 70
     1
  0
APPID
  2
ACAD
 70
    64
  0
ENDTAB
  0
TABLE
  2
DIMSTYLE
 70
     2
  0
DIMSTYLE
  2
23NSTD
 70
    64
  3

  4

  5

  6

  7

 40
5.0
 41
0.18
 42
0.063
 43
0.281
 44
0.093
 45
0.0
 46
0.0
 47
0.0
 48
0.0
140
0.125
141
0.09
142
0.0
143
25.4
144
1.0
145
0.0
146
1.0
147
0.09
 71
     0
 72
     0
 73
     1
 74
     1
 75
     0
 76
     0
 77
     0
 78
     0
170
     0
171
     2
172
     0
173
     0
174
     0
175
     0
176
     0
177
     0
178
     0
  0
DIMSTYLE
  2
23NSTDI
 70
    64
  3

  4

  5

  6

  7

 40
5.0
 41
0.18
 42
0.063
 43
0.281
 44
0.093
 45
0.0
 46
0.0
 47
0.0
 48
0.0
140
0.125
141
0.09
142
0.0
143
25.4
144
1.0
145
0.0
146
1.0
147
0.09
 71
     0
 72
     0
 73
     1
 74
     1
 75
     0
 76
     0
 77
     0
 78
     0
170
     0
171
     2
172
     0
173
     0
174
     1
175
     0
176
     0
177
     0
178
     0
  0
ENDTAB
  0
ENDSEC
  0
SECTION
  2
BLOCKS
  0
BLOCK
  8
0
  2
*D0
 70
    65
 10
0.0
 20
0.0
 30
0.0
  3
*D
  0
LINE
  8
0
  6
BYBLOCK
 62
     0
 10
29.852911
 20
44.257448
 30
0.0
 11
29.852911
 21
42.733736
 31
0.0
  0
LINE
  8
0
  6
BYBLOCK
 62
     0
 10
48.852911
 20
44.257448
 30
0.0
 11
48.852911
 21
42.733736
 31
0.0
  0
LINE
  8
0
  6
BYBLOCK
 62
     0
 10
30.752911
 20
43.198736
 30
0.0
 11
37.926348
 21
43.198736
 31
0.0
  0
LINE
  8
0
  6
BYBLOCK
 62
     0
 10
47.952911
 20
43.198736
 30
0.0
 11
40.779473
 21
43.198736
 31
0.0
  0
SOLID
  8
0
  6
BYBLOCK
 62
     0
 10
30.752911
 20
43.348736
 30
0.0
 11
30.752911
 21
43.048736
 31
0.0
 12
29.852911
 22
43.198736
 32
0.0
 13
29.852911
 23
43.198736
 33
0.0
  0
SOLID
  8
0
  6
BYBLOCK
 62
     0
 10
47.952911
 20
43.348736
 30
0.0
 11
47.952911
 21
43.048736
 31
0.0
 12
48.852911
 22
43.198736
 32
0.0
 13
48.852911
 23
43.198736
 33
0.0
  0
TEXT
  8
0
  6
BYBLOCK
 62
     0
 10
38.376348
 20
42.886236
 30
0.0
 40
0.625
  1
19.000
 41
0.75
 72
     1
 11
39.352911
 21
43.198736
 31
0.0
 73
     2
  0
POINT
  8
DEFPOINTS
  6
BYBLOCK
 62
     0
 10
29.852911
 20
44.572448
 30
0.0
  0
POINT
  8
DEFPOINTS
  6
BYBLOCK
 62
     0
 10
48.852911
 20
44.572448
 30
0.0
  0
POINT
  8
DEFPOINTS
  6
BYBLOCK
 62
     0
 10
48.852911
 20
43.198736
 30
0.0
  0
ENDBLK
  8
0
  0
BLOCK
  8
0
  2
*D1
 70
    65
 10
0.0
 20
0.0
 30
0.0
  3
*D
  0
LINE
  8
0
  6
BYBLOCK
 62
     0
 10
8.055465
 20
19.86196
 30
0.0
 11
8.055465
 21
21.917673
 31
0.0
  0
LINE
  8
0
  6
BYBLOCK
 62
     0
 10
22.555465
 20
19.86196
 30
0.0
 11
22.555465
 21
21.917673
 31
0.0
  0
LINE
  8
0
  6
BYBLOCK
 62
     0
 10
8.955465
 20
21.452673
 30
0.0
 11
10.207028
 21
21.452673
 31
0.0
  0
LINE
  8
0
  6
BYBLOCK
 62
     0
 10
21.655465
 20
21.452673
 30
0.0
 11
20.403903
 21
21.452673
 31
0.0
  0
SOLID
  8
0
  6
BYBLOCK
 62
     0
 10
8.955465
 20
21.602673
 30
0.0
 11
8.955465
 21
21.302673
 31
0.0
 12
8.055465
 22
21.452673
 32
0.0
 13
8.055465
 23
21.452673
 33
0.0
  0
SOLID
  8
0
  6
BYBLOCK
 62
     0
 10
21.655465
 20
21.602673
 30
0.0
 11
21.655465
 21
21.302673
 31
0.0
 12
22.555465
 22
21.452673
 32
0.0
 13
22.555465
 23
21.452673
 33
0.0
  0
TEXT
  8
0
  6
BYBLOCK
 62
     0
 10
10.657028
 20
21.140173
 30
0.0
 40
0.625
  1
(D) SPACES @ 0.500 = E
 41
0.75
 72
     1
 11
15.305465
 21
21.452673
 31
0.0
 73
     2
  0
POINT
  8
DEFPOINTS
  6
BYBLOCK
 62
     0
 10
8.055465
 20
19.54696
 30
0.0
  0
POINT
  8
DEFPOINTS
  6
BYBLOCK
 62
     0
 10
22.555465
 20
19.54696
 30
0.0
  0
POINT
  8
DEFPOINTS
  6
BYBLOCK
 62
     0
 10
22.555465
 20
21.452673
 30
0.0
  0
ENDBLK
  8
0
  0
BLOCK
  8
0
  2
*D2
 70
    65
 10
0.0
 20
0.0
 30
0.0
  3
*D
  0
LINE
  8
0
  6
BYBLOCK
 62
     0
 10
20.739374
 20
6.240188
 30
0.0
 11
20.081943
 21
6.240188
 31
0.0
  0
LINE
  8
0
  6
BYBLOCK
 62
     0
 10
20.739374
 20
5.865188
 30
0.0
 11
20.081943
 21
5.865188
 31
0.0
  0
LINE
  8
0
  6
BYBLOCK
 62
     0
 10
20.546943
 20
7.140188
 30
0.0
 11
20.546943
 21
8.040188
 31
0.0
  0
LINE
  8
0
  6
BYBLOCK
 62
     0
 10
20.546943
 20
4.965188
 30
0.0
 11
20.546943
 21
4.065188
 31
0.0
  0
LINE
  8
0
  6
BYBLOCK
 62
     0
 10
20.546943
 20
4.065188
 30
0.0
 11
19.646943
 21
4.065188
 31
0.0
  0
SOLID
  8
0
  6
BYBLOCK
 62
     0
 10
20.396943
 20
7.140188
 30
0.0
 11
20.696943
 21
7.140188
 31
0.0
 12
20.546943
 22
6.240188
 32
0.0
 13
20.546943
 23
6.240188
 33
0.0
  0
SOLID
  8
0
  6
BYBLOCK
 62
     0
 10
20.396943
 20
4.965188
 30
0.0
 11
20.696943
 21
4.965188
 31
0.0
 12
20.546943
 22
5.865188
 32
0.0
 13
20.546943
 23
5.865188
 33
0.0
  0
TEXT
  8
0
  6
BYBLOCK
 62
     0
 10
17.400068
 20
3.752688
 30
0.0
 40
0.625
  1
0.375
 41
0.75
 72
     1
 11
18.298505
 21
4.065188
 31
0.0
 73
     2
  0
POINT
  8
DEFPOINTS
  6
BYBLOCK
 62
     0
 10
21.054374
 20
6.240188
 30
0.0
  0
POINT
  8
DEFPOINTS
  6
BYBLOCK
 62
     0
 10
21.054374
 20
5.865188
 30
0.0
  0
POINT
  8
DEFPOINTS
  6
BYBLOCK
 62
     0
 10
20.546943
 20
5.865188
 30
0.0
  0
ENDBLK
  8
0
  0
BLOCK
  8
0
  2
*D3
 70
    65
 10
0.0
 20
0.0
 30
0.0
  3
*D
  0
LINE
  8
0
  6
BYBLOCK
 62
     0
 10
20.739374
 20
44.947448
 30
0.0
 11
20.081943
 21
44.947448
 31
0.0
  0
LINE
  8
0
  6
BYBLOCK
 62
     0
 10
20.739374
 20
44.572448
 30
0.0
 11
20.081943
 21
44.572448
 31
0.0
  0
LINE
  8
0
  6
BYBLOCK
 62
     0
 10
20.546943
 20
45.847448
 30
0.0
 11
20.546943
 21
46.747448
 31
0.0
  0
LINE
  8
0
  6
BYBLOCK
 62
     0
 10
20.546943
 20
43.672448
 30
0.0
 11
20.546943
 21
42.772448
 31
0.0
  0
LINE
  8
0
  6
BYBLOCK
 62
     0
 10
20.546943
 20
42.772448
 30
0.0
 11
19.646943
 21
42.772448
 31
0.0
  0
SOLID
  8
0
  6
BYBLOCK
 62
     0
 10
20.396943
 20
45.847448
 30
0.0
 11
20.696943
 21
45.847448
 31
0.0
 12
20.546943
 22
44.947448
 32
0.0
 13
20.546943
 23
44.947448
 33
0.0
  0
SOLID
  8
0
  6
BYBLOCK
 62
     0
 10
20.396943
 20
43.672448
 30
0.0
 11
20.696943
 21
43.672448
 31
0.0
 12
20.546943
 22
44.572448
 32
0.0
 13
20.546943
 23
44.572448
 33
0.0
  0
TEXT
  8
0
  6
BYBLOCK
 62
     0
 10
17.400068
 20
42.459948
 30
0.0
 40
0.625
  1
0.375
 41
0.75
 72
     1
 11
18.298505
 21
42.772448
 31
0.0
 73
     2
  0
POINT
  8
DEFPOINTS
  6
BYBLOCK
 62
     0
 10
21.054374
 20
44.947448
 30
0.0
  0
POINT
  8
DEFPOINTS
  6
BYBLOCK
 62
     0
 10
21.054374
 20
44.572448
 30
0.0
  0
POINT
  8
DEFPOINTS
  6
BYBLOCK
 62
     0
 10
20.546943
 20
44.572448
 30
0.0
  0
ENDBLK
  8
0
  0
BLOCK
  8
0
  2
*D4
 70
    65
 10
0.0
 20
0.0
 30
0.0
  3
*D
  0
LINE
  8
0
  6
BYBLOCK
 62
     0
 10
5.303465
 20
44.572448
 30
0.0
 11
3.683631
 21
44.572448
 31
0.0
  0
LINE
  8
0
  6
BYBLOCK
 62
     0
 10
5.303465
 20
49.790448
 30
0.0
 11
3.683631
 21
49.790448
 31
0.0
  0
LINE
  8
0
  6
BYBLOCK
 62
     0
 10
4.148631
 20
45.472448
 30
0.0
 11
4.148631
 21
46.418948
 31
0.0
  0
LINE
  8
0
  6
BYBLOCK
 62
     0
 10
4.148631
 20
48.890448
 30
0.0
 11
4.148631
 21
47.943948
 31
0.0
  0
SOLID
  8
0
  6
BYBLOCK
 62
     0
 10
3.998631
 20
45.472448
 30
0.0
 11
4.298631
 21
45.472448
 31
0.0
 12
4.148631
 22
44.572448
 32
0.0
 13
4.148631
 23
44.572448
 33
0.0
  0
SOLID
  8
0
  6
BYBLOCK
 62
     0
 10
3.998631
 20
48.890448
 30
0.0
 11
4.298631
 21
48.890448
 31
0.0
 12
4.148631
 22
49.790448
 32
0.0
 13
4.148631
 23
49.790448
 33
0.0
  0
TEXT
  8
0
  6
BYBLOCK
 62
     0
 10
3.289256
 20
46.868948
 30
0.0
 40
0.625
  1
5.218
 41
0.75
 72
     1
 11
4.148631
 21
47.181448
 31
0.0
 73
     2
  0
POINT
  8
DEFPOINTS
  6
BYBLOCK
 62
     0
 10
5.618465
 20
44.572448
 30
0.0
  0
POINT
  8
DEFPOINTS
  6
BYBLOCK
 62
     0
 10
5.618465
 20
49.790448
 30
0.0
  0
POINT
  8
DEFPOINTS
  6
BYBLOCK
 62
     0
 10
4.148631
 20
49.790448
 30
0.0
  0
ENDBLK
  8
0
  0
BLOCK
  8
0
  2
*D5
 70
    65
 10
0.0
 20
0.0
 30
0.0
  3
*D
  0
LINE
  8
0
  6
BYBLOCK
 62
     0
 10
22.651465
 20
17.54696
 30
0.0
 11
30.68601
 21
17.54696
 31
0.0
  0
LINE
  8
0
  6
BYBLOCK
 62
     0
 10
22.901465
 20
34.04696
 30
0.0
 11
30.68601
 21
34.04696
 31
0.0
  0
LINE
  8
0
  6
BYBLOCK
 62
     0
 10
30.22101
 20
18.44696
 30
0.0
 11
30.22101
 21
25.03446
 31
0.0
  0
LINE
  8
0
  6
BYBLOCK
 62
     0
 10
30.22101
 20
33.14696
 30
0.0
 11
30.22101
 21
26.55946
 31
0.0
  0
SOLID
  8
0
  6
BYBLOCK
 62
     0
 10
30.07101
 20
18.44696
 30
0.0
 11
30.37101
 21
18.44696
 31
0.0
 12
30.22101
 22
17.54696
 32
0.0
 13
30.22101
 23
17.54696
 33
0.0
  0
SOLID
  8
0
  6
BYBLOCK
 62
     0
 10
30.07101
 20
33.14696
 30
0.0
 11
30.37101
 21
33.14696
 31
0.0
 12
30.22101
 22
34.04696
 32
0.0
 13
30.22101
 23
34.04696
 33
0.0
  0
TEXT
  8
0
  6
BYBLOCK
 62
     0
 10
24.400697
 20
25.48446
 30
0.0
 40
0.625
  1
(11) SPACES @ 1.500 = 
 41
0.75
 72
     1
 11
28.931947
 21
25.79696
 31
0.0
 73
     2
  0
TEXT
  8
0
  6
BYBLOCK
 62
     0
 10
33.619447
 20
25.48446
 30
0.0
 40
0.625
  1
16.5000
 41
0.75
 72
     1
 11
34.830385
 21
25.79696
 31
0.0
 73
     2
  0
POINT
  8
DEFPOINTS
  6
BYBLOCK
 62
     0
 10
22.336465
 20
17.54696
 30
0.0
  0
POINT
  8
DEFPOINTS
  6
BYBLOCK
 62
     0
 10
22.586465
 20
34.04696
 30
0.0
  0
POINT
  8
DEFPOINTS
  6
BYBLOCK
 62
     0
 10
30.22101
 20
34.04696
 30
0.0
  0
ENDBLK
  8
0
  0
BLOCK
  8
0
  2
*D6
 70
    65
 10
0.0
 20
0.0
 30
0.0
  3
*D
  0
LINE
  8
0
  6
BYBLOCK
 62
     0
 10
5.821465
 20
50.011948
 30
0.0
 11
5.821465
 21
51.779282
 31
0.0
  0
LINE
  8
0
  6
BYBLOCK
 62
     0
 10
5.493465
 20
50.105448
 30
0.0
 11
5.493465
 21
51.779282
 31
0.0
  0
LINE
  8
0
  6
BYBLOCK
 62
     0
 10
6.721465
 20
51.314282
 30
0.0
 11
7.621465
 21
51.314282
 31
0.0
  0
LINE
  8
0
  6
BYBLOCK
 62
     0
 10
4.593465
 20
51.314282
 30
0.0
 11
3.693465
 21
51.314282
 31
0.0
  0
SOLID
  8
0
  6
BYBLOCK
 62
     0
 10
6.721465
 20
51.464282
 30
0.0
 11
6.721465
 21
51.164282
 31
0.0
 12
5.821465
 22
51.314282
 32
0.0
 13
5.821465
 23
51.314282
 33
0.0
  0
SOLID
  8
0
  6
BYBLOCK
 62
     0
 10
4.593465
 20
51.464282
 30
0.0
 11
4.593465
 21
51.164282
 31
0.0
 12
5.493465
 22
51.314282
 32
0.0
 13
5.493465
 23
51.314282
 33
0.0
  0
TEXT
  8
0
  6
BYBLOCK
 62
     0
 10
1.44659
 20
51.001782
 30
0.0
 40
0.625
  1
0.328
 41
0.75
 72
     1
 11
2.345028
 21
51.314282
 31
0.0
 73
     2
  0
POINT
  8
DEFPOINTS
  6
BYBLOCK
 62
     0
 10
5.821465
 20
49.696948
 30
0.0
  0
POINT
  8
DEFPOINTS
  6
BYBLOCK
 62
     0
 10
5.493465
 20
49.790448
 30
0.0
  0
POINT
  8
DEFPOINTS
  6
BYBLOCK
 62
     0
 10
5.493465
 20
51.314282
 30
0.0
  0
ENDBLK
  8
0
  0
BLOCK
  8
0
  2
*D7
 70
    65
 10
0.0
 20
0.0
 30
0.0
  3
*D
  0
LINE
  8
0
  6
BYBLOCK
 62
     0
 10
5.821465
 20
11.304688
 30
0.0
 11
5.821465
 21
13.072022
 31
0.0
  0
LINE
  8
0
  6
BYBLOCK
 62
     0
 10
5.493465
 20
11.398188
 30
0.0
 11
5.493465
 21
13.072022
 31
0.0
  0
LINE
  8
0
  6
BYBLOCK
 62
     0
 10
6.721465
 20
12.607022
 30
0.0
 11
7.621465
 21
12.607022
 31
0.0
  0
LINE
  8
0
  6
BYBLOCK
 62
     0
 10
4.593465
 20
12.607022
 30
0.0
 11
3.693465
 21
12.607022
 31
0.0
  0
SOLID
  8
0
  6
BYBLOCK
 62
     0
 10
6.721465
 20
12.757022
 30
0.0
 11
6.721465
 21
12.457022
 31
0.0
 12
5.821465
 22
12.607022
 32
0.0
 13
5.821465
 23
12.607022
 33
0.0
  0
SOLID
  8
0
  6
BYBLOCK
 62
     0
 10
4.593465
 20
12.757022
 30
0.0
 11
4.593465
 21
12.457022
 31
0.0
 12
5.493465
 22
12.607022
 32
0.0
 13
5.493465
 23
12.607022
 33
0.0
  0
TEXT
  8
0
  6
BYBLOCK
 62
     0
 10
1.44659
 20
12.294522
 30
0.0
 40
0.625
  1
0.328
 41
0.75
 72
     1
 11
2.345028
 21
12.607022
 31
0.0
 73
     2
  0
POINT
  8
DEFPOINTS
  6
BYBLOCK
 62
     0
 10
5.821465
 20
10.989688
 30
0.0
  0
POINT
  8
DEFPOINTS
  6
BYBLOCK
 62
     0
 10
5.493465
 20
11.083188
 30
0.0
  0
POINT
  8
DEFPOINTS
  6
BYBLOCK
 62
     0
 10
5.493465
 20
12.607022
 30
0.0
  0
ENDBLK
  8
0
  0
BLOCK
  8
0
  2
*D8
 70
    65
 10
0.0
 20
0.0
 30
0.0
  3
*D
  0
LINE
  8
0
  6
BYBLOCK
 62
     0
 10
24.822965
 20
46.056448
 30
0.0
 11
26.879453
 21
46.056448
 31
0.0
  0
LINE
  8
0
  6
BYBLOCK
 62
     0
 10
24.822965
 20
44.806448
 30
0.0
 11
26.879453
 21
44.806448
 31
0.0
  0
LINE
  8
0
  6
BYBLOCK
 62
     0
 10
26.414453
 20
46.956448
 30
0.0
 11
26.414453
 21
47.856448
 31
0.0
  0
LINE
  8
0
  6
BYBLOCK
 62
     0
 10
26.414453
 20
43.906448
 30
0.0
 11
26.414453
 21
43.006448
 31
0.0
  0
SOLID
  8
0
  6
BYBLOCK
 62
     0
 10
26.264453
 20
46.956448
 30
0.0
 11
26.564453
 21
46.956448
 31
0.0
 12
26.414453
 22
46.056448
 32
0.0
 13
26.414453
 23
46.056448
 33
0.0
  0
SOLID
  8
0
  6
BYBLOCK
 62
     0
 10
26.264453
 20
43.906448
 30
0.0
 11
26.564453
 21
43.906448
 31
0.0
 12
26.414453
 22
44.806448
 32
0.0
 13
26.414453
 23
44.806448
 33
0.0
  0
TEXT
  8
0
  6
BYBLOCK
 62
     0
 10
25.594141
 20
45.118948
 30
0.0
 40
0.625
  1
1.250
 41
0.75
 72
     1
 11
26.414453
 21
45.431448
 31
0.0
 73
     2
  0
POINT
  8
DEFPOINTS
  6
BYBLOCK
 62
     0
 10
24.507965
 20
46.056448
 30
0.0
  0
POINT
  8
DEFPOINTS
  6
BYBLOCK
 62
     0
 10
24.507965
 20
44.806448
 30
0.0
  0
POINT
  8
DEFPOINTS
  6
BYBLOCK
 62
     0
 10
26.414453
 20
44.806448
 30
0.0
  0
ENDBLK
  8
0
  0
BLOCK
  8
0
  2
*D9
 70
    65
 10
0.0
 20
0.0
 30
0.0
  3
*D
  0
LINE
  8
0
  6
BYBLOCK
 62
     0
 10
24.822965
 20
46.056448
 30
0.0
 11
28.737546
 21
46.056448
 31
0.0
  0
LINE
  8
0
  6
BYBLOCK
 62
     0
 10
24.822965
 20
48.306448
 30
0.0
 11
28.737546
 21
48.306448
 31
0.0
  0
LINE
  8
0
  6
BYBLOCK
 62
     0
 10
28.272546
 20
45.156448
 30
0.0
 11
28.272546
 21
44.256448
 31
0.0
  0
LINE
  8
0
  6
BYBLOCK
 62
     0
 10
28.272546
 20
49.206448
 30
0.0
 11
28.272546
 21
50.106448
 31
0.0
  0
SOLID
  8
0
  6
BYBLOCK
 62
     0
 10
28.122546
 20
45.156448
 30
0.0
 11
28.422546
 21
45.156448
 31
0.0
 12
28.272546
 22
46.056448
 32
0.0
 13
28.272546
 23
46.056448
 33
0.0
  0
SOLID
  8
0
  6
BYBLOCK
 62
     0
 10
28.122546
 20
49.206448
 30
0.0
 11
28.422546
 21
49.206448
 31
0.0
 12
28.272546
 22
48.306448
 32
0.0
 13
28.272546
 23
48.306448
 33
0.0
  0
TEXT
  8
0
  6
BYBLOCK
 62
     0
 10
27.374109
 20
46.868948
 30
0.0
 40
0.625
  1
2.250
 41
0.75
 72
     1
 11
28.272546
 21
47.181448
 31
0.0
 73
     2
  0
POINT
  8
DEFPOINTS
  6
BYBLOCK
 62
     0
 10
24.507965
 20
46.056448
 30
0.0
  0
POINT
  8
DEFPOINTS
  6
BYBLOCK
 62
     0
 10
24.507965
 20
48.306448
 30
0.0
  0
POINT
  8
DEFPOINTS
  6
BYBLOCK
 62
     0
 10
28.272546
 20
48.306448
 30
0.0
  0
ENDBLK
  8
0
  0
BLOCK
  8
0
  2
*D10
 70
    65
 10
0.0
 20
0.0
 30
0.0
  3
*D
  0
LINE
  8
0
  6
BYBLOCK
 62
     0
 10
24.822965
 20
48.306448
 30
0.0
 11
30.567487
 21
48.306448
 31
0.0
  0
LINE
  8
0
  6
BYBLOCK
 62
     0
 10
24.822965
 20
49.556448
 30
0.0
 11
30.567487
 21
49.556448
 31
0.0
  0
LINE
  8
0
  6
BYBLOCK
 62
     0
 10
30.102487
 20
47.406448
 30
0.0
 11
30.102487
 21
46.506448
 31
0.0
  0
LINE
  8
0
  6
BYBLOCK
 62
     0
 10
30.102487
 20
50.456448
 30
0.0
 11
30.102487
 21
51.356448
 31
0.0
  0
SOLID
  8
0
  6
BYBLOCK
 62
     0
 10
29.952487
 20
47.406448
 30
0.0
 11
30.252487
 21
47.406448
 31
0.0
 12
30.102487
 22
48.306448
 32
0.0
 13
30.102487
 23
48.306448
 33
0.0
  0
SOLID
  8
0
  6
BYBLOCK
 62
     0
 10
29.952487
 20
50.456448
 30
0.0
 11
30.252487
 21
50.456448
 31
0.0
 12
30.102487
 22
49.556448
 32
0.0
 13
30.102487
 23
49.556448
 33
0.0
  0
TEXT
  8
0
  6
BYBLOCK
 62
     0
 10
29.282174
 20
48.618948
 30
0.0
 40
0.625
  1
1.250
 41
0.75
 72
     1
 11
30.102487
 21
48.931448
 31
0.0
 73
     2
  0
POINT
  8
DEFPOINTS
  6
BYBLOCK
 62
     0
 10
24.507965
 20
48.306448
 30
0.0
  0
POINT
  8
DEFPOINTS
  6
BYBLOCK
 62
     0
 10
24.507965
 20
49.556448
 30
0.0
  0
POINT
  8
DEFPOINTS
  6
BYBLOCK
 62
     0
 10
30.102487
 20
49.556448
 30
0.0
  0
ENDBLK
  8
0
  0
BLOCK
  8
0
  2
*D11
 70
    65
 10
0.0
 20
0.0
 30
0.0
  3
*D
  0
LINE
  8
0
  6
BYBLOCK
 62
     0
 10
24.822965
 20
9.599188
 30
0.0
 11
30.567487
 21
9.599188
 31
0.0
  0
LINE
  8
0
  6
BYBLOCK
 62
     0
 10
24.822965
 20
10.849188
 30
0.0
 11
30.567487
 21
10.849188
 31
0.0
  0
LINE
  8
0
  6
BYBLOCK
 62
     0
 10
30.102487
 20
8.699188
 30
0.0
 11
30.102487
 21
7.799188
 31
0.0
  0
LINE
  8
0
  6
BYBLOCK
 62
     0
 10
30.102487
 20
11.749188
 30
0.0
 11
30.102487
 21
12.649188
 31
0.0
  0
SOLID
  8
0
  6
BYBLOCK
 62
     0
 10
29.952487
 20
8.699188
 30
0.0
 11
30.252487
 21
8.699188
 31
0.0
 12
30.102487
 22
9.599188
 32
0.0
 13
30.102487
 23
9.599188
 33
0.0
  0
SOLID
  8
0
  6
BYBLOCK
 62
     0
 10
29.952487
 20
11.749188
 30
0.0
 11
30.252487
 21
11.749188
 31
0.0
 12
30.102487
 22
10.849188
 32
0.0
 13
30.102487
 23
10.849188
 33
0.0
  0
TEXT
  8
0
  6
BYBLOCK
 62
     0
 10
29.282174
 20
9.911688
 30
0.0
 40
0.625
  1
1.250
 41
0.75
 72
     1
 11
30.102487
 21
10.224188
 31
0.0
 73
     2
  0
POINT
  8
DEFPOINTS
  6
BYBLOCK
 62
     0
 10
24.507965
 20
9.599188
 30
0.0
  0
POINT
  8
DEFPOINTS
  6
BYBLOCK
 62
     0
 10
24.507965
 20
10.849188
 30
0.0
  0
POINT
  8
DEFPOINTS
  6
BYBLOCK
 62
     0
 10
30.102487
 20
10.849188
 30
0.0
  0
ENDBLK
  8
0
  0
BLOCK
  8
0
  2
*D12
 70
    65
 10
0.0
 20
0.0
 30
0.0
  3
*D
  0
LINE
  8
0
  6
BYBLOCK
 62
     0
 10
24.822965
 20
7.349188
 30
0.0
 11
28.737546
 21
7.349188
 31
0.0
  0
LINE
  8
0
  6
BYBLOCK
 62
     0
 10
24.822965
 20
9.599188
 30
0.0
 11
28.737546
 21
9.599188
 31
0.0
  0
LINE
  8
0
  6
BYBLOCK
 62
     0
 10
28.272546
 20
6.449188
 30
0.0
 11
28.272546
 21
5.549188
 31
0.0
  0
LINE
  8
0
  6
BYBLOCK
 62
     0
 10
28.272546
 20
10.499188
 30
0.0
 11
28.272546
 21
11.399188
 31
0.0
  0
SOLID
  8
0
  6
BYBLOCK
 62
     0
 10
28.122546
 20
6.449188
 30
0.0
 11
28.422546
 21
6.449188
 31
0.0
 12
28.272546
 22
7.349188
 32
0.0
 13
28.272546
 23
7.349188
 33
0.0
  0
SOLID
  8
0
  6
BYBLOCK
 62
     0
 10
28.122546
 20
10.499188
 30
0.0
 11
28.422546
 21
10.499188
 31
0.0
 12
28.272546
 22
9.599188
 32
0.0
 13
28.272546
 23
9.599188
 33
0.0
  0
TEXT
  8
0
  6
BYBLOCK
 62
     0
 10
27.374109
 20
8.161688
 30
0.0
 40
0.625
  1
2.250
 41
0.75
 72
     1
 11
28.272546
 21
8.474188
 31
0.0
 73
     2
  0
POINT
  8
DEFPOINTS
  6
BYBLOCK
 62
     0
 10
24.507965
 20
7.349188
 30
0.0
  0
POINT
  8
DEFPOINTS
  6
BYBLOCK
 62
     0
 10
24.507965
 20
9.599188
 30
0.0
  0
POINT
  8
DEFPOINTS
  6
BYBLOCK
 62
     0
 10
28.272546
 20
9.599188
 30
0.0
  0
ENDBLK
  8
0
  0
BLOCK
  8
0
  2
*D13
 70
    65
 10
0.0
 20
0.0
 30
0.0
  3
*D
  0
LINE
  8
0
  6
BYBLOCK
 62
     0
 10
24.822965
 20
7.349188
 30
0.0
 11
26.879453
 21
7.349188
 31
0.0
  0
LINE
  8
0
  6
BYBLOCK
 62
     0
 10
24.822965
 20
6.099188
 30
0.0
 11
26.879453
 21
6.099188
 31
0.0
  0
LINE
  8
0
  6
BYBLOCK
 62
     0
 10
26.414453
 20
8.249188
 30
0.0
 11
26.414453
 21
9.149188
 31
0.0
  0
LINE
  8
0
  6
BYBLOCK
 62
     0
 10
26.414453
 20
5.199188
 30
0.0
 11
26.414453
 21
4.299188
 31
0.0
  0
SOLID
  8
0
  6
BYBLOCK
 62
     0
 10
26.264453
 20
8.249188
 30
0.0
 11
26.564453
 21
8.249188
 31
0.0
 12
26.414453
 22
7.349188
 32
0.0
 13
26.414453
 23
7.349188
 33
0.0
  0
SOLID
  8
0
  6
BYBLOCK
 62
     0
 10
26.264453
 20
5.199188
 30
0.0
 11
26.564453
 21
5.199188
 31
0.0
 12
26.414453
 22
6.099188
 32
0.0
 13
26.414453
 23
6.099188
 33
0.0
  0
TEXT
  8
0
  6
BYBLOCK
 62
     0
 10
25.594141
 20
6.411688
 30
0.0
 40
0.625
  1
1.250
 41
0.75
 72
     1
 11
26.414453
 21
6.724188
 31
0.0
 73
     2
  0
POINT
  8
DEFPOINTS
  6
BYBLOCK
 62
     0
 10
24.507965
 20
7.349188
 30
0.0
  0
POINT
  8
DEFPOINTS
  6
BYBLOCK
 62
     0
 10
24.507965
 20
6.099188
 30
0.0
  0
POINT
  8
DEFPOINTS
  6
BYBLOCK
 62
     0
 10
26.414453
 20
6.099188
 30
0.0
  0
ENDBLK
  8
0
  0
BLOCK
  8
0
  2
*D14
 70
    65
 10
0.0
 20
0.0
 30
0.0
  3
*D
  0
LINE
  8
0
  6
BYBLOCK
 62
     0
 10
6.305465
 20
15.98196
 30
0.0
 11
6.305465
 21
14.554888
 31
0.0
  0
LINE
  8
0
  6
BYBLOCK
 62
     0
 10
23.930465
 20
15.98196
 30
0.0
 11
23.930465
 21
14.554888
 31
0.0
  0
LINE
  8
0
  6
BYBLOCK
 62
     0
 10
7.205465
 20
15.019888
 30
0.0
 11
14.511715
 21
15.019888
 31
0.0
  0
LINE
  8
0
  6
BYBLOCK
 62
     0
 10
23.030465
 20
15.019888
 30
0.0
 11
15.724215
 21
15.019888
 31
0.0
  0
SOLID
  8
0
  6
BYBLOCK
 62
     0
 10
7.205465
 20
15.169888
 30
0.0
 11
7.205465
 21
14.869888
 31
0.0
 12
6.305465
 22
15.019888
 32
0.0
 13
6.305465
 23
15.019888
 33
0.0
  0
SOLID
  8
0
  6
BYBLOCK
 62
     0
 10
23.030465
 20
15.169888
 30
0.0
 11
23.030465
 21
14.869888
 31
0.0
 12
23.930465
 22
15.019888
 32
0.0
 13
23.930465
 23
15.019888
 33
0.0
  0
TEXT
  8
0
  6
BYBLOCK
 62
     0
 10
14.961715
 20
14.707388
 30
0.0
 40
0.625
  1
A
 41
0.75
 72
     1
 11
15.117965
 21
15.019888
 31
0.0
 73
     2
  0
POINT
  8
DEFPOINTS
  6
BYBLOCK
 62
     0
 10
6.305465
 20
16.29696
 30
0.0
  0
POINT
  8
DEFPOINTS
  6
BYBLOCK
 62
     0
 10
23.930465
 20
16.29696
 30
0.0
  0
POINT
  8
DEFPOINTS
  6
BYBLOCK
 62
     0
 10
23.930465
 20
15.019888
 30
0.0
  0
ENDBLK
  8
0
  0
BLOCK
  8
0
  2
*D15
 70
    65
 10
0.0
 20
0.0
 30
0.0
  3
*D
  0
LINE
  8
0
  6
BYBLOCK
 62
     0
 10
6.305465
 20
55.08435
 30
0.0
 11
6.305465
 21
53.63701
 31
0.0
  0
LINE
  8
0
  6
BYBLOCK
 62
     0
 10
23.930465
 20
55.08435
 30
0.0
 11
23.930465
 21
53.63701
 31
0.0
  0
LINE
  8
0
  6
BYBLOCK
 62
     0
 10
7.205465
 20
54.10201
 30
0.0
 11
14.511715
 21
54.10201
 31
0.0
  0
LINE
  8
0
  6
BYBLOCK
 62
     0
 10
23.030465
 20
54.10201
 30
0.0
 11
15.724215
 21
54.10201
 31
0.0
  0
SOLID
  8
0
  6
BYBLOCK
 62
     0
 10
7.205465
 20
54.25201
 30
0.0
 11
7.205465
 21
53.95201
 31
0.0
 12
6.305465
 22
54.10201
 32
0.0
 13
6.305465
 23
54.10201
 33
0.0
  0
SOLID
  8
0
  6
BYBLOCK
 62
     0
 10
23.030465
 20
54.25201
 30
0.0
 11
23.030465
 21
53.95201
 31
0.0
 12
23.930465
 22
54.10201
 32
0.0
 13
23.930465
 23
54.10201
 33
0.0
  0
TEXT
  8
0
  6
BYBLOCK
 62
     0
 10
14.961715
 20
53.78951
 30
0.0
 40
0.625
  1
A
 41
0.75
 72
     1
 11
15.117965
 21
54.10201
 31
0.0
 73
     2
  0
POINT
  8
DEFPOINTS
  6
BYBLOCK
 62
     0
 10
6.305465
 20
55.39935
 30
0.0
  0
POINT
  8
DEFPOINTS
  6
BYBLOCK
 62
     0
 10
23.930465
 20
55.39935
 30
0.0
  0
POINT
  8
DEFPOINTS
  6
BYBLOCK
 62
     0
 10
23.930465
 20
54.10201
 30
0.0
  0
ENDBLK
  8
0
  0
BLOCK
  8
0
  2
*D16
 70
    65
 10
0.0
 20
0.0
 30
0.0
  3
*D
  0
LINE
  8
0
  6
BYBLOCK
 62
     0
 10
5.618465
 20
50.105448
 30
0.0
 11
5.618465
 21
53.080634
 31
0.0
  0
LINE
  8
0
  6
BYBLOCK
 62
     0
 10
24.617465
 20
50.105448
 30
0.0
 11
24.617465
 21
53.080634
 31
0.0
  0
LINE
  8
0
  6
BYBLOCK
 62
     0
 10
6.518465
 20
52.615634
 30
0.0
 11
14.511715
 21
52.615634
 31
0.0
  0
LINE
  8
0
  6
BYBLOCK
 62
     0
 10
23.717465
 20
52.615634
 30
0.0
 11
15.724215
 21
52.615634
 31
0.0
  0
SOLID
  8
0
  6
BYBLOCK
 62
     0
 10
6.518465
 20
52.765634
 30
0.0
 11
6.518465
 21
52.465634
 31
0.0
 12
5.618465
 22
52.615634
 32
0.0
 13
5.618465
 23
52.615634
 33
0.0
  0
SOLID
  8
0
  6
BYBLOCK
 62
     0
 10
23.717465
 20
52.765634
 30
0.0
 11
23.717465
 21
52.465634
 31
0.0
 12
24.617465
 22
52.615634
 32
0.0
 13
24.617465
 23
52.615634
 33
0.0
  0
TEXT
  8
0
  6
BYBLOCK
 62
     0
 10
14.961715
 20
52.303134
 30
0.0
 40
0.625
  1
B
 41
0.75
 72
     1
 11
15.117965
 21
52.615634
 31
0.0
 73
     2
  0
POINT
  8
DEFPOINTS
  6
BYBLOCK
 62
     0
 10
5.618465
 20
49.790448
 30
0.0
  0
POINT
  8
DEFPOINTS
  6
BYBLOCK
 62
     0
 10
24.617465
 20
49.790448
 30
0.0
  0
POINT
  8
DEFPOINTS
  6
BYBLOCK
 62
     0
 10
24.617465
 20
52.615634
 30
0.0
  0
ENDBLK
  8
0
  0
BLOCK
  8
0
  2
*D17
 70
    65
 10
0.0
 20
0.0
 30
0.0
  3
*D
  0
LINE
  8
0
  6
BYBLOCK
 62
     0
 10
5.618465
 20
11.398188
 30
0.0
 11
5.618465
 21
14.373374
 31
0.0
  0
LINE
  8
0
  6
BYBLOCK
 62
     0
 10
24.617465
 20
11.398188
 30
0.0
 11
24.617465
 21
14.373374
 31
0.0
  0
LINE
  8
0
  6
BYBLOCK
 62
     0
 10
6.518465
 20
13.908374
 30
0.0
 11
14.511715
 21
13.908374
 31
0.0
  0
LINE
  8
0
  6
BYBLOCK
 62
     0
 10
23.717465
 20
13.908374
 30
0.0
 11
15.724215
 21
13.908374
 31
0.0
  0
SOLID
  8
0
  6
BYBLOCK
 62
     0
 10
6.518465
 20
14.058374
 30
0.0
 11
6.518465
 21
13.758374
 31
0.0
 12
5.618465
 22
13.908374
 32
0.0
 13
5.618465
 23
13.908374
 33
0.0
  0
SOLID
  8
0
  6
BYBLOCK
 62
     0
 10
23.717465
 20
14.058374
 30
0.0
 11
23.717465
 21
13.758374
 31
0.0
 12
24.617465
 22
13.908374
 32
0.0
 13
24.617465
 23
13.908374
 33
0.0
  0
TEXT
  8
0
  6
BYBLOCK
 62
     0
 10
14.961715
 20
13.595874
 30
0.0
 40
0.625
  1
B
 41
0.75
 72
     1
 11
15.117965
 21
13.908374
 31
0.0
 73
     2
  0
POINT
  8
DEFPOINTS
  6
BYBLOCK
 62
     0
 10
5.618465
 20
11.083188
 30
0.0
  0
POINT
  8
DEFPOINTS
  6
BYBLOCK
 62
     0
 10
24.617465
 20
11.083188
 30
0.0
  0
POINT
  8
DEFPOINTS
  6
BYBLOCK
 62
     0
 10
24.617465
 20
13.908374
 30
0.0
  0
ENDBLK
  8
0
  0
BLOCK
  8
0
  2
*D18
 70
    65
 10
0.0
 20
0.0
 30
0.0
  3
*D
  0
LINE
  8
0
  6
BYBLOCK
 62
     0
 10
5.946465
 20
11.304688
 30
0.0
 11
5.946465
 21
13.072022
 31
0.0
  0
LINE
  8
0
  6
BYBLOCK
 62
     0
 10
24.289465
 20
11.304688
 30
0.0
 11
24.289465
 21
13.072022
 31
0.0
  0
LINE
  8
0
  6
BYBLOCK
 62
     0
 10
6.846465
 20
12.607022
 30
0.0
 11
14.511715
 21
12.607022
 31
0.0
  0
LINE
  8
0
  6
BYBLOCK
 62
     0
 10
23.389465
 20
12.607022
 30
0.0
 11
15.724215
 21
12.607022
 31
0.0
  0
SOLID
  8
0
  6
BYBLOCK
 62
     0
 10
6.846465
 20
12.757022
 30
0.0
 11
6.846465
 21
12.457022
 31
0.0
 12
5.946465
 22
12.607022
 32
0.0
 13
5.946465
 23
12.607022
 33
0.0
  0
SOLID
  8
0
  6
BYBLOCK
 62
     0
 10
23.389465
 20
12.757022
 30
0.0
 11
23.389465
 21
12.457022
 31
0.0
 12
24.289465
 22
12.607022
 32
0.0
 13
24.289465
 23
12.607022
 33
0.0
  0
TEXT
  8
0
  6
BYBLOCK
 62
     0
 10
14.961715
 20
12.294522
 30
0.0
 40
0.625
  1
C
 41
0.75
 72
     1
 11
15.117965
 21
12.607022
 31
0.0
 73
     2
  0
POINT
  8
DEFPOINTS
  6
BYBLOCK
 62
     0
 10
5.946465
 20
10.989688
 30
0.0
  0
POINT
  8
DEFPOINTS
  6
BYBLOCK
 62
     0
 10
24.289465
 20
10.989688
 30
0.0
  0
POINT
  8
DEFPOINTS
  6
BYBLOCK
 62
     0
 10
24.289465
 20
12.607022
 30
0.0
  0
ENDBLK
  8
0
  0
BLOCK
  8
0
  2
*D19
 70
    65
 10
0.0
 20
0.0
 30
0.0
  3
*D
  0
LINE
  8
0
  6
BYBLOCK
 62
     0
 10
5.946465
 20
50.011948
 30
0.0
 11
5.946465
 21
51.779282
 31
0.0
  0
LINE
  8
0
  6
BYBLOCK
 62
     0
 10
24.289465
 20
50.011948
 30
0.0
 11
24.289465
 21
51.779282
 31
0.0
  0
LINE
  8
0
  6
BYBLOCK
 62
     0
 10
6.846465
 20
51.314282
 30
0.0
 11
14.511715
 21
51.314282
 31
0.0
  0
LINE
  8
0
  6
BYBLOCK
 62
     0
 10
23.389465
 20
51.314282
 30
0.0
 11
15.724215
 21
51.314282
 31
0.0
  0
SOLID
  8
0
  6
BYBLOCK
 62
     0
 10
6.846465
 20
51.464282
 30
0.0
 11
6.846465
 21
51.164282
 31
0.0
 12
5.946465
 22
51.314282
 32
0.0
 13
5.946465
 23
51.314282
 33
0.0
  0
SOLID
  8
0
  6
BYBLOCK
 62
     0
 10
23.389465
 20
51.464282
 30
0.0
 11
23.389465
 21
51.164282
 31
0.0
 12
24.289465
 22
51.314282
 32
0.0
 13
24.289465
 23
51.314282
 33
0.0
  0
TEXT
  8
0
  6
BYBLOCK
 62
     0
 10
14.961715
 20
51.001782
 30
0.0
 40
0.625
  1
C
 41
0.75
 72
     1
 11
15.117965
 21
51.314282
 31
0.0
 73
     2
  0
POINT
  8
DEFPOINTS
  6
BYBLOCK
 62
     0
 10
5.946465
 20
49.696948
 30
0.0
  0
POINT
  8
DEFPOINTS
  6
BYBLOCK
 62
     0
 10
24.289465
 20
49.696948
 30
0.0
  0
POINT
  8
DEFPOINTS
  6
BYBLOCK
 62
     0
 10
24.289465
 20
51.314282
 30
0.0
  0
ENDBLK
  8
0
  0
BLOCK
  8
0
  2
*D20
 70
    65
 10
0.0
 20
0.0
 30
0.0
  3
*D
  0
LINE
  8
0
  6
BYBLOCK
 62
     0
 10
5.303465
 20
24.29696
 30
0.0
 11
4.373465
 21
24.29696
 31
0.0
  0
LINE
  8
0
  6
BYBLOCK
 62
     0
 10
5.303465
 20
27.29696
 30
0.0
 11
4.373465
 21
27.29696
 31
0.0
  0
LINE
  8
0
  6
BYBLOCK
 62
     0
 10
4.838465
 20
23.39696
 30
0.0
 11
4.838465
 21
22.49696
 31
0.0
  0
LINE
  8
0
  6
BYBLOCK
 62
     0
 10
4.838465
 20
28.19696
 30
0.0
 11
4.838465
 21
29.09696
 31
0.0
  0
SOLID
  8
0
  6
BYBLOCK
 62
     0
 10
4.688465
 20
23.39696
 30
0.0
 11
4.988465
 21
23.39696
 31
0.0
 12
4.838465
 22
24.29696
 32
0.0
 13
4.838465
 23
24.29696
 33
0.0
  0
SOLID
  8
0
  6
BYBLOCK
 62
     0
 10
4.688465
 20
28.19696
 30
0.0
 11
4.988465
 21
28.19696
 31
0.0
 12
4.838465
 22
27.29696
 32
0.0
 13
4.838465
 23
27.29696
 33
0.0
  0
TEXT
  8
0
  6
BYBLOCK
 62
     0
 10
4.018153
 20
25.48446
 30
0.0
 40
0.625
  1
3.000
 41
0.75
 72
     1
 11
4.838465
 21
25.79696
 31
0.0
 73
     2
  0
POINT
  8
DEFPOINTS
  6
BYBLOCK
 62
     0
 10
5.618465
 20
24.29696
 30
0.0
  0
POINT
  8
DEFPOINTS
  6
BYBLOCK
 62
     0
 10
5.618465
 20
27.29696
 30
0.0
  0
POINT
  8
DEFPOINTS
  6
BYBLOCK
 62
     0
 10
4.838465
 20
27.29696
 30
0.0
  0
ENDBLK
  8
0
  0
BLOCK
  8
0
  2
*D21
 70
    65
 10
0.0
 20
0.0
 30
0.0
  3
*D
  0
LINE
  8
0
  6
BYBLOCK
 62
     0
 10
5.303465
 20
22.54696
 30
0.0
 11
2.503465
 21
22.54696
 31
0.0
  0
LINE
  8
0
  6
BYBLOCK
 62
     0
 10
5.303465
 20
29.04696
 30
0.0
 11
2.503465
 21
29.04696
 31
0.0
  0
LINE
  8
0
  6
BYBLOCK
 62
     0
 10
2.968465
 20
23.44696
 30
0.0
 11
2.968465
 21
25.79696
 31
0.0
  0
LINE
  8
0
  6
BYBLOCK
 62
     0
 10
2.968465
 20
28.14696
 30
0.0
 11
2.968465
 21
27.32196
 31
0.0
  0
SOLID
  8
0
  6
BYBLOCK
 62
     0
 10
2.818465
 20
23.44696
 30
0.0
 11
3.118465
 21
23.44696
 31
0.0
 12
2.968465
 22
22.54696
 32
0.0
 13
2.968465
 23
22.54696
 33
0.0
  0
SOLID
  8
0
  6
BYBLOCK
 62
     0
 10
2.818465
 20
28.14696
 30
0.0
 11
3.118465
 21
28.14696
 31
0.0
 12
2.968465
 22
29.04696
 32
0.0
 13
2.968465
 23
29.04696
 33
0.0
  0
TEXT
  8
0
  6
BYBLOCK
 62
     0
 10
2.10909
 20
26.24696
 30
0.0
 40
0.625
  1
6.500
 41
0.75
 72
     1
 11
2.968465
 21
26.55946
 31
0.0
 73
     2
  0
POINT
  8
DEFPOINTS
  6
BYBLOCK
 62
     0
 10
5.618465
 20
22.54696
 30
0.0
  0
POINT
  8
DEFPOINTS
  6
BYBLOCK
 62
     0
 10
5.618465
 20
29.04696
 30
0.0
  0
POINT
  8
DEFPOINTS
  6
BYBLOCK
 62
     0
 10
2.968465
 20
29.04696
 30
0.0
  0
ENDBLK
  8
0
  0
BLOCK
  8
0
  2
*D22
 70
    65
 10
0.0
 20
0.0
 30
0.0
  3
*D
  0
LINE
  8
0
  6
BYBLOCK
 62
     0
 10
5.303465
 20
22.17196
 30
0.0
 11
1.098465
 21
22.17196
 31
0.0
  0
LINE
  8
0
  6
BYBLOCK
 62
     0
 10
5.303465
 20
29.42196
 30
0.0
 11
1.098465
 21
29.42196
 31
0.0
  0
LINE
  8
0
  6
BYBLOCK
 62
     0
 10
1.563465
 20
23.07196
 30
0.0
 11
1.563465
 21
24.27196
 31
0.0
  0
LINE
  8
0
  6
BYBLOCK
 62
     0
 10
1.563465
 20
28.52196
 30
0.0
 11
1.563465
 21
25.79696
 31
0.0
  0
SOLID
  8
0
  6
BYBLOCK
 62
     0
 10
1.413465
 20
23.07196
 30
0.0
 11
1.713465
 21
23.07196
 31
0.0
 12
1.563465
 22
22.17196
 32
0.0
 13
1.563465
 23
22.17196
 33
0.0
  0
SOLID
  8
0
  6
BYBLOCK
 62
     0
 10
1.413465
 20
28.52196
 30
0.0
 11
1.713465
 21
28.52196
 31
0.0
 12
1.563465
 22
29.42196
 32
0.0
 13
1.563465
 23
29.42196
 33
0.0
  0
TEXT
  8
0
  6
BYBLOCK
 62
     0
 10
0.665028
 20
24.72196
 30
0.0
 40
0.625
  1
7.250
 41
0.75
 72
     1
 11
1.563465
 21
25.03446
 31
0.0
 73
     2
  0
POINT
  8
DEFPOINTS
  6
BYBLOCK
 62
     0
 10
5.618465
 20
22.17196
 30
0.0
  0
POINT
  8
DEFPOINTS
  6
BYBLOCK
 62
     0
 10
5.618465
 20
29.42196
 30
0.0
  0
POINT
  8
DEFPOINTS
  6
BYBLOCK
 62
     0
 10
1.563465
 20
29.42196
 30
0.0
  0
ENDBLK
  8
0
  0
BLOCK
  8
0
  2
*D23
 70
    65
 10
0.0
 20
0.0
 30
0.0
  3
*D
  0
LINE
  8
0
  6
BYBLOCK
 62
     0
 10
24.932465
 20
61.27435
 30
0.0
 11
31.923418
 21
61.27435
 31
0.0
  0
LINE
  8
0
  6
BYBLOCK
 62
     0
 10
24.932465
 20
68.52435
 30
0.0
 11
31.923418
 21
68.52435
 31
0.0
  0
LINE
  8
0
  6
BYBLOCK
 62
     0
 10
31.458418
 20
62.17435
 30
0.0
 11
31.458418
 21
64.13685
 31
0.0
  0
LINE
  8
0
  6
BYBLOCK
 62
     0
 10
31.458418
 20
67.62435
 30
0.0
 11
31.458418
 21
65.66185
 31
0.0
  0
SOLID
  8
0
  6
BYBLOCK
 62
     0
 10
31.308418
 20
62.17435
 30
0.0
 11
31.608418
 21
62.17435
 31
0.0
 12
31.458418
 22
61.27435
 32
0.0
 13
31.458418
 23
61.27435
 33
0.0
  0
SOLID
  8
0
  6
BYBLOCK
 62
     0
 10
31.308418
 20
67.62435
 30
0.0
 11
31.608418
 21
67.62435
 31
0.0
 12
31.458418
 22
68.52435
 32
0.0
 13
31.458418
 23
68.52435
 33
0.0
  0
TEXT
  8
0
  6
BYBLOCK
 62
     0
 10
30.559981
 20
64.58685
 30
0.0
 40
0.625
  1
7.250
 41
0.75
 72
     1
 11
31.458418
 21
64.89935
 31
0.0
 73
     2
  0
POINT
  8
DEFPOINTS
  6
BYBLOCK
 62
     0
 10
24.617465
 20
61.27435
 30
0.0
  0
POINT
  8
DEFPOINTS
  6
BYBLOCK
 62
     0
 10
24.617465
 20
68.52435
 30
0.0
  0
POINT
  8
DEFPOINTS
  6
BYBLOCK
 62
     0
 10
31.458418
 20
68.52435
 30
0.0
  0
ENDBLK
  8
0
  0
BLOCK
  8
0
  2
*D24
 70
    65
 10
0.0
 20
0.0
 30
0.0
  3
*D
  0
LINE
  8
0
  6
BYBLOCK
 62
     0
 10
24.932465
 20
61.64935
 30
0.0
 11
29.113418
 21
61.64935
 31
0.0
  0
LINE
  8
0
  6
BYBLOCK
 62
     0
 10
24.932465
 20
68.14935
 30
0.0
 11
29.113418
 21
68.14935
 31
0.0
  0
LINE
  8
0
  6
BYBLOCK
 62
     0
 10
28.648418
 20
62.54935
 30
0.0
 11
28.648418
 21
64.13685
 31
0.0
  0
LINE
  8
0
  6
BYBLOCK
 62
     0
 10
28.648418
 20
67.24935
 30
0.0
 11
28.648418
 21
65.66185
 31
0.0
  0
SOLID
  8
0
  6
BYBLOCK
 62
     0
 10
28.498418
 20
62.54935
 30
0.0
 11
28.798418
 21
62.54935
 31
0.0
 12
28.648418
 22
61.64935
 32
0.0
 13
28.648418
 23
61.64935
 33
0.0
  0
SOLID
  8
0
  6
BYBLOCK
 62
     0
 10
28.498418
 20
67.24935
 30
0.0
 11
28.798418
 21
67.24935
 31
0.0
 12
28.648418
 22
68.14935
 32
0.0
 13
28.648418
 23
68.14935
 33
0.0
  0
TEXT
  8
0
  6
BYBLOCK
 62
     0
 10
27.789043
 20
64.58685
 30
0.0
 40
0.625
  1
6.500
 41
0.75
 72
     1
 11
28.648418
 21
64.89935
 31
0.0
 73
     2
  0
POINT
  8
DEFPOINTS
  6
BYBLOCK
 62
     0
 10
24.617465
 20
61.64935
 30
0.0
  0
POINT
  8
DEFPOINTS
  6
BYBLOCK
 62
     0
 10
24.617465
 20
68.14935
 30
0.0
  0
POINT
  8
DEFPOINTS
  6
BYBLOCK
 62
     0
 10
28.648418
 20
68.14935
 30
0.0
  0
ENDBLK
  8
0
  0
BLOCK
  8
0
  2
*D25
 70
    65
 10
0.0
 20
0.0
 30
0.0
  3
*D
  0
LINE
  8
0
  6
BYBLOCK
 62
     0
 10
24.932465
 20
63.39935
 30
0.0
 11
26.327465
 21
63.39935
 31
0.0
  0
LINE
  8
0
  6
BYBLOCK
 62
     0
 10
24.932465
 20
66.39935
 30
0.0
 11
26.327465
 21
66.39935
 31
0.0
  0
LINE
  8
0
  6
BYBLOCK
 62
     0
 10
25.862465
 20
62.49935
 30
0.0
 11
25.862465
 21
61.59935
 31
0.0
  0
LINE
  8
0
  6
BYBLOCK
 62
     0
 10
25.862465
 20
67.29935
 30
0.0
 11
25.862465
 21
68.19935
 31
0.0
  0
SOLID
  8
0
  6
BYBLOCK
 62
     0
 10
25.712465
 20
62.49935
 30
0.0
 11
26.012465
 21
62.49935
 31
0.0
 12
25.862465
 22
63.39935
 32
0.0
 13
25.862465
 23
63.39935
 33
0.0
  0
SOLID
  8
0
  6
BYBLOCK
 62
     0
 10
25.712465
 20
67.29935
 30
0.0
 11
26.012465
 21
67.29935
 31
0.0
 12
25.862465
 22
66.39935
 32
0.0
 13
25.862465
 23
66.39935
 33
0.0
  0
TEXT
  8
0
  6
BYBLOCK
 62
     0
 10
25.042153
 20
64.58685
 30
0.0
 40
0.625
  1
3.000
 41
0.75
 72
     1
 11
25.862465
 21
64.89935
 31
0.0
 73
     2
  0
POINT
  8
DEFPOINTS
  6
BYBLOCK
 62
     0
 10
24.617465
 20
63.39935
 30
0.0
  0
POINT
  8
DEFPOINTS
  6
BYBLOCK
 62
     0
 10
24.617465
 20
66.39935
 30
0.0
  0
POINT
  8
DEFPOINTS
  6
BYBLOCK
 62
     0
 10
25.862465
 20
66.39935
 30
0.0
  0
ENDBLK
  8
0
  0
BLOCK
  8
0
  2
*D26
 70
    65
 10
0.0
 20
0.0
 30
0.0
  3
*D
  0
LINE
  8
0
  6
BYBLOCK
 62
     0
 10
29.852911
 20
5.550188
 30
0.0
 11
29.852911
 21
4.155188
 31
0.0
  0
LINE
  8
0
  6
BYBLOCK
 62
     0
 10
48.852911
 20
5.550188
 30
0.0
 11
48.852911
 21
4.155188
 31
0.0
  0
LINE
  8
0
  6
BYBLOCK
 62
     0
 10
30.752911
 20
4.620188
 30
0.0
 11
37.926348
 21
4.620188
 31
0.0
  0
LINE
  8
0
  6
BYBLOCK
 62
     0
 10
47.952911
 20
4.620188
 30
0.0
 11
40.779473
 21
4.620188
 31
0.0
  0
SOLID
  8
0
  6
BYBLOCK
 62
     0
 10
30.752911
 20
4.770188
 30
0.0
 11
30.752911
 21
4.470188
 31
0.0
 12
29.852911
 22
4.620188
 32
0.0
 13
29.852911
 23
4.620188
 33
0.0
  0
SOLID
  8
0
  6
BYBLOCK
 62
     0
 10
47.952911
 20
4.770188
 30
0.0
 11
47.952911
 21
4.470188
 31
0.0
 12
48.852911
 22
4.620188
 32
0.0
 13
48.852911
 23
4.620188
 33
0.0
  0
TEXT
  8
0
  6
BYBLOCK
 62
     0
 10
38.376348
 20
4.307688
 30
0.0
 40
0.625
  1
19.000
 41
0.75
 72
     1
 11
39.352911
 21
4.620188
 31
0.0
 73
     2
  0
POINT
  8
DEFPOINTS
  6
BYBLOCK
 62
     0
 10
29.852911
 20
5.865188
 30
0.0
  0
POINT
  8
DEFPOINTS
  6
BYBLOCK
 62
     0
 10
48.852911
 20
5.865188
 30
0.0
  0
POINT
  8
DEFPOINTS
  6
BYBLOCK
 62
     0
 10
48.852911
 20
4.620188
 30
0.0
  0
ENDBLK
  8
0
  0
ENDSEC
  0
SECTION
  2
ENTITIES
  0
LINE
  8
OBJECT
 10
29.852911
 20
44.572448
 30
0.0
 11
48.852911
 21
44.572448
 31
0.0
  0
LINE
  8
OBJECT
 10
35.070911
 20
49.790448
 30
0.0
 11
43.634911
 21
49.790448
 31
0.0
  0
LINE
  8
OBJECT
 10
29.852911
 20
44.947448
 30
0.0
 11
29.914911
 21
44.947448
 31
0.0
  0
LINE
  8
HIDDEN
 10
29.914911
 20
44.634448
 30
0.0
 11
48.790911
 21
44.634448
 31
0.0
  0
LINE
  8
OBJECT
 10
29.852911
 20
44.947448
 30
0.0
 11
29.852911
 21
44.572448
 31
0.0
  0
LINE
  8
OBJECT
 10
29.914911
 20
44.947448
 30
0.0
 11
29.914911
 21
44.634448
 31
0.0
  0
LINE
  8
OBJECT
 10
48.852911
 20
44.947448
 30
0.0
 11
48.852911
 21
44.572448
 31
0.0
  0
LINE
  8
OBJECT
 10
48.790911
 20
44.947448
 30
0.0
 11
48.790911
 21
44.634448
 31
0.0
  0
LINE
  8
OBJECT
 10
29.852911
 20
44.572448
 30
0.0
 11
35.070911
 21
49.790448
 31
0.0
  0
LINE
  8
OBJECT
 10
48.790911
 20
44.947448
 30
0.0
 11
48.852911
 21
44.947448
 31
0.0
  0
LINE
  8
OBJECT
 10
48.852911
 20
44.572448
 30
0.0
 11
43.634911
 21
49.790448
 31
0.0
  0
LINE
  8
OBJECT
 10
23.930465
 20
44.572448
 30
0.0
 11
6.305465
 21
44.572448
 31
0.0
  0
LINE
  8
OBJECT
 10
6.305465
 20
44.572448
 30
0.0
 11
6.305465
 21
49.790448
 31
0.0
  0
LINE
  8
OBJECT
 10
6.367465
 20
44.634448
 30
0.0
 11
6.367465
 21
49.790448
 31
0.0
  0
LINE
  8
HIDDEN
 10
23.868465
 20
44.634448
 30
0.0
 11
6.367465
 21
44.634448
 31
0.0
  0
LINE
  8
OBJECT
 10
23.930465
 20
44.572448
 30
0.0
 11
23.930465
 21
49.790448
 31
0.0
  0
LINE
  8
OBJECT
 10
23.868465
 20
44.634448
 30
0.0
 11
23.868465
 21
49.790448
 31
0.0
  0
LINE
  8
OBJECT
 10
23.868465
 20
49.790448
 30
0.0
 11
23.930465
 21
49.790448
 31
0.0
  0
LINE
  8
OBJECT
 10
6.305465
 20
49.790448
 30
0.0
 11
6.367465
 21
49.790448
 31
0.0
  0
LINE
  8
OBJECT
 10
23.930465
 20
55.39935
 30
0.0
 11
6.305465
 21
55.39935
 31
0.0
  0
LINE
  8
OBJECT
 10
23.930465
 20
74.39935
 30
0.0
 11
6.305465
 21
74.39935
 31
0.0
  0
LINE
  8
OBJECT
 10
23.930465
 20
74.39935
 30
0.0
 11
23.930465
 21
55.39935
 31
0.0
  0
LINE
  8
OBJECT
 10
6.305465
 20
55.39935
 30
0.0
 11
6.305465
 21
74.39935
 31
0.0
  0
LINE
  8
OBJECT
 10
23.868465
 20
74.39935
 30
0.0
 11
23.868465
 21
55.39935
 31
0.0
  0
LINE
  8
OBJECT
 10
6.367465
 20
55.39935
 30
0.0
 11
6.367465
 21
74.39935
 31
0.0
  0
LINE
  8
OBJECT
 10
23.868465
 20
55.46135
 30
0.0
 11
6.367465
 21
55.46135
 31
0.0
  0
LINE
  8
OBJECT
 10
23.868465
 20
74.33735
 30
0.0
 11
6.367465
 21
74.33735
 31
0.0
  0
LINE
  8
OBJECT
 10
23.930465
 20
60.61735
 30
0.0
 11
23.868465
 21
60.61735
 31
0.0
  0
LINE
  8
OBJECT
 10
23.930465
 20
69.18135
 30
0.0
 11
23.868465
 21
69.18135
 31
0.0
  0
LINE
  8
OBJECT
 10
23.743465
 20
44.947448
 30
0.0
 11
6.492465
 21
44.947448
 31
0.0
  0
LINE
  8
OBJECT
 10
6.492465
 20
44.947448
 30
0.0
 11
6.367465
 21
44.822448
 31
0.0
  0
LINE
  8
OBJECT
 10
23.743465
 20
44.947448
 30
0.0
 11
23.868465
 21
44.822448
 31
0.0
  0
LINE
  8
OBJECT
 10
24.617465
 20
44.572448
 30
0.0
 11
24.617465
 21
49.790448
 31
0.0
  0
LINE
  8
OBJECT
 10
23.930465
 20
49.790448
 30
0.0
 11
24.617465
 21
49.790448
 31
0.0
  0
LINE
  8
OBJECT
 10
23.930465
 20
44.572448
 30
0.0
 11
24.617465
 21
44.572448
 31
0.0
  0
LINE
  8
OBJECT
 10
23.992465
 20
44.572448
 30
0.0
 11
23.992465
 21
49.790448
 31
0.0
  0
LINE
  8
OBJECT
 10
6.243465
 20
44.572448
 30
0.0
 11
6.243465
 21
49.790448
 31
0.0
  0
LINE
  8
OBJECT
 10
5.618465
 20
44.572448
 30
0.0
 11
5.618465
 21
49.790448
 31
0.0
  0
LINE
  8
OBJECT
 10
6.305465
 20
44.572448
 30
0.0
 11
5.618465
 21
44.572448
 31
0.0
  0
LINE
  8
OBJECT
 10
6.305465
 20
49.790448
 30
0.0
 11
5.618465
 21
49.790448
 31
0.0
  0
LINE
  8
OBJECT
 10
37.790911
 20
49.790448
 30
0.0
 11
37.790911
 21
44.572448
 31
0.0
  0
LINE
  8
OBJECT
 10
37.227911
 20
49.790448
 30
0.0
 11
37.227911
 21
44.572448
 31
0.0
  0
LINE
  8
OBJECT
 10
37.852911
 20
49.790448
 30
0.0
 11
37.852911
 21
44.572448
 31
0.0
  0
LINE
  8
OBJECT
 10
6.305465
 20
60.61735
 30
0.0
 11
6.367465
 21
60.61735
 31
0.0
  0
LINE
  8
OBJECT
 10
6.305465
 20
69.18135
 30
0.0
 11
6.367465
 21
69.18135
 31
0.0
  0
LINE
  8
OBJECT
 10
40.852911
 20
49.790448
 30
0.0
 11
40.852911
 21
44.572448
 31
0.0
  0
LINE
  8
OBJECT
 10
41.477911
 20
49.790448
 30
0.0
 11
41.477911
 21
44.572448
 31
0.0
  0
LINE
  8
OBJECT
 10
40.914911
 20
49.790448
 30
0.0
 11
40.914911
 21
44.572448
 31
0.0
  0
POLYLINE
  8
OBJECT
 66
     1
 10
0.0
 20
0.0
 30
0.0
 70
     1
  0
VERTEX
  8
OBJECT
 10
37.664972
 20
49.039448
 30
0.0
  0
VERTEX
  8
OBJECT
 10
37.477911
 20
49.147448
 30
0.0
  0
VERTEX
  8
OBJECT
 10
37.290849
 20
49.039448
 30
0.0
  0
VERTEX
  8
OBJECT
 10
37.290849
 20
48.823448
 30
0.0
  0
VERTEX
  8
OBJECT
 10
37.477911
 20
48.715448
 30
0.0
  0
VERTEX
  8
OBJECT
 10
37.664972
 20
48.823448
 30
0.0
  0
SEQEND
  8
OBJECT
  0
CIRCLE
  8
OBJECT
 10
37.477911
 20
48.931448
 30
0.0
 40
0.095
  0
POLYLINE
  8
OBJECT
 66
     1
 10
0.0
 20
0.0
 30
0.0
 70
     1
  0
VERTEX
  8
OBJECT
 10
37.664972
 20
45.539448
 30
0.0
  0
VERTEX
  8
OBJECT
 10
37.477911
 20
45.647448
 30
0.0
  0
VERTEX
  8
OBJECT
 10
37.290849
 20
45.539448
 30
0.0
  0
VERTEX
  8
OBJECT
 10
37.290849
 20
45.323448
 30
0.0
  0
VERTEX
  8
OBJECT
 10
37.477911
 20
45.215448
 30
0.0
  0
VERTEX
  8
OBJECT
 10
37.664972
 20
45.323448
 30
0.0
  0
SEQEND
  8
OBJECT
  0
CIRCLE
  8
OBJECT
 10
37.477911
 20
45.431448
 30
0.0
 40
0.095
  0
POLYLINE
  8
OBJECT
 66
     1
 10
0.0
 20
0.0
 30
0.0
 70
     1
  0
VERTEX
  8
OBJECT
 10
41.040849
 20
45.539448
 30
0.0
  0
VERTEX
  8
OBJECT
 10
41.227911
 20
45.647448
 30
0.0
  0
VERTEX
  8
OBJECT
 10
41.414972
 20
45.539448
 30
0.0
  0
VERTEX
  8
OBJECT
 10
41.414972
 20
45.323448
 30
0.0
  0
VERTEX
  8
OBJECT
 10
41.227911
 20
45.215448
 30
0.0
  0
VERTEX
  8
OBJECT
 10
41.040849
 20
45.323448
 30
0.0
  0
SEQEND
  8
OBJECT
  0
CIRCLE
  8
OBJECT
 10
41.227911
 20
45.431448
 30
0.0
 40
0.095
  0
POLYLINE
  8
OBJECT
 66
     1
 10
0.0
 20
0.0
 30
0.0
 70
     1
  0
VERTEX
  8
OBJECT
 10
41.040849
 20
49.039448
 30
0.0
  0
VERTEX
  8
OBJECT
 10
41.227911
 20
49.147448
 30
0.0
  0
VERTEX
  8
OBJECT
 10
41.414972
 20
49.039448
 30
0.0
  0
VERTEX
  8
OBJECT
 10
41.414972
 20
48.823448
 30
0.0
  0
VERTEX
  8
OBJECT
 10
41.227911
 20
48.715448
 30
0.0
  0
VERTEX
  8
OBJECT
 10
41.040849
 20
48.823448
 30
0.0
  0
SEQEND
  8
OBJECT
  0
CIRCLE
  8
OBJECT
 10
41.227911
 20
48.931448
 30
0.0
 40
0.095
  0
LINE
  8
OBJECT
 10
24.122465
 20
49.147448
 30
0.0
 11
23.992465
 21
49.147448
 31
0.0
  0
LINE
  8
OBJECT
 10
24.122465
 20
49.039448
 30
0.0
 11
23.992465
 21
49.039448
 31
0.0
  0
LINE
  8
OBJECT
 10
24.122465
 20
48.823448
 30
0.0
 11
23.992465
 21
48.823448
 31
0.0
  0
LINE
  8
OBJECT
 10
24.122465
 20
48.715448
 30
0.0
 11
23.992465
 21
48.715448
 31
0.0
  0
LINE
  8
OBJECT
 10
24.122465
 20
49.147448
 30
0.0
 11
24.122465
 21
48.715448
 31
0.0
  0
LINE
  8
OBJECT
 10
24.243465
 20
49.026448
 30
0.0
 11
24.122465
 21
49.026448
 31
0.0
  0
LINE
  8
OBJECT
 10
24.243465
 20
48.836448
 30
0.0
 11
24.122465
 21
48.836448
 31
0.0
  0
LINE
  8
OBJECT
 10
24.243465
 20
48.836448
 30
0.0
 11
24.243465
 21
49.026448
 31
0.0
  0
ARC
  8
OBJECT
 10
24.022075
 20
48.931448
 30
0.0
 40
0.27161
 50
124.440759
 51
235.559241
  0
LINE
  8
OBJECT
 10
24.243465
 20
45.526448
 30
0.0
 11
24.122465
 21
45.526448
 31
0.0
  0
LINE
  8
OBJECT
 10
24.243465
 20
45.336448
 30
0.0
 11
24.122465
 21
45.336448
 31
0.0
  0
ARC
  8
OBJECT
 10
24.022075
 20
45.431448
 30
0.0
 40
0.27161
 50
124.440759
 51
235.559241
  0
LINE
  8
OBJECT
 10
24.122465
 20
45.647448
 30
0.0
 11
23.992465
 21
45.647448
 31
0.0
  0
LINE
  8
OBJECT
 10
24.122465
 20
45.539448
 30
0.0
 11
23.992465
 21
45.539448
 31
0.0
  0
LINE
  8
OBJECT
 10
24.122465
 20
45.323448
 30
0.0
 11
23.992465
 21
45.323448
 31
0.0
  0
LINE
  8
OBJECT
 10
24.122465
 20
45.215448
 30
0.0
 11
23.992465
 21
45.215448
 31
0.0
  0
LINE
  8
OBJECT
 10
24.122465
 20
45.215448
 30
0.0
 11
24.122465
 21
45.647448
 31
0.0
  0
LINE
  8
OBJECT
 10
24.243465
 20
45.526448
 30
0.0
 11
24.243465
 21
45.336448
 31
0.0
  0
LINE
  8
OBJECT
 10
5.992465
 20
48.836448
 30
0.0
 11
6.113465
 21
48.836448
 31
0.0
  0
LINE
  8
OBJECT
 10
5.992465
 20
49.026448
 30
0.0
 11
6.113465
 21
49.026448
 31
0.0
  0
ARC
  8
OBJECT
 10
6.213855
 20
48.931448
 30
0.0
 40
0.27161
 50
304.440759
 51
55.559241
  0
LINE
  8
OBJECT
 10
6.113465
 20
48.715448
 30
0.0
 11
6.243465
 21
48.715448
 31
0.0
  0
LINE
  8
OBJECT
 10
6.113465
 20
48.823448
 30
0.0
 11
6.243465
 21
48.823448
 31
0.0
  0
LINE
  8
OBJECT
 10
6.113465
 20
49.039448
 30
0.0
 11
6.243465
 21
49.039448
 31
0.0
  0
LINE
  8
OBJECT
 10
6.113465
 20
49.147448
 30
0.0
 11
6.243465
 21
49.147448
 31
0.0
  0
LINE
  8
OBJECT
 10
6.113465
 20
49.147448
 30
0.0
 11
6.113465
 21
48.715448
 31
0.0
  0
LINE
  8
OBJECT
 10
5.992465
 20
48.836448
 30
0.0
 11
5.992465
 21
49.026448
 31
0.0
  0
LINE
  8
OBJECT
 10
5.992465
 20
45.336448
 30
0.0
 11
6.113465
 21
45.336448
 31
0.0
  0
LINE
  8
OBJECT
 10
5.992465
 20
45.526448
 30
0.0
 11
6.113465
 21
45.526448
 31
0.0
  0
LINE
  8
OBJECT
 10
6.113465
 20
45.215448
 30
0.0
 11
6.113465
 21
45.647448
 31
0.0
  0
LINE
  8
OBJECT
 10
6.113465
 20
45.215448
 30
0.0
 11
6.243465
 21
45.215448
 31
0.0
  0
LINE
  8
OBJECT
 10
6.113465
 20
45.323448
 30
0.0
 11
6.243465
 21
45.323448
 31
0.0
  0
LINE
  8
OBJECT
 10
6.113465
 20
45.539448
 30
0.0
 11
6.243465
 21
45.539448
 31
0.0
  0
LINE
  8
OBJECT
 10
6.113465
 20
45.647448
 30
0.0
 11
6.243465
 21
45.647448
 31
0.0
  0
ARC
  8
OBJECT
 10
6.213855
 20
45.431448
 30
0.0
 40
0.27161
 50
304.440759
 51
55.559241
  0
LINE
  8
OBJECT
 10
5.992465
 20
45.526448
 30
0.0
 11
5.992465
 21
45.336448
 31
0.0
  0
LINE
  8
OBJECT
 10
24.243465
 20
62.92935
 30
0.0
 11
24.122465
 21
62.92935
 31
0.0
  0
LINE
  8
OBJECT
 10
24.243465
 20
63.11935
 30
0.0
 11
24.122465
 21
63.11935
 31
0.0
  0
ARC
  8
OBJECT
 10
24.022075
 20
63.02435
 30
0.0
 40
0.27161
 50
124.440759
 51
235.559241
  0
LINE
  8
OBJECT
 10
24.122465
 20
62.80835
 30
0.0
 11
23.992465
 21
62.80835
 31
0.0
  0
LINE
  8
OBJECT
 10
24.122465
 20
62.91635
 30
0.0
 11
23.992465
 21
62.91635
 31
0.0
  0
LINE
  8
OBJECT
 10
24.122465
 20
63.13235
 30
0.0
 11
23.992465
 21
63.13235
 31
0.0
  0
LINE
  8
OBJECT
 10
24.122465
 20
63.24035
 30
0.0
 11
23.992465
 21
63.24035
 31
0.0
  0
LINE
  8
OBJECT
 10
24.122465
 20
63.24035
 30
0.0
 11
24.122465
 21
62.80835
 31
0.0
  0
LINE
  8
OBJECT
 10
24.243465
 20
62.92935
 30
0.0
 11
24.243465
 21
63.11935
 31
0.0
  0
LINE
  8
OBJECT
 10
24.243465
 20
66.67935
 30
0.0
 11
24.122465
 21
66.67935
 31
0.0
  0
LINE
  8
OBJECT
 10
24.243465
 20
66.86935
 30
0.0
 11
24.122465
 21
66.86935
 31
0.0
  0
LINE
  8
OBJECT
 10
24.122465
 20
66.55835
 30
0.0
 11
24.122465
 21
66.99035
 31
0.0
  0
LINE
  8
OBJECT
 10
24.122465
 20
66.55835
 30
0.0
 11
23.992465
 21
66.55835
 31
0.0
  0
LINE
  8
OBJECT
 10
24.122465
 20
66.66635
 30
0.0
 11
23.992465
 21
66.66635
 31
0.0
  0
LINE
  8
OBJECT
 10
24.122465
 20
66.88235
 30
0.0
 11
23.992465
 21
66.88235
 31
0.0
  0
LINE
  8
OBJECT
 10
24.122465
 20
66.99035
 30
0.0
 11
23.992465
 21
66.99035
 31
0.0
  0
ARC
  8
OBJECT
 10
24.022075
 20
66.77435
 30
0.0
 40
0.27161
 50
124.440759
 51
235.559241
  0
LINE
  8
OBJECT
 10
24.243465
 20
66.86935
 30
0.0
 11
24.243465
 21
66.67935
 31
0.0
  0
LINE
  8
OBJECT
 10
5.992465
 20
66.86935
 30
0.0
 11
6.113465
 21
66.86935
 31
0.0
  0
LINE
  8
OBJECT
 10
5.992465
 20
66.67935
 30
0.0
 11
6.113465
 21
66.67935
 31
0.0
  0
ARC
  8
OBJECT
 10
6.213855
 20
66.77435
 30
0.0
 40
0.27161
 50
304.440759
 51
55.559241
  0
LINE
  8
OBJECT
 10
6.113465
 20
66.55835
 30
0.0
 11
6.113465
 21
66.99035
 31
0.0
  0
LINE
  8
OBJECT
 10
6.113465
 20
66.66635
 30
0.0
 11
6.243465
 21
66.66635
 31
0.0
  0
LINE
  8
OBJECT
 10
6.113465
 20
66.55835
 30
0.0
 11
6.243465
 21
66.55835
 31
0.0
  0
LINE
  8
OBJECT
 10
6.113465
 20
66.99035
 30
0.0
 11
6.243465
 21
66.99035
 31
0.0
  0
LINE
  8
OBJECT
 10
6.113465
 20
66.88235
 30
0.0
 11
6.243465
 21
66.88235
 31
0.0
  0
LINE
  8
OBJECT
 10
5.992465
 20
66.86935
 30
0.0
 11
5.992465
 21
66.67935
 31
0.0
  0
LINE
  8
OBJECT
 10
5.992465
 20
63.11935
 30
0.0
 11
6.113465
 21
63.11935
 31
0.0
  0
LINE
  8
OBJECT
 10
5.992465
 20
62.92935
 30
0.0
 11
6.113465
 21
62.92935
 31
0.0
  0
LINE
  8
OBJECT
 10
6.113465
 20
63.24035
 30
0.0
 11
6.113465
 21
62.80835
 31
0.0
  0
LINE
  8
OBJECT
 10
6.113465
 20
63.24035
 30
0.0
 11
6.243465
 21
63.24035
 31
0.0
  0
LINE
  8
OBJECT
 10
6.113465
 20
63.13235
 30
0.0
 11
6.243465
 21
63.13235
 31
0.0
  0
LINE
  8
OBJECT
 10
6.113465
 20
62.91635
 30
0.0
 11
6.243465
 21
62.91635
 31
0.0
  0
LINE
  8
OBJECT
 10
6.113465
 20
62.80835
 30
0.0
 11
6.243465
 21
62.80835
 31
0.0
  0
ARC
  8
OBJECT
 10
6.213855
 20
63.02435
 30
0.0
 40
0.27161
 50
304.440759
 51
55.559241
  0
LINE
  8
OBJECT
 10
5.992465
 20
62.92935
 30
0.0
 11
5.992465
 21
63.11935
 31
0.0
  0
LINE
  8
BEND
  6
PHANTOM2
 10
8.207776
 20
18.54696
 30
0.0
 11
22.270265
 21
18.54696
 31
0.0
  0
LINE
  8
BEND
  6
PHANTOM2
 10
7.957776
 20
18.04696
 30
0.0
 11
22.020265
 21
18.04696
 31
0.0
  0
LINE
  8
BEND
  6
PHANTOM2
 10
7.957776
 20
17.04696
 30
0.0
 11
22.020265
 21
17.04696
 31
0.0
  0
LINE
  8
OBJECT
 10
23.868465
 20
16.35896
 30
0.0
 11
6.367465
 21
16.35896
 31
0.0
  0
LINE
  8
OBJECT
 10
23.930465
 20
16.29696
 30
0.0
 11
6.305465
 21
16.29696
 31
0.0
  0
LINE
  8
BEND
  6
PHANTOM2
 10
7.957776
 20
30.04696
 30
0.0
 11
22.020265
 21
30.04696
 31
0.0
  0
LINE
  8
BEND
  6
PHANTOM2
 10
7.957776
 20
29.04696
 30
0.0
 11
22.020265
 21
29.04696
 31
0.0
  0
LINE
  8
BEND
  6
PHANTOM2
 10
8.207776
 20
31.54696
 30
0.0
 11
22.270265
 21
31.54696
 31
0.0
  0
LINE
  8
BEND
  6
PHANTOM2
 10
8.207776
 20
30.54696
 30
0.0
 11
22.270265
 21
30.54696
 31
0.0
  0
LINE
  8
BEND
  6
PHANTOM2
 10
7.957776
 20
32.04696
 30
0.0
 11
22.020265
 21
32.04696
 31
0.0
  0
LINE
  8
BEND
  6
PHANTOM2
 10
7.957776
 20
33.04696
 30
0.0
 11
22.020265
 21
33.04696
 31
0.0
  0
LINE
  8
BEND
  6
PHANTOM2
 10
8.207776
 20
33.54696
 30
0.0
 11
22.270265
 21
33.54696
 31
0.0
  0
LINE
  8
BEND
  6
PHANTOM2
 10
8.207776
 20
34.54696
 30
0.0
 11
22.270265
 21
34.54696
 31
0.0
  0
LINE
  8
OBJECT
 10
23.868465
 20
35.23496
 30
0.0
 11
6.367465
 21
35.23496
 31
0.0
  0
LINE
  8
OBJECT
 10
23.930465
 20
35.29696
 30
0.0
 11
6.305465
 21
35.29696
 31
0.0
  0
LINE
  8
BEND
  6
PHANTOM2
 10
8.207776
 20
19.54696
 30
0.0
 11
22.270265
 21
19.54696
 31
0.0
  0
LINE
  8
BEND
  6
PHANTOM2
 10
7.649465
 20
28.995932
 30
0.0
 11
7.649465
 21
18.238832
 31
0.0
  0
LINE
  8
OBJECT
 10
6.367465
 20
16.29696
 30
0.0
 11
6.367465
 21
35.29696
 31
0.0
  0
LINE
  8
OBJECT
 10
6.305465
 20
16.29696
 30
0.0
 11
6.305465
 21
35.29696
 31
0.0
  0
LINE
  8
OBJECT
 10
8.086465
 20
18.64046
 30
0.0
 11
8.086465
 21
19.45346
 31
0.0
  0
LINE
  8
OBJECT
 10
7.899465
 20
18.64046
 30
0.0
 11
7.899465
 21
19.45346
 31
0.0
  0
LINE
  8
OBJECT
 10
7.836465
 20
17.14046
 30
0.0
 11
7.836465
 21
17.95346
 31
0.0
  0
LINE
  8
OBJECT
 10
7.649465
 20
17.14046
 30
0.0
 11
7.649465
 21
17.95346
 31
0.0
  0
ARC
  8
OBJECT
 10
7.742965
 20
17.14046
 30
0.0
 40
0.0935
 50
179.999981
 51
359.999981
  0
ARC
  8
OBJECT
 10
7.742965
 20
17.95346
 30
0.0
 40
0.0935
 50
359.999981
 51
179.999981
  0
ARC
  8
OBJECT
 10
7.992965
 20
18.64046
 30
0.0
 40
0.0935
 50
179.999981
 51
359.999981
  0
ARC
  8
OBJECT
 10
7.992965
 20
19.45346
 30
0.0
 40
0.0935
 50
359.999981
 51
179.999981
  0
LINE
  8
OBJECT
 10
7.899465
 20
33.64046
 30
0.0
 11
7.899465
 21
34.45346
 31
0.0
  0
LINE
  8
OBJECT
 10
8.086465
 20
33.64046
 30
0.0
 11
8.086465
 21
34.45346
 31
0.0
  0
LINE
  8
OBJECT
 10
7.899465
 20
30.64046
 30
0.0
 11
7.899465
 21
31.45346
 31
0.0
  0
LINE
  8
OBJECT
 10
8.086465
 20
30.64046
 30
0.0
 11
8.086465
 21
31.45346
 31
0.0
  0
LINE
  8
OBJECT
 10
7.836465
 20
29.14046
 30
0.0
 11
7.836465
 21
29.95346
 31
0.0
  0
LINE
  8
OBJECT
 10
7.649465
 20
29.14046
 30
0.0
 11
7.649465
 21
29.95346
 31
0.0
  0
ARC
  8
OBJECT
 10
7.742965
 20
29.14046
 30
0.0
 40
0.0935
 50
179.999981
 51
359.999981
  0
ARC
  8
OBJECT
 10
7.742965
 20
29.95346
 30
0.0
 40
0.0935
 50
359.999981
 51
179.999981
  0
ARC
  8
OBJECT
 10
7.992965
 20
30.64046
 30
0.0
 40
0.0935
 50
179.999981
 51
359.999981
  0
LINE
  8
OBJECT
 10
7.649465
 20
32.14046
 30
0.0
 11
7.649465
 21
32.95346
 31
0.0
  0
LINE
  8
OBJECT
 10
7.836465
 20
32.14046
 30
0.0
 11
7.836465
 21
32.95346
 31
0.0
  0
ARC
  8
OBJECT
 10
7.742965
 20
32.14046
 30
0.0
 40
0.0935
 50
179.999981
 51
359.999981
  0
ARC
  8
OBJECT
 10
7.992965
 20
31.45346
 30
0.0
 40
0.0935
 50
359.999981
 51
179.999981
  0
ARC
  8
OBJECT
 10
7.742965
 20
32.95346
 30
0.0
 40
0.0935
 50
359.999981
 51
179.999981
  0
ARC
  8
OBJECT
 10
7.992965
 20
33.64046
 30
0.0
 40
0.0935
 50
179.999981
 51
359.999981
  0
ARC
  8
OBJECT
 10
7.992965
 20
34.45346
 30
0.0
 40
0.0935
 50
359.999981
 51
179.999981
  0
LINE
  8
OBJECT
 10
23.868465
 20
35.29696
 30
0.0
 11
23.868465
 21
16.29696
 31
0.0
  0
LINE
  8
OBJECT
 10
23.930465
 20
35.29696
 30
0.0
 11
23.930465
 21
16.29696
 31
0.0
  0
LINE
  8
BEND
  6
PHANTOM2
 10
22.586465
 20
30.490958
 30
0.0
 11
22.586465
 21
19.733858
 31
0.0
  0
LINE
  8
OBJECT
 10
22.399465
 20
18.64046
 30
0.0
 11
22.399465
 21
19.45346
 31
0.0
  0
LINE
  8
OBJECT
 10
22.586465
 20
18.64046
 30
0.0
 11
22.586465
 21
19.45346
 31
0.0
  0
LINE
  8
OBJECT
 10
22.149465
 20
17.14046
 30
0.0
 11
22.149465
 21
17.95346
 31
0.0
  0
LINE
  8
OBJECT
 10
22.336465
 20
17.14046
 30
0.0
 11
22.336465
 21
17.95346
 31
0.0
  0
ARC
  8
OBJECT
 10
22.242965
 20
17.14046
 30
0.0
 40
0.0935
 50
179.999981
 51
359.999981
  0
ARC
  8
OBJECT
 10
22.242965
 20
17.95346
 30
0.0
 40
0.0935
 50
359.999981
 51
179.999981
  0
ARC
  8
OBJECT
 10
22.492965
 20
18.64046
 30
0.0
 40
0.0935
 50
179.999981
 51
359.999981
  0
ARC
  8
OBJECT
 10
22.492965
 20
19.45346
 30
0.0
 40
0.0935
 50
359.999981
 51
179.999981
  0
LINE
  8
OBJECT
 10
22.586465
 20
33.64046
 30
0.0
 11
22.586465
 21
34.45346
 31
0.0
  0
LINE
  8
OBJECT
 10
22.399465
 20
33.64046
 30
0.0
 11
22.399465
 21
34.45346
 31
0.0
  0
LINE
  8
OBJECT
 10
22.586465
 20
30.64046
 30
0.0
 11
22.586465
 21
31.45346
 31
0.0
  0
LINE
  8
OBJECT
 10
22.399465
 20
30.64046
 30
0.0
 11
22.399465
 21
31.45346
 31
0.0
  0
LINE
  8
OBJECT
 10
22.149465
 20
29.14046
 30
0.0
 11
22.149465
 21
29.95346
 31
0.0
  0
LINE
  8
OBJECT
 10
22.336465
 20
29.14046
 30
0.0
 11
22.336465
 21
29.95346
 31
0.0
  0
ARC
  8
OBJECT
 10
22.242965
 20
29.14046
 30
0.0
 40
0.0935
 50
179.999981
 51
359.999981
  0
ARC
  8
OBJECT
 10
22.242965
 20
29.95346
 30
0.0
 40
0.0935
 50
359.999981
 51
179.999981
  0
ARC
  8
OBJECT
 10
22.492965
 20
30.64046
 30
0.0
 40
0.0935
 50
179.999981
 51
359.999981
  0
LINE
  8
OBJECT
 10
22.336465
 20
32.14046
 30
0.0
 11
22.336465
 21
32.95346
 31
0.0
  0
LINE
  8
OBJECT
 10
22.149465
 20
32.14046
 30
0.0
 11
22.149465
 21
32.95346
 31
0.0
  0
ARC
  8
OBJECT
 10
22.242965
 20
32.14046
 30
0.0
 40
0.0935
 50
179.999981
 51
359.999981
  0
ARC
  8
OBJECT
 10
22.492965
 20
31.45346
 30
0.0
 40
0.0935
 50
359.999981
 51
179.999981
  0
ARC
  8
OBJECT
 10
22.242965
 20
32.95346
 30
0.0
 40
0.0935
 50
359.999981
 51
179.999981
  0
ARC
  8
OBJECT
 10
22.492965
 20
33.64046
 30
0.0
 40
0.0935
 50
179.999981
 51
359.999981
  0
ARC
  8
OBJECT
 10
22.492965
 20
34.45346
 30
0.0
 40
0.0935
 50
359.999981
 51
179.999981
  0
DIMENSION
  8
DIM
  2
*D16
 10
24.617465
 20
52.615634
 30
0.0
 11
15.117965
 21
52.615634
 31
0.0
  1
B
 13
5.618465
 23
49.790448
 33
0.0
 14
24.617465
 24
49.790448
 34
0.0
  3
23NSTD
  0
DIMENSION
  8
DIM
  2
*D19
 10
24.289465
 20
51.314282
 30
0.0
 11
15.117965
 21
51.314282
 31
0.0
  1
C
 13
5.946465
 23
49.696948
 33
0.0
 14
24.289465
 24
49.696948
 34
0.0
  3
23NSTD
  0
DIMENSION
  8
DIM
  2
*D6
 10
5.618465
 20
51.314282
 30
0.0
 11
2.345028
 21
51.314282
 31
0.0
 12
0.125
 22
0.0
 32
0.0
 13
5.946465
 23
49.696948
 33
0.0
 14
5.618465
 24
49.790448
 34
0.0
  3
23NSTD
  0
DIMENSION
  8
DIM
  2
*D4
 10
4.148631
 20
49.790448
 30
0.0
 11
4.148631
 21
47.181448
 31
0.0
 13
5.618465
 23
44.572448
 33
0.0
 14
5.618465
 24
49.790448
 34
0.0
 50
90.0
  3
23NSTD
  0
DIMENSION
  8
DIM
  2
*D25
 10
25.862465
 20
66.39935
 30
0.0
 11
25.862465
 21
64.89935
 31
0.0
 13
24.617465
 23
63.39935
 33
0.0
 14
24.617465
 24
66.39935
 34
0.0
 50
90.0
  3
23NSTDI
  0
DIMENSION
  8
DIM
  2
*D23
 10
31.458418
 20
68.52435
 30
0.0
 11
31.458418
 21
64.89935
 31
0.0
 13
24.617465
 23
61.27435
 33
0.0
 14
24.617465
 24
68.52435
 34
0.0
 50
90.0
  3
23NSTD
  0
DIMENSION
  8
DIM
  2
*D15
 10
23.930465
 20
54.10201
 30
0.0
 11
15.117965
 21
54.10201
 31
0.0
  1
A
 13
6.305465
 23
55.39935
 33
0.0
 14
23.930465
 24
55.39935
 34
0.0
 50
180.0
  3
23NSTD
  0
DIMENSION
  8
DIM
  2
*D10
 10
30.102487
 20
49.556448
 30
0.0
 11
30.102487
 21
48.931448
 31
0.0
 13
24.507965
 23
48.306448
 33
0.0
 14
24.507965
 24
49.556448
 34
0.0
 50
90.0
  3
23NSTDI
  0
DIMENSION
  8
DIM
  2
*D8
 10
26.414453
 20
44.806448
 30
0.0
 11
26.414453
 21
45.431448
 31
0.0
 13
24.507965
 23
46.056448
 33
0.0
 14
24.507965
 24
44.806448
 34
0.0
 50
90.0
  3
23NSTDI
  0
DIMENSION
  8
DIM
  2
*D9
 10
28.272546
 20
48.306448
 30
0.0
 11
28.272546
 21
47.181448
 31
0.0
 13
24.507965
 23
46.056448
 33
0.0
 14
24.507965
 24
48.306448
 34
0.0
 50
90.0
  3
23NSTDI
  0
DIMENSION
  8
DIM
  2
*D0
 10
48.852911
 20
43.198736
 30
0.0
 11
39.352911
 21
43.198736
 31
0.0
 13
29.852911
 23
44.572448
 33
0.0
 14
48.852911
 24
44.572448
 34
0.0
  3
23NSTD
  0
DIMENSION
  8
DIM
  2
*D3
 10
20.546943
 20
44.572448
 30
0.0
 11
18.298505
 21
42.772448
 31
0.0
 13
21.054374
 23
44.947448
 33
0.0
 14
21.054374
 24
44.572448
 34
0.0
 50
90.0
  3
23NSTD
  0
LINE
  8
OBJECT
 10
23.930465
 20
5.865188
 30
0.0
 11
6.305465
 21
5.865188
 31
0.0
  0
LINE
  8
HIDDEN
 10
23.868465
 20
5.927188
 30
0.0
 11
6.367465
 21
5.927188
 31
0.0
  0
LINE
  8
OBJECT
 10
23.743465
 20
6.240188
 30
0.0
 11
6.492465
 21
6.240188
 31
0.0
  0
DIMENSION
  8
DIM
  2
*D2
 10
20.546943
 20
5.865188
 30
0.0
 11
18.298505
 21
4.065188
 31
0.0
 13
21.054374
 23
6.240188
 33
0.0
 14
21.054374
 24
5.865188
 34
0.0
 50
90.0
  3
23NSTD
  0
LINE
  8
HIDDEN
 10
29.914911
 20
5.927188
 30
0.0
 11
48.790911
 21
5.927188
 31
0.0
  0
LINE
  8
OBJECT
 10
35.070911
 20
11.083188
 30
0.0
 11
43.634911
 21
11.083188
 31
0.0
  0
LINE
  8
OBJECT
 10
29.852911
 20
5.865188
 30
0.0
 11
48.852911
 21
5.865188
 31
0.0
  0
POLYLINE
  8
OBJECT
 66
     1
 10
0.0
 20
0.0
 30
0.0
 70
     1
  0
VERTEX
  8
OBJECT
 10
41.040849
 20
6.832188
 30
0.0
  0
VERTEX
  8
OBJECT
 10
41.227911
 20
6.940188
 30
0.0
  0
VERTEX
  8
OBJECT
 10
41.414972
 20
6.832188
 30
0.0
  0
VERTEX
  8
OBJECT
 10
41.414972
 20
6.616188
 30
0.0
  0
VERTEX
  8
OBJECT
 10
41.227911
 20
6.508188
 30
0.0
  0
VERTEX
  8
OBJECT
 10
41.040849
 20
6.616188
 30
0.0
  0
SEQEND
  8
OBJECT
  0
POLYLINE
  8
OBJECT
 66
     1
 10
0.0
 20
0.0
 30
0.0
 70
     1
  0
VERTEX
  8
OBJECT
 10
41.040849
 20
10.332188
 30
0.0
  0
VERTEX
  8
OBJECT
 10
41.227911
 20
10.440188
 30
0.0
  0
VERTEX
  8
OBJECT
 10
41.414972
 20
10.332188
 30
0.0
  0
VERTEX
  8
OBJECT
 10
41.414972
 20
10.116188
 30
0.0
  0
VERTEX
  8
OBJECT
 10
41.227911
 20
10.008188
 30
0.0
  0
VERTEX
  8
OBJECT
 10
41.040849
 20
10.116188
 30
0.0
  0
SEQEND
  8
OBJECT
  0
DIMENSION
  8
DIM
  2
*D26
 10
48.852911
 20
4.620188
 30
0.0
 11
39.352911
 21
4.620188
 31
0.0
 13
29.852911
 23
5.865188
 33
0.0
 14
48.852911
 24
5.865188
 34
0.0
  3
23NSTD
  0
LINE
  8
OBJECT
 10
29.852911
 20
5.865188
 30
0.0
 11
35.070911
 21
11.083188
 31
0.0
  0
LINE
  8
OBJECT
 10
29.914911
 20
6.240188
 30
0.0
 11
29.914911
 21
5.927188
 31
0.0
  0
LINE
  8
OBJECT
 10
29.852911
 20
6.240188
 30
0.0
 11
29.852911
 21
5.865188
 31
0.0
  0
LINE
  8
OBJECT
 10
29.852911
 20
6.240188
 30
0.0
 11
29.914911
 21
6.240188
 31
0.0
  0
LINE
  8
OBJECT
 10
37.852911
 20
11.083188
 30
0.0
 11
37.852911
 21
5.865188
 31
0.0
  0
LINE
  8
OBJECT
 10
37.227911
 20
11.083188
 30
0.0
 11
37.227911
 21
5.865188
 31
0.0
  0
LINE
  8
OBJECT
 10
37.790911
 20
11.083188
 30
0.0
 11
37.790911
 21
5.865188
 31
0.0
  0
LINE
  8
OBJECT
 10
40.914911
 20
11.083188
 30
0.0
 11
40.914911
 21
5.865188
 31
0.0
  0
LINE
  8
OBJECT
 10
40.852911
 20
11.083188
 30
0.0
 11
40.852911
 21
5.865188
 31
0.0
  0
POLYLINE
  8
OBJECT
 66
     1
 10
0.0
 20
0.0
 30
0.0
 70
     1
  0
VERTEX
  8
OBJECT
 10
37.664972
 20
6.832188
 30
0.0
  0
VERTEX
  8
OBJECT
 10
37.477911
 20
6.940188
 30
0.0
  0
VERTEX
  8
OBJECT
 10
37.290849
 20
6.832188
 30
0.0
  0
VERTEX
  8
OBJECT
 10
37.290849
 20
6.616188
 30
0.0
  0
VERTEX
  8
OBJECT
 10
37.477911
 20
6.508188
 30
0.0
  0
VERTEX
  8
OBJECT
 10
37.664972
 20
6.616188
 30
0.0
  0
SEQEND
  8
OBJECT
  0
CIRCLE
  8
OBJECT
 10
37.477911
 20
6.724188
 30
0.0
 40
0.095
  0
POLYLINE
  8
OBJECT
 66
     1
 10
0.0
 20
0.0
 30
0.0
 70
     1
  0
VERTEX
  8
OBJECT
 10
37.664972
 20
10.332188
 30
0.0
  0
VERTEX
  8
OBJECT
 10
37.477911
 20
10.440188
 30
0.0
  0
VERTEX
  8
OBJECT
 10
37.290849
 20
10.332188
 30
0.0
  0
VERTEX
  8
OBJECT
 10
37.290849
 20
10.116188
 30
0.0
  0
VERTEX
  8
OBJECT
 10
37.477911
 20
10.008188
 30
0.0
  0
VERTEX
  8
OBJECT
 10
37.664972
 20
10.116188
 30
0.0
  0
SEQEND
  8
OBJECT
  0
CIRCLE
  8
OBJECT
 10
37.477911
 20
10.224188
 30
0.0
 40
0.095
  0
LINE
  8
OBJECT
 10
48.852911
 20
5.865188
 30
0.0
 11
43.634911
 21
11.083188
 31
0.0
  0
LINE
  8
OBJECT
 10
41.477911
 20
11.083188
 30
0.0
 11
41.477911
 21
5.865188
 31
0.0
  0
CIRCLE
  8
OBJECT
 10
41.227911
 20
6.724188
 30
0.0
 40
0.095
  0
CIRCLE
  8
OBJECT
 10
41.227911
 20
10.224188
 30
0.0
 40
0.095
  0
LINE
  8
OBJECT
 10
48.790911
 20
6.240188
 30
0.0
 11
48.852911
 21
6.240188
 31
0.0
  0
LINE
  8
OBJECT
 10
48.790911
 20
6.240188
 30
0.0
 11
48.790911
 21
5.927188
 31
0.0
  0
LINE
  8
OBJECT
 10
48.852911
 20
6.240188
 30
0.0
 11
48.852911
 21
5.865188
 31
0.0
  0
DIMENSION
  8
DIM
  2
*D14
 10
23.930465
 20
15.019888
 30
0.0
 11
15.117965
 21
15.019888
 31
0.0
  1
A
 13
6.305465
 23
16.29696
 33
0.0
 14
23.930465
 24
16.29696
 34
0.0
 50
180.0
  3
23NSTD
  0
DIMENSION
  8
DIM
  2
*D1
 10
22.492965
 20
21.452673
 30
0.0
 11
15.305465
 21
21.452673
 31
0.0
 12
-0.0625
 22
0.0
 32
0.0
  1
(D) SPACES @ 0.500 = E
 13
7.992965
 23
19.54696
 33
0.0
 14
22.492965
 24
19.54696
 34
0.0
  3
23NSTD
  0
DIMENSION
  8
DIM
  2
*D22
 10
1.563465
 20
29.42196
 30
0.0
 11
1.563465
 21
25.03446
 31
0.0
 70
   128
 13
5.618465
 23
22.17196
 33
0.0
 14
5.618465
 24
29.42196
 34
0.0
 50
270.0
  3
23NSTD
  0
DIMENSION
  8
DIM
  2
*D20
 10
4.838465
 20
27.29696
 30
0.0
 11
4.838465
 21
25.79696
 31
0.0
 13
5.618465
 23
24.29696
 33
0.0
 14
5.618465
 24
27.29696
 34
0.0
 50
270.0
  3
23NSTDI
  0
TEXT
  8
TEXT
 10
33.642052
 20
73.28405
 30
0.0
 40
0.625
  1
MATERIAL:
 41
0.75
  0
TEXT
  8
TEXT
 10
33.642052
 20
70.38728
 30
0.0
 40
0.625
  1
FINISH: BLACK TEXTURE
 41
0.75
  0
DIMENSION
  8
DIM
  2
*D5
 10
30.22101
 20
34.04696
 30
0.0
 11
30.22101
 21
25.79696
 31
0.0
  1
(11) SPACES @ 1.500 = <>
 13
22.336465
 23
17.54696
 33
0.0
 14
22.586465
 24
34.04696
 34
0.0
 50
90.0
  3
23NSTD
  0
POLYLINE
  8
DIM
 66
     1
 10
0.0
 20
0.0
 30
0.0
 41
0.3375
  0
VERTEX
  8
DIM
 10
22.336465
 20
17.319623
 30
0.0
  0
VERTEX
  8
DIM
 10
23.0792
 20
17.068066
 30
0.0
 41
0.0
  0
VERTEX
  8
DIM
 10
26.950883
 20
15.756766
 30
0.0
 41
0.0
  0
VERTEX
  8
DIM
 10
27.850883
 20
15.756766
 30
0.0
 41
0.0
  0
SEQEND
  8
DIM
  0
TEXT
  8
DIM
 10
28.300883
 20
15.444266
 30
0.0
 40
0.625
  1
0.187 x 1.000 OBLONG
 41
0.75
 11
28.300883
 21
15.756766
 31
0.0
 73
     2
  0
TEXT
  8
DIM
 10
28.300883
 20
14.343961
 30
0.0
 40
0.625
  1
(F) HOLES
 41
0.75
 11
28.300883
 21
14.656461
 31
0.0
 73
     2
  0
LINE
  8
TITLE
 10
0.31
 20
36.429318
 30
0.0
 11
50.29
 21
36.429318
 31
0.0
  0
LINE
  8
TITLE
 10
0.31
 20
38.519318
 30
0.0
 11
50.29
 21
38.519318
 31
0.0
  0
LINE
  8
TITLE
 10
0.31
 20
38.829318
 30
0.0
 11
50.29
 21
38.829318
 31
0.0
  0
LINE
  8
TITLE
 10
4.06
 20
38.519318
 30
0.0
 11
4.06
 21
36.429318
 31
0.0
  0
LINE
  8
TITLE
 10
29.36
 20
38.519318
 30
0.0
 11
29.36
 21
36.429318
 31
0.0
  0
LINE
  8
TITLE
 10
25.61
 20
38.519318
 30
0.0
 11
25.61
 21
36.429318
 31
0.0
  0
LINE
  8
TITLE
 10
25.3
 20
38.519318
 30
0.0
 11
25.3
 21
36.429318
 31
0.0
  0
TEXT
  8
TEXT
 10
9.922967
 20
75.803497
 30
0.0
 40
0.75
  1
RELAY RACK SHELF
 41
0.75
 72
     1
 11
14.329217
 21
75.803497
 31
0.0
  0
TEXT
  8
TEXT
 10
34.405866
 20
75.803497
 30
0.0
 40
0.75
  1
SA-1765  &  SA-1767
 41
0.75
 72
     1
 11
39.468366
 21
75.803497
 31
0.0
  0
TEXT
  8
TEXT
 10
34.405866
 20
37.132815
 30
0.0
 40
0.75
  1
SA-1766  &  SA-1768
 41
0.75
 72
     1
 11
39.468366
 21
37.132815
 31
0.0
  0
TEXT
  8
TEXT
 10
6.454217
 20
37.132815
 30
0.0
 40
0.75
  1
RELAY RACK SHELF (VENTILATED)
 41
0.75
 72
     1
 11
14.329217
 21
37.132815
 31
0.0
  0
TEXT
  8
TEXT
 10
34.140349
 20
72.272175
 30
0.0
 40
0.625
  1
SHELF & MTG. BRKTS.
 41
0.75
  0
TEXT
  8
TEXT
 10
44.566868
 20
72.270726
 30
0.0
 40
0.625
  1
16 GA. STEEL
 41
0.75
 72
     2
 11
49.566868
 21
72.270726
 31
0.0
  0
LINE
  8
TEXT
 10
42.502774
 20
72.270726
 30
0.0
 11
44.378716
 21
72.270726
 31
0.0
  0
TEXT
  8
TEXT
 10
34.140349
 20
33.660697
 30
0.0
 40
0.625
  1
SHELF & MTG. BRKTS.
 41
0.75
  0
TEXT
  8
TEXT
 10
33.642052
 20
32.099618
 30
0.0
 40
0.625
  1
FINISH: BLACK TEXTURE
 41
0.75
  0
TEXT
  8
TEXT
 10
33.642052
 20
34.672572
 30
0.0
 40
0.625
  1
MATERIAL:
 41
0.75
  0
TEXT
  8
TEXT
 10
44.566868
 20
33.659248
 30
0.0
 40
0.625
  1
16 GA. STEEL
 41
0.75
 72
     2
 11
49.566868
 21
33.659248
 31
0.0
  0
LINE
  8
TEXT
 10
42.502774
 20
33.659248
 30
0.0
 11
44.378716
 21
33.659248
 31
0.0
  0
TEXT
  8
TEXT
 10
33.642052
 20
29.422269
 30
0.0
 40
0.625
  1
UNIT SHIPPED UNASSEMBLED
 41
0.75
  0
TEXT
  8
TEXT
 10
33.609019
 20
69.294676
 30
0.0
 40
0.625
  1
       METALLIC GRAY
 41
0.75
  0
TEXT
  8
TEXT
 10
33.642052
 20
67.455554
 30
0.0
 40
0.625
  1
UNIT SHIPPED UNASSEMBLED
 41
0.75
  0
TEXT
  8
TEXT
 10
33.650919
 20
30.997168
 30
0.0
 40
0.625
  1
       METALLIC GRAY
 41
0.75
  0
LINE
  8
TITLE
 10
0.31
 20
39.869318
 30
0.0
 11
50.29
 21
39.869318
 31
0.0
  0
LINE
  8
TITLE
 10
0.31
 20
40.909318
 30
0.0
 11
50.29
 21
40.909318
 31
0.0
  0
LINE
  8
TITLE
 10
0.31
 20
41.949318
 30
0.0
 11
50.29
 21
41.949318
 31
0.0
  0
TEXT
  8
TEXT
 10
4.827245
 20
41.140775
 30
0.0
 40
0.625
  1
PART No.
 41
0.75
 72
     1
 11
6.46787
 21
41.140775
 31
0.0
  0
TEXT
  8
TEXT
 10
4.983495
 20
40.099108
 30
0.0
 40
0.625
  1
SA-1765
 41
0.75
 72
     1
 11
6.46787
 21
40.099108
 31
0.0
  0
TEXT
  8
TEXT
 10
4.983495
 20
39.057441
 30
0.0
 40
0.625
  1
SA-1767
 41
0.75
 72
     1
 11
6.46787
 21
39.057441
 31
0.0
  0
TEXT
  8
TEXT
 10
17.863698
 20
39.057441
 30
0.0
 40
0.625
  1
21.625
 41
0.75
 72
     1
 11
18.957448
 21
39.057441
 31
0.0
  0
TEXT
  8
TEXT
 10
17.863698
 20
40.099108
 30
0.0
 40
0.625
  1
17.625
 41
0.75
 72
     1
 11
18.957448
 21
40.099108
 31
0.0
  0
TEXT
  8
TEXT
 10
18.801198
 20
41.140775
 30
0.0
 40
0.625
  1
A
 41
0.75
 72
     1
 11
18.957448
 21
41.140775
 31
0.0
  0
TEXT
  8
TEXT
 10
30.392338
 20
39.057441
 30
0.0
 40
0.625
  1
23.000
 41
0.75
 72
     1
 11
31.447025
 21
39.057441
 31
0.0
  0
TEXT
  8
TEXT
 10
30.470463
 20
40.099108
 30
0.0
 40
0.625
  1
19.000
 41
0.75
 72
     1
 11
31.447025
 21
40.099108
 31
0.0
  0
TEXT
  8
TEXT
 10
31.290775
 20
41.140775
 30
0.0
 40
0.625
  1
B
 41
0.75
 72
     1
 11
31.447025
 21
41.140775
 31
0.0
  0
TEXT
  8
TEXT
 10
42.764728
 20
39.057441
 30
0.0
 40
0.625
  1
22.344
 41
0.75
 72
     1
 11
43.936603
 21
39.057441
 31
0.0
  0
TEXT
  8
TEXT
 10
42.842853
 20
40.099108
 30
0.0
 40
0.625
  1
18.344
 41
0.75
 72
     1
 11
43.936603
 21
40.099108
 31
0.0
  0
TEXT
  8
TEXT
 10
43.780353
 20
41.140775
 30
0.0
 40
0.625
  1
C
 41
0.75
 72
     1
 11
43.936603
 21
41.140775
 31
0.0
  0
LINE
  8
TITLE
 10
37.795
 20
38.829318
 30
0.0
 11
37.795
 21
41.949318
 31
0.0
  0
LINE
  8
TITLE
 10
25.3
 20
38.829318
 30
0.0
 11
25.3
 21
41.949318
 31
0.0
  0
LINE
  8
TITLE
 10
12.805
 20
38.829318
 30
0.0
 11
12.805
 21
41.949318
 31
0.0
  0
TEXT
  8
TEXT
 10
2.445398
 20
0.538124
 30
0.0
 40
0.625
  1
SA-1768
 41
0.75
 72
     1
 11
3.929773
 21
0.538124
 31
0.0
  0
TEXT
  8
TEXT
 10
2.445398
 20
1.57979
 30
0.0
 40
0.625
  1
SA-1766
 41
0.75
 72
     1
 11
3.929773
 21
1.57979
 31
0.0
  0
LINE
  8
TITLE
 10
0.31
 20
2.39
 30
0.0
 11
50.29
 21
2.39
 31
0.0
  0
TEXT
  8
TEXT
 10
2.289148
 20
2.621457
 30
0.0
 40
0.625
  1
PART No.
 41
0.75
 72
     1
 11
3.929773
 21
2.621457
 31
0.0
  0
LINE
  8
TITLE
 10
0.31
 20
3.43
 30
0.0
 11
50.29
 21
3.43
 31
0.0
  0
LINE
  8
TITLE
 10
0.31
 20
1.35
 30
0.0
 11
50.29
 21
1.35
 31
0.0
  0
LINE
  8
TITLE
 10
7.45
 20
0.31
 30
0.0
 11
7.45
 21
3.43
 31
0.0
  0
TEXT
  8
TEXT
 10
10.913523
 20
2.621457
 30
0.0
 40
0.625
  1
A
 41
0.75
 72
     1
 11
11.069773
 21
2.621457
 31
0.0
  0
TEXT
  8
TEXT
 10
9.976023
 20
0.538124
 30
0.0
 40
0.625
  1
21.625
 41
0.75
 72
     1
 11
11.069773
 21
0.538124
 31
0.0
  0
TEXT
  8
TEXT
 10
9.976023
 20
1.57979
 30
0.0
 40
0.625
  1
17.625
 41
0.75
 72
     1
 11
11.069773
 21
1.57979
 31
0.0
  0
TEXT
  8
TEXT
 10
18.053523
 20
2.621457
 30
0.0
 40
0.625
  1
B
 41
0.75
 72
     1
 11
18.209773
 21
2.621457
 31
0.0
  0
TEXT
  8
TEXT
 10
17.155085
 20
0.538124
 30
0.0
 40
0.625
  1
23.000
 41
0.75
 72
     1
 11
18.209773
 21
0.538124
 31
0.0
  0
TEXT
  8
TEXT
 10
17.23321
 20
1.57979
 30
0.0
 40
0.625
  1
19.000
 41
0.75
 72
     1
 11
18.209773
 21
1.57979
 31
0.0
  0
TEXT
  8
TEXT
 10
25.193523
 20
2.621457
 30
0.0
 40
0.625
  1
C
 41
0.75
 72
     1
 11
25.349773
 21
2.621457
 31
0.0
  0
TEXT
  8
TEXT
 10
24.177898
 20
0.538124
 30
0.0
 40
0.625
  1
22.344
 41
0.75
 72
     1
 11
25.349773
 21
0.538124
 31
0.0
  0
TEXT
  8
TEXT
 10
24.256023
 20
1.57979
 30
0.0
 40
0.625
  1
18.344
 41
0.75
 72
     1
 11
25.349773
 21
1.57979
 31
0.0
  0
TEXT
  8
TEXT
 10
32.333523
 20
2.621457
 30
0.0
 40
0.625
  1
D
 41
0.75
 72
     1
 11
32.489773
 21
2.621457
 31
0.0
  0
TEXT
  8
TEXT
 10
32.177273
 20
0.538124
 30
0.0
 40
0.625
  1
41
 41
0.75
 72
     1
 11
32.489773
 21
0.538124
 31
0.0
  0
TEXT
  8
TEXT
 10
32.099148
 20
1.57979
 30
0.0
 40
0.625
  1
29
 41
0.75
 72
     1
 11
32.489773
 21
1.57979
 31
0.0
  0
TEXT
  8
TEXT
 10
39.473523
 20
2.621457
 30
0.0
 40
0.625
  1
E
 41
0.75
 72
     1
 11
39.629773
 21
2.621457
 31
0.0
  0
TEXT
  8
TEXT
 10
38.575085
 20
0.538124
 30
0.0
 40
0.625
  1
20.500
 41
0.75
 72
     1
 11
39.629773
 21
0.538124
 31
0.0
  0
TEXT
  8
TEXT
 10
38.614148
 20
1.57979
 30
0.0
 40
0.625
  1
14.500
 41
0.75
 72
     1
 11
39.629773
 21
1.57979
 31
0.0
  0
TEXT
  8
TEXT
 10
46.613523
 20
2.621457
 30
0.0
 40
0.625
  1
F
 41
0.75
 72
     1
 11
46.769773
 21
2.621457
 31
0.0
  0
TEXT
  8
TEXT
 10
46.144773
 20
0.538124
 30
0.0
 40
0.625
  1
462
 41
0.75
 72
     1
 11
46.769773
 21
0.538124
 31
0.0
  0
TEXT
  8
TEXT
 10
46.183835
 20
1.57979
 30
0.0
 40
0.625
  1
360
 41
0.75
 72
     1
 11
46.769773
 21
1.57979
 31
0.0
  0
LINE
  8
TITLE
 10
14.59
 20
0.31
 30
0.0
 11
14.59
 21
3.43
 31
0.0
  0
LINE
  8
TITLE
 10
21.73
 20
0.31
 30
0.0
 11
21.73
 21
3.43
 31
0.0
  0
LINE
  8
TITLE
 10
28.87
 20
0.31
 30
0.0
 11
28.87
 21
3.43
 31
0.0
  0
LINE
  8
TITLE
 10
36.01
 20
0.31
 30
0.0
 11
36.01
 21
3.43
 31
0.0
  0
LINE
  8
TITLE
 10
43.15
 20
0.31
 30
0.0
 11
43.15
 21
3.43
 31
0.0
  0
TEXT
  8
TEXT
 10
1.039167
 20
75.300396
 30
0.0
 40
0.625
  1
NAME
 72
     1
 11
2.185
 21
75.300396
 31
0.0
  0
TEXT
  8
TEXT
 10
1.039167
 20
76.342063
 30
0.0
 40
0.625
  1
PART
 72
     1
 11
2.185
 21
76.342063
 31
0.0
  0
TEXT
  8
TEXT
 10
26.86
 20
75.300396
 30
0.0
 40
0.625
  1
No.
 72
     1
 11
27.485
 21
75.300396
 31
0.0
  0
TEXT
  8
TEXT
 10
26.339167
 20
76.342063
 30
0.0
 40
0.625
  1
PART
 72
     1
 11
27.485
 21
76.342063
 31
0.0
  0
LINE
  8
TITLE
 10
29.36
 20
77.19
 30
0.0
 11
29.36
 21
75.1
 31
0.0
  0
LINE
  8
TITLE
 10
25.61
 20
77.19
 30
0.0
 11
25.61
 21
75.1
 31
0.0
  0
LINE
  8
TITLE
 10
25.3
 20
77.19
 30
0.0
 11
25.3
 21
75.1
 31
0.0
  0
LINE
  8
TITLE
 10
4.06
 20
75.1
 30
0.0
 11
4.06
 21
77.19
 31
0.0
  0
LINE
  8
TITLE
 10
0.31
 20
75.1
 30
0.0
 11
50.29
 21
75.1
 31
0.0
  0
LINE
  8
TITLE
 10
50.29
 20
0.31
 30
0.0
 11
0.31
 21
0.31
 31
0.0
  0
LINE
  8
TITLE
 10
50.29
 20
77.19
 30
0.0
 11
50.29
 21
0.31
 31
0.0
  0
LINE
  8
TITLE
 10
0.31
 20
77.19
 30
0.0
 11
50.29
 21
77.19
 31
0.0
  0
LINE
  8
TITLE
 10
0.31
 20
0.31
 30
0.0
 11
0.31
 21
77.19
 31
0.0
  0
LINE
  8
TITLE
 10
0.0
 20
0.0
 30
0.0
 11
0.0
 21
77.5
 31
0.0
  0
LINE
  8
TITLE
 10
50.6
 20
0.0
 30
0.0
 11
0.0
 21
0.0
 31
0.0
  0
LINE
  8
TITLE
 10
50.6
 20
77.5
 30
0.0
 11
50.6
 21
0.0
 31
0.0
  0
LINE
  8
TITLE
 10
0.0
 20
77.5
 30
0.0
 11
50.6
 21
77.5
 31
0.0
  0
TEXT
  8
TEXT
 10
1.039167
 20
37.67138
 30
0.0
 40
0.625
  1
PART
 72
     1
 11
2.185
 21
37.67138
 31
0.0
  0
TEXT
  8
TEXT
 10
1.039167
 20
36.629714
 30
0.0
 40
0.625
  1
NAME
 72
     1
 11
2.185
 21
36.629714
 31
0.0
  0
TEXT
  8
TEXT
 10
26.339167
 20
37.67138
 30
0.0
 40
0.625
  1
PART
 72
     1
 11
27.485
 21
37.67138
 31
0.0
  0
TEXT
  8
TEXT
 10
26.86
 20
36.629714
 30
0.0
 40
0.625
  1
No.
 72
     1
 11
27.485
 21
36.629714
 31
0.0
  0
POLYLINE
  8
OBJECT
 66
     1
 10
0.0
 20
0.0
 30
0.0
 70
     1
  0
VERTEX
  8
OBJECT
 10
6.024465
 20
49.696948
 30
0.0
  0
VERTEX
  8
OBJECT
 10
5.868465
 20
49.696948
 30
0.0
 42
1.0
  0
VERTEX
  8
OBJECT
 10
5.868465
 20
49.415948
 30
0.0
  0
VERTEX
  8
OBJECT
 10
6.024465
 20
49.415948
 30
0.0
 42
1.0
  0
SEQEND
  8
OBJECT
  0
POLYLINE
  8
OBJECT
 66
     1
 10
0.0
 20
0.0
 30
0.0
 70
     1
  0
VERTEX
  8
OBJECT
 10
6.024465
 20
48.446948
 30
0.0
  0
VERTEX
  8
OBJECT
 10
5.868465
 20
48.446948
 30
0.0
 42
1.0
  0
VERTEX
  8
OBJECT
 10
5.868465
 20
48.165948
 30
0.0
  0
VERTEX
  8
OBJECT
 10
6.024465
 20
48.165948
 30
0.0
 42
1.0
  0
SEQEND
  8
OBJECT
  0
POLYLINE
  8
OBJECT
 66
     1
 10
0.0
 20
0.0
 30
0.0
 70
     1
  0
VERTEX
  8
OBJECT
 10
6.024465
 20
45.915948
 30
0.0
  0
VERTEX
  8
OBJECT
 10
5.868465
 20
45.915948
 30
0.0
 42
-1.0
  0
VERTEX
  8
OBJECT
 10
5.868465
 20
46.196948
 30
0.0
  0
VERTEX
  8
OBJECT
 10
6.024465
 20
46.196948
 30
0.0
 42
-1.0
  0
SEQEND
  8
OBJECT
  0
POLYLINE
  8
OBJECT
 66
     1
 10
0.0
 20
0.0
 30
0.0
 70
     1
  0
VERTEX
  8
OBJECT
 10
5.868465
 20
44.665948
 30
0.0
  0
VERTEX
  8
OBJECT
 10
6.024465
 20
44.665948
 30
0.0
 42
1.0
  0
VERTEX
  8
OBJECT
 10
6.024465
 20
44.946948
 30
0.0
  0
VERTEX
  8
OBJECT
 10
5.868465
 20
44.946948
 30
0.0
 42
1.0
  0
SEQEND
  8
OBJECT
  0
POLYLINE
  8
OBJECT
 66
     1
 10
0.0
 20
0.0
 30
0.0
 70
     1
  0
VERTEX
  8
OBJECT
 10
24.211465
 20
44.665948
 30
0.0
  0
VERTEX
  8
OBJECT
 10
24.367465
 20
44.665948
 30
0.0
 42
1.0
  0
VERTEX
  8
OBJECT
 10
24.367465
 20
44.946948
 30
0.0
  0
VERTEX
  8
OBJECT
 10
24.211465
 20
44.946948
 30
0.0
 42
1.0
  0
SEQEND
  8
OBJECT
  0
POLYLINE
  8
OBJECT
 66
     1
 10
0.0
 20
0.0
 30
0.0
 70
     1
  0
VERTEX
  8
OBJECT
 10
24.211465
 20
45.915948
 30
0.0
  0
VERTEX
  8
OBJECT
 10
24.367465
 20
45.915948
 30
0.0
 42
1.0
  0
VERTEX
  8
OBJECT
 10
24.367465
 20
46.196948
 30
0.0
  0
VERTEX
  8
OBJECT
 10
24.211465
 20
46.196948
 30
0.0
 42
1.0
  0
SEQEND
  8
OBJECT
  0
POLYLINE
  8
OBJECT
 66
     1
 10
0.0
 20
0.0
 30
0.0
 70
     1
  0
VERTEX
  8
OBJECT
 10
24.211465
 20
49.415948
 30
0.0
  0
VERTEX
  8
OBJECT
 10
24.367465
 20
49.415948
 30
0.0
 42
1.0
  0
VERTEX
  8
OBJECT
 10
24.367465
 20
49.696948
 30
0.0
  0
VERTEX
  8
OBJECT
 10
24.211465
 20
49.696948
 30
0.0
 42
1.0
  0
SEQEND
  8
OBJECT
  0
POLYLINE
  8
OBJECT
 66
     1
 10
0.0
 20
0.0
 30
0.0
 70
     1
  0
VERTEX
  8
OBJECT
 10
24.211465
 20
48.165948
 30
0.0
  0
VERTEX
  8
OBJECT
 10
24.367465
 20
48.165948
 30
0.0
 42
1.0
  0
VERTEX
  8
OBJECT
 10
24.367465
 20
48.446948
 30
0.0
  0
VERTEX
  8
OBJECT
 10
24.211465
 20
48.446948
 30
0.0
 42
1.0
  0
SEQEND
  8
OBJECT
  0
LINE
  8
OBJECT
 10
6.305465
 20
11.083188
 30
0.0
 11
5.618465
 21
11.083188
 31
0.0
  0
LINE
  8
OBJECT
 10
6.305465
 20
5.865188
 30
0.0
 11
5.618465
 21
5.865188
 31
0.0
  0
LINE
  8
OBJECT
 10
5.618465
 20
5.865188
 30
0.0
 11
5.618465
 21
11.083188
 31
0.0
  0
DIMENSION
  8
DIM
  2
*D4
 10
4.148631
 20
11.083188
 30
0.0
 11
4.148631
 21
8.474188
 31
0.0
 12
0.0
 22
-38.70726
 32
0.0
 13
5.618465
 23
5.865188
 33
0.0
 14
5.618465
 24
11.083188
 34
0.0
 50
90.0
  3
23NSTD
  0
LINE
  8
OBJECT
 10
6.305465
 20
5.865188
 30
0.0
 11
6.305465
 21
11.083188
 31
0.0
  0
LINE
  8
OBJECT
 10
6.367465
 20
5.927188
 30
0.0
 11
6.367465
 21
11.083188
 31
0.0
  0
LINE
  8
OBJECT
 10
6.243465
 20
5.865188
 30
0.0
 11
6.243465
 21
11.083188
 31
0.0
  0
POLYLINE
  8
OBJECT
 66
     1
 10
0.0
 20
0.0
 30
0.0
 70
     1
  0
VERTEX
  8
OBJECT
 10
5.868465
 20
5.958688
 30
0.0
  0
VERTEX
  8
OBJECT
 10
6.024465
 20
5.958688
 30
0.0
 42
1.0
  0
VERTEX
  8
OBJECT
 10
6.024465
 20
6.239688
 30
0.0
  0
VERTEX
  8
OBJECT
 10
5.868465
 20
6.239688
 30
0.0
 42
1.0
  0
SEQEND
  8
OBJECT
  0
LINE
  8
OBJECT
 10
6.113465
 20
6.508188
 30
0.0
 11
6.243465
 21
6.508188
 31
0.0
  0
LINE
  8
OBJECT
 10
6.113465
 20
6.616188
 30
0.0
 11
6.243465
 21
6.616188
 31
0.0
  0
LINE
  8
OBJECT
 10
6.113465
 20
6.832188
 30
0.0
 11
6.243465
 21
6.832188
 31
0.0
  0
LINE
  8
OBJECT
 10
6.113465
 20
6.940188
 30
0.0
 11
6.243465
 21
6.940188
 31
0.0
  0
POLYLINE
  8
OBJECT
 66
     1
 10
0.0
 20
0.0
 30
0.0
 70
     1
  0
VERTEX
  8
OBJECT
 10
6.024465
 20
7.208688
 30
0.0
  0
VERTEX
  8
OBJECT
 10
5.868465
 20
7.208688
 30
0.0
 42
-1.0
  0
VERTEX
  8
OBJECT
 10
5.868465
 20
7.489688
 30
0.0
  0
VERTEX
  8
OBJECT
 10
6.024465
 20
7.489688
 30
0.0
 42
-1.0
  0
SEQEND
  8
OBJECT
  0
LINE
  8
OBJECT
 10
6.113465
 20
6.508188
 30
0.0
 11
6.113465
 21
6.940188
 31
0.0
  0
LINE
  8
OBJECT
 10
5.992465
 20
6.819188
 30
0.0
 11
5.992465
 21
6.629188
 31
0.0
  0
LINE
  8
OBJECT
 10
5.992465
 20
6.629188
 30
0.0
 11
6.113465
 21
6.629188
 31
0.0
  0
LINE
  8
OBJECT
 10
5.992465
 20
6.819188
 30
0.0
 11
6.113465
 21
6.819188
 31
0.0
  0
LINE
  8
OBJECT
 10
6.492465
 20
6.240188
 30
0.0
 11
6.367465
 21
6.115188
 31
0.0
  0
ARC
  8
OBJECT
 10
6.213855
 20
6.724188
 30
0.0
 40
0.27161
 50
304.440759
 51
55.559241
  0
LINE
  8
OBJECT
 10
6.113465
 20
10.008188
 30
0.0
 11
6.243465
 21
10.008188
 31
0.0
  0
LINE
  8
OBJECT
 10
6.113465
 20
10.116188
 30
0.0
 11
6.243465
 21
10.116188
 31
0.0
  0
LINE
  8
OBJECT
 10
6.113465
 20
10.332188
 30
0.0
 11
6.243465
 21
10.332188
 31
0.0
  0
LINE
  8
OBJECT
 10
6.113465
 20
10.440188
 30
0.0
 11
6.243465
 21
10.440188
 31
0.0
  0
POLYLINE
  8
OBJECT
 66
     1
 10
0.0
 20
0.0
 30
0.0
 70
     1
  0
VERTEX
  8
OBJECT
 10
6.024465
 20
9.739688
 30
0.0
  0
VERTEX
  8
OBJECT
 10
5.868465
 20
9.739688
 30
0.0
 42
1.0
  0
VERTEX
  8
OBJECT
 10
5.868465
 20
9.458688
 30
0.0
  0
VERTEX
  8
OBJECT
 10
6.024465
 20
9.458688
 30
0.0
 42
1.0
  0
SEQEND
  8
OBJECT
  0
LINE
  8
OBJECT
 10
6.113465
 20
10.440188
 30
0.0
 11
6.113465
 21
10.008188
 31
0.0
  0
LINE
  8
OBJECT
 10
5.992465
 20
10.129188
 30
0.0
 11
5.992465
 21
10.319188
 31
0.0
  0
LINE
  8
OBJECT
 10
5.992465
 20
10.129188
 30
0.0
 11
6.113465
 21
10.129188
 31
0.0
  0
LINE
  8
OBJECT
 10
5.992465
 20
10.319188
 30
0.0
 11
6.113465
 21
10.319188
 31
0.0
  0
ARC
  8
OBJECT
 10
6.213855
 20
10.224188
 30
0.0
 40
0.27161
 50
304.440759
 51
55.559241
  0
POLYLINE
  8
OBJECT
 66
     1
 10
0.0
 20
0.0
 30
0.0
 70
     1
  0
VERTEX
  8
OBJECT
 10
6.024465
 20
10.989688
 30
0.0
  0
VERTEX
  8
OBJECT
 10
5.868465
 20
10.989688
 30
0.0
 42
1.0
  0
VERTEX
  8
OBJECT
 10
5.868465
 20
10.708688
 30
0.0
  0
VERTEX
  8
OBJECT
 10
6.024465
 20
10.708688
 30
0.0
 42
1.0
  0
SEQEND
  8
OBJECT
  0
LINE
  8
OBJECT
 10
6.305465
 20
11.083188
 30
0.0
 11
6.367465
 21
11.083188
 31
0.0
  0
POLYLINE
  8
OBJECT
 66
     1
 10
0.0
 20
0.0
 30
0.0
 70
     1
  0
VERTEX
  8
OBJECT
 10
24.211465
 20
5.958688
 30
0.0
  0
VERTEX
  8
OBJECT
 10
24.367465
 20
5.958688
 30
0.0
 42
1.0
  0
VERTEX
  8
OBJECT
 10
24.367465
 20
6.239688
 30
0.0
  0
VERTEX
  8
OBJECT
 10
24.211465
 20
6.239688
 30
0.0
 42
1.0
  0
SEQEND
  8
OBJECT
  0
LINE
  8
OBJECT
 10
24.617465
 20
5.865188
 30
0.0
 11
24.617465
 21
11.083188
 31
0.0
  0
LINE
  8
OBJECT
 10
23.992465
 20
5.865188
 30
0.0
 11
23.992465
 21
11.083188
 31
0.0
  0
LINE
  8
OBJECT
 10
23.868465
 20
5.927188
 30
0.0
 11
23.868465
 21
11.083188
 31
0.0
  0
LINE
  8
OBJECT
 10
23.930465
 20
5.865188
 30
0.0
 11
23.930465
 21
11.083188
 31
0.0
  0
LINE
  8
OBJECT
 10
23.930465
 20
5.865188
 30
0.0
 11
24.617465
 21
5.865188
 31
0.0
  0
POLYLINE
  8
OBJECT
 66
     1
 10
0.0
 20
0.0
 30
0.0
 70
     1
  0
VERTEX
  8
OBJECT
 10
24.211465
 20
7.208688
 30
0.0
  0
VERTEX
  8
OBJECT
 10
24.367465
 20
7.208688
 30
0.0
 42
1.0
  0
VERTEX
  8
OBJECT
 10
24.367465
 20
7.489688
 30
0.0
  0
VERTEX
  8
OBJECT
 10
24.211465
 20
7.489688
 30
0.0
 42
1.0
  0
SEQEND
  8
OBJECT
  0
LINE
  8
OBJECT
 10
24.243465
 20
6.629188
 30
0.0
 11
24.122465
 21
6.629188
 31
0.0
  0
LINE
  8
OBJECT
 10
24.243465
 20
6.819188
 30
0.0
 11
24.122465
 21
6.819188
 31
0.0
  0
LINE
  8
OBJECT
 10
24.122465
 20
6.508188
 30
0.0
 11
24.122465
 21
6.940188
 31
0.0
  0
LINE
  8
OBJECT
 10
24.122465
 20
6.508188
 30
0.0
 11
23.992465
 21
6.508188
 31
0.0
  0
LINE
  8
OBJECT
 10
24.122465
 20
6.616188
 30
0.0
 11
23.992465
 21
6.616188
 31
0.0
  0
LINE
  8
OBJECT
 10
24.122465
 20
6.832188
 30
0.0
 11
23.992465
 21
6.832188
 31
0.0
  0
LINE
  8
OBJECT
 10
24.122465
 20
6.940188
 30
0.0
 11
23.992465
 21
6.940188
 31
0.0
  0
ARC
  8
OBJECT
 10
24.022075
 20
6.724188
 30
0.0
 40
0.27161
 50
124.440759
 51
235.559241
  0
LINE
  8
OBJECT
 10
23.743465
 20
6.240188
 30
0.0
 11
23.868465
 21
6.115188
 31
0.0
  0
LINE
  8
OBJECT
 10
24.243465
 20
6.819188
 30
0.0
 11
24.243465
 21
6.629188
 31
0.0
  0
POLYLINE
  8
OBJECT
 66
     1
 10
0.0
 20
0.0
 30
0.0
 70
     1
  0
VERTEX
  8
OBJECT
 10
24.211465
 20
10.708688
 30
0.0
  0
VERTEX
  8
OBJECT
 10
24.367465
 20
10.708688
 30
0.0
 42
1.0
  0
VERTEX
  8
OBJECT
 10
24.367465
 20
10.989688
 30
0.0
  0
VERTEX
  8
OBJECT
 10
24.211465
 20
10.989688
 30
0.0
 42
1.0
  0
SEQEND
  8
OBJECT
  0
POLYLINE
  8
OBJECT
 66
     1
 10
0.0
 20
0.0
 30
0.0
 70
     1
  0
VERTEX
  8
OBJECT
 10
24.211465
 20
9.458688
 30
0.0
  0
VERTEX
  8
OBJECT
 10
24.367465
 20
9.458688
 30
0.0
 42
1.0
  0
VERTEX
  8
OBJECT
 10
24.367465
 20
9.739688
 30
0.0
  0
VERTEX
  8
OBJECT
 10
24.211465
 20
9.739688
 30
0.0
 42
1.0
  0
SEQEND
  8
OBJECT
  0
LINE
  8
OBJECT
 10
23.930465
 20
11.083188
 30
0.0
 11
24.617465
 21
11.083188
 31
0.0
  0
LINE
  8
OBJECT
 10
24.243465
 20
10.129188
 30
0.0
 11
24.122465
 21
10.129188
 31
0.0
  0
LINE
  8
OBJECT
 10
24.243465
 20
10.319188
 30
0.0
 11
24.122465
 21
10.319188
 31
0.0
  0
ARC
  8
OBJECT
 10
24.022075
 20
10.224188
 30
0.0
 40
0.27161
 50
124.440759
 51
235.559241
  0
LINE
  8
OBJECT
 10
24.122465
 20
10.440188
 30
0.0
 11
24.122465
 21
10.008188
 31
0.0
  0
LINE
  8
OBJECT
 10
24.122465
 20
10.008188
 30
0.0
 11
23.992465
 21
10.008188
 31
0.0
  0
LINE
  8
OBJECT
 10
24.122465
 20
10.116188
 30
0.0
 11
23.992465
 21
10.116188
 31
0.0
  0
LINE
  8
OBJECT
 10
24.122465
 20
10.332188
 30
0.0
 11
23.992465
 21
10.332188
 31
0.0
  0
LINE
  8
OBJECT
 10
24.122465
 20
10.440188
 30
0.0
 11
23.992465
 21
10.440188
 31
0.0
  0
LINE
  8
OBJECT
 10
23.868465
 20
11.083188
 30
0.0
 11
23.930465
 21
11.083188
 31
0.0
  0
LINE
  8
OBJECT
 10
24.243465
 20
10.129188
 30
0.0
 11
24.243465
 21
10.319188
 31
0.0
  0
DIMENSION
  8
DIM
  2
*D13
 10
26.414453
 20
6.099188
 30
0.0
 11
26.414453
 21
6.724188
 31
0.0
 13
24.507965
 23
7.349188
 33
0.0
 14
24.507965
 24
6.099188
 34
0.0
 50
90.0
  3
23NSTDI
  0
DIMENSION
  8
DIM
  2
*D12
 10
28.272546
 20
9.599188
 30
0.0
 11
28.272546
 21
8.474188
 31
0.0
 13
24.507965
 23
7.349188
 33
0.0
 14
24.507965
 24
9.599188
 34
0.0
 50
90.0
  3
23NSTDI
  0
DIMENSION
  8
DIM
  2
*D11
 10
30.102487
 20
10.849188
 30
0.0
 11
30.102487
 21
10.224188
 31
0.0
 13
24.507965
 23
9.599188
 33
0.0
 14
24.507965
 24
10.849188
 34
0.0
 50
90.0
  3
23NSTDI
  0
DIMENSION
  8
DIM
  2
*D18
 10
24.289465
 20
12.607022
 30
0.0
 11
15.117965
 21
12.607022
 31
0.0
  1
C
 13
5.946465
 23
10.989688
 33
0.0
 14
24.289465
 24
10.989688
 34
0.0
  3
23NSTD
  0
DIMENSION
  8
DIM
  2
*D17
 10
24.617465
 20
13.908374
 30
0.0
 11
15.117965
 21
13.908374
 31
0.0
  1
B
 13
5.618465
 23
11.083188
 33
0.0
 14
24.617465
 24
11.083188
 34
0.0
  3
23NSTD
  0
DIMENSION
  8
DIM
  2
*D7
 10
5.618465
 20
12.607022
 30
0.0
 11
2.345028
 21
12.607022
 31
0.0
 12
0.125
 22
0.0
 32
0.0
 13
5.946465
 23
10.989688
 33
0.0
 14
5.618465
 24
11.083188
 34
0.0
  3
23NSTD
  0
POLYLINE
  8
HIDDEN
  6
HIDDEN2
 66
     1
 10
0.0
 20
0.0
 30
0.0
  0
VERTEX
  8
HIDDEN
  6
HIDDEN2
 10
23.930465
 20
61.27435
 30
0.0
  0
VERTEX
  8
HIDDEN
  6
HIDDEN2
 10
24.617465
 20
61.27435
 30
0.0
  0
VERTEX
  8
HIDDEN
  6
HIDDEN2
 10
24.617465
 20
61.21235
 30
0.0
  0
VERTEX
  8
HIDDEN
  6
HIDDEN2
 10
23.992465
 20
61.21235
 30
0.0
  0
VERTEX
  8
HIDDEN
  6
HIDDEN2
 10
23.992465
 20
60.64935
 30
0.0
  0
VERTEX
  8
HIDDEN
  6
HIDDEN2
 10
23.930465
 20
60.64935
 30
0.0
  0
SEQEND
  8
HIDDEN
  6
HIDDEN2
  0
POLYLINE
  8
HIDDEN
  6
HIDDEN2
 66
     1
 10
0.0
 20
0.0
 30
0.0
  0
VERTEX
  8
HIDDEN
  6
HIDDEN2
 10
23.930465
 20
61.64935
 30
0.0
  0
VERTEX
  8
HIDDEN
  6
HIDDEN2
 10
24.617465
 20
61.64935
 30
0.0
  0
VERTEX
  8
HIDDEN
  6
HIDDEN2
 10
24.617465
 20
61.58735
 30
0.0
  0
VERTEX
  8
HIDDEN
  6
HIDDEN2
 10
23.992465
 20
61.58735
 30
0.0
  0
VERTEX
  8
HIDDEN
  6
HIDDEN2
 10
23.992465
 20
61.02435
 30
0.0
  0
VERTEX
  8
HIDDEN
  6
HIDDEN2
 10
23.930465
 20
61.02435
 30
0.0
  0
SEQEND
  8
HIDDEN
  6
HIDDEN2
  0
POLYLINE
  8
HIDDEN
  6
HIDDEN2
 66
     1
 10
0.0
 20
0.0
 30
0.0
  0
VERTEX
  8
HIDDEN
  6
HIDDEN2
 10
23.930465
 20
68.52435
 30
0.0
  0
VERTEX
  8
HIDDEN
  6
HIDDEN2
 10
24.617465
 20
68.52435
 30
0.0
  0
VERTEX
  8
HIDDEN
  6
HIDDEN2
 10
24.617465
 20
68.58635
 30
0.0
  0
VERTEX
  8
HIDDEN
  6
HIDDEN2
 10
23.992465
 20
68.58635
 30
0.0
  0
VERTEX
  8
HIDDEN
  6
HIDDEN2
 10
23.992465
 20
69.14935
 30
0.0
  0
VERTEX
  8
HIDDEN
  6
HIDDEN2
 10
23.930465
 20
69.14935
 30
0.0
  0
SEQEND
  8
HIDDEN
  6
HIDDEN2
  0
POLYLINE
  8
OBJECT
 66
     1
 10
0.0
 20
0.0
 30
0.0
  0
VERTEX
  8
OBJECT
 10
23.930465
 20
63.39935
 30
0.0
  0
VERTEX
  8
OBJECT
 10
24.617465
 20
63.39935
 30
0.0
  0
VERTEX
  8
OBJECT
 10
24.617465
 20
63.33735
 30
0.0
  0
VERTEX
  8
OBJECT
 10
23.992465
 20
63.33735
 30
0.0
  0
VERTEX
  8
OBJECT
 10
23.992465
 20
62.77435
 30
0.0
  0
VERTEX
  8
OBJECT
 10
23.930465
 20
62.77435
 30
0.0
  0
SEQEND
  8
OBJECT
  0
POLYLINE
  8
OBJECT
 66
     1
 10
0.0
 20
0.0
 30
0.0
  0
VERTEX
  8
OBJECT
 10
23.930465
 20
66.39935
 30
0.0
  0
VERTEX
  8
OBJECT
 10
24.617465
 20
66.39935
 30
0.0
  0
VERTEX
  8
OBJECT
 10
24.617465
 20
66.46135
 30
0.0
  0
VERTEX
  8
OBJECT
 10
23.992465
 20
66.46135
 30
0.0
  0
VERTEX
  8
OBJECT
 10
23.992465
 20
67.02435
 30
0.0
  0
VERTEX
  8
OBJECT
 10
23.930465
 20
67.02435
 30
0.0
  0
SEQEND
  8
OBJECT
  0
POLYLINE
  8
OBJECT
 66
     1
 10
0.0
 20
0.0
 30
0.0
  0
VERTEX
  8
OBJECT
 10
6.305465
 20
63.39935
 30
0.0
  0
VERTEX
  8
OBJECT
 10
5.618465
 20
63.39935
 30
0.0
  0
VERTEX
  8
OBJECT
 10
5.618465
 20
63.33735
 30
0.0
  0
VERTEX
  8
OBJECT
 10
6.243465
 20
63.33735
 30
0.0
  0
VERTEX
  8
OBJECT
 10
6.243465
 20
62.77435
 30
0.0
  0
VERTEX
  8
OBJECT
 10
6.305465
 20
62.77435
 30
0.0
  0
SEQEND
  8
OBJECT
  0
POLYLINE
  8
OBJECT
 66
     1
 10
0.0
 20
0.0
 30
0.0
  0
VERTEX
  8
OBJECT
 10
6.305465
 20
67.02435
 30
0.0
  0
VERTEX
  8
OBJECT
 10
6.243465
 20
67.02435
 30
0.0
  0
VERTEX
  8
OBJECT
 10
6.243465
 20
66.46135
 30
0.0
  0
VERTEX
  8
OBJECT
 10
5.618465
 20
66.46135
 30
0.0
  0
VERTEX
  8
OBJECT
 10
5.618465
 20
66.39935
 30
0.0
  0
VERTEX
  8
OBJECT
 10
6.305465
 20
66.39935
 30
0.0
  0
SEQEND
  8
OBJECT
  0
POLYLINE
  8
HIDDEN
  6
HIDDEN2
 66
     1
 10
0.0
 20
0.0
 30
0.0
  0
VERTEX
  8
HIDDEN
  6
HIDDEN2
 10
23.930465
 20
68.14935
 30
0.0
  0
VERTEX
  8
HIDDEN
  6
HIDDEN2
 10
24.617465
 20
68.14935
 30
0.0
  0
VERTEX
  8
HIDDEN
  6
HIDDEN2
 10
24.617465
 20
68.21135
 30
0.0
  0
VERTEX
  8
HIDDEN
  6
HIDDEN2
 10
23.992465
 20
68.21135
 30
0.0
  0
VERTEX
  8
HIDDEN
  6
HIDDEN2
 10
23.992465
 20
68.77435
 30
0.0
  0
VERTEX
  8
HIDDEN
  6
HIDDEN2
 10
23.930465
 20
68.77435
 30
0.0
  0
SEQEND
  8
HIDDEN
  6
HIDDEN2
  0
DIMENSION
  8
DIM
  2
*D24
 10
28.648418
 20
68.14935
 30
0.0
 11
28.648418
 21
64.89935
 31
0.0
 13
24.617465
 23
61.64935
 33
0.0
 14
24.617465
 24
68.14935
 34
0.0
 50
90.0
  3
23NSTD
  0
POLYLINE
  8
OBJECT
 66
     1
 10
0.0
 20
0.0
 30
0.0
  0
VERTEX
  8
OBJECT
 10
6.305465
 20
24.29696
 30
0.0
  0
VERTEX
  8
OBJECT
 10
5.618465
 20
24.29696
 30
0.0
  0
VERTEX
  8
OBJECT
 10
5.618465
 20
24.23496
 30
0.0
  0
VERTEX
  8
OBJECT
 10
6.243465
 20
24.23496
 30
0.0
  0
VERTEX
  8
OBJECT
 10
6.243465
 20
23.67196
 30
0.0
  0
VERTEX
  8
OBJECT
 10
6.305465
 20
23.67196
 30
0.0
  0
SEQEND
  8
OBJECT
  0
LINE
  8
OBJECT
 10
5.992465
 20
23.82696
 30
0.0
 11
5.992465
 21
24.01696
 31
0.0
  0
ARC
  8
OBJECT
 10
6.213855
 20
23.92196
 30
0.0
 40
0.27161
 50
304.440759
 51
55.559241
  0
LINE
  8
OBJECT
 10
6.113465
 20
24.13796
 30
0.0
 11
6.113465
 21
23.70596
 31
0.0
  0
LINE
  8
OBJECT
 10
6.305465
 20
21.51496
 30
0.0
 11
6.367465
 21
21.51496
 31
0.0
  0
LINE
  8
OBJECT
 10
5.992465
 20
23.82696
 30
0.0
 11
6.113465
 21
23.82696
 31
0.0
  0
LINE
  8
OBJECT
 10
6.113465
 20
23.70596
 30
0.0
 11
6.243465
 21
23.70596
 31
0.0
  0
LINE
  8
OBJECT
 10
6.113465
 20
23.81396
 30
0.0
 11
6.243465
 21
23.81396
 31
0.0
  0
LINE
  8
OBJECT
 10
5.992465
 20
24.01696
 30
0.0
 11
6.113465
 21
24.01696
 31
0.0
  0
LINE
  8
OBJECT
 10
6.113465
 20
24.02996
 30
0.0
 11
6.243465
 21
24.02996
 31
0.0
  0
LINE
  8
OBJECT
 10
6.113465
 20
24.13796
 30
0.0
 11
6.243465
 21
24.13796
 31
0.0
  0
POLYLINE
  8
OBJECT
 66
     1
 10
0.0
 20
0.0
 30
0.0
  0
VERTEX
  8
OBJECT
 10
6.305465
 20
27.92196
 30
0.0
  0
VERTEX
  8
OBJECT
 10
6.243465
 20
27.92196
 30
0.0
  0
VERTEX
  8
OBJECT
 10
6.243465
 20
27.35896
 30
0.0
  0
VERTEX
  8
OBJECT
 10
5.618465
 20
27.35896
 30
0.0
  0
VERTEX
  8
OBJECT
 10
5.618465
 20
27.29696
 30
0.0
  0
VERTEX
  8
OBJECT
 10
6.305465
 20
27.29696
 30
0.0
  0
SEQEND
  8
OBJECT
  0
LINE
  8
OBJECT
 10
5.992465
 20
27.57696
 30
0.0
 11
6.113465
 21
27.57696
 31
0.0
  0
LINE
  8
OBJECT
 10
5.992465
 20
27.76696
 30
0.0
 11
6.113465
 21
27.76696
 31
0.0
  0
LINE
  8
OBJECT
 10
5.992465
 20
27.76696
 30
0.0
 11
5.992465
 21
27.57696
 31
0.0
  0
LINE
  8
OBJECT
 10
6.113465
 20
27.77996
 30
0.0
 11
6.243465
 21
27.77996
 31
0.0
  0
LINE
  8
OBJECT
 10
6.113465
 20
27.88796
 30
0.0
 11
6.243465
 21
27.88796
 31
0.0
  0
LINE
  8
OBJECT
 10
6.113465
 20
27.45596
 30
0.0
 11
6.243465
 21
27.45596
 31
0.0
  0
LINE
  8
OBJECT
 10
6.113465
 20
27.56396
 30
0.0
 11
6.243465
 21
27.56396
 31
0.0
  0
LINE
  8
OBJECT
 10
6.113465
 20
27.45596
 30
0.0
 11
6.113465
 21
27.88796
 31
0.0
  0
ARC
  8
OBJECT
 10
6.213855
 20
27.67196
 30
0.0
 40
0.27161
 50
304.440759
 51
55.559241
  0
LINE
  8
OBJECT
 10
6.305465
 20
30.07896
 30
0.0
 11
6.367465
 21
30.07896
 31
0.0
  0
POLYLINE
  8
OBJECT
 66
     1
 10
0.0
 20
0.0
 30
0.0
  0
VERTEX
  8
OBJECT
 10
23.930465
 20
24.29696
 30
0.0
  0
VERTEX
  8
OBJECT
 10
24.617465
 20
24.29696
 30
0.0
  0
VERTEX
  8
OBJECT
 10
24.617465
 20
24.23496
 30
0.0
  0
VERTEX
  8
OBJECT
 10
23.992465
 20
24.23496
 30
0.0
  0
VERTEX
  8
OBJECT
 10
23.992465
 20
23.67196
 30
0.0
  0
VERTEX
  8
OBJECT
 10
23.930465
 20
23.67196
 30
0.0
  0
SEQEND
  8
OBJECT
  0
LINE
  8
OBJECT
 10
24.243465
 20
23.82696
 30
0.0
 11
24.243465
 21
24.01696
 31
0.0
  0
LINE
  8
OBJECT
 10
24.122465
 20
24.13796
 30
0.0
 11
24.122465
 21
23.70596
 31
0.0
  0
ARC
  8
OBJECT
 10
24.022075
 20
23.92196
 30
0.0
 40
0.27161
 50
124.440759
 51
235.559241
  0
POLYLINE
  8
HIDDEN
  6
HIDDEN2
 66
     1
 10
0.0
 20
0.0
 30
0.0
  0
VERTEX
  8
HIDDEN
  6
HIDDEN2
 10
6.305465
 20
22.54696
 30
0.0
  0
VERTEX
  8
HIDDEN
  6
HIDDEN2
 10
5.618465
 20
22.54696
 30
0.0
  0
VERTEX
  8
HIDDEN
  6
HIDDEN2
 10
5.618465
 20
22.48496
 30
0.0
  0
VERTEX
  8
HIDDEN
  6
HIDDEN2
 10
6.243465
 20
22.48496
 30
0.0
  0
VERTEX
  8
HIDDEN
  6
HIDDEN2
 10
6.243465
 20
21.92196
 30
0.0
  0
VERTEX
  8
HIDDEN
  6
HIDDEN2
 10
6.305465
 20
21.92196
 30
0.0
  0
SEQEND
  8
HIDDEN
  6
HIDDEN2
  0
POLYLINE
  8
HIDDEN
  6
HIDDEN2
 66
     1
 10
0.0
 20
0.0
 30
0.0
  0
VERTEX
  8
HIDDEN
  6
HIDDEN2
 10
6.305465
 20
22.17196
 30
0.0
  0
VERTEX
  8
HIDDEN
  6
HIDDEN2
 10
5.618465
 20
22.17196
 30
0.0
  0
VERTEX
  8
HIDDEN
  6
HIDDEN2
 10
5.618465
 20
22.10996
 30
0.0
  0
VERTEX
  8
HIDDEN
  6
HIDDEN2
 10
6.243465
 20
22.10996
 30
0.0
  0
VERTEX
  8
HIDDEN
  6
HIDDEN2
 10
6.243465
 20
21.54696
 30
0.0
  0
VERTEX
  8
HIDDEN
  6
HIDDEN2
 10
6.305465
 20
21.54696
 30
0.0
  0
SEQEND
  8
HIDDEN
  6
HIDDEN2
  0
LINE
  8
OBJECT
 10
23.930465
 20
21.51496
 30
0.0
 11
23.868465
 21
21.51496
 31
0.0
  0
LINE
  8
OBJECT
 10
24.122465
 20
23.81396
 30
0.0
 11
23.992465
 21
23.81396
 31
0.0
  0
LINE
  8
OBJECT
 10
24.122465
 20
23.70596
 30
0.0
 11
23.992465
 21
23.70596
 31
0.0
  0
LINE
  8
OBJECT
 10
24.243465
 20
23.82696
 30
0.0
 11
24.122465
 21
23.82696
 31
0.0
  0
POLYLINE
  8
HIDDEN
  6
HIDDEN2
 66
     1
 10
0.0
 20
0.0
 30
0.0
  0
VERTEX
  8
HIDDEN
  6
HIDDEN2
 10
6.305465
 20
29.42196
 30
0.0
  0
VERTEX
  8
HIDDEN
  6
HIDDEN2
 10
5.618465
 20
29.42196
 30
0.0
  0
VERTEX
  8
HIDDEN
  6
HIDDEN2
 10
5.618465
 20
29.48396
 30
0.0
  0
VERTEX
  8
HIDDEN
  6
HIDDEN2
 10
6.243465
 20
29.48396
 30
0.0
  0
VERTEX
  8
HIDDEN
  6
HIDDEN2
 10
6.243465
 20
30.04696
 30
0.0
  0
VERTEX
  8
HIDDEN
  6
HIDDEN2
 10
6.305465
 20
30.04696
 30
0.0
  0
SEQEND
  8
HIDDEN
  6
HIDDEN2
  0
LINE
  8
OBJECT
 10
24.122465
 20
24.13796
 30
0.0
 11
23.992465
 21
24.13796
 31
0.0
  0
LINE
  8
OBJECT
 10
24.122465
 20
24.02996
 30
0.0
 11
23.992465
 21
24.02996
 31
0.0
  0
LINE
  8
OBJECT
 10
24.243465
 20
24.01696
 30
0.0
 11
24.122465
 21
24.01696
 31
0.0
  0
POLYLINE
  8
HIDDEN
  6
HIDDEN2
 66
     1
 10
0.0
 20
0.0
 30
0.0
  0
VERTEX
  8
HIDDEN
  6
HIDDEN2
 10
6.305465
 20
29.04696
 30
0.0
  0
VERTEX
  8
HIDDEN
  6
HIDDEN2
 10
5.618465
 20
29.04696
 30
0.0
  0
VERTEX
  8
HIDDEN
  6
HIDDEN2
 10
5.618465
 20
29.10896
 30
0.0
  0
VERTEX
  8
HIDDEN
  6
HIDDEN2
 10
6.243465
 20
29.10896
 30
0.0
  0
VERTEX
  8
HIDDEN
  6
HIDDEN2
 10
6.243465
 20
29.67196
 30
0.0
  0
VERTEX
  8
HIDDEN
  6
HIDDEN2
 10
6.305465
 20
29.67196
 30
0.0
  0
SEQEND
  8
HIDDEN
  6
HIDDEN2
  0
POLYLINE
  8
OBJECT
 66
     1
 10
0.0
 20
0.0
 30
0.0
  0
VERTEX
  8
OBJECT
 10
23.930465
 20
27.29696
 30
0.0
  0
VERTEX
  8
OBJECT
 10
24.617465
 20
27.29696
 30
0.0
  0
VERTEX
  8
OBJECT
 10
24.617465
 20
27.35896
 30
0.0
  0
VERTEX
  8
OBJECT
 10
23.992465
 20
27.35896
 30
0.0
  0
VERTEX
  8
OBJECT
 10
23.992465
 20
27.92196
 30
0.0
  0
VERTEX
  8
OBJECT
 10
23.930465
 20
27.92196
 30
0.0
  0
SEQEND
  8
OBJECT
  0
ARC
  8
OBJECT
 10
24.022075
 20
27.67196
 30
0.0
 40
0.27161
 50
124.440759
 51
235.559241
  0
LINE
  8
OBJECT
 10
24.243465
 20
27.76696
 30
0.0
 11
24.243465
 21
27.57696
 31
0.0
  0
LINE
  8
OBJECT
 10
24.122465
 20
27.88796
 30
0.0
 11
23.992465
 21
27.88796
 31
0.0
  0
LINE
  8
OBJECT
 10
24.122465
 20
27.77996
 30
0.0
 11
23.992465
 21
27.77996
 31
0.0
  0
LINE
  8
OBJECT
 10
24.122465
 20
27.56396
 30
0.0
 11
23.992465
 21
27.56396
 31
0.0
  0
LINE
  8
OBJECT
 10
24.122465
 20
27.45596
 30
0.0
 11
23.992465
 21
27.45596
 31
0.0
  0
LINE
  8
OBJECT
 10
24.122465
 20
27.45596
 30
0.0
 11
24.122465
 21
27.88796
 31
0.0
  0
LINE
  8
OBJECT
 10
24.243465
 20
27.76696
 30
0.0
 11
24.122465
 21
27.76696
 31
0.0
  0
LINE
  8
OBJECT
 10
24.243465
 20
27.57696
 30
0.0
 11
24.122465
 21
27.57696
 31
0.0
  0
LINE
  8
OBJECT
 10
23.930465
 20
30.07896
 30
0.0
 11
23.868465
 21
30.07896
 31
0.0
  0
DIMENSION
  8
DIM
  2
*D21
 10
2.968465
 20
29.04696
 30
0.0
 11
2.968465
 21
26.55946
 31
0.0
 70
   128
 13
5.618465
 23
22.54696
 33
0.0
 14
5.618465
 24
29.04696
 34
0.0
 50
270.0
  3
23NSTD
  0
POLYLINE
  8
OBJECT
 66
     1
 10
0.0
 20
0.0
 30
0.0
 70
     1
  0
VERTEX
  8
OBJECT
 10
43.462411
 20
45.290948
 30
0.0
 42
1.0
  0
VERTEX
  8
OBJECT
 10
43.462411
 20
45.571948
 30
0.0
  0
VERTEX
  8
OBJECT
 10
42.868411
 20
45.571948
 30
0.0
 42
1.0
  0
VERTEX
  8
OBJECT
 10
42.868411
 20
45.290948
 30
0.0
  0
SEQEND
  8
OBJECT
  0
POLYLINE
  8
OBJECT
 66
     1
 10
0.0
 20
0.0
 30
0.0
 70
     1
  0
VERTEX
  8
OBJECT
 10
43.462411
 20
48.790948
 30
0.0
 42
1.0
  0
VERTEX
  8
OBJECT
 10
43.462411
 20
49.071948
 30
0.0
  0
VERTEX
  8
OBJECT
 10
42.868411
 20
49.071948
 30
0.0
 42
1.0
  0
VERTEX
  8
OBJECT
 10
42.868411
 20
48.790948
 30
0.0
  0
SEQEND
  8
OBJECT
  0
POLYLINE
  8
OBJECT
 66
     1
 10
0.0
 20
0.0
 30
0.0
 70
     1
  0
VERTEX
  8
OBJECT
 10
35.837411
 20
48.790948
 30
0.0
 42
1.0
  0
VERTEX
  8
OBJECT
 10
35.837411
 20
49.071948
 30
0.0
  0
VERTEX
  8
OBJECT
 10
35.243411
 20
49.071948
 30
0.0
 42
1.0
  0
VERTEX
  8
OBJECT
 10
35.243411
 20
48.790948
 30
0.0
  0
SEQEND
  8
OBJECT
  0
POLYLINE
  8
OBJECT
 66
     1
 10
0.0
 20
0.0
 30
0.0
 70
     1
  0
VERTEX
  8
OBJECT
 10
35.837411
 20
45.290948
 30
0.0
 42
1.0
  0
VERTEX
  8
OBJECT
 10
35.837411
 20
45.571948
 30
0.0
  0
VERTEX
  8
OBJECT
 10
35.243411
 20
45.571948
 30
0.0
 42
1.0
  0
VERTEX
  8
OBJECT
 10
35.243411
 20
45.290948
 30
0.0
  0
SEQEND
  8
OBJECT
  0
POLYLINE
  8
OBJECT
 66
     1
 10
0.0
 20
0.0
 30
0.0
 70
     1
  0
VERTEX
  8
OBJECT
 10
43.462411
 20
6.583688
 30
0.0
 42
1.0
  0
VERTEX
  8
OBJECT
 10
43.462411
 20
6.864688
 30
0.0
  0
VERTEX
  8
OBJECT
 10
42.868411
 20
6.864688
 30
0.0
 42
1.0
  0
VERTEX
  8
OBJECT
 10
42.868411
 20
6.583688
 30
0.0
  0
SEQEND
  8
OBJECT
  0
POLYLINE
  8
OBJECT
 66
     1
 10
0.0
 20
0.0
 30
0.0
 70
     1
  0
VERTEX
  8
OBJECT
 10
43.462411
 20
10.083688
 30
0.0
 42
1.0
  0
VERTEX
  8
OBJECT
 10
43.462411
 20
10.364688
 30
0.0
  0
VERTEX
  8
OBJECT
 10
42.868411
 20
10.364688
 30
0.0
 42
1.0
  0
VERTEX
  8
OBJECT
 10
42.868411
 20
10.083688
 30
0.0
  0
SEQEND
  8
OBJECT
  0
POLYLINE
  8
OBJECT
 66
     1
 10
0.0
 20
0.0
 30
0.0
 70
     1
  0
VERTEX
  8
OBJECT
 10
35.837411
 20
10.083688
 30
0.0
 42
1.0
  0
VERTEX
  8
OBJECT
 10
35.837411
 20
10.364688
 30
0.0
  0
VERTEX
  8
OBJECT
 10
35.243411
 20
10.364688
 30
0.0
 42
1.0
  0
VERTEX
  8
OBJECT
 10
35.243411
 20
10.083688
 30
0.0
  0
SEQEND
  8
OBJECT
  0
POLYLINE
  8
OBJECT
 66
     1
 10
0.0
 20
0.0
 30
0.0
 70
     1
  0
VERTEX
  8
OBJECT
 10
35.837411
 20
6.583688
 30
0.0
 42
1.0
  0
VERTEX
  8
OBJECT
 10
35.837411
 20
6.864688
 30
0.0
  0
VERTEX
  8
OBJECT
 10
35.243411
 20
6.864688
 30
0.0
 42
1.0
  0
VERTEX
  8
OBJECT
 10
35.243411
 20
6.583688
 30
0.0
  0
SEQEND
  8
OBJECT
  0
TEXT
  8
TEXT
 10
33.642052
 20
27.780696
 30
0.0
 40
0.625
  1
LOAD RATING:  200 LBS. MAX.
 41
0.75
  0
TEXT
  8
TEXT
 10
33.642052
 20
66.063389
 30
0.0
 40
0.625
  1
LOAD RATING:  200 LBS. MAX.
 41
0.75
  0
ENDSEC
  0
EOF
