  0
SECTION
  2
HEADER
  9
$ACADVER
  1
AC1009
  9
$INSBASE
 10
0.0
 20
0.0
 30
0.0
  9
$EXTMIN
 10
0.0
 20
0.0
 30
0.0
  9
$EXTMAX
 10
20.24
 20
31.0
 30
0.0
  9
$LIMMIN
 10
0.0
 20
0.0
  9
$LIMMAX
 10
325.31
 20
209.7
  9
$ORTHOMODE
 70
     1
  9
$REGENMODE
 70
     1
  9
$FILLMODE
 70
     1
  9
$QTEXTMODE
 70
     0
  9
$MIRRTEXT
 70
     1
  9
$DRAGMODE
 70
     2
  9
$LTSCALE
 40
1.5
  9
$OSMODE
 70
     1
  9
$ATTMODE
 70
     1
  9
$TEXTSIZE
 40
0.25
  9
$TRACEWID
 40
0.05
  9
$TEXTSTYLE
  7
STANDARD
  9
$CLAYER
  8
OBJECT
  9
$CELTYPE
  6
BYLAYER
  9
$CECOLOR
 62
   256
  9
$DIMSCALE
 40
2.0
  9
$DIMASZ
 40
0.18
  9
$DIMEXO
 40
0.063
  9
$DIMDLI
 40
0.38
  9
$DIMRND
 40
0.0
  9
$DIMDLE
 40
0.0
  9
$DIMEXE
 40
0.093
  9
$DIMTP
 40
0.0
  9
$DIMTM
 40
0.0
  9
$DIMTXT
 40
0.125
  9
$DIMCEN
 40
0.09
  9
$DIMTSZ
 40
0.0
  9
$DIMTOL
 70
     0
  9
$DIMLIM
 70
     0
  9
$DIMTIH
 70
     1
  9
$DIMTOH
 70
     1
  9
$DIMSE1
 70
     0
  9
$DIMSE2
 70
     0
  9
$DIMTAD
 70
     0
  9
$DIMZIN
 70
     0
  9
$DIMBLK
  1

  9
$DIMASO
 70
     1
  9
$DIMSHO
 70
     1
  9
$DIMPOST
  1

  9
$DIMAPOST
  1

  9
$DIMALT
 70
     0
  9
$DIMALTD
 70
     2
  9
$DIMALTF
 40
25.4
  9
$DIMLFAC
 40
1.0
  9
$DIMTOFL
 70
     0
  9
$DIMTVP
 40
0.0
  9
$DIMTIX
 70
     0
  9
$DIMSOXD
 70
     0
  9
$DIMSAH
 70
     0
  9
$DIMBLK1
  1

  9
$DIMBLK2
  1

  9
$DIMSTYLE
  2
23NSTD
  9
$DIMCLRD
 70
     0
  9
$DIMCLRE
 70
     0
  9
$DIMCLRT
 70
     0
  9
$DIMTFAC
 40
1.0
  9
$DIMGAP
 40
0.09
  9
$LUNITS
 70
     2
  9
$LUPREC
 70
     3
  9
$SKETCHINC
 40
0.1
  9
$FILLETRAD
 40
0.0
  9
$AUNITS
 70
     0
  9
$AUPREC
 70
     0
  9
$MENU
  1
acad
  9
$ELEVATION
 40
0.0
  9
$PELEVATION
 40
0.0
  9
$THICKNESS
 40
0.0
  9
$LIMCHECK
 70
     0
  9
$BLIPMODE
 70
     0
  9
$CHAMFERA
 40
0.0
  9
$CHAMFERB
 40
0.0
  9
$SKPOLY
 70
     0
  9
$TDCREATE
 40
2448696.402284722
  9
$TDUPDATE
 40
2451187.584676041
  9
$TDINDWG
 40
0.1288142361
  9
$TDUSRTIMER
 40
0.1288142361
  9
$USRTIMER
 70
     1
  9
$ANGBASE
 50
0.0
  9
$ANGDIR
 70
     0
  9
$PDMODE
 70
     0
  9
$PDSIZE
 40
0.0
  9
$PLINEWID
 40
0.0
  9
$COORDS
 70
     0
  9
$SPLFRAME
 70
     0
  9
$SPLINETYPE
 70
     6
  9
$SPLINESEGS
 70
     8
  9
$ATTDIA
 70
     0
  9
$ATTREQ
 70
     1
  9
$HANDLING
 70
     0
  9
$HANDSEED
  5
0
  9
$SURFTAB1
 70
     6
  9
$SURFTAB2
 70
     6
  9
$SURFTYPE
 70
     6
  9
$SURFU
 70
     6
  9
$SURFV
 70
     6
  9
$UCSNAME
  2

  9
$UCSORG
 10
0.0
 20
0.0
 30
0.0
  9
$UCSXDIR
 10
1.0
 20
0.0
 30
0.0
  9
$UCSYDIR
 10
0.0
 20
1.0
 30
0.0
  9
$PUCSNAME
  2

  9
$PUCSORG
 10
0.0
 20
0.0
 30
0.0
  9
$PUCSXDIR
 10
1.0
 20
0.0
 30
0.0
  9
$PUCSYDIR
 10
0.0
 20
1.0
 30
0.0
  9
$USERI1
 70
     0
  9
$USERI2
 70
     0
  9
$USERI3
 70
     0
  9
$USERI4
 70
     0
  9
$USERI5
 70
     0
  9
$USERR1
 40
0.0
  9
$USERR2
 40
0.0
  9
$USERR3
 40
0.0
  9
$USERR4
 40
0.0
  9
$USERR5
 40
0.0
  9
$WORLDVIEW
 70
     1
  9
$SHADEDGE
 70
     3
  9
$SHADEDIF
 70
    70
  9
$TILEMODE
 70
     1
  9
$MAXACTVP
 70
    16
  9
$PINSBASE
 10
0.0
 20
0.0
 30
0.0
  9
$PLIMCHECK
 70
     0
  9
$PEXTMIN
 10
1.000000E+20
 20
1.000000E+20
 30
1.000000E+20
  9
$PEXTMAX
 10
-1.000000E+20
 20
-1.000000E+20
 30
-1.000000E+20
  9
$PLIMMIN
 10
0.0
 20
0.0
  9
$PLIMMAX
 10
12.0
 20
9.0
  9
$UNITMODE
 70
     0
  9
$VISRETAIN
 70
     0
  9
$PLINEGEN
 70
     0
  9
$PSLTSCALE
 70
     0
  9
$TREEDEPTH
 70
  3020
  9
$DWGCODEPAGE
  3
undefined
  0
ENDSEC
  0
SECTION
  2
TABLES
  0
TABLE
  2
VPORT
 70
     2
  0
VPORT
  2
*ACTIVE
 70
     0
 10
0.0
 20
0.0
 11
1.0
 21
1.0
 12
21.116262
 22
15.5
 13
0.0
 23
0.0
 14
2.0
 24
2.0
 15
0.0
 25
0.0
 16
0.0
 26
0.0
 36
1.0
 17
0.0
 27
0.0
 37
0.0
 40
31.0
 41
1.36234
 42
50.0
 43
0.0
 44
0.0
 50
0.0
 51
0.0
 71
     0
 72
   100
 73
     1
 74
     0
 75
     0
 76
     0
 77
     0
 78
     1
  0
ENDTAB
  0
TABLE
  2
LTYPE
 70
     4
  0
LTYPE
  2
CONTINUOUS
 70
    64
  3
Solid line
 72
    65
 73
     0
 40
0.0
  0
LTYPE
  2
HIDDEN
 70
    64
  3
_ _ _ _ _ _ _ _ _ _ _ _ _ _ _ _ _ _ _ _ _ _ _
 72
    65
 73
     2
 40
0.375
 49
0.25
 49
-0.125
  0
LTYPE
  2
PHANTOM
 70
    64
  3
_____ _ _ _____ _ _ _____ _ _ _____ _ _ ____
 72
    65
 73
     6
 40
2.5
 49
1.25
 49
-0.25
 49
0.25
 49
-0.25
 49
0.25
 49
-0.25
  0
LTYPE
  2
CENTER
 70
    64
  3
____ _ ____ _ ____ _ ____ _ ____ _ ____ _ ____
 72
    65
 73
     4
 40
2.0
 49
1.25
 49
-0.25
 49
0.25
 49
-0.25
  0
ENDTAB
  0
TABLE
  2
LAYER
 70
     9
  0
LAYER
  2
0
 70
    64
 62
    -7
  6
CONTINUOUS
  0
LAYER
  2
OBJECT
 70
    64
 62
     7
  6
CONTINUOUS
  0
LAYER
  2
DIM
 70
    64
 62
     7
  6
CONTINUOUS
  0
LAYER
  2
HIDDEN
 70
    64
 62
     7
  6
HIDDEN
  0
LAYER
  2
BEND
 70
    64
 62
     7
  6
PHANTOM
  0
LAYER
  2
TEXT
 70
    64
 62
     7
  6
CONTINUOUS
  0
LAYER
  2
TITLE
 70
    64
 62
     7
  6
CONTINUOUS
  0
LAYER
  2
CENTER
 70
    64
 62
     7
  6
CENTER
  0
LAYER
  2
DEFPOINTS
 70
    64
 62
    -7
  6
CONTINUOUS
  0
ENDTAB
  0
TABLE
  2
STYLE
 70
     1
  0
STYLE
  2
STANDARD
 70
    64
 40
0.0
 41
0.75
 50
0.0
 71
     0
 42
0.25
  3
txt
  4

  0
ENDTAB
  0
TABLE
  2
VIEW
 70
     0
  0
ENDTAB
  0
TABLE
  2
UCS
 70
     0
  0
ENDTAB
  0
TABLE
  2
APPID
 70
     1
  0
APPID
  2
ACAD
 70
    64
  0
ENDTAB
  0
TABLE
  2
DIMSTYLE
 70
     4
  0
DIMSTYLE
  2
23NSTD
 70
    64
  3

  4

  5

  6

  7

 40
2.0
 41
0.18
 42
0.063
 43
0.38
 44
0.093
 45
0.0
 46
0.0
 47
0.0
 48
0.0
140
0.125
141
0.09
142
0.0
143
25.4
144
1.0
145
0.0
146
1.0
147
0.09
 71
     0
 72
     0
 73
     1
 74
     1
 75
     0
 76
     0
 77
     0
 78
     0
170
     0
171
     2
172
     0
173
     0
174
     0
175
     0
176
     0
177
     0
178
     0
  0
DIMSTYLE
  2
23NSTDI
 70
    64
  3

  4

  5

  6

  7

 40
2.0
 41
0.18
 42
0.063
 43
0.38
 44
0.093
 45
0.0
 46
0.0
 47
0.0
 48
0.0
140
0.125
141
0.09
142
0.0
143
25.4
144
1.0
145
0.0
146
1.0
147
0.09
 71
     0
 72
     0
 73
     1
 74
     1
 75
     0
 76
     0
 77
     0
 78
     0
170
     0
171
     2
172
     0
173
     0
174
     1
175
     0
176
     0
177
     0
178
     0
  0
DIMSTYLE
  2
STD
 70
    64
  3

  4

  5

  6

  7

 40
2.0
 41
0.18
 42
0.0625
 43
0.312
 44
0.093
 45
0.0
 46
0.0
 47
0.0
 48
0.0
140
0.125
141
0.09
142
0.0
143
25.4
144
1.0
145
0.0
146
1.0
147
0.09
 71
     0
 72
     0
 73
     1
 74
     1
 75
     0
 76
     0
 77
     0
 78
     0
170
     0
171
     2
172
     0
173
     0
174
     0
175
     0
176
     0
177
     0
178
     0
  0
DIMSTYLE
  2
DIM
 70
    64
  3

  4

  5

  6

  7

 40
2.0
 41
0.18
 42
0.0625
 43
0.312
 44
0.093
 45
0.0
 46
0.0
 47
0.0
 48
0.0
140
0.125
141
0.09
142
0.0
143
25.4
144
1.0
145
0.0
146
1.0
147
0.09
 71
     0
 72
     0
 73
     1
 74
     1
 75
     0
 76
     0
 77
     0
 78
     0
170
     0
171
     2
172
     0
173
     0
174
     1
175
     0
176
     0
177
     0
178
     0
  0
ENDTAB
  0
ENDSEC
  0
SECTION
  2
BLOCKS
  0
BLOCK
  8
0
  2
*D0
 70
    65
 10
0.0
 20
0.0
 30
0.0
  3
*D
  0
LINE
  8
0
  6
BYBLOCK
 62
     0
 10
14.724619
 20
3.11803
 30
0.0
 11
18.349767
 21
3.11803
 31
0.0
  0
LINE
  8
0
  6
BYBLOCK
 62
     0
 10
17.36801
 20
4.410594
 30
0.0
 11
18.349767
 21
4.410594
 31
0.0
  0
LINE
  8
0
  6
BYBLOCK
 62
     0
 10
18.163767
 20
2.75803
 30
0.0
 11
18.163767
 21
2.39803
 31
0.0
  0
LINE
  8
0
  6
BYBLOCK
 62
     0
 10
18.163767
 20
4.770594
 30
0.0
 11
18.163767
 21
5.130594
 31
0.0
  0
SOLID
  8
0
  6
BYBLOCK
 62
     0
 10
18.103767
 20
2.75803
 30
0.0
 11
18.223767
 21
2.75803
 31
0.0
 12
18.163767
 22
3.11803
 32
0.0
 13
18.163767
 23
3.11803
 33
0.0
  0
SOLID
  8
0
  6
BYBLOCK
 62
     0
 10
18.103767
 20
4.770594
 30
0.0
 11
18.223767
 21
4.770594
 31
0.0
 12
18.163767
 22
4.410594
 32
0.0
 13
18.163767
 23
4.410594
 33
0.0
  0
TEXT
  8
0
  6
BYBLOCK
 62
     0
 10
17.820017
 20
3.639312
 30
0.0
 40
0.25
  1
1.293
 41
0.75
 72
     1
 11
18.163767
 21
3.764312
 31
0.0
 73
     2
  0
POINT
  8
DEFPOINTS
  6
BYBLOCK
 62
     0
 10
14.598619
 20
3.11803
 30
0.0
  0
POINT
  8
DEFPOINTS
  6
BYBLOCK
 62
     0
 10
17.24201
 20
4.410594
 30
0.0
  0
POINT
  8
DEFPOINTS
  6
BYBLOCK
 62
     0
 10
18.163767
 20
4.410594
 30
0.0
  0
ENDBLK
  8
0
  0
BLOCK
  8
0
  2
1267A
 70
     0
 10
0.0
 20
0.0
 30
0.0
  3
1267A
  0
LINE
  8
OBJECT
 10
4.901773
 20
6.480772
 30
0.0
 11
11.807773
 21
6.480772
 31
0.0
  0
LINE
  8
OBJECT
 10
12.557773
 20
7.230772
 30
0.0
 11
12.557773
 21
14.136772
 31
0.0
  0
LINE
  8
OBJECT
 10
11.807773
 20
14.886772
 30
0.0
 11
4.901773
 21
14.886772
 31
0.0
  0
LINE
  8
OBJECT
 10
4.151773
 20
14.136772
 30
0.0
 11
4.151773
 21
7.230772
 31
0.0
  0
LINE
  8
OBJECT
 10
12.557773
 20
7.230772
 30
0.0
 11
11.807773
 21
7.230772
 31
0.0
  0
LINE
  8
OBJECT
 10
11.807773
 20
6.480772
 30
0.0
 11
11.807773
 21
7.230772
 31
0.0
  0
LINE
  8
OBJECT
 10
4.151773
 20
14.136772
 30
0.0
 11
4.901773
 21
14.136772
 31
0.0
  0
LINE
  8
OBJECT
 10
4.901773
 20
14.886772
 30
0.0
 11
4.901773
 21
14.136772
 31
0.0
  0
LINE
  8
OBJECT
 10
11.807773
 20
14.136772
 30
0.0
 11
12.557773
 21
14.136772
 31
0.0
  0
LINE
  8
OBJECT
 10
4.901773
 20
7.230772
 30
0.0
 11
4.151773
 21
7.230772
 31
0.0
  0
LINE
  8
OBJECT
 10
4.901773
 20
6.480772
 30
0.0
 11
4.901773
 21
7.230772
 31
0.0
  0
LINE
  8
OBJECT
 10
11.807773
 20
14.886772
 30
0.0
 11
11.807773
 21
14.136772
 31
0.0
  0
LINE
  8
OBJECT
 10
4.901773
 20
7.230772
 30
0.0
 11
11.807773
 21
14.136772
 31
0.0
  0
LINE
  8
CENTER
 10
5.963773
 20
6.855772
 30
0.0
 11
10.745773
 21
6.855772
 31
0.0
  0
LINE
  8
CENTER
 10
12.182773
 20
8.292772
 30
0.0
 11
12.182773
 21
13.074772
 31
0.0
  0
CIRCLE
  8
OBJECT
 10
10.854773
 20
6.855772
 30
0.0
 40
0.109
  0
CIRCLE
  8
OBJECT
 10
12.182773
 20
8.183772
 30
0.0
 40
0.109
  0
CIRCLE
  8
OBJECT
 10
5.854773
 20
6.855772
 30
0.0
 40
0.109
  0
CIRCLE
  8
OBJECT
 10
12.182773
 20
13.183772
 30
0.0
 40
0.109
  0
CIRCLE
  8
OBJECT
 10
10.854773
 20
14.511772
 30
0.0
 40
0.109
  0
CIRCLE
  8
OBJECT
 10
5.854773
 20
14.511772
 30
0.0
 40
0.109
  0
LINE
  8
CENTER
 10
10.745773
 20
14.511772
 30
0.0
 11
5.963773
 21
14.511772
 31
0.0
  0
CIRCLE
  8
OBJECT
 10
4.526773
 20
8.183772
 30
0.0
 40
0.109
  0
CIRCLE
  8
OBJECT
 10
4.526773
 20
13.183772
 30
0.0
 40
0.109
  0
LINE
  8
CENTER
 10
4.526773
 20
13.074772
 30
0.0
 11
4.526773
 21
8.292772
 31
0.0
  0
LINE
  8
BEND
 10
5.026773
 20
7.183772
 30
0.0
 11
11.682773
 21
7.183772
 31
0.0
  0
LINE
  8
BEND
 10
11.854773
 20
7.355772
 30
0.0
 11
11.854773
 21
14.011772
 31
0.0
  0
LINE
  8
BEND
 10
11.682773
 20
14.183772
 30
0.0
 11
5.026773
 21
14.183772
 31
0.0
  0
LINE
  8
BEND
 10
4.854773
 20
14.011772
 30
0.0
 11
4.854773
 21
7.355772
 31
0.0
  0
LINE
  8
HIDDEN
 10
4.151773
 20
7.105772
 30
0.0
 11
4.151773
 21
6.480772
 31
0.0
  0
LINE
  8
HIDDEN
 10
4.776773
 20
6.480772
 30
0.0
 11
4.151773
 21
6.480772
 31
0.0
  0
LINE
  8
HIDDEN
 10
12.557773
 20
14.261772
 30
0.0
 11
12.557773
 21
14.886772
 31
0.0
  0
LINE
  8
HIDDEN
 10
11.932773
 20
14.886772
 30
0.0
 11
12.557773
 21
14.886772
 31
0.0
  0
LINE
  8
OBJECT
 10
20.257879
 20
7.230772
 30
0.0
 11
27.163879
 21
14.136772
 31
0.0
  0
LINE
  8
OBJECT
 10
20.257879
 20
7.136772
 30
0.0
 11
20.257879
 21
7.230772
 31
0.0
  0
LINE
  8
OBJECT
 10
27.163879
 20
14.136772
 30
0.0
 11
27.257879
 21
14.136772
 31
0.0
  0
LINE
  8
OBJECT
 10
27.163879
 20
7.136772
 30
0.0
 11
27.163879
 21
7.230772
 31
0.0
  0
LINE
  8
OBJECT
 10
27.257879
 20
7.230772
 30
0.0
 11
27.163879
 21
7.230772
 31
0.0
  0
LINE
  8
OBJECT
 10
20.257879
 20
7.136772
 30
0.0
 11
27.163879
 21
7.136772
 31
0.0
  0
LINE
  8
OBJECT
 10
27.257879
 20
7.230772
 30
0.0
 11
27.257879
 21
14.136772
 31
0.0
  0
LINE
  8
OBJECT
 10
29.361536
 20
7.230772
 30
0.0
 11
29.361536
 21
14.136772
 31
0.0
  0
LINE
  8
OBJECT
 10
29.361536
 20
7.230772
 30
0.0
 11
28.611536
 21
7.230772
 31
0.0
  0
LINE
  8
OBJECT
 10
28.611536
 20
14.136772
 30
0.0
 11
29.361536
 21
14.136772
 31
0.0
  0
LINE
  8
CENTER
 10
28.986536
 20
8.292772
 30
0.0
 11
28.986536
 21
13.074772
 31
0.0
  0
CIRCLE
  8
OBJECT
 10
28.986536
 20
8.183772
 30
0.0
 40
0.109
  0
CIRCLE
  8
OBJECT
 10
28.986536
 20
13.183772
 30
0.0
 40
0.109
  0
LINE
  8
OBJECT
 10
28.611536
 20
7.136772
 30
0.0
 11
28.611536
 21
14.136772
 31
0.0
  0
LINE
  8
HIDDEN
 10
28.673536
 20
7.198772
 30
0.0
 11
28.673536
 21
14.136772
 31
0.0
  0
LINE
  8
OBJECT
 10
20.257879
 20
5.457357
 30
0.0
 11
27.163879
 21
5.457357
 31
0.0
  0
LINE
  8
OBJECT
 10
27.163879
 20
5.457357
 30
0.0
 11
27.163879
 21
6.207357
 31
0.0
  0
LINE
  8
OBJECT
 10
20.257879
 20
5.457357
 30
0.0
 11
20.257879
 21
6.207357
 31
0.0
  0
LINE
  8
CENTER
 10
21.319879
 20
5.832357
 30
0.0
 11
26.101879
 21
5.832357
 31
0.0
  0
CIRCLE
  8
OBJECT
 10
26.210879
 20
5.832357
 30
0.0
 40
0.109
  0
CIRCLE
  8
OBJECT
 10
21.210879
 20
5.832357
 30
0.0
 40
0.109
  0
LINE
  8
OBJECT
 10
20.257879
 20
6.207357
 30
0.0
 11
27.257879
 21
6.207357
 31
0.0
  0
LINE
  8
HIDDEN
 10
20.257879
 20
6.145357
 30
0.0
 11
27.195879
 21
6.145357
 31
0.0
  0
LINE
  8
OBJECT
 10
27.257879
 20
5.457357
 30
0.0
 11
27.257879
 21
6.207357
 31
0.0
  0
LINE
  8
OBJECT
 10
28.611536
 20
7.136772
 30
0.0
 11
29.361536
 21
7.136772
 31
0.0
  0
LINE
  8
OBJECT
 10
27.195879
 20
5.457357
 30
0.0
 11
27.195879
 21
6.145357
 31
0.0
  0
LINE
  8
OBJECT
 10
28.673536
 20
7.198772
 30
0.0
 11
29.361536
 21
7.198772
 31
0.0
  0
LINE
  8
OBJECT
 10
29.361536
 20
7.198772
 30
0.0
 11
29.361536
 21
7.136772
 31
0.0
  0
LINE
  8
OBJECT
 10
27.195879
 20
5.457357
 30
0.0
 11
27.257879
 21
5.457357
 31
0.0
  0
LINE
  8
HIDDEN
 10
20.257879
 20
7.198772
 30
0.0
 11
27.163879
 21
7.198772
 31
0.0
  0
LINE
  8
HIDDEN
 10
27.195879
 20
7.230772
 30
0.0
 11
27.195879
 21
14.136772
 31
0.0
  0
INSERT
  8
TITLE
  2
B
 10
0.0
 20
0.0
 30
0.0
 41
2.0
 42
2.0
 43
2.0
  0
DIMENSION
  8
DIM
  2
*D5
 10
12.557773
 20
4.526529
 30
0.0
 11
13.801523
 21
4.526529
 31
0.0
 12
-1.969786
 22
-1.936713
 32
0.0
 13
11.807773
 23
6.480772
 33
0.0
 14
12.557773
 24
7.230772
 34
0.0
  3
STD
  0
DIMENSION
  8
DIM
  2
*D9
 10
15.226103
 20
7.230772
 30
0.0
 11
15.226103
 21
6.855772
 31
0.0
 12
-1.969786
 22
-1.936713
 32
0.0
 13
11.807773
 23
6.480772
 33
0.0
 14
12.557773
 24
7.230772
 34
0.0
 50
90.0
  3
DIM
  0
DIMENSION
  8
DIM
  2
*D18
 10
10.854773
 20
3.921954
 30
0.0
 11
8.354773
 21
3.921954
 31
0.0
 13
5.854773
 23
6.855772
 33
0.0
 14
10.854773
 24
6.855772
 34
0.0
  3
STD
  0
DIMENSION
  8
DIM
  2
*D10
 10
12.557773
 20
3.921954
 30
0.0
 11
11.706273
 21
3.921954
 31
0.0
 12
-1.969786
 22
-1.936713
 32
0.0
 13
10.854773
 23
6.855772
 33
0.0
 14
12.557773
 24
7.230772
 34
0.0
  3
DIM
  0
DIMENSION
  8
DIM
  2
*D23
 10
16.22708
 20
4.183772
 30
0.0
 11
16.22708
 21
10.683772
 31
0.0
 13
12.182773
 23
13.183772
 33
0.0
 14
12.182773
 24
8.183772
 34
0.0
 50
90.0
  3
STD
  0
DIMENSION
  8
DIM
  2
*D6
 10
16.22708
 20
6.480772
 30
0.0
 11
16.22708
 21
7.332272
 31
0.0
 12
-1.969786
 22
-1.936713
 32
0.0
 13
12.182773
 23
8.183772
 33
0.0
 14
11.807773
 24
6.480772
 34
0.0
 50
90.0
  3
STD
  0
DIMENSION
  8
DIM
  2
*D17
 10
6.901773
 20
3.341089
 30
0.0
 11
8.729773
 21
3.341089
 31
0.0
 13
12.557773
 23
7.230772
 33
0.0
 14
4.901773
 24
6.480772
 34
0.0
  3
STD
  0
DIMENSION
  8
DIM
  2
*D22
 10
17.260224
 20
14.136772
 30
0.0
 11
17.260224
 21
10.308772
 31
0.0
 13
11.807773
 23
6.480772
 33
0.0
 14
12.557773
 24
14.136772
 34
0.0
 50
90.0
  3
STD
  0
DIMENSION
  8
DIM
  2
*D4
 10
12.557773
 20
5.139253
 30
0.0
 11
13.817148
 21
5.139253
 31
0.0
 12
-1.969786
 22
-1.936713
 32
0.0
 13
12.182773
 23
8.183772
 33
0.0
 14
12.557773
 24
7.230772
 34
0.0
  3
STD
  0
DIMENSION
  8
DIM
  2
*D3
 10
14.224181
 20
6.480772
 30
0.0
 11
13.324806
 21
5.760772
 31
0.0
 12
-1.969786
 22
-1.936713
 32
0.0
 13
10.854773
 23
6.855772
 33
0.0
 14
11.807773
 24
6.480772
 34
0.0
 50
90.0
  3
STD
  0
DIMENSION
  8
DIM
  2
*D7
 10
9.477583
 20
6.480772
 30
0.0
 11
8.593833
 21
5.760772
 31
0.0
 12
-1.969786
 22
-1.936713
 32
0.0
 13
9.509751
 23
7.183772
 33
0.0
 14
9.509751
 24
6.480772
 34
0.0
 50
90.0
  3
STD
  0
DIMENSION
  8
DIM
  2
*D8
 10
12.557773
 20
9.474259
 30
0.0
 11
13.801523
 21
9.474259
 31
0.0
 12
-1.969786
 22
-1.936713
 32
0.0
 13
11.854773
 23
9.474259
 33
0.0
 14
12.557773
 24
9.474259
 34
0.0
  3
STD
  0
TEXT
  8
TEXT
 10
10.115257
 20
7.123383
 30
0.0
 40
0.25
  1
BD
 41
0.75
  0
TEXT
  8
TEXT
 10
11.702817
 20
9.996593
 30
0.0
 40
0.25
  1
BD
 41
0.75
  0
TEXT
  8
TEXT
 10
4.702817
 20
9.402593
 30
0.0
 40
0.25
  1
BD
 41
0.75
  0
TEXT
  8
TEXT
 10
9.230498
 20
13.974257
 30
0.0
 40
0.25
  1
BD
 41
0.75
  0
POLYLINE
  8
DIM
 66
     1
 10
0.0
 20
0.0
 30
0.0
 41
0.135
  0
VERTEX
  8
DIM
 10
12.277008
 20
13.238552
 30
0.0
  0
VERTEX
  8
DIM
 10
12.513814
 20
13.509703
 30
0.0
 41
0.0
  0
VERTEX
  8
DIM
 10
13.805457
 20
14.988678
 30
0.0
 41
0.0
  0
VERTEX
  8
DIM
 10
14.055457
 20
14.988678
 30
0.0
 41
0.0
  0
SEQEND
  8
DIM
  0
TEXT
  8
DIM
 10
14.305457
 20
14.863678
 30
0.0
 40
0.25
  1
0.218 DIA.
 41
0.75
  0
TEXT
  8
DIM
 10
14.305457
 20
14.447011
 30
0.0
 40
0.25
  1
(8) HOLES
 41
0.75
  0
DIMENSION
  8
DIM
  2
*D25
 10
20.257879
 20
6.706152
 30
0.0
 11
23.757879
 21
6.706152
 31
0.0
 13
27.257879
 23
6.207357
 33
0.0
 14
20.257879
 24
6.207357
 34
0.0
 50
180.0
  3
STD
  0
DIMENSION
  8
DIM
  2
*D21
 10
27.970351
 20
13.136772
 30
0.0
 11
27.970351
 21
10.636772
 31
0.0
 13
28.611536
 23
14.136772
 33
0.0
 14
28.611536
 24
7.136772
 34
0.0
 50
90.0
  3
STD
  0
DIMENSION
  8
DIM
  2
*D24
 10
20.257879
 20
4.895123
 30
0.0
 11
20.734379
 21
4.895123
 31
0.0
 13
21.210879
 23
5.832357
 33
0.0
 14
20.257879
 24
5.457357
 34
0.0
 50
180.0
  3
DIM
  0
DIMENSION
  8
DIM
  2
*D12
 10
27.257879
 20
4.895123
 30
0.0
 11
26.734379
 21
4.895123
 31
0.0
 12
0.0
 22
-0.387491
 32
0.0
 13
26.210879
 23
5.832357
 33
0.0
 14
27.257879
 24
5.457357
 34
0.0
 50
180.0
  3
DIM
  0
DIMENSION
  8
DIM
  2
*D14
 10
30.155669
 20
14.136772
 30
0.0
 11
30.155669
 21
11.660272
 31
0.0
 12
0.0
 22
1.612509
 32
0.0
 13
28.986536
 23
13.183772
 33
0.0
 14
29.361536
 24
14.136772
 34
0.0
 50
90.0
  3
DIM
  0
DIMENSION
  8
DIM
  2
*D11
 10
30.155669
 20
7.136772
 30
0.0
 11
30.155669
 21
7.660272
 31
0.0
 12
0.636994
 22
-1.936713
 32
0.0
 13
28.986536
 23
8.183772
 33
0.0
 14
29.361536
 24
7.136772
 34
0.0
 50
90.0
  3
DIM
  0
DIMENSION
  8
DIM
  2
*D13
 10
28.340204
 20
6.207357
 30
0.0
 11
28.340204
 21
5.832357
 31
0.0
 12
0.0
 22
-0.387491
 32
0.0
 13
27.257879
 23
5.457357
 33
0.0
 14
27.257879
 24
6.207357
 34
0.0
 50
90.0
  3
DIM
  0
LINE
  8
TITLE
 10
26.125
 20
18.865
 30
0.0
 11
26.125
 21
18.033
 31
0.0
  0
LINE
  8
TITLE
 10
26.125
 20
18.033
 30
0.0
 11
31.0
 21
18.033
 31
0.0
  0
LINE
  8
TITLE
 10
27.375
 20
18.865
 30
0.0
 11
27.375
 21
18.033
 31
0.0
  0
TEXT
  8
TEXT
 10
26.663481
 20
18.354686
 30
0.0
 40
0.25
  1
M
 41
0.75
 72
     1
 11
26.725981
 21
18.354686
 31
0.0
  0
CIRCLE
  8
TEXT
 10
26.725981
 20
18.466562
 30
0.0
 40
0.218
  0
TEXT
  8
TEXT
 10
27.547198
 20
18.52213
 30
0.0
 40
0.25
  1
REDRAWN
 41
0.75
  0
TEXT
  8
TEXT
 10
27.547198
 20
18.105463
 30
0.0
 40
0.25
  1
PER ECN #6730
 41
0.75
  0
TEXT
  8
TEXT
 10
21.783829
 20
1.927451
 30
0.0
 40
0.25
  1
AS NOTED
 41
0.75
 72
     1
 11
22.502579
 21
1.927451
 31
0.0
  0
TEXT
  8
TEXT
 10
21.752579
 20
1.510785
 30
0.0
 40
0.25
  1
SEE SPEC.
 41
0.75
 72
     1
 11
22.502579
 21
1.510785
 31
0.0
  0
TEXT
  8
TEXT
 10
20.8846
 20
1.063562
 30
0.0
 40
0.25
  1
BT
 41
0.75
 72
     1
 11
21.04085
 21
1.063562
 31
0.0
  0
TEXT
  8
TEXT
 10
22.043175
 20
1.07023
 30
0.0
 40
0.25
  1
7-15-92
 41
0.75
 72
     1
 11
22.636925
 21
1.07023
 31
0.0
  0
TEXT
  8
TEXT
 10
28.105544
 20
1.503657
 30
0.0
 40
0.25
  1
TRIANGULAR
 41
0.75
 72
     1
 11
28.980544
 21
1.503657
 31
0.0
  0
TEXT
  8
TEXT
 10
27.543044
 20
1.08699
 30
0.0
 40
0.25
  1
MOUNTING BRACKET
 41
0.75
 72
     1
 11
28.980544
 21
1.08699
 31
0.0
  0
TEXT
  8
TEXT
 10
12.351786
 20
0.587904
 30
0.0
 40
0.25
  1
2
 41
0.75
 72
     1
 11
12.414286
 21
0.587904
 31
0.0
  0
TEXT
  8
TEXT
 10
13.655029
 20
0.587904
 30
0.0
 40
0.25
  1
MB-1267
 41
0.75
 72
     1
 11
14.248779
 21
0.587904
 31
0.0
  0
TEXT
  8
TEXT
 10
27.980513
 20
0.241904
 30
0.0
 40
0.312
  1
1267-A
 41
0.75
  0
TEXT
  8
TEXT
 10
27.980513
 20
19.643111
 30
0.0
 40
0.312
  1
1267-A
 41
0.75
  0
TEXT
  8
TEXT
 10
23.503353
 20
3.953813
 30
0.0
 40
0.312
  1
%%uCOMPLETED PART
 41
0.75
 72
     1
 11
25.106253
 21
3.953813
 31
0.0
  0
TEXT
  8
TEXT
 10
4.946405
 20
2.371991
 30
0.0
 40
0.312
  1
%%uSHEET LAYOUT FOR ONE PAIR
 41
0.75
 72
     1
 11
7.797305
 21
2.371991
 31
0.0
  0
TEXT
  8
TEXT
 10
12.199521
 20
2.37051
 30
0.0
 40
0.25
  1
CUT SIZE: 8.406 x 8.406 x 16 OR 18 GA. STEEL
 41
0.774023
 72
     5
 11
19.875252
 21
2.37051
 31
0.0
  0
DIMENSION
  8
DIM
  2
*D15
 10
12.557773
 20
15.512905
 30
0.0
 11
13.801523
 21
13.512905
 31
0.0
 12
0.0
 22
2.0
 32
0.0
 13
11.807773
 23
14.886772
 33
0.0
 14
12.557773
 24
14.886772
 34
0.0
  3
STD
  0
DIMENSION
  8
DIM
  2
*D20
 10
10.557773
 20
16.107107
 30
0.0
 11
8.354773
 21
16.107107
 31
0.0
 13
4.151773
 23
14.136772
 33
0.0
 14
12.557773
 24
14.886772
 34
0.0
  3
STD
  0
DIMENSION
  8
DIM
  2
*D16
 10
3.46327
 20
6.480772
 30
0.0
 11
5.46327
 21
6.855772
 31
0.0
 12
-2.0
 22
0.0
 32
0.0
 13
4.151773
 23
7.230772
 33
0.0
 14
4.151773
 24
6.480772
 34
0.0
 50
90.0
  3
DIM
  0
DIMENSION
  8
DIM
  2
*D19
 10
2.689358
 20
12.886772
 30
0.0
 11
2.689358
 21
10.683772
 31
0.0
 13
4.151773
 23
6.480772
 33
0.0
 14
4.901773
 24
14.886772
 34
0.0
 50
90.0
  3
STD
  0
ENDBLK
  8
0
  0
BLOCK
  8
0
  2
B
 70
    64
 10
0.0
 20
0.0
 30
0.0
  3
B
  0
LINE
  8
TITLE
 10
15.5
 20
0.0
 30
0.0
 11
15.5
 21
10.12
 31
0.0
  0
LINE
  8
TITLE
 10
0.0
 20
10.12
 30
0.0
 11
0.0
 21
0.0
 31
0.0
  0
TEXT
  8
TITLE
 62
     8
 10
13.1875
 20
9.9325
 30
0.0
 40
0.09375
  1
DWG.
  0
TEXT
  8
TITLE
 62
     8
 10
13.1875
 20
9.77625
 30
0.0
 40
0.09375
  1
NO.
  0
TEXT
  8
TITLE
 62
     8
 10
13.179285
 20
9.518672
 30
0.0
 40
0.09375
  1
ISSUE
  0
TEXT
  8
TITLE
 62
     8
 10
14.12324
 20
9.520848
 30
0.0
 40
0.09375
  1
REVISIONS
  0
LINE
  8
TITLE
 62
     8
 10
13.6875
 20
9.4325
 30
0.0
 11
13.6875
 21
9.6825
 31
0.0
  0
LINE
  8
TITLE
 62
     8
 10
13.0625
 20
9.4325
 30
0.0
 11
15.5
 21
9.4325
 31
0.0
  0
LINE
  8
TITLE
 62
     8
 10
13.0625
 20
9.6825
 30
0.0
 11
15.5
 21
9.6825
 31
0.0
  0
LINE
  8
TITLE
 10
13.0625
 20
9.4325
 30
0.0
 11
13.0625
 21
10.12
 31
0.0
  0
LINE
  8
TITLE
 10
0.0
 20
0.0
 30
0.0
 11
15.5
 21
0.0
 31
0.0
  0
LINE
  8
TITLE
 10
0.0
 20
10.12
 30
0.0
 11
15.5
 21
10.12
 31
0.0
  0
TEXT
  8
TITLE
 62
     8
 10
6.071749
 20
0.077628
 30
0.0
 40
0.09375
  1
QTY.
  0
TEXT
  8
TITLE
 62
     8
 10
6.81726
 20
0.077628
 30
0.0
 40
0.09375
  1
USED ON
  0
TEXT
  8
TITLE
 62
     8
 10
10.056572
 20
1.199408
 30
0.0
 40
0.09375
  1
ITEM
  0
TEXT
  8
TITLE
 62
     8
 10
10.470847
 20
1.197741
 30
0.0
 40
0.09375
  1
REQ'D.
  0
TEXT
  8
TITLE
 62
     8
 10
10.063
 20
0.972877
 30
0.0
 40
0.09375
  1
MAT:
  0
TEXT
  8
TITLE
 62
     8
 10
10.063
 20
0.774118
 30
0.0
 40
0.09375
  1
FINISH:
  0
TEXT
  8
TITLE
 62
     8
 10
10.063
 20
0.569374
 30
0.0
 40
0.09375
  1
DR.
  0
TEXT
  8
TITLE
 62
     8
 10
10.063
 20
0.3125
 30
0.0
 40
0.09375
  1
CH.
  0
TEXT
  8
TITLE
 62
     8
 10
10.063
 20
0.0625
 30
0.0
 40
0.09375
  1
APP.
  0
TEXT
  8
TITLE
 62
     8
 10
11.3755
 20
1.197741
 30
0.0
 40
0.09375
  1
PART NO.
  0
TEXT
  8
TITLE
 62
     8
 10
13.502446
 20
1.197741
 30
0.0
 40
0.09375
  1
DESCRIPTION
  0
TEXT
  8
TITLE
 62
     8
 10
11.898215
 20
0.975598
 30
0.0
 40
0.09375
  1
SCALE:
  0
TEXT
  8
TITLE
 62
     8
 10
13.4375
 20
0.990354
 30
0.0
 40
0.09375
  1
NAME:
  0
TEXT
  8
TITLE
 62
     8
 10
11.92261
 20
0.125
 30
0.0
 40
0.09375
  1
WILLOUGHBY, OHIO
  0
TEXT
  8
TITLE
 62
     8
 10
12.032858
 20
0.375
 30
0.0
 40
0.09375
  1
BUD EAST, INC.
  0
TEXT
  8
TITLE
 62
     8
 10
13.4375
 20
0.219499
 30
0.0
 40
0.0938
  1
DWG.
  0
TEXT
  8
TITLE
 62
     8
 10
13.4375
 20
0.063166
 30
0.0
 40
0.0938
  1
NO.
  0
LINE
  8
TITLE
 62
     8
 10
13.367246
 20
0.0
 30
0.0
 11
13.367246
 21
1.127
 31
0.0
  0
LINE
  8
TITLE
 62
     8
 10
11.859373
 20
0.0
 30
0.0
 11
11.859373
 21
1.127
 31
0.0
  0
LINE
  8
TITLE
 62
     8
 10
13.367246
 20
0.382
 30
0.0
 11
15.5
 21
0.382
 31
0.0
  0
LINE
  8
TITLE
 62
     8
 10
10.419296
 20
1.127
 30
0.0
 11
10.419296
 21
1.377
 31
0.0
  0
LINE
  8
TITLE
 62
     8
 10
10.837233
 20
0.0
 30
0.0
 11
10.837233
 21
0.709
 31
0.0
  0
LINE
  8
TITLE
 10
6.02
 20
0.25
 30
0.0
 11
7.9225
 21
0.25
 31
0.0
  0
LINE
  8
TITLE
 10
10.0005
 20
0.5
 30
0.0
 11
11.859373
 21
0.5
 31
0.0
  0
LINE
  8
TITLE
 62
     8
 10
12.4365
 20
1.127
 30
0.0
 11
12.4365
 21
1.377
 31
0.0
  0
LINE
  8
TITLE
 10
10.0005
 20
1.377
 30
0.0
 11
15.5
 21
1.377
 31
0.0
  0
LINE
  8
TITLE
 62
     8
 10
10.0005
 20
0.0
 30
0.0
 11
10.0005
 21
1.377
 31
0.0
  0
LINE
  8
TITLE
 10
10.0005
 20
0.25
 30
0.0
 11
11.859373
 21
0.25
 31
0.0
  0
TEXT
  8
TITLE
 62
     8
 10
7.99865
 20
0.056475
 30
0.0
 40
0.077242
  1
UNLESS OTHERWISE SPECIFIED
  0
TEXT
  8
TITLE
 62
     8
 10
8.091485
 20
0.23449
 30
0.0
 40
0.077242
  1
    SURFACES
  0
TEXT
  8
TITLE
 62
     8
 10
7.998285
 20
0.363227
 30
0.0
 40
0.077242
  1
%%p.063 BETWEEN ASSEMBLED
  0
TEXT
  8
TITLE
 62
     8
 10
7.998285
 20
0.491964
 30
0.0
 40
0.077242
  1
%%p.032 FROM A BENT SURFACE
  0
TEXT
  8
TITLE
 62
     8
 10
7.998285
 20
0.620702
 30
0.0
 40
0.077242
  1
%%p.015 FROM SHEARED EDGE
  0
TEXT
  8
TITLE
 62
     8
 10
7.998285
 20
0.749439
 30
0.0
 40
0.077242
  1
%%p.005 BETWEEN HOLE CENTERS
  0
TEXT
  8
TITLE
 10
8.045906
 20
0.952072
 30
0.0
 40
0.111789
  1
%%uTOLERANCES:
  0
LINE
  8
TITLE
 62
     8
 10
7.9225
 20
0.0
 30
0.0
 11
7.9225
 21
1.127
 31
0.0
  0
LINE
  8
TITLE
 62
     8
 10
6.395
 20
0.0
 30
0.0
 11
6.395
 21
0.25
 31
0.0
  0
LINE
  8
TITLE
 62
     8
 10
10.9375
 20
1.127
 30
0.0
 11
10.9375
 21
1.377
 31
0.0
  0
LINE
  8
TITLE
 10
10.0005
 20
0.709
 30
0.0
 11
11.859373
 21
0.709
 31
0.0
  0
LINE
  8
TITLE
 10
10.0005
 20
0.918
 30
0.0
 11
13.367246
 21
0.918
 31
0.0
  0
LINE
  8
TITLE
 10
7.9225
 20
1.127
 30
0.0
 11
15.5
 21
1.127
 31
0.0
  0
LINE
  8
TITLE
 10
6.02
 20
0.25
 30
0.0
 11
6.02
 21
0.0
 31
0.0
  0
LINE
  8
TITLE
 10
10.0005
 20
1.377
 30
0.0
 11
6.02
 21
1.377
 31
0.0
  0
LINE
  8
TITLE
 10
7.9225
 20
1.127
 30
0.0
 11
6.02
 21
1.127
 31
0.0
  0
LINE
  8
TITLE
 10
6.02
 20
1.377
 30
0.0
 11
6.02
 21
0.25
 31
0.0
  0
LINE
  8
TITLE
 10
12.77723
 20
0.701411
 30
0.0
 11
12.77723
 21
0.714688
 31
0.0
  0
LINE
  8
TITLE
 10
12.735933
 20
0.701411
 30
0.0
 11
12.735933
 21
0.714688
 31
0.0
  0
LINE
  8
TITLE
 10
12.77723
 20
0.714688
 30
0.0
 11
12.735933
 21
0.714688
 31
0.0
  0
LINE
  8
TITLE
 10
12.77723
 20
0.701411
 30
0.0
 11
12.735933
 21
0.701411
 31
0.0
  0
ARC
  8
TITLE
 10
12.733131
 20
0.747879
 30
0.0
 40
0.092937
 50
0.0
 51
90.0
  0
ARC
  8
TITLE
 10
12.733131
 20
0.668219
 30
0.0
 40
0.092937
 50
270.0
 51
0.0
  0
LINE
  8
TITLE
 10
12.826069
 20
0.668219
 30
0.0
 11
12.826069
 21
0.747879
 31
0.0
  0
LINE
  8
TITLE
 10
12.700102
 20
0.840817
 30
0.0
 11
12.733131
 21
0.840817
 31
0.0
  0
LINE
  8
TITLE
 10
12.700102
 20
0.575282
 30
0.0
 11
12.733131
 21
0.575282
 31
0.0
  0
LINE
  8
TITLE
 10
12.700102
 20
0.575282
 30
0.0
 11
12.700102
 21
0.840817
 31
0.0
  0
LINE
  8
TITLE
 10
12.597254
 20
0.840817
 30
0.0
 11
12.645791
 21
0.840817
 31
0.0
  0
LINE
  8
TITLE
 10
12.525603
 20
0.840817
 30
0.0
 11
12.574141
 21
0.840817
 31
0.0
  0
ARC
  8
TITLE
 10
12.583977
 20
0.618606
 30
0.0
 40
0.013277
 50
277.444284
 51
0.0
  0
ARC
  8
TITLE
 10
12.587417
 20
0.618606
 30
0.0
 40
0.013277
 50
180.0
 51
262.555716
  0
ARC
  8
TITLE
 10
12.629195
 20
0.591878
 30
0.0
 40
0.016596
 50
270.0
 51
0.0
  0
ARC
  8
TITLE
 10
12.542199
 20
0.591878
 30
0.0
 40
0.016596
 50
180.0
 51
270.0
  0
LINE
  8
TITLE
 10
12.542199
 20
0.575282
 30
0.0
 11
12.629195
 21
0.575282
 31
0.0
  0
LINE
  8
TITLE
 10
12.597254
 20
0.618606
 30
0.0
 11
12.597254
 21
0.840817
 31
0.0
  0
LINE
  8
TITLE
 10
12.645791
 20
0.591878
 30
0.0
 11
12.645791
 21
0.840817
 31
0.0
  0
LINE
  8
TITLE
 10
12.574141
 20
0.618606
 30
0.0
 11
12.574141
 21
0.840817
 31
0.0
  0
LINE
  8
TITLE
 10
12.525603
 20
0.591878
 30
0.0
 11
12.525603
 21
0.840817
 31
0.0
  0
ARC
  8
TITLE
 10
12.426216
 20
0.638346
 30
0.0
 40
0.063065
 50
270.0
 51
90.0
  0
LINE
  8
TITLE
 10
12.35341
 20
0.701411
 30
0.0
 11
12.35341
 21
0.708049
 31
0.0
  0
LINE
  8
TITLE
 10
12.426216
 20
0.701411
 30
0.0
 11
12.35341
 21
0.701411
 31
0.0
  0
LINE
  8
TITLE
 10
12.35341
 20
0.714688
 30
0.0
 11
12.35341
 21
0.708049
 31
0.0
  0
LINE
  8
TITLE
 10
12.426216
 20
0.714688
 30
0.0
 11
12.35341
 21
0.714688
 31
0.0
  0
ARC
  8
TITLE
 10
12.426216
 20
0.777752
 30
0.0
 40
0.063065
 50
270.0
 51
90.0
  0
LINE
  8
TITLE
 10
12.340698
 20
0.575282
 30
0.0
 11
12.340698
 21
0.840817
 31
0.0
  0
LINE
  8
TITLE
 10
12.340698
 20
0.575282
 30
0.0
 11
12.426216
 21
0.575282
 31
0.0
  0
LINE
  8
TITLE
 10
12.340698
 20
0.840817
 30
0.0
 11
12.426216
 21
0.840817
 31
0.0
  0
ENDBLK
  8
0
  0
BLOCK
  8
0
  2
*D3
 70
    65
 10
0.0
 20
0.0
 30
0.0
  3
*D
  0
LINE
  8
0
  6
BYBLOCK
 62
     0
 10
12.949559
 20
8.792484
 30
0.0
 11
16.379966
 21
8.792484
 31
0.0
  0
LINE
  8
0
  6
BYBLOCK
 62
     0
 10
13.902559
 20
8.417484
 30
0.0
 11
16.379966
 21
8.417484
 31
0.0
  0
LINE
  8
0
  6
BYBLOCK
 62
     0
 10
16.193966
 20
9.152484
 30
0.0
 11
16.193966
 21
9.512484
 31
0.0
  0
LINE
  8
0
  6
BYBLOCK
 62
     0
 10
16.193966
 20
8.057484
 30
0.0
 11
16.193966
 21
7.697484
 31
0.0
  0
LINE
  8
0
  6
BYBLOCK
 62
     0
 10
16.193966
 20
7.697484
 30
0.0
 11
15.833966
 21
7.697484
 31
0.0
  0
SOLID
  8
0
  6
BYBLOCK
 62
     0
 10
16.133966
 20
9.152484
 30
0.0
 11
16.253966
 21
9.152484
 31
0.0
 12
16.193966
 22
8.792484
 32
0.0
 13
16.193966
 23
8.792484
 33
0.0
  0
SOLID
  8
0
  6
BYBLOCK
 62
     0
 10
16.133966
 20
8.057484
 30
0.0
 11
16.253966
 21
8.057484
 31
0.0
 12
16.193966
 22
8.417484
 32
0.0
 13
16.193966
 23
8.417484
 33
0.0
  0
TEXT
  8
0
  6
BYBLOCK
 62
     0
 10
14.935216
 20
7.572484
 30
0.0
 40
0.25
  1
0.375
 41
0.75
 72
     1
 11
15.294591
 21
7.697484
 31
0.0
 73
     2
  0
POINT
  8
DEFPOINTS
  6
BYBLOCK
 62
     0
 10
12.824559
 20
8.792484
 30
0.0
  0
POINT
  8
DEFPOINTS
  6
BYBLOCK
 62
     0
 10
13.777559
 20
8.417484
 30
0.0
  0
POINT
  8
DEFPOINTS
  6
BYBLOCK
 62
     0
 10
16.193966
 20
8.417484
 30
0.0
  0
ENDBLK
  8
0
  0
BLOCK
  8
0
  2
*D4
 70
    65
 10
0.0
 20
0.0
 30
0.0
  3
*D
  0
LINE
  8
0
  6
BYBLOCK
 62
     0
 10
14.152559
 20
9.995484
 30
0.0
 11
14.152559
 21
6.889965
 31
0.0
  0
LINE
  8
0
  6
BYBLOCK
 62
     0
 10
14.527559
 20
9.042484
 30
0.0
 11
14.527559
 21
6.889965
 31
0.0
  0
LINE
  8
0
  6
BYBLOCK
 62
     0
 10
13.792559
 20
7.075965
 30
0.0
 11
13.432559
 21
7.075965
 31
0.0
  0
LINE
  8
0
  6
BYBLOCK
 62
     0
 10
14.887559
 20
7.075965
 30
0.0
 11
15.247559
 21
7.075965
 31
0.0
  0
SOLID
  8
0
  6
BYBLOCK
 62
     0
 10
13.792559
 20
7.135965
 30
0.0
 11
13.792559
 21
7.015965
 31
0.0
 12
14.152559
 22
7.075965
 32
0.0
 13
14.152559
 23
7.075965
 33
0.0
  0
SOLID
  8
0
  6
BYBLOCK
 62
     0
 10
14.887559
 20
7.135965
 30
0.0
 11
14.887559
 21
7.015965
 31
0.0
 12
14.527559
 22
7.075965
 32
0.0
 13
14.527559
 23
7.075965
 33
0.0
  0
TEXT
  8
0
  6
BYBLOCK
 62
     0
 10
15.427559
 20
6.950965
 30
0.0
 40
0.25
  1
0.375
 41
0.75
 72
     1
 11
15.786934
 21
7.075965
 31
0.0
 73
     2
  0
POINT
  8
DEFPOINTS
  6
BYBLOCK
 62
     0
 10
14.152559
 20
10.120484
 30
0.0
  0
POINT
  8
DEFPOINTS
  6
BYBLOCK
 62
     0
 10
14.527559
 20
9.167484
 30
0.0
  0
POINT
  8
DEFPOINTS
  6
BYBLOCK
 62
     0
 10
14.527559
 20
7.075965
 30
0.0
  0
ENDBLK
  8
0
  0
BLOCK
  8
0
  2
*D5
 70
    65
 10
0.0
 20
0.0
 30
0.0
  3
*D
  0
LINE
  8
0
  6
BYBLOCK
 62
     0
 10
13.777559
 20
8.292484
 30
0.0
 11
13.777559
 21
6.277241
 31
0.0
  0
LINE
  8
0
  6
BYBLOCK
 62
     0
 10
14.527559
 20
9.042484
 30
0.0
 11
14.527559
 21
6.277241
 31
0.0
  0
LINE
  8
0
  6
BYBLOCK
 62
     0
 10
13.417559
 20
6.463241
 30
0.0
 11
13.057559
 21
6.463241
 31
0.0
  0
LINE
  8
0
  6
BYBLOCK
 62
     0
 10
14.887559
 20
6.463241
 30
0.0
 11
15.247559
 21
6.463241
 31
0.0
  0
SOLID
  8
0
  6
BYBLOCK
 62
     0
 10
13.417559
 20
6.523241
 30
0.0
 11
13.417559
 21
6.403241
 31
0.0
 12
13.777559
 22
6.463241
 32
0.0
 13
13.777559
 23
6.463241
 33
0.0
  0
SOLID
  8
0
  6
BYBLOCK
 62
     0
 10
14.887559
 20
6.523241
 30
0.0
 11
14.887559
 21
6.403241
 31
0.0
 12
14.527559
 22
6.463241
 32
0.0
 13
14.527559
 23
6.463241
 33
0.0
  0
TEXT
  8
0
  6
BYBLOCK
 62
     0
 10
15.427559
 20
6.338241
 30
0.0
 40
0.25
  1
0.750
 41
0.75
 72
     1
 11
15.771309
 21
6.463241
 31
0.0
 73
     2
  0
POINT
  8
DEFPOINTS
  6
BYBLOCK
 62
     0
 10
13.777559
 20
8.417484
 30
0.0
  0
POINT
  8
DEFPOINTS
  6
BYBLOCK
 62
     0
 10
14.527559
 20
9.167484
 30
0.0
  0
POINT
  8
DEFPOINTS
  6
BYBLOCK
 62
     0
 10
14.527559
 20
6.463241
 30
0.0
  0
ENDBLK
  8
0
  0
BLOCK
  8
0
  2
*D6
 70
    65
 10
0.0
 20
0.0
 30
0.0
  3
*D
  0
LINE
  8
0
  6
BYBLOCK
 62
     0
 10
14.277559
 20
10.120484
 30
0.0
 11
18.382866
 21
10.120484
 31
0.0
  0
LINE
  8
0
  6
BYBLOCK
 62
     0
 10
13.902559
 20
8.417484
 30
0.0
 11
18.382866
 21
8.417484
 31
0.0
  0
LINE
  8
0
  6
BYBLOCK
 62
     0
 10
18.196866
 20
9.760484
 30
0.0
 11
18.196866
 21
9.573984
 31
0.0
  0
LINE
  8
0
  6
BYBLOCK
 62
     0
 10
18.196866
 20
8.777484
 30
0.0
 11
18.196866
 21
8.963984
 31
0.0
  0
SOLID
  8
0
  6
BYBLOCK
 62
     0
 10
18.136866
 20
9.760484
 30
0.0
 11
18.256866
 21
9.760484
 31
0.0
 12
18.196866
 22
10.120484
 32
0.0
 13
18.196866
 23
10.120484
 33
0.0
  0
SOLID
  8
0
  6
BYBLOCK
 62
     0
 10
18.136866
 20
8.777484
 30
0.0
 11
18.256866
 21
8.777484
 31
0.0
 12
18.196866
 22
8.417484
 32
0.0
 13
18.196866
 23
8.417484
 33
0.0
  0
TEXT
  8
0
  6
BYBLOCK
 62
     0
 10
17.868741
 20
9.143984
 30
0.0
 40
0.25
  1
1.703
 41
0.75
 72
     1
 11
18.196866
 21
9.268984
 31
0.0
 73
     2
  0
POINT
  8
DEFPOINTS
  6
BYBLOCK
 62
     0
 10
14.152559
 20
10.120484
 30
0.0
  0
POINT
  8
DEFPOINTS
  6
BYBLOCK
 62
     0
 10
13.777559
 20
8.417484
 30
0.0
  0
POINT
  8
DEFPOINTS
  6
BYBLOCK
 62
     0
 10
18.196866
 20
8.417484
 30
0.0
  0
ENDBLK
  8
0
  0
BLOCK
  8
0
  2
*D7
 70
    65
 10
0.0
 20
0.0
 30
0.0
  3
*D
  0
LINE
  8
0
  6
BYBLOCK
 62
     0
 10
11.354537
 20
9.120484
 30
0.0
 11
11.261369
 21
9.120484
 31
0.0
  0
LINE
  8
0
  6
BYBLOCK
 62
     0
 10
11.354537
 20
8.417484
 30
0.0
 11
11.261369
 21
8.417484
 31
0.0
  0
LINE
  8
0
  6
BYBLOCK
 62
     0
 10
11.447369
 20
9.480484
 30
0.0
 11
11.447369
 21
9.840484
 31
0.0
  0
LINE
  8
0
  6
BYBLOCK
 62
     0
 10
11.447369
 20
8.057484
 30
0.0
 11
11.447369
 21
7.697484
 31
0.0
  0
LINE
  8
0
  6
BYBLOCK
 62
     0
 10
11.447369
 20
7.697484
 30
0.0
 11
11.087369
 21
7.697484
 31
0.0
  0
SOLID
  8
0
  6
BYBLOCK
 62
     0
 10
11.387369
 20
9.480484
 30
0.0
 11
11.507369
 21
9.480484
 31
0.0
 12
11.447369
 22
9.120484
 32
0.0
 13
11.447369
 23
9.120484
 33
0.0
  0
SOLID
  8
0
  6
BYBLOCK
 62
     0
 10
11.387369
 20
8.057484
 30
0.0
 11
11.507369
 21
8.057484
 31
0.0
 12
11.447369
 22
8.417484
 32
0.0
 13
11.447369
 23
8.417484
 33
0.0
  0
TEXT
  8
0
  6
BYBLOCK
 62
     0
 10
10.219869
 20
7.572484
 30
0.0
 40
0.25
  1
0.703
 41
0.75
 72
     1
 11
10.563619
 21
7.697484
 31
0.0
 73
     2
  0
POINT
  8
DEFPOINTS
  6
BYBLOCK
 62
     0
 10
11.479537
 20
9.120484
 30
0.0
  0
POINT
  8
DEFPOINTS
  6
BYBLOCK
 62
     0
 10
11.479537
 20
8.417484
 30
0.0
  0
POINT
  8
DEFPOINTS
  6
BYBLOCK
 62
     0
 10
11.447369
 20
8.417484
 30
0.0
  0
ENDBLK
  8
0
  0
BLOCK
  8
0
  2
*D8
 70
    65
 10
0.0
 20
0.0
 30
0.0
  3
*D
  0
LINE
  8
0
  6
BYBLOCK
 62
     0
 10
13.824559
 20
11.535971
 30
0.0
 11
13.824559
 21
11.596971
 31
0.0
  0
LINE
  8
0
  6
BYBLOCK
 62
     0
 10
14.527559
 20
11.535971
 30
0.0
 11
14.527559
 21
11.596971
 31
0.0
  0
LINE
  8
0
  6
BYBLOCK
 62
     0
 10
13.464559
 20
11.410971
 30
0.0
 11
13.104559
 21
11.410971
 31
0.0
  0
LINE
  8
0
  6
BYBLOCK
 62
     0
 10
14.887559
 20
11.410971
 30
0.0
 11
15.247559
 21
11.410971
 31
0.0
  0
SOLID
  8
0
  6
BYBLOCK
 62
     0
 10
13.464559
 20
11.470971
 30
0.0
 11
13.464559
 21
11.350971
 31
0.0
 12
13.824559
 22
11.410971
 32
0.0
 13
13.824559
 23
11.410971
 33
0.0
  0
SOLID
  8
0
  6
BYBLOCK
 62
     0
 10
14.887559
 20
11.470971
 30
0.0
 11
14.887559
 21
11.350971
 31
0.0
 12
14.527559
 22
11.410971
 32
0.0
 13
14.527559
 23
11.410971
 33
0.0
  0
TEXT
  8
0
  6
BYBLOCK
 62
     0
 10
15.427559
 20
11.285971
 30
0.0
 40
0.25
  1
0.703
 41
0.75
 72
     1
 11
15.771309
 21
11.410971
 31
0.0
 73
     2
  0
POINT
  8
DEFPOINTS
  6
BYBLOCK
 62
     0
 10
13.824559
 20
11.410971
 30
0.0
  0
POINT
  8
DEFPOINTS
  6
BYBLOCK
 62
     0
 10
14.527559
 20
11.410971
 30
0.0
  0
POINT
  8
DEFPOINTS
  6
BYBLOCK
 62
     0
 10
14.527559
 20
11.410971
 30
0.0
  0
ENDBLK
  8
0
  0
BLOCK
  8
0
  2
*D9
 70
    65
 10
0.0
 20
0.0
 30
0.0
  3
*D
  0
LINE
  8
0
  6
BYBLOCK
 62
     0
 10
13.902559
 20
8.417484
 30
0.0
 11
17.381889
 21
8.417484
 31
0.0
  0
LINE
  8
0
  6
BYBLOCK
 62
     0
 10
14.652559
 20
9.167484
 30
0.0
 11
17.381889
 21
9.167484
 31
0.0
  0
LINE
  8
0
  6
BYBLOCK
 62
     0
 10
17.195889
 20
8.057484
 30
0.0
 11
17.195889
 21
7.697484
 31
0.0
  0
LINE
  8
0
  6
BYBLOCK
 62
     0
 10
17.195889
 20
9.527484
 30
0.0
 11
17.195889
 21
9.887484
 31
0.0
  0
SOLID
  8
0
  6
BYBLOCK
 62
     0
 10
17.135889
 20
8.057484
 30
0.0
 11
17.255889
 21
8.057484
 31
0.0
 12
17.195889
 22
8.417484
 32
0.0
 13
17.195889
 23
8.417484
 33
0.0
  0
SOLID
  8
0
  6
BYBLOCK
 62
     0
 10
17.135889
 20
9.527484
 30
0.0
 11
17.255889
 21
9.527484
 31
0.0
 12
17.195889
 22
9.167484
 32
0.0
 13
17.195889
 23
9.167484
 33
0.0
  0
TEXT
  8
0
  6
BYBLOCK
 62
     0
 10
16.852139
 20
8.667484
 30
0.0
 40
0.25
  1
0.750
 41
0.75
 72
     1
 11
17.195889
 21
8.792484
 31
0.0
 73
     2
  0
POINT
  8
DEFPOINTS
  6
BYBLOCK
 62
     0
 10
13.777559
 20
8.417484
 30
0.0
  0
POINT
  8
DEFPOINTS
  6
BYBLOCK
 62
     0
 10
14.527559
 20
9.167484
 30
0.0
  0
POINT
  8
DEFPOINTS
  6
BYBLOCK
 62
     0
 10
17.195889
 20
9.167484
 30
0.0
  0
ENDBLK
  8
0
  0
BLOCK
  8
0
  2
*D10
 70
    65
 10
0.0
 20
0.0
 30
0.0
  3
*D
  0
LINE
  8
0
  6
BYBLOCK
 62
     0
 10
12.824559
 20
8.667484
 30
0.0
 11
12.824559
 21
5.672667
 31
0.0
  0
LINE
  8
0
  6
BYBLOCK
 62
     0
 10
14.527559
 20
9.042484
 30
0.0
 11
14.527559
 21
5.672667
 31
0.0
  0
LINE
  8
0
  6
BYBLOCK
 62
     0
 10
12.464559
 20
5.858667
 30
0.0
 11
12.104559
 21
5.858667
 31
0.0
  0
LINE
  8
0
  6
BYBLOCK
 62
     0
 10
14.887559
 20
5.858667
 30
0.0
 11
15.247559
 21
5.858667
 31
0.0
  0
SOLID
  8
0
  6
BYBLOCK
 62
     0
 10
12.464559
 20
5.918667
 30
0.0
 11
12.464559
 21
5.798667
 31
0.0
 12
12.824559
 22
5.858667
 32
0.0
 13
12.824559
 23
5.858667
 33
0.0
  0
SOLID
  8
0
  6
BYBLOCK
 62
     0
 10
14.887559
 20
5.918667
 30
0.0
 11
14.887559
 21
5.798667
 31
0.0
 12
14.527559
 22
5.858667
 32
0.0
 13
14.527559
 23
5.858667
 33
0.0
  0
TEXT
  8
0
  6
BYBLOCK
 62
     0
 10
13.347934
 20
5.733667
 30
0.0
 40
0.25
  1
1.703
 41
0.75
 72
     1
 11
13.676059
 21
5.858667
 31
0.0
 73
     2
  0
POINT
  8
DEFPOINTS
  6
BYBLOCK
 62
     0
 10
12.824559
 20
8.792484
 30
0.0
  0
POINT
  8
DEFPOINTS
  6
BYBLOCK
 62
     0
 10
14.527559
 20
9.167484
 30
0.0
  0
POINT
  8
DEFPOINTS
  6
BYBLOCK
 62
     0
 10
14.527559
 20
5.858667
 30
0.0
  0
ENDBLK
  8
0
  0
BLOCK
  8
0
  2
*D11
 70
    65
 10
0.0
 20
0.0
 30
0.0
  3
*D
  0
LINE
  8
0
  6
BYBLOCK
 62
     0
 10
28.474542
 20
10.120484
 30
0.0
 11
29.704675
 21
10.120484
 31
0.0
  0
LINE
  8
0
  6
BYBLOCK
 62
     0
 10
28.849542
 20
9.073484
 30
0.0
 11
29.704675
 21
9.073484
 31
0.0
  0
LINE
  8
0
  6
BYBLOCK
 62
     0
 10
29.518675
 20
10.480484
 30
0.0
 11
29.518675
 21
10.840484
 31
0.0
  0
LINE
  8
0
  6
BYBLOCK
 62
     0
 10
29.518675
 20
8.713484
 30
0.0
 11
29.518675
 21
8.353484
 31
0.0
  0
SOLID
  8
0
  6
BYBLOCK
 62
     0
 10
29.458675
 20
10.480484
 30
0.0
 11
29.578675
 21
10.480484
 31
0.0
 12
29.518675
 22
10.120484
 32
0.0
 13
29.518675
 23
10.120484
 33
0.0
  0
SOLID
  8
0
  6
BYBLOCK
 62
     0
 10
29.458675
 20
8.713484
 30
0.0
 11
29.578675
 21
8.713484
 31
0.0
 12
29.518675
 22
9.073484
 32
0.0
 13
29.518675
 23
9.073484
 33
0.0
  0
TEXT
  8
0
  6
BYBLOCK
 62
     0
 10
29.19055
 20
9.471984
 30
0.0
 40
0.25
  1
1.047
 41
0.75
 72
     1
 11
29.518675
 21
9.596984
 31
0.0
 73
     2
  0
POINT
  8
DEFPOINTS
  6
BYBLOCK
 62
     0
 10
28.349542
 20
10.120484
 30
0.0
  0
POINT
  8
DEFPOINTS
  6
BYBLOCK
 62
     0
 10
28.724542
 20
9.073484
 30
0.0
  0
POINT
  8
DEFPOINTS
  6
BYBLOCK
 62
     0
 10
29.518675
 20
9.073484
 30
0.0
  0
ENDBLK
  8
0
  0
BLOCK
  8
0
  2
*D12
 70
    65
 10
0.0
 20
0.0
 30
0.0
  3
*D
  0
LINE
  8
0
  6
BYBLOCK
 62
     0
 10
26.210879
 20
6.094848
 30
0.0
 11
26.210879
 21
5.096614
 31
0.0
  0
LINE
  8
0
  6
BYBLOCK
 62
     0
 10
27.257879
 20
5.719848
 30
0.0
 11
27.257879
 21
5.096614
 31
0.0
  0
LINE
  8
0
  6
BYBLOCK
 62
     0
 10
25.850879
 20
5.282614
 30
0.0
 11
25.490879
 21
5.282614
 31
0.0
  0
LINE
  8
0
  6
BYBLOCK
 62
     0
 10
27.617879
 20
5.282614
 30
0.0
 11
27.977879
 21
5.282614
 31
0.0
  0
SOLID
  8
0
  6
BYBLOCK
 62
     0
 10
25.850879
 20
5.342614
 30
0.0
 11
25.850879
 21
5.222614
 31
0.0
 12
26.210879
 22
5.282614
 32
0.0
 13
26.210879
 23
5.282614
 33
0.0
  0
SOLID
  8
0
  6
BYBLOCK
 62
     0
 10
27.617879
 20
5.342614
 30
0.0
 11
27.617879
 21
5.222614
 31
0.0
 12
27.257879
 22
5.282614
 32
0.0
 13
27.257879
 23
5.282614
 33
0.0
  0
TEXT
  8
0
  6
BYBLOCK
 62
     0
 10
26.406254
 20
5.157614
 30
0.0
 40
0.25
  1
1.047
 41
0.75
 72
     1
 11
26.734379
 21
5.282614
 31
0.0
 73
     2
  0
POINT
  8
DEFPOINTS
  6
BYBLOCK
 62
     0
 10
26.210879
 20
6.219848
 30
0.0
  0
POINT
  8
DEFPOINTS
  6
BYBLOCK
 62
     0
 10
27.257879
 20
5.844848
 30
0.0
  0
POINT
  8
DEFPOINTS
  6
BYBLOCK
 62
     0
 10
27.257879
 20
5.282614
 30
0.0
  0
ENDBLK
  8
0
  0
BLOCK
  8
0
  2
*D13
 70
    65
 10
0.0
 20
0.0
 30
0.0
  3
*D
  0
LINE
  8
0
  6
BYBLOCK
 62
     0
 10
27.382879
 20
5.844848
 30
0.0
 11
28.526204
 21
5.844848
 31
0.0
  0
LINE
  8
0
  6
BYBLOCK
 62
     0
 10
27.382879
 20
6.594848
 30
0.0
 11
28.526204
 21
6.594848
 31
0.0
  0
LINE
  8
0
  6
BYBLOCK
 62
     0
 10
28.340204
 20
5.484848
 30
0.0
 11
28.340204
 21
5.124848
 31
0.0
  0
LINE
  8
0
  6
BYBLOCK
 62
     0
 10
28.340204
 20
6.954848
 30
0.0
 11
28.340204
 21
7.314848
 31
0.0
  0
SOLID
  8
0
  6
BYBLOCK
 62
     0
 10
28.280204
 20
5.484848
 30
0.0
 11
28.400204
 21
5.484848
 31
0.0
 12
28.340204
 22
5.844848
 32
0.0
 13
28.340204
 23
5.844848
 33
0.0
  0
SOLID
  8
0
  6
BYBLOCK
 62
     0
 10
28.280204
 20
6.954848
 30
0.0
 11
28.400204
 21
6.954848
 31
0.0
 12
28.340204
 22
6.594848
 32
0.0
 13
28.340204
 23
6.594848
 33
0.0
  0
TEXT
  8
0
  6
BYBLOCK
 62
     0
 10
27.996454
 20
6.094848
 30
0.0
 40
0.25
  1
0.750
 41
0.75
 72
     1
 11
28.340204
 21
6.219848
 31
0.0
 73
     2
  0
POINT
  8
DEFPOINTS
  6
BYBLOCK
 62
     0
 10
27.257879
 20
5.844848
 30
0.0
  0
POINT
  8
DEFPOINTS
  6
BYBLOCK
 62
     0
 10
27.257879
 20
6.594848
 30
0.0
  0
POINT
  8
DEFPOINTS
  6
BYBLOCK
 62
     0
 10
28.340204
 20
6.594848
 30
0.0
  0
ENDBLK
  8
0
  0
BLOCK
  8
0
  2
*D14
 70
    65
 10
0.0
 20
0.0
 30
0.0
  3
*D
  0
LINE
  8
0
  6
BYBLOCK
 62
     0
 10
29.111536
 20
11.571263
 30
0.0
 11
30.341669
 21
11.571263
 31
0.0
  0
LINE
  8
0
  6
BYBLOCK
 62
     0
 10
29.486536
 20
12.524263
 30
0.0
 11
30.341669
 21
12.524263
 31
0.0
  0
LINE
  8
0
  6
BYBLOCK
 62
     0
 10
30.155669
 20
11.211263
 30
0.0
 11
30.155669
 21
10.851263
 31
0.0
  0
LINE
  8
0
  6
BYBLOCK
 62
     0
 10
30.155669
 20
12.884263
 30
0.0
 11
30.155669
 21
13.244263
 31
0.0
  0
SOLID
  8
0
  6
BYBLOCK
 62
     0
 10
30.095669
 20
11.211263
 30
0.0
 11
30.215669
 21
11.211263
 31
0.0
 12
30.155669
 22
11.571263
 32
0.0
 13
30.155669
 23
11.571263
 33
0.0
  0
SOLID
  8
0
  6
BYBLOCK
 62
     0
 10
30.095669
 20
12.884263
 30
0.0
 11
30.215669
 21
12.884263
 31
0.0
 12
30.155669
 22
12.524263
 32
0.0
 13
30.155669
 23
12.524263
 33
0.0
  0
TEXT
  8
0
  6
BYBLOCK
 62
     0
 10
29.796294
 20
11.922763
 30
0.0
 40
0.25
  1
0.953
 41
0.75
 72
     1
 11
30.155669
 21
12.047763
 31
0.0
 73
     2
  0
POINT
  8
DEFPOINTS
  6
BYBLOCK
 62
     0
 10
28.986536
 20
11.571263
 30
0.0
  0
POINT
  8
DEFPOINTS
  6
BYBLOCK
 62
     0
 10
29.361536
 20
12.524263
 30
0.0
  0
POINT
  8
DEFPOINTS
  6
BYBLOCK
 62
     0
 10
30.155669
 20
12.524263
 30
0.0
  0
ENDBLK
  8
0
  0
BLOCK
  8
0
  2
*D15
 70
    65
 10
0.0
 20
0.0
 30
0.0
  3
*D
  0
LINE
  8
0
  6
BYBLOCK
 62
     0
 10
11.807773
 20
13.011772
 30
0.0
 11
11.807773
 21
13.698905
 31
0.0
  0
LINE
  8
0
  6
BYBLOCK
 62
     0
 10
12.557773
 20
13.011772
 30
0.0
 11
12.557773
 21
13.698905
 31
0.0
  0
LINE
  8
0
  6
BYBLOCK
 62
     0
 10
11.447773
 20
13.512905
 30
0.0
 11
11.087773
 21
13.512905
 31
0.0
  0
LINE
  8
0
  6
BYBLOCK
 62
     0
 10
12.917773
 20
13.512905
 30
0.0
 11
13.277773
 21
13.512905
 31
0.0
  0
SOLID
  8
0
  6
BYBLOCK
 62
     0
 10
11.447773
 20
13.572905
 30
0.0
 11
11.447773
 21
13.452905
 31
0.0
 12
11.807773
 22
13.512905
 32
0.0
 13
11.807773
 23
13.512905
 33
0.0
  0
SOLID
  8
0
  6
BYBLOCK
 62
     0
 10
12.917773
 20
13.572905
 30
0.0
 11
12.917773
 21
13.452905
 31
0.0
 12
12.557773
 22
13.512905
 32
0.0
 13
12.557773
 23
13.512905
 33
0.0
  0
TEXT
  8
0
  6
BYBLOCK
 62
     0
 10
13.457773
 20
13.387905
 30
0.0
 40
0.25
  1
0.750
 41
0.75
 72
     1
 11
13.801523
 21
13.512905
 31
0.0
 73
     2
  0
POINT
  8
DEFPOINTS
  6
BYBLOCK
 62
     0
 10
11.807773
 20
12.886772
 30
0.0
  0
POINT
  8
DEFPOINTS
  6
BYBLOCK
 62
     0
 10
12.557773
 20
12.886772
 30
0.0
  0
POINT
  8
DEFPOINTS
  6
BYBLOCK
 62
     0
 10
12.557773
 20
13.512905
 30
0.0
  0
ENDBLK
  8
0
  0
BLOCK
  8
0
  2
*D16
 70
    65
 10
0.0
 20
0.0
 30
0.0
  3
*D
  0
LINE
  8
0
  6
BYBLOCK
 62
     0
 10
6.026773
 20
7.230772
 30
0.0
 11
5.27727
 21
7.230772
 31
0.0
  0
LINE
  8
0
  6
BYBLOCK
 62
     0
 10
6.026773
 20
6.480772
 30
0.0
 11
5.27727
 21
6.480772
 31
0.0
  0
LINE
  8
0
  6
BYBLOCK
 62
     0
 10
5.46327
 20
7.590772
 30
0.0
 11
5.46327
 21
7.950772
 31
0.0
  0
LINE
  8
0
  6
BYBLOCK
 62
     0
 10
5.46327
 20
6.120772
 30
0.0
 11
5.46327
 21
5.760772
 31
0.0
  0
SOLID
  8
0
  6
BYBLOCK
 62
     0
 10
5.40327
 20
7.590772
 30
0.0
 11
5.52327
 21
7.590772
 31
0.0
 12
5.46327
 22
7.230772
 32
0.0
 13
5.46327
 23
7.230772
 33
0.0
  0
SOLID
  8
0
  6
BYBLOCK
 62
     0
 10
5.40327
 20
6.120772
 30
0.0
 11
5.52327
 21
6.120772
 31
0.0
 12
5.46327
 22
6.480772
 32
0.0
 13
5.46327
 23
6.480772
 33
0.0
  0
TEXT
  8
0
  6
BYBLOCK
 62
     0
 10
5.11952
 20
6.730772
 30
0.0
 40
0.25
  1
0.750
 41
0.75
 72
     1
 11
5.46327
 21
6.855772
 31
0.0
 73
     2
  0
POINT
  8
DEFPOINTS
  6
BYBLOCK
 62
     0
 10
6.151773
 20
7.230772
 30
0.0
  0
POINT
  8
DEFPOINTS
  6
BYBLOCK
 62
     0
 10
6.151773
 20
6.480772
 30
0.0
  0
POINT
  8
DEFPOINTS
  6
BYBLOCK
 62
     0
 10
5.46327
 20
6.480772
 30
0.0
  0
ENDBLK
  8
0
  0
BLOCK
  8
0
  2
*D17
 70
    65
 10
0.0
 20
0.0
 30
0.0
  3
*D
  0
LINE
  8
0
  6
BYBLOCK
 62
     0
 10
12.557773
 20
7.105772
 30
0.0
 11
12.557773
 21
3.155089
 31
0.0
  0
LINE
  8
0
  6
BYBLOCK
 62
     0
 10
4.901773
 20
6.355772
 30
0.0
 11
4.901773
 21
3.155089
 31
0.0
  0
LINE
  8
0
  6
BYBLOCK
 62
     0
 10
12.197773
 20
3.341089
 30
0.0
 11
9.284773
 21
3.341089
 31
0.0
  0
LINE
  8
0
  6
BYBLOCK
 62
     0
 10
5.261773
 20
3.341089
 30
0.0
 11
8.174773
 21
3.341089
 31
0.0
  0
SOLID
  8
0
  6
BYBLOCK
 62
     0
 10
12.197773
 20
3.401089
 30
0.0
 11
12.197773
 21
3.281089
 31
0.0
 12
12.557773
 22
3.341089
 32
0.0
 13
12.557773
 23
3.341089
 33
0.0
  0
SOLID
  8
0
  6
BYBLOCK
 62
     0
 10
5.261773
 20
3.401089
 30
0.0
 11
5.261773
 21
3.281089
 31
0.0
 12
4.901773
 22
3.341089
 32
0.0
 13
4.901773
 23
3.341089
 33
0.0
  0
TEXT
  8
0
  6
BYBLOCK
 62
     0
 10
8.354773
 20
3.216089
 30
0.0
 40
0.25
  1
7.656
 41
0.75
 72
     1
 11
8.729773
 21
3.341089
 31
0.0
 73
     2
  0
POINT
  8
DEFPOINTS
  6
BYBLOCK
 62
     0
 10
12.557773
 20
7.230772
 30
0.0
  0
POINT
  8
DEFPOINTS
  6
BYBLOCK
 62
     0
 10
4.901773
 20
6.480772
 30
0.0
  0
POINT
  8
DEFPOINTS
  6
BYBLOCK
 62
     0
 10
4.901773
 20
3.341089
 30
0.0
  0
ENDBLK
  8
0
  0
BLOCK
  8
0
  2
*D18
 70
    65
 10
0.0
 20
0.0
 30
0.0
  3
*D
  0
LINE
  8
0
  6
BYBLOCK
 62
     0
 10
5.854773
 20
6.730772
 30
0.0
 11
5.854773
 21
3.735954
 31
0.0
  0
LINE
  8
0
  6
BYBLOCK
 62
     0
 10
10.854773
 20
6.730772
 30
0.0
 11
10.854773
 21
3.735954
 31
0.0
  0
LINE
  8
0
  6
BYBLOCK
 62
     0
 10
6.214773
 20
3.921954
 30
0.0
 11
7.846648
 21
3.921954
 31
0.0
  0
LINE
  8
0
  6
BYBLOCK
 62
     0
 10
10.494773
 20
3.921954
 30
0.0
 11
8.862898
 21
3.921954
 31
0.0
  0
SOLID
  8
0
  6
BYBLOCK
 62
     0
 10
6.214773
 20
3.981954
 30
0.0
 11
6.214773
 21
3.861954
 31
0.0
 12
5.854773
 22
3.921954
 32
0.0
 13
5.854773
 23
3.921954
 33
0.0
  0
SOLID
  8
0
  6
BYBLOCK
 62
     0
 10
10.494773
 20
3.981954
 30
0.0
 11
10.494773
 21
3.861954
 31
0.0
 12
10.854773
 22
3.921954
 32
0.0
 13
10.854773
 23
3.921954
 33
0.0
  0
TEXT
  8
0
  6
BYBLOCK
 62
     0
 10
8.026648
 20
3.796954
 30
0.0
 40
0.25
  1
5.000
 41
0.75
 72
     1
 11
8.354773
 21
3.921954
 31
0.0
 73
     2
  0
POINT
  8
DEFPOINTS
  6
BYBLOCK
 62
     0
 10
5.854773
 20
6.855772
 30
0.0
  0
POINT
  8
DEFPOINTS
  6
BYBLOCK
 62
     0
 10
10.854773
 20
6.855772
 30
0.0
  0
POINT
  8
DEFPOINTS
  6
BYBLOCK
 62
     0
 10
10.854773
 20
3.921954
 30
0.0
  0
ENDBLK
  8
0
  0
BLOCK
  8
0
  2
*D19
 70
    65
 10
0.0
 20
0.0
 30
0.0
  3
*D
  0
LINE
  8
0
  6
BYBLOCK
 62
     0
 10
4.026773
 20
6.480772
 30
0.0
 11
2.503358
 21
6.480772
 31
0.0
  0
LINE
  8
0
  6
BYBLOCK
 62
     0
 10
4.776773
 20
14.886772
 30
0.0
 11
2.503358
 21
14.886772
 31
0.0
  0
LINE
  8
0
  6
BYBLOCK
 62
     0
 10
2.689358
 20
6.840772
 30
0.0
 11
2.689358
 21
10.378772
 31
0.0
  0
LINE
  8
0
  6
BYBLOCK
 62
     0
 10
2.689358
 20
14.526772
 30
0.0
 11
2.689358
 21
10.988772
 31
0.0
  0
SOLID
  8
0
  6
BYBLOCK
 62
     0
 10
2.629358
 20
6.840772
 30
0.0
 11
2.749358
 21
6.840772
 31
0.0
 12
2.689358
 22
6.480772
 32
0.0
 13
2.689358
 23
6.480772
 33
0.0
  0
SOLID
  8
0
  6
BYBLOCK
 62
     0
 10
2.629358
 20
14.526772
 30
0.0
 11
2.749358
 21
14.526772
 31
0.0
 12
2.689358
 22
14.886772
 32
0.0
 13
2.689358
 23
14.886772
 33
0.0
  0
TEXT
  8
0
  6
BYBLOCK
 62
     0
 10
2.329983
 20
10.558772
 30
0.0
 40
0.25
  1
8.406
 41
0.75
 72
     1
 11
2.689358
 21
10.683772
 31
0.0
 73
     2
  0
POINT
  8
DEFPOINTS
  6
BYBLOCK
 62
     0
 10
4.151773
 20
6.480772
 30
0.0
  0
POINT
  8
DEFPOINTS
  6
BYBLOCK
 62
     0
 10
4.901773
 20
14.886772
 30
0.0
  0
POINT
  8
DEFPOINTS
  6
BYBLOCK
 62
     0
 10
2.689358
 20
14.886772
 30
0.0
  0
ENDBLK
  8
0
  0
BLOCK
  8
0
  2
*D20
 70
    65
 10
0.0
 20
0.0
 30
0.0
  3
*D
  0
LINE
  8
0
  6
BYBLOCK
 62
     0
 10
4.151773
 20
14.261772
 30
0.0
 11
4.151773
 21
16.293107
 31
0.0
  0
LINE
  8
0
  6
BYBLOCK
 62
     0
 10
12.557773
 20
15.011772
 30
0.0
 11
12.557773
 21
16.293107
 31
0.0
  0
LINE
  8
0
  6
BYBLOCK
 62
     0
 10
4.511773
 20
16.107107
 30
0.0
 11
7.815398
 21
16.107107
 31
0.0
  0
LINE
  8
0
  6
BYBLOCK
 62
     0
 10
12.197773
 20
16.107107
 30
0.0
 11
8.894148
 21
16.107107
 31
0.0
  0
SOLID
  8
0
  6
BYBLOCK
 62
     0
 10
4.511773
 20
16.167107
 30
0.0
 11
4.511773
 21
16.047107
 31
0.0
 12
4.151773
 22
16.107107
 32
0.0
 13
4.151773
 23
16.107107
 33
0.0
  0
SOLID
  8
0
  6
BYBLOCK
 62
     0
 10
12.197773
 20
16.167107
 30
0.0
 11
12.197773
 21
16.047107
 31
0.0
 12
12.557773
 22
16.107107
 32
0.0
 13
12.557773
 23
16.107107
 33
0.0
  0
TEXT
  8
0
  6
BYBLOCK
 62
     0
 10
7.995398
 20
15.982107
 30
0.0
 40
0.25
  1
8.406
 41
0.75
 72
     1
 11
8.354773
 21
16.107107
 31
0.0
 73
     2
  0
POINT
  8
DEFPOINTS
  6
BYBLOCK
 62
     0
 10
4.151773
 20
14.136772
 30
0.0
  0
POINT
  8
DEFPOINTS
  6
BYBLOCK
 62
     0
 10
12.557773
 20
14.886772
 30
0.0
  0
POINT
  8
DEFPOINTS
  6
BYBLOCK
 62
     0
 10
12.557773
 20
16.107107
 30
0.0
  0
ENDBLK
  8
0
  0
BLOCK
  8
0
  2
*D21
 70
    65
 10
0.0
 20
0.0
 30
0.0
  3
*D
  0
LINE
  8
0
  6
BYBLOCK
 62
     0
 10
28.486536
 20
14.136772
 30
0.0
 11
27.784351
 21
14.136772
 31
0.0
  0
LINE
  8
0
  6
BYBLOCK
 62
     0
 10
28.486536
 20
7.136772
 30
0.0
 11
27.784351
 21
7.136772
 31
0.0
  0
LINE
  8
0
  6
BYBLOCK
 62
     0
 10
27.970351
 20
13.776772
 30
0.0
 11
27.970351
 21
10.941772
 31
0.0
  0
LINE
  8
0
  6
BYBLOCK
 62
     0
 10
27.970351
 20
7.496772
 30
0.0
 11
27.970351
 21
10.331772
 31
0.0
  0
SOLID
  8
0
  6
BYBLOCK
 62
     0
 10
27.910351
 20
13.776772
 30
0.0
 11
28.030351
 21
13.776772
 31
0.0
 12
27.970351
 22
14.136772
 32
0.0
 13
27.970351
 23
14.136772
 33
0.0
  0
SOLID
  8
0
  6
BYBLOCK
 62
     0
 10
27.910351
 20
7.496772
 30
0.0
 11
28.030351
 21
7.496772
 31
0.0
 12
27.970351
 22
7.136772
 32
0.0
 13
27.970351
 23
7.136772
 33
0.0
  0
TEXT
  8
0
  6
BYBLOCK
 62
     0
 10
27.642226
 20
10.511772
 30
0.0
 40
0.25
  1
7.000
 41
0.75
 72
     1
 11
27.970351
 21
10.636772
 31
0.0
 73
     2
  0
POINT
  8
DEFPOINTS
  6
BYBLOCK
 62
     0
 10
28.611536
 20
14.136772
 30
0.0
  0
POINT
  8
DEFPOINTS
  6
BYBLOCK
 62
     0
 10
28.611536
 20
7.136772
 30
0.0
  0
POINT
  8
DEFPOINTS
  6
BYBLOCK
 62
     0
 10
27.970351
 20
7.136772
 30
0.0
  0
ENDBLK
  8
0
  0
BLOCK
  8
0
  2
*D22
 70
    65
 10
0.0
 20
0.0
 30
0.0
  3
*D
  0
LINE
  8
0
  6
BYBLOCK
 62
     0
 10
11.932773
 20
6.480772
 30
0.0
 11
17.446224
 21
6.480772
 31
0.0
  0
LINE
  8
0
  6
BYBLOCK
 62
     0
 10
12.682773
 20
14.136772
 30
0.0
 11
17.446224
 21
14.136772
 31
0.0
  0
LINE
  8
0
  6
BYBLOCK
 62
     0
 10
17.260224
 20
6.840772
 30
0.0
 11
17.260224
 21
10.003772
 31
0.0
  0
LINE
  8
0
  6
BYBLOCK
 62
     0
 10
17.260224
 20
13.776772
 30
0.0
 11
17.260224
 21
10.613772
 31
0.0
  0
SOLID
  8
0
  6
BYBLOCK
 62
     0
 10
17.200224
 20
6.840772
 30
0.0
 11
17.320224
 21
6.840772
 31
0.0
 12
17.260224
 22
6.480772
 32
0.0
 13
17.260224
 23
6.480772
 33
0.0
  0
SOLID
  8
0
  6
BYBLOCK
 62
     0
 10
17.200224
 20
13.776772
 30
0.0
 11
17.320224
 21
13.776772
 31
0.0
 12
17.260224
 22
14.136772
 32
0.0
 13
17.260224
 23
14.136772
 33
0.0
  0
TEXT
  8
0
  6
BYBLOCK
 62
     0
 10
16.885224
 20
10.183772
 30
0.0
 40
0.25
  1
7.656
 41
0.75
 72
     1
 11
17.260224
 21
10.308772
 31
0.0
 73
     2
  0
POINT
  8
DEFPOINTS
  6
BYBLOCK
 62
     0
 10
11.807773
 20
6.480772
 30
0.0
  0
POINT
  8
DEFPOINTS
  6
BYBLOCK
 62
     0
 10
12.557773
 20
14.136772
 30
0.0
  0
POINT
  8
DEFPOINTS
  6
BYBLOCK
 62
     0
 10
17.260224
 20
14.136772
 30
0.0
  0
ENDBLK
  8
0
  0
BLOCK
  8
0
  2
*D23
 70
    65
 10
0.0
 20
0.0
 30
0.0
  3
*D
  0
LINE
  8
0
  6
BYBLOCK
 62
     0
 10
12.307773
 20
13.183772
 30
0.0
 11
16.41308
 21
13.183772
 31
0.0
  0
LINE
  8
0
  6
BYBLOCK
 62
     0
 10
12.307773
 20
8.183772
 30
0.0
 11
16.41308
 21
8.183772
 31
0.0
  0
LINE
  8
0
  6
BYBLOCK
 62
     0
 10
16.22708
 20
12.823772
 30
0.0
 11
16.22708
 21
10.988772
 31
0.0
  0
LINE
  8
0
  6
BYBLOCK
 62
     0
 10
16.22708
 20
8.543772
 30
0.0
 11
16.22708
 21
10.378772
 31
0.0
  0
SOLID
  8
0
  6
BYBLOCK
 62
     0
 10
16.16708
 20
12.823772
 30
0.0
 11
16.28708
 21
12.823772
 31
0.0
 12
16.22708
 22
13.183772
 32
0.0
 13
16.22708
 23
13.183772
 33
0.0
  0
SOLID
  8
0
  6
BYBLOCK
 62
     0
 10
16.16708
 20
8.543772
 30
0.0
 11
16.28708
 21
8.543772
 31
0.0
 12
16.22708
 22
8.183772
 32
0.0
 13
16.22708
 23
8.183772
 33
0.0
  0
TEXT
  8
0
  6
BYBLOCK
 62
     0
 10
15.898955
 20
10.558772
 30
0.0
 40
0.25
  1
5.000
 41
0.75
 72
     1
 11
16.22708
 21
10.683772
 31
0.0
 73
     2
  0
POINT
  8
DEFPOINTS
  6
BYBLOCK
 62
     0
 10
12.182773
 20
13.183772
 30
0.0
  0
POINT
  8
DEFPOINTS
  6
BYBLOCK
 62
     0
 10
12.182773
 20
8.183772
 30
0.0
  0
POINT
  8
DEFPOINTS
  6
BYBLOCK
 62
     0
 10
16.22708
 20
8.183772
 30
0.0
  0
ENDBLK
  8
0
  0
BLOCK
  8
0
  2
*D24
 70
    65
 10
0.0
 20
0.0
 30
0.0
  3
*D
  0
LINE
  8
0
  6
BYBLOCK
 62
     0
 10
21.210879
 20
5.707357
 30
0.0
 11
21.210879
 21
4.709123
 31
0.0
  0
LINE
  8
0
  6
BYBLOCK
 62
     0
 10
20.257879
 20
5.332357
 30
0.0
 11
20.257879
 21
4.709123
 31
0.0
  0
LINE
  8
0
  6
BYBLOCK
 62
     0
 10
21.570879
 20
4.895123
 30
0.0
 11
21.930879
 21
4.895123
 31
0.0
  0
LINE
  8
0
  6
BYBLOCK
 62
     0
 10
19.897879
 20
4.895123
 30
0.0
 11
19.537879
 21
4.895123
 31
0.0
  0
SOLID
  8
0
  6
BYBLOCK
 62
     0
 10
21.570879
 20
4.955123
 30
0.0
 11
21.570879
 21
4.835123
 31
0.0
 12
21.210879
 22
4.895123
 32
0.0
 13
21.210879
 23
4.895123
 33
0.0
  0
SOLID
  8
0
  6
BYBLOCK
 62
     0
 10
19.897879
 20
4.955123
 30
0.0
 11
19.897879
 21
4.835123
 31
0.0
 12
20.257879
 22
4.895123
 32
0.0
 13
20.257879
 23
4.895123
 33
0.0
  0
TEXT
  8
0
  6
BYBLOCK
 62
     0
 10
20.375004
 20
4.770123
 30
0.0
 40
0.25
  1
0.953
 41
0.75
 72
     1
 11
20.734379
 21
4.895123
 31
0.0
 73
     2
  0
POINT
  8
DEFPOINTS
  6
BYBLOCK
 62
     0
 10
21.210879
 20
5.832357
 30
0.0
  0
POINT
  8
DEFPOINTS
  6
BYBLOCK
 62
     0
 10
20.257879
 20
5.457357
 30
0.0
  0
POINT
  8
DEFPOINTS
  6
BYBLOCK
 62
     0
 10
20.257879
 20
4.895123
 30
0.0
  0
ENDBLK
  8
0
  0
BLOCK
  8
0
  2
*D25
 70
    65
 10
0.0
 20
0.0
 30
0.0
  3
*D
  0
LINE
  8
0
  6
BYBLOCK
 62
     0
 10
27.257879
 20
6.332357
 30
0.0
 11
27.257879
 21
6.892152
 31
0.0
  0
LINE
  8
0
  6
BYBLOCK
 62
     0
 10
20.257879
 20
6.332357
 30
0.0
 11
20.257879
 21
6.892152
 31
0.0
  0
LINE
  8
0
  6
BYBLOCK
 62
     0
 10
26.897879
 20
6.706152
 30
0.0
 11
24.266004
 21
6.706152
 31
0.0
  0
LINE
  8
0
  6
BYBLOCK
 62
     0
 10
20.617879
 20
6.706152
 30
0.0
 11
23.249754
 21
6.706152
 31
0.0
  0
SOLID
  8
0
  6
BYBLOCK
 62
     0
 10
26.897879
 20
6.766152
 30
0.0
 11
26.897879
 21
6.646152
 31
0.0
 12
27.257879
 22
6.706152
 32
0.0
 13
27.257879
 23
6.706152
 33
0.0
  0
SOLID
  8
0
  6
BYBLOCK
 62
     0
 10
20.617879
 20
6.766152
 30
0.0
 11
20.617879
 21
6.646152
 31
0.0
 12
20.257879
 22
6.706152
 32
0.0
 13
20.257879
 23
6.706152
 33
0.0
  0
TEXT
  8
0
  6
BYBLOCK
 62
     0
 10
23.429754
 20
6.581152
 30
0.0
 40
0.25
  1
7.000
 41
0.75
 72
     1
 11
23.757879
 21
6.706152
 31
0.0
 73
     2
  0
POINT
  8
DEFPOINTS
  6
BYBLOCK
 62
     0
 10
27.257879
 20
6.207357
 30
0.0
  0
POINT
  8
DEFPOINTS
  6
BYBLOCK
 62
     0
 10
20.257879
 20
6.207357
 30
0.0
  0
POINT
  8
DEFPOINTS
  6
BYBLOCK
 62
     0
 10
20.257879
 20
6.706152
 30
0.0
  0
ENDBLK
  8
0
  0
BLOCK
  8
0
  2
*D26
 70
    65
 10
0.0
 20
0.0
 30
0.0
  3
*D
  0
LINE
  8
0
  6
BYBLOCK
 62
     0
 10
-0.688102
 20
26.753433
 30
0.0
 11
-1.918235
 21
26.753433
 31
0.0
  0
LINE
  8
0
  6
BYBLOCK
 62
     0
 10
-1.063102
 20
27.706433
 30
0.0
 11
-1.918235
 21
27.706433
 31
0.0
  0
LINE
  8
0
  6
BYBLOCK
 62
     0
 10
-1.732235
 20
26.393433
 30
0.0
 11
-1.732235
 21
26.033433
 31
0.0
  0
LINE
  8
0
  6
BYBLOCK
 62
     0
 10
-1.732235
 20
28.066433
 30
0.0
 11
-1.732235
 21
28.426433
 31
0.0
  0
SOLID
  8
0
  6
BYBLOCK
 62
     0
 10
-1.792235
 20
26.393433
 30
0.0
 11
-1.672235
 21
26.393433
 31
0.0
 12
-1.732235
 22
26.753433
 32
0.0
 13
-1.732235
 23
26.753433
 33
0.0
  0
SOLID
  8
0
  6
BYBLOCK
 62
     0
 10
-1.792235
 20
28.066433
 30
0.0
 11
-1.672235
 21
28.066433
 31
0.0
 12
-1.732235
 22
27.706433
 32
0.0
 13
-1.732235
 23
27.706433
 33
0.0
  0
TEXT
  8
0
  6
BYBLOCK
 62
     0
 10
-2.09161
 20
27.104933
 30
0.0
 40
0.25
  1
0.953
 41
0.75
 72
     1
 11
-1.732235
 21
27.229933
 31
0.0
 73
     2
  0
POINT
  8
DEFPOINTS
  6
BYBLOCK
 62
     0
 10
-0.563102
 20
26.753433
 30
0.0
  0
POINT
  8
DEFPOINTS
  6
BYBLOCK
 62
     0
 10
-0.938102
 20
27.706433
 30
0.0
  0
POINT
  8
DEFPOINTS
  6
BYBLOCK
 62
     0
 10
-1.732235
 20
27.706433
 30
0.0
  0
ENDBLK
  8
0
  0
BLOCK
  8
0
  2
*D27
 70
    65
 10
0.0
 20
0.0
 30
0.0
  3
*D
  0
LINE
  8
0
  6
BYBLOCK
 62
     0
 10
7.338555
 20
17.693836
 30
0.0
 11
9.241632
 21
17.693836
 31
0.0
  0
LINE
  8
0
  6
BYBLOCK
 62
     0
 10
8.291555
 20
18.068836
 30
0.0
 11
9.241632
 21
18.068836
 31
0.0
  0
LINE
  8
0
  6
BYBLOCK
 62
     0
 10
9.055632
 20
17.333836
 30
0.0
 11
9.055632
 21
16.973836
 31
0.0
  0
LINE
  8
0
  6
BYBLOCK
 62
     0
 10
9.055632
 20
18.428836
 30
0.0
 11
9.055632
 21
18.788836
 31
0.0
  0
LINE
  8
0
  6
BYBLOCK
 62
     0
 10
9.055632
 20
18.788836
 30
0.0
 11
9.415632
 21
18.788836
 31
0.0
  0
SOLID
  8
0
  6
BYBLOCK
 62
     0
 10
8.995632
 20
17.333836
 30
0.0
 11
9.115632
 21
17.333836
 31
0.0
 12
9.055632
 22
17.693836
 32
0.0
 13
9.055632
 23
17.693836
 33
0.0
  0
SOLID
  8
0
  6
BYBLOCK
 62
     0
 10
8.995632
 20
18.428836
 30
0.0
 11
9.115632
 21
18.428836
 31
0.0
 12
9.055632
 22
18.068836
 32
0.0
 13
9.055632
 23
18.068836
 33
0.0
  0
TEXT
  8
0
  6
BYBLOCK
 62
     0
 10
9.595632
 20
18.663836
 30
0.0
 40
0.25
  1
0.375
 41
0.75
 72
     1
 11
9.955007
 21
18.788836
 31
0.0
 73
     2
  0
POINT
  8
DEFPOINTS
  6
BYBLOCK
 62
     0
 10
7.212555
 20
17.693836
 30
0.0
  0
POINT
  8
DEFPOINTS
  6
BYBLOCK
 62
     0
 10
8.165555
 20
18.068836
 30
0.0
  0
POINT
  8
DEFPOINTS
  6
BYBLOCK
 62
     0
 10
9.055632
 20
18.068836
 30
0.0
  0
ENDBLK
  8
0
  0
BLOCK
  8
0
  2
*D28
 70
    65
 10
0.0
 20
0.0
 30
0.0
  3
*D
  0
LINE
  8
0
  6
BYBLOCK
 62
     0
 10
12.082049
 20
26.753433
 30
0.0
 11
10.852916
 21
26.753433
 31
0.0
  0
LINE
  8
0
  6
BYBLOCK
 62
     0
 10
12.082049
 20
21.753433
 30
0.0
 11
10.852916
 21
21.753433
 31
0.0
  0
LINE
  8
0
  6
BYBLOCK
 62
     0
 10
11.038916
 20
26.393433
 30
0.0
 11
11.038916
 21
24.558433
 31
0.0
  0
LINE
  8
0
  6
BYBLOCK
 62
     0
 10
11.038916
 20
22.113433
 30
0.0
 11
11.038916
 21
23.948433
 31
0.0
  0
SOLID
  8
0
  6
BYBLOCK
 62
     0
 10
10.978916
 20
26.393433
 30
0.0
 11
11.098916
 21
26.393433
 31
0.0
 12
11.038916
 22
26.753433
 32
0.0
 13
11.038916
 23
26.753433
 33
0.0
  0
SOLID
  8
0
  6
BYBLOCK
 62
     0
 10
10.978916
 20
22.113433
 30
0.0
 11
11.098916
 21
22.113433
 31
0.0
 12
11.038916
 22
21.753433
 32
0.0
 13
11.038916
 23
21.753433
 33
0.0
  0
TEXT
  8
0
  6
BYBLOCK
 62
     0
 10
10.976416
 20
24.128433
 30
0.0
 40
0.25
  1
D
 41
0.75
 72
     1
 11
11.038916
 21
24.253433
 31
0.0
 73
     2
  0
POINT
  8
DEFPOINTS
  6
BYBLOCK
 62
     0
 10
12.208049
 20
26.753433
 30
0.0
  0
POINT
  8
DEFPOINTS
  6
BYBLOCK
 62
     0
 10
12.208049
 20
21.753433
 30
0.0
  0
POINT
  8
DEFPOINTS
  6
BYBLOCK
 62
     0
 10
11.038916
 20
21.753433
 30
0.0
  0
ENDBLK
  8
0
  0
BLOCK
  8
0
  2
*D29
 70
    65
 10
0.0
 20
0.0
 30
0.0
  3
*D
  0
LINE
  8
0
  6
BYBLOCK
 62
     0
 10
2.2402
 20
21.369552
 30
0.0
 11
2.2402
 21
20.472633
 31
0.0
  0
LINE
  8
0
  6
BYBLOCK
 62
     0
 10
9.2402
 20
21.275552
 30
0.0
 11
9.2402
 21
20.472633
 31
0.0
  0
LINE
  8
0
  6
BYBLOCK
 62
     0
 10
2.6002
 20
20.658633
 30
0.0
 11
5.4977
 21
20.658633
 31
0.0
  0
LINE
  8
0
  6
BYBLOCK
 62
     0
 10
8.8802
 20
20.658633
 30
0.0
 11
5.9827
 21
20.658633
 31
0.0
  0
SOLID
  8
0
  6
BYBLOCK
 62
     0
 10
2.6002
 20
20.718633
 30
0.0
 11
2.6002
 21
20.598633
 31
0.0
 12
2.2402
 22
20.658633
 32
0.0
 13
2.2402
 23
20.658633
 33
0.0
  0
SOLID
  8
0
  6
BYBLOCK
 62
     0
 10
8.8802
 20
20.718633
 30
0.0
 11
8.8802
 21
20.598633
 31
0.0
 12
9.2402
 22
20.658633
 32
0.0
 13
9.2402
 23
20.658633
 33
0.0
  0
TEXT
  8
0
  6
BYBLOCK
 62
     0
 10
5.6777
 20
20.533633
 30
0.0
 40
0.25
  1
A
 41
0.75
 72
     1
 11
5.7402
 21
20.658633
 31
0.0
 73
     2
  0
POINT
  8
DEFPOINTS
  6
BYBLOCK
 62
     0
 10
2.2402
 20
21.495552
 30
0.0
  0
POINT
  8
DEFPOINTS
  6
BYBLOCK
 62
     0
 10
9.2402
 20
21.401552
 30
0.0
  0
POINT
  8
DEFPOINTS
  6
BYBLOCK
 62
     0
 10
9.2402
 20
20.658633
 30
0.0
  0
ENDBLK
  8
0
  0
BLOCK
  8
0
  2
*D30
 70
    65
 10
0.0
 20
0.0
 30
0.0
  3
*D
  0
LINE
  8
0
  6
BYBLOCK
 62
     0
 10
13.282695
 20
22.322552
 30
0.0
 11
13.282695
 21
20.472633
 31
0.0
  0
LINE
  8
0
  6
BYBLOCK
 62
     0
 10
12.907695
 20
21.275552
 30
0.0
 11
12.907695
 21
20.472633
 31
0.0
  0
LINE
  8
0
  6
BYBLOCK
 62
     0
 10
13.642695
 20
20.658633
 30
0.0
 11
14.002695
 21
20.658633
 31
0.0
  0
LINE
  8
0
  6
BYBLOCK
 62
     0
 10
12.547695
 20
20.658633
 30
0.0
 11
12.187695
 21
20.658633
 31
0.0
  0
SOLID
  8
0
  6
BYBLOCK
 62
     0
 10
13.642695
 20
20.718633
 30
0.0
 11
13.642695
 21
20.598633
 31
0.0
 12
13.282695
 22
20.658633
 32
0.0
 13
13.282695
 23
20.658633
 33
0.0
  0
SOLID
  8
0
  6
BYBLOCK
 62
     0
 10
12.547695
 20
20.718633
 30
0.0
 11
12.547695
 21
20.598633
 31
0.0
 12
12.907695
 22
20.658633
 32
0.0
 13
12.907695
 23
20.658633
 33
0.0
  0
TEXT
  8
0
  6
BYBLOCK
 62
     0
 10
11.288945
 20
20.533633
 30
0.0
 40
0.25
  1
0.375
 41
0.75
 72
     1
 11
11.64832
 21
20.658633
 31
0.0
 73
     2
  0
POINT
  8
DEFPOINTS
  6
BYBLOCK
 62
     0
 10
13.282695
 20
22.448552
 30
0.0
  0
POINT
  8
DEFPOINTS
  6
BYBLOCK
 62
     0
 10
12.907695
 20
21.401552
 30
0.0
  0
POINT
  8
DEFPOINTS
  6
BYBLOCK
 62
     0
 10
12.907695
 20
20.658633
 30
0.0
  0
ENDBLK
  8
0
  0
BLOCK
  8
0
  2
*D31
 70
    65
 10
0.0
 20
0.0
 30
0.0
  3
*D
  0
LINE
  8
0
  6
BYBLOCK
 62
     0
 10
12.781695
 20
21.401552
 30
0.0
 11
11.068668
 21
21.401552
 31
0.0
  0
LINE
  8
0
  6
BYBLOCK
 62
     0
 10
12.781695
 20
28.401552
 30
0.0
 11
11.068668
 21
28.401552
 31
0.0
  0
LINE
  8
0
  6
BYBLOCK
 62
     0
 10
11.254668
 20
21.761552
 30
0.0
 11
11.254668
 21
24.596552
 31
0.0
  0
LINE
  8
0
  6
BYBLOCK
 62
     0
 10
11.254668
 20
28.041552
 30
0.0
 11
11.254668
 21
25.206552
 31
0.0
  0
SOLID
  8
0
  6
BYBLOCK
 62
     0
 10
11.194668
 20
21.761552
 30
0.0
 11
11.314668
 21
21.761552
 31
0.0
 12
11.254668
 22
21.401552
 32
0.0
 13
11.254668
 23
21.401552
 33
0.0
  0
SOLID
  8
0
  6
BYBLOCK
 62
     0
 10
11.194668
 20
28.041552
 30
0.0
 11
11.314668
 21
28.041552
 31
0.0
 12
11.254668
 22
28.401552
 32
0.0
 13
11.254668
 23
28.401552
 33
0.0
  0
TEXT
  8
0
  6
BYBLOCK
 62
     0
 10
11.192168
 20
24.776552
 30
0.0
 40
0.25
  1
B
 41
0.75
 72
     1
 11
11.254668
 21
24.901552
 31
0.0
 73
     2
  0
POINT
  8
DEFPOINTS
  6
BYBLOCK
 62
     0
 10
12.907695
 20
21.401552
 30
0.0
  0
POINT
  8
DEFPOINTS
  6
BYBLOCK
 62
     0
 10
12.907695
 20
28.401552
 30
0.0
  0
POINT
  8
DEFPOINTS
  6
BYBLOCK
 62
     0
 10
11.254668
 20
28.401552
 30
0.0
  0
ENDBLK
  8
0
  0
BLOCK
  8
0
  2
*D32
 70
    65
 10
0.0
 20
0.0
 30
0.0
  3
*D
  0
LINE
  8
0
  6
BYBLOCK
 62
     0
 10
3.2872
 20
18.262955
 30
0.0
 11
3.2872
 21
17.018872
 31
0.0
  0
LINE
  8
0
  6
BYBLOCK
 62
     0
 10
8.2872
 20
18.262955
 30
0.0
 11
8.2872
 21
17.018872
 31
0.0
  0
LINE
  8
0
  6
BYBLOCK
 62
     0
 10
3.6472
 20
17.204872
 30
0.0
 11
5.5447
 21
17.204872
 31
0.0
  0
LINE
  8
0
  6
BYBLOCK
 62
     0
 10
7.9272
 20
17.204872
 30
0.0
 11
6.0297
 21
17.204872
 31
0.0
  0
SOLID
  8
0
  6
BYBLOCK
 62
     0
 10
3.6472
 20
17.264872
 30
0.0
 11
3.6472
 21
17.144872
 31
0.0
 12
3.2872
 22
17.204872
 32
0.0
 13
3.2872
 23
17.204872
 33
0.0
  0
SOLID
  8
0
  6
BYBLOCK
 62
     0
 10
7.9272
 20
17.264872
 30
0.0
 11
7.9272
 21
17.144872
 31
0.0
 12
8.2872
 22
17.204872
 32
0.0
 13
8.2872
 23
17.204872
 33
0.0
  0
TEXT
  8
0
  6
BYBLOCK
 62
     0
 10
5.7247
 20
17.079872
 30
0.0
 40
0.25
  1
C
 41
0.75
 72
     1
 11
5.7872
 21
17.204872
 31
0.0
 73
     2
  0
POINT
  8
DEFPOINTS
  6
BYBLOCK
 62
     0
 10
3.2872
 20
18.388955
 30
0.0
  0
POINT
  8
DEFPOINTS
  6
BYBLOCK
 62
     0
 10
8.2872
 20
18.388955
 30
0.0
  0
POINT
  8
DEFPOINTS
  6
BYBLOCK
 62
     0
 10
8.2872
 20
17.204872
 30
0.0
  0
ENDBLK
  8
0
  0
BLOCK
  8
0
  2
*D33
 70
    65
 10
0.0
 20
0.0
 30
0.0
  3
*D
  0
LINE
  8
0
  6
BYBLOCK
 62
     0
 10
8.2872
 20
18.262955
 30
0.0
 11
8.2872
 21
17.018872
 31
0.0
  0
LINE
  8
0
  6
BYBLOCK
 62
     0
 10
9.2402
 20
17.887955
 30
0.0
 11
9.2402
 21
17.018872
 31
0.0
  0
LINE
  8
0
  6
BYBLOCK
 62
     0
 10
7.9272
 20
17.204872
 30
0.0
 11
7.5672
 21
17.204872
 31
0.0
  0
LINE
  8
0
  6
BYBLOCK
 62
     0
 10
9.6002
 20
17.204872
 30
0.0
 11
9.9602
 21
17.204872
 31
0.0
  0
SOLID
  8
0
  6
BYBLOCK
 62
     0
 10
7.9272
 20
17.264872
 30
0.0
 11
7.9272
 21
17.144872
 31
0.0
 12
8.2872
 22
17.204872
 32
0.0
 13
8.2872
 23
17.204872
 33
0.0
  0
SOLID
  8
0
  6
BYBLOCK
 62
     0
 10
9.6002
 20
17.264872
 30
0.0
 11
9.6002
 21
17.144872
 31
0.0
 12
9.2402
 22
17.204872
 32
0.0
 13
9.2402
 23
17.204872
 33
0.0
  0
TEXT
  8
0
  6
BYBLOCK
 62
     0
 10
8.404325
 20
17.079872
 30
0.0
 40
0.25
  1
0.953
 41
0.75
 72
     1
 11
8.7637
 21
17.204872
 31
0.0
 73
     2
  0
POINT
  8
DEFPOINTS
  6
BYBLOCK
 62
     0
 10
8.2872
 20
18.388955
 30
0.0
  0
POINT
  8
DEFPOINTS
  6
BYBLOCK
 62
     0
 10
9.2402
 20
18.013955
 30
0.0
  0
POINT
  8
DEFPOINTS
  6
BYBLOCK
 62
     0
 10
9.2402
 20
17.204872
 30
0.0
  0
ENDBLK
  8
0
  0
BLOCK
  8
0
  2
*D34
 70
    65
 10
0.0
 20
0.0
 30
0.0
  3
*D
  0
ARC
  8
0
  6
BYBLOCK
 62
     0
 10
9.610892
 20
22.148361
 30
0.0
 40
3.350495
 50
141.159214
 51
151.724299
  0
ARC
  8
0
  6
BYBLOCK
 62
     0
 10
9.610892
 20
22.148361
 30
0.0
 40
3.350495
 50
163.043109
 51
173.840786
  0
SOLID
  8
0
  6
BYBLOCK
 62
     0
 10
6.956575
 20
24.289738
 30
0.0
 11
7.045864
 21
24.209567
 31
0.0
 12
7.241735
 22
24.517519
 32
0.0
 13
7.241735
 23
24.517519
 33
0.0
  0
SOLID
  8
0
  6
BYBLOCK
 62
     0
 10
6.339651
 20
22.504618
 30
0.0
 11
6.219825
 21
22.511065
 31
0.0
 12
6.260398
 22
22.148361
 32
0.0
 13
6.260398
 23
22.148361
 33
0.0
  0
TEXT
  8
0
  6
BYBLOCK
 62
     0
 10
6.296689
 20
23.30554
 30
0.0
 40
0.25
  1
45%%d
 41
0.75
 72
     1
 11
6.515439
 21
23.43054
 31
0.0
 73
     2
  0
POINT
  8
DEFPOINTS
  6
BYBLOCK
 62
     0
 10
6.712522
 20
23.829213
 30
0.0
  0
POINT
  8
DEFPOINTS
  6
BYBLOCK
 62
     0
 10
9.516892
 20
22.148361
 30
0.0
  0
POINT
  8
DEFPOINTS
  6
BYBLOCK
 62
     0
 10
9.516892
 20
22.242361
 30
0.0
  0
POINT
  8
DEFPOINTS
  6
BYBLOCK
 62
     0
 10
2.610892
 20
29.148361
 30
0.0
  0
POINT
  8
DEFPOINTS
  6
BYBLOCK
 62
     0
 10
2.610892
 20
22.148361
 30
0.0
  0
ENDBLK
  8
0
  0
BLOCK
  8
0
  2
*D35
 70
    65
 10
0.0
 20
0.0
 30
0.0
  3
*D
  0
LINE
  8
0
  6
BYBLOCK
 62
     0
 10
12.347255
 20
22.064235
 30
0.0
 11
12.347255
 21
20.653726
 31
0.0
  0
LINE
  8
0
  6
BYBLOCK
 62
     0
 10
11.597255
 20
22.064235
 30
0.0
 11
11.597255
 21
20.653726
 31
0.0
  0
LINE
  8
0
  6
BYBLOCK
 62
     0
 10
12.707255
 20
20.839726
 30
0.0
 11
13.067255
 21
20.839726
 31
0.0
  0
LINE
  8
0
  6
BYBLOCK
 62
     0
 10
11.237255
 20
20.839726
 30
0.0
 11
10.877255
 21
20.839726
 31
0.0
  0
SOLID
  8
0
  6
BYBLOCK
 62
     0
 10
12.707255
 20
20.899726
 30
0.0
 11
12.707255
 21
20.779726
 31
0.0
 12
12.347255
 22
20.839726
 32
0.0
 13
12.347255
 23
20.839726
 33
0.0
  0
SOLID
  8
0
  6
BYBLOCK
 62
     0
 10
11.237255
 20
20.899726
 30
0.0
 11
11.237255
 21
20.779726
 31
0.0
 12
11.597255
 22
20.839726
 32
0.0
 13
11.597255
 23
20.839726
 33
0.0
  0
TEXT
  8
0
  6
BYBLOCK
 62
     0
 10
10.009755
 20
20.714726
 30
0.0
 40
0.25
  1
0.750
 41
0.75
 72
     1
 11
10.353505
 21
20.839726
 31
0.0
 73
     2
  0
POINT
  8
DEFPOINTS
  6
BYBLOCK
 62
     0
 10
12.347255
 20
22.190235
 30
0.0
  0
POINT
  8
DEFPOINTS
  6
BYBLOCK
 62
     0
 10
11.597255
 20
22.190235
 30
0.0
  0
POINT
  8
DEFPOINTS
  6
BYBLOCK
 62
     0
 10
11.597255
 20
20.839726
 30
0.0
  0
ENDBLK
  8
0
  0
ENDSEC
  0
SECTION
  2
ENTITIES
  0
TEXT
  8
TEXT
 10
0.415667
 20
30.120158
 30
0.0
 40
0.25
  1
NAME
 72
     1
 11
0.874
 21
30.120158
 31
0.0
  0
TEXT
  8
TEXT
 10
0.415667
 20
30.536825
 30
0.0
 40
0.25
  1
PART
 72
     1
 11
0.874
 21
30.536825
 31
0.0
  0
TEXT
  8
TEXT
 10
10.744
 20
30.120158
 30
0.0
 40
0.25
  1
No.
 72
     1
 11
10.994
 21
30.120158
 31
0.0
  0
TEXT
  8
TEXT
 10
10.535667
 20
30.536825
 30
0.0
 40
0.25
  1
PART
 72
     1
 11
10.994
 21
30.536825
 31
0.0
  0
LINE
  8
TITLE
 10
11.744
 20
30.876
 30
0.0
 11
11.744
 21
30.04
 31
0.0
  0
LINE
  8
TITLE
 10
10.244
 20
30.876
 30
0.0
 11
10.244
 21
30.04
 31
0.0
  0
LINE
  8
TITLE
 10
10.12
 20
30.876
 30
0.0
 11
10.12
 21
30.04
 31
0.0
  0
LINE
  8
TITLE
 10
1.624
 20
30.04
 30
0.0
 11
1.624
 21
30.876
 31
0.0
  0
LINE
  8
TITLE
 10
0.124
 20
30.04
 30
0.0
 11
20.116
 21
30.04
 31
0.0
  0
LINE
  8
TITLE
 10
20.116
 20
0.124
 30
0.0
 11
0.124
 21
0.124
 31
0.0
  0
LINE
  8
TITLE
 10
20.116
 20
30.876
 30
0.0
 11
20.116
 21
12.660512
 31
0.0
  0
LINE
  8
TITLE
 10
0.124
 20
30.876
 30
0.0
 11
20.116
 21
30.876
 31
0.0
  0
LINE
  8
TITLE
 10
0.124
 20
0.124
 30
0.0
 11
0.124
 21
12.536512
 31
0.0
  0
LINE
  8
TITLE
 10
0.0
 20
0.0
 30
0.0
 11
0.0
 21
31.0
 31
0.0
  0
LINE
  8
TITLE
 10
20.24
 20
0.0
 30
0.0
 11
0.0
 21
0.0
 31
0.0
  0
LINE
  8
TITLE
 10
20.24
 20
31.0
 30
0.0
 11
20.24
 21
0.0
 31
0.0
  0
LINE
  8
TITLE
 10
0.0
 20
31.0
 30
0.0
 11
20.24
 21
31.0
 31
0.0
  0
LINE
  8
TITLE
 10
0.124
 20
11.700512
 30
0.0
 11
20.116
 21
11.700512
 31
0.0
  0
LINE
  8
TITLE
 10
1.624
 20
11.700512
 30
0.0
 11
1.624
 21
12.536512
 31
0.0
  0
TEXT
  8
TEXT
 10
2.65578
 20
30.300086
 30
0.0
 40
0.3125
  1
TRIANGULAR MOUNTING BRACKET
 41
0.75
  0
TEXT
  8
TEXT
 10
13.875734
 20
30.295676
 30
0.0
 40
0.3125
  1
MB-1266  TO  MB-1268
 41
0.75
  0
LINE
  8
TITLE
 10
11.744
 20
12.536512
 30
0.0
 11
11.744
 21
11.700512
 31
0.0
  0
LINE
  8
TITLE
 10
10.244
 20
12.536512
 30
0.0
 11
10.244
 21
11.700512
 31
0.0
  0
LINE
  8
TITLE
 10
10.12
 20
12.536512
 30
0.0
 11
10.12
 21
11.700512
 31
0.0
  0
LINE
  8
TITLE
 10
0.124
 20
12.536512
 30
0.0
 11
20.116
 21
12.536512
 31
0.0
  0
LINE
  8
TITLE
 10
0.124
 20
12.660512
 30
0.0
 11
20.116
 21
12.660512
 31
0.0
  0
LINE
  8
TITLE
 10
0.124
 20
12.660512
 30
0.0
 11
0.124
 21
30.876
 31
0.0
  0
LINE
  8
TITLE
 10
20.116
 20
12.536512
 30
0.0
 11
20.116
 21
0.124
 31
0.0
  0
TEXT
  8
TEXT
 10
10.744
 20
11.791376
 30
0.0
 40
0.25
  1
No.
 72
     1
 11
10.994
 21
11.791376
 31
0.0
  0
TEXT
  8
TEXT
 10
10.535667
 20
12.208043
 30
0.0
 40
0.25
  1
PART
 72
     1
 11
10.994
 21
12.208043
 31
0.0
  0
TEXT
  8
TEXT
 10
0.415667
 20
11.791376
 30
0.0
 40
0.25
  1
NAME
 72
     1
 11
0.874
 21
11.791376
 31
0.0
  0
TEXT
  8
TEXT
 10
0.415667
 20
12.208043
 30
0.0
 40
0.25
  1
PART
 72
     1
 11
0.874
 21
12.208043
 31
0.0
  0
POLYLINE
  8
OBJECT
 66
     1
 10
0.0
 20
0.0
 30
0.0
 70
     1
  0
VERTEX
  8
OBJECT
 10
5.039027
 20
6.066669
 30
0.0
 50
90.0
  0
VERTEX
  8
OBJECT
 10
4.148027
 20
6.066669
 30
0.0
 50
90.0
  0
VERTEX
  8
OBJECT
 10
4.148027
 20
4.722669
 30
0.0
 50
90.0
  0
VERTEX
  8
OBJECT
 10
7.930027
 20
4.722669
 30
0.0
 50
90.0
  0
VERTEX
  8
OBJECT
 10
7.930027
 20
6.066669
 30
0.0
 50
90.0
  0
VERTEX
  8
OBJECT
 10
7.039027
 20
6.066669
 30
0.0
 50
90.0
  0
VERTEX
  8
OBJECT
 10
7.039027
 20
6.175669
 30
0.0
 50
90.0
  0
VERTEX
  8
OBJECT
 10
7.930027
 20
6.175669
 30
0.0
 42
-0.414214
 50
90.0
  0
VERTEX
  8
OBJECT
 10
8.039027
 20
6.066669
 30
0.0
 50
90.0
  0
VERTEX
  8
OBJECT
 10
8.039027
 20
4.722669
 30
0.0
 42
-0.414214
 50
90.0
  0
VERTEX
  8
OBJECT
 10
7.930027
 20
4.613669
 30
0.0
 50
90.0
  0
VERTEX
  8
OBJECT
 10
4.148027
 20
4.613669
 30
0.0
 42
-0.414214
 50
90.0
  0
VERTEX
  8
OBJECT
 10
4.039027
 20
4.722669
 30
0.0
 50
90.0
  0
VERTEX
  8
OBJECT
 10
4.039027
 20
6.066669
 30
0.0
 42
-0.414214
 50
90.0
  0
VERTEX
  8
OBJECT
 10
4.148027
 20
6.175669
 30
0.0
 50
90.0
  0
VERTEX
  8
OBJECT
 10
5.039027
 20
6.175669
 30
0.0
 50
90.0
  0
SEQEND
  8
OBJECT
  0
LINE
  8
HIDDEN
 10
7.383027
 20
4.722669
 30
0.0
 11
7.383027
 21
4.613669
 31
0.0
  0
LINE
  8
HIDDEN
 10
7.695027
 20
4.722669
 30
0.0
 11
7.695027
 21
4.613669
 31
0.0
  0
LINE
  8
HIDDEN
 10
7.695027
 20
6.066669
 30
0.0
 11
7.695027
 21
6.175669
 31
0.0
  0
LINE
  8
HIDDEN
 10
7.383027
 20
6.066669
 30
0.0
 11
7.383027
 21
6.175669
 31
0.0
  0
LINE
  8
HIDDEN
 10
4.695027
 20
6.066669
 30
0.0
 11
4.695027
 21
6.175669
 31
0.0
  0
LINE
  8
HIDDEN
 10
4.383027
 20
6.066669
 30
0.0
 11
4.383027
 21
6.175669
 31
0.0
  0
LINE
  8
HIDDEN
 10
4.383027
 20
4.722669
 30
0.0
 11
4.383027
 21
4.613669
 31
0.0
  0
LINE
  8
HIDDEN
 10
4.695027
 20
4.722669
 30
0.0
 11
4.695027
 21
4.613669
 31
0.0
  0
ARC
  8
OBJECT
 10
4.549856
 20
9.098562
 30
0.0
 40
0.552381
 50
92.733745
 51
129.952133
  0
POLYLINE
  8
OBJECT
 66
     1
 10
0.0
 20
0.0
 30
0.0
  0
VERTEX
  8
OBJECT
 10
4.904566
 20
9.522007
 30
0.0
 50
90.0
  0
VERTEX
  8
OBJECT
 10
4.195146
 20
9.522007
 30
0.0
 50
90.0
  0
SEQEND
  8
OBJECT
  0
LINE
  8
OBJECT
 10
4.576202
 20
9.650943
 30
0.0
 11
4.576202
 21
9.568282
 31
0.0
  0
LINE
  8
OBJECT
 10
4.52351
 20
9.650943
 30
0.0
 11
4.52351
 21
9.568282
 31
0.0
  0
ARC
  8
OBJECT
 10
4.549856
 20
9.098562
 30
0.0
 40
0.552381
 50
50.047867
 51
87.266255
  0
LINE
  8
OBJECT
 10
4.576202
 20
9.568282
 30
0.0
 11
4.52351
 21
9.568282
 31
0.0
  0
LINE
  8
OBJECT
 10
4.674856
 20
7.272007
 30
0.0
 11
4.424856
 21
7.272007
 31
0.0
  0
LINE
  8
OBJECT
 10
4.674856
 20
7.272007
 30
0.0
 11
4.674856
 21
9.522007
 31
0.0
  0
LINE
  8
OBJECT
 10
4.424856
 20
7.272007
 30
0.0
 11
4.424856
 21
9.522007
 31
0.0
  0
LINE
  8
OBJECT
 10
4.674856
 20
7.372007
 30
0.0
 11
4.424856
 21
7.372007
 31
0.0
  0
LINE
  8
OBJECT
 10
4.674856
 20
7.472007
 30
0.0
 11
4.424856
 21
7.472007
 31
0.0
  0
LINE
  8
OBJECT
 10
4.674856
 20
7.572007
 30
0.0
 11
4.424856
 21
7.572007
 31
0.0
  0
LINE
  8
OBJECT
 10
4.674856
 20
7.672007
 30
0.0
 11
4.424856
 21
7.672007
 31
0.0
  0
LINE
  8
OBJECT
 10
4.674856
 20
7.772007
 30
0.0
 11
4.424856
 21
7.772007
 31
0.0
  0
LINE
  8
OBJECT
 10
4.674856
 20
7.872007
 30
0.0
 11
4.424856
 21
7.872007
 31
0.0
  0
LINE
  8
OBJECT
 10
4.674856
 20
7.972007
 30
0.0
 11
4.424856
 21
7.972007
 31
0.0
  0
LINE
  8
OBJECT
 10
4.674856
 20
8.072007
 30
0.0
 11
4.424856
 21
8.072007
 31
0.0
  0
LINE
  8
OBJECT
 10
4.674856
 20
8.172007
 30
0.0
 11
4.424856
 21
8.172007
 31
0.0
  0
LINE
  8
OBJECT
 10
4.674856
 20
8.272007
 30
0.0
 11
4.424856
 21
8.272007
 31
0.0
  0
LINE
  8
OBJECT
 10
4.674856
 20
8.372007
 30
0.0
 11
4.424856
 21
8.372007
 31
0.0
  0
LINE
  8
OBJECT
 10
4.674856
 20
8.472007
 30
0.0
 11
4.424856
 21
8.472007
 31
0.0
  0
LINE
  8
OBJECT
 10
4.674856
 20
8.572007
 30
0.0
 11
4.424856
 21
8.572007
 31
0.0
  0
LINE
  8
OBJECT
 10
4.674856
 20
8.672007
 30
0.0
 11
4.424856
 21
8.672007
 31
0.0
  0
LINE
  8
OBJECT
 10
4.674856
 20
8.772007
 30
0.0
 11
4.424856
 21
8.772007
 31
0.0
  0
LINE
  8
OBJECT
 10
4.674856
 20
8.872007
 30
0.0
 11
4.424856
 21
8.872007
 31
0.0
  0
LINE
  8
OBJECT
 10
4.674856
 20
8.972007
 30
0.0
 11
4.424856
 21
8.972007
 31
0.0
  0
LINE
  8
OBJECT
 10
4.674856
 20
9.072007
 30
0.0
 11
4.424856
 21
9.072007
 31
0.0
  0
LINE
  8
OBJECT
 10
4.674856
 20
9.172007
 30
0.0
 11
4.424856
 21
9.172007
 31
0.0
  0
LINE
  8
OBJECT
 10
4.674856
 20
9.272007
 30
0.0
 11
4.424856
 21
9.272007
 31
0.0
  0
LINE
  8
OBJECT
 10
4.674856
 20
9.372007
 30
0.0
 11
4.424856
 21
9.372007
 31
0.0
  0
LINE
  8
OBJECT
 10
4.674856
 20
9.472007
 30
0.0
 11
4.424856
 21
9.472007
 31
0.0
  0
LINE
  8
OBJECT
 10
4.592458
 20
7.322007
 30
0.0
 11
4.507254
 21
7.322007
 31
0.0
  0
LINE
  8
OBJECT
 10
4.592458
 20
7.422007
 30
0.0
 11
4.507254
 21
7.422007
 31
0.0
  0
LINE
  8
OBJECT
 10
4.592458
 20
7.522007
 30
0.0
 11
4.507254
 21
7.522007
 31
0.0
  0
LINE
  8
OBJECT
 10
4.592458
 20
7.622007
 30
0.0
 11
4.507254
 21
7.622007
 31
0.0
  0
LINE
  8
OBJECT
 10
4.592458
 20
7.722007
 30
0.0
 11
4.507254
 21
7.722007
 31
0.0
  0
LINE
  8
OBJECT
 10
4.592458
 20
7.822007
 30
0.0
 11
4.507254
 21
7.822007
 31
0.0
  0
LINE
  8
OBJECT
 10
4.592458
 20
7.922007
 30
0.0
 11
4.507254
 21
7.922007
 31
0.0
  0
LINE
  8
OBJECT
 10
4.592458
 20
8.022007
 30
0.0
 11
4.507254
 21
8.022007
 31
0.0
  0
LINE
  8
OBJECT
 10
4.592458
 20
8.122007
 30
0.0
 11
4.507254
 21
8.122007
 31
0.0
  0
LINE
  8
OBJECT
 10
4.592458
 20
8.222007
 30
0.0
 11
4.507254
 21
8.222007
 31
0.0
  0
LINE
  8
OBJECT
 10
4.592458
 20
8.322007
 30
0.0
 11
4.507254
 21
8.322007
 31
0.0
  0
LINE
  8
OBJECT
 10
4.592458
 20
8.422007
 30
0.0
 11
4.507254
 21
8.422007
 31
0.0
  0
LINE
  8
OBJECT
 10
4.592458
 20
8.522007
 30
0.0
 11
4.507254
 21
8.522007
 31
0.0
  0
LINE
  8
OBJECT
 10
4.592458
 20
8.622007
 30
0.0
 11
4.507254
 21
8.622007
 31
0.0
  0
LINE
  8
OBJECT
 10
4.592458
 20
8.722007
 30
0.0
 11
4.507254
 21
8.722007
 31
0.0
  0
LINE
  8
OBJECT
 10
4.592458
 20
8.822007
 30
0.0
 11
4.507254
 21
8.822007
 31
0.0
  0
LINE
  8
OBJECT
 10
4.592458
 20
8.922007
 30
0.0
 11
4.507254
 21
8.922007
 31
0.0
  0
LINE
  8
OBJECT
 10
4.592458
 20
9.022007
 30
0.0
 11
4.507254
 21
9.022007
 31
0.0
  0
LINE
  8
OBJECT
 10
4.592458
 20
9.122007
 30
0.0
 11
4.507254
 21
9.122007
 31
0.0
  0
LINE
  8
OBJECT
 10
4.592458
 20
9.222007
 30
0.0
 11
4.507254
 21
9.222007
 31
0.0
  0
LINE
  8
OBJECT
 10
4.592458
 20
9.322007
 30
0.0
 11
4.507254
 21
9.322007
 31
0.0
  0
LINE
  8
OBJECT
 10
4.592458
 20
9.422007
 30
0.0
 11
4.507254
 21
9.422007
 31
0.0
  0
LINE
  8
CENTER
 10
4.549856
 20
7.272007
 30
0.0
 11
4.549856
 21
3.56888
 31
0.0
  0
LINE
  8
HIDDEN
 10
4.695027
 20
4.193614
 30
0.0
 11
4.695027
 21
4.143614
 31
0.0
  0
LINE
  8
HIDDEN
 10
4.383027
 20
4.193614
 30
0.0
 11
4.383027
 21
4.143614
 31
0.0
  0
POLYLINE
  8
OBJECT
 66
     1
 10
0.0
 20
0.0
 30
0.0
 70
     1
  0
VERTEX
  8
OBJECT
 10
4.287809
 20
4.143614
 30
0.0
 50
90.0
  0
VERTEX
  8
OBJECT
 10
4.811903
 20
4.143614
 30
0.0
 50
90.0
  0
VERTEX
  8
OBJECT
 10
4.811903
 20
4.193614
 30
0.0
 50
90.0
  0
VERTEX
  8
OBJECT
 10
4.287809
 20
4.193614
 30
0.0
 50
90.0
  0
SEQEND
  8
OBJECT
  0
LINE
  8
OBJECT
 10
4.75199
 20
3.537832
 30
0.0
 11
4.334026
 21
3.537832
 31
0.0
  0
LINE
  8
OBJECT
 10
4.75199
 20
3.537832
 30
0.0
 11
4.75199
 21
3.381735
 31
0.0
  0
LINE
  8
OBJECT
 10
4.347722
 20
3.537832
 30
0.0
 11
4.347722
 21
3.381735
 31
0.0
  0
LINE
  8
OBJECT
 10
4.642902
 20
3.537832
 30
0.0
 11
4.642902
 21
3.381735
 31
0.0
  0
LINE
  8
OBJECT
 10
4.45681
 20
3.537832
 30
0.0
 11
4.45681
 21
3.381735
 31
0.0
  0
ARC
  8
OBJECT
 10
4.672902
 20
3.381735
 30
0.0
 40
0.03
 50
180.0
 51
270.0
  0
ARC
  8
OBJECT
 10
4.42681
 20
3.381735
 30
0.0
 40
0.03
 50
270.0
 51
0.0
  0
ARC
  8
OBJECT
 10
4.612902
 20
3.381735
 30
0.0
 40
0.03
 50
270.0
 51
0.0
  0
ARC
  8
OBJECT
 10
4.48681
 20
3.381735
 30
0.0
 40
0.03
 50
180.0
 51
270.0
  0
LINE
  8
OBJECT
 10
4.72199
 20
3.351735
 30
0.0
 11
4.377722
 21
3.351735
 31
0.0
  0
LINE
  8
OBJECT
 10
4.734026
 20
3.537832
 30
0.0
 11
4.765074
 21
3.56888
 31
0.0
  0
LINE
  8
OBJECT
 10
4.765074
 20
3.56888
 30
0.0
 11
4.365074
 21
3.56888
 31
0.0
  0
LINE
  8
OBJECT
 10
4.684026
 20
3.537832
 30
0.0
 11
4.715074
 21
3.56888
 31
0.0
  0
LINE
  8
OBJECT
 10
4.634026
 20
3.537832
 30
0.0
 11
4.665074
 21
3.56888
 31
0.0
  0
LINE
  8
OBJECT
 10
4.584026
 20
3.537832
 30
0.0
 11
4.615074
 21
3.56888
 31
0.0
  0
LINE
  8
OBJECT
 10
4.534026
 20
3.537832
 30
0.0
 11
4.565074
 21
3.56888
 31
0.0
  0
LINE
  8
OBJECT
 10
4.484026
 20
3.537832
 30
0.0
 11
4.515074
 21
3.56888
 31
0.0
  0
LINE
  8
OBJECT
 10
4.434026
 20
3.537832
 30
0.0
 11
4.465074
 21
3.56888
 31
0.0
  0
LINE
  8
OBJECT
 10
4.384026
 20
3.537832
 30
0.0
 11
4.415074
 21
3.56888
 31
0.0
  0
LINE
  8
OBJECT
 10
4.734026
 20
3.537832
 30
0.0
 11
4.715074
 21
3.56888
 31
0.0
  0
LINE
  8
OBJECT
 10
4.684026
 20
3.537832
 30
0.0
 11
4.665074
 21
3.56888
 31
0.0
  0
LINE
  8
OBJECT
 10
4.634026
 20
3.537832
 30
0.0
 11
4.615074
 21
3.56888
 31
0.0
  0
LINE
  8
OBJECT
 10
4.584026
 20
3.537832
 30
0.0
 11
4.565074
 21
3.56888
 31
0.0
  0
LINE
  8
OBJECT
 10
4.534026
 20
3.537832
 30
0.0
 11
4.515074
 21
3.56888
 31
0.0
  0
LINE
  8
OBJECT
 10
4.484026
 20
3.537832
 30
0.0
 11
4.465074
 21
3.56888
 31
0.0
  0
LINE
  8
OBJECT
 10
4.434026
 20
3.537832
 30
0.0
 11
4.415074
 21
3.56888
 31
0.0
  0
LINE
  8
OBJECT
 10
4.384026
 20
3.537832
 30
0.0
 11
4.365074
 21
3.56888
 31
0.0
  0
LINE
  8
OBJECT
 10
4.334026
 20
3.537832
 30
0.0
 11
4.365074
 21
3.56888
 31
0.0
  0
ARC
  8
OBJECT
 10
4.72199
 20
3.381735
 30
0.0
 40
0.03
 50
270.0
 51
0.0
  0
ARC
  8
OBJECT
 10
4.377722
 20
3.381735
 30
0.0
 40
0.03
 50
180.0
 51
270.0
  0
LINE
  8
OBJECT
 10
3.390683
 20
6.926594
 30
0.0
 11
9.180027
 21
6.926594
 31
0.0
  0
LINE
  8
OBJECT
 10
3.390683
 20
7.035594
 30
0.0
 11
9.289027
 21
7.035594
 31
0.0
  0
LINE
  8
HIDDEN
 10
4.383027
 20
6.926594
 30
0.0
 11
4.383027
 21
7.035594
 31
0.0
  0
LINE
  8
HIDDEN
 10
4.695027
 20
6.926594
 30
0.0
 11
4.695027
 21
7.035594
 31
0.0
  0
LINE
  8
HIDDEN
 10
7.383027
 20
6.926594
 30
0.0
 11
7.383027
 21
7.035594
 31
0.0
  0
LINE
  8
HIDDEN
 10
7.695027
 20
6.926594
 30
0.0
 11
7.695027
 21
7.035594
 31
0.0
  0
LINE
  8
OBJECT
 10
9.289027
 20
7.035594
 30
0.0
 11
9.289027
 21
4.410594
 31
0.0
  0
LINE
  8
OBJECT
 10
9.289027
 20
4.410594
 30
0.0
 11
8.539027
 21
4.410594
 31
0.0
  0
LINE
  8
OBJECT
 10
9.180027
 20
6.926594
 30
0.0
 11
9.180027
 21
4.519594
 31
0.0
  0
LINE
  8
OBJECT
 10
9.180027
 20
4.519594
 30
0.0
 11
8.539027
 21
4.519594
 31
0.0
  0
LINE
  8
OBJECT
 10
8.539027
 20
4.519594
 30
0.0
 11
8.539027
 21
4.410594
 31
0.0
  0
LINE
  8
CENTER
 10
6.039027
 20
5.524378
 30
0.0
 11
6.039027
 21
4.265523
 31
0.0
  0
LINE
  8
OBJECT
 10
5.851527
 20
4.265523
 30
0.0
 11
6.226527
 21
4.265523
 31
0.0
  0
LINE
  8
OBJECT
 10
5.774027
 20
1.265523
 30
0.0
 11
6.304027
 21
1.265523
 31
0.0
  0
LINE
  8
OBJECT
 10
5.444527
 20
0.515523
 30
0.0
 11
6.633527
 21
0.515523
 31
0.0
  0
LINE
  8
OBJECT
 10
5.382527
 20
0.953523
 30
0.0
 11
6.695527
 21
0.953523
 31
0.0
  0
LINE
  8
OBJECT
 10
5.351527
 20
0.703523
 30
0.0
 11
6.726527
 21
0.703523
 31
0.0
  0
LINE
  8
OBJECT
 10
5.351527
 20
0.703523
 30
0.0
 11
5.351527
 21
0.922523
 31
0.0
  0
LINE
  8
OBJECT
 10
6.726527
 20
0.703523
 30
0.0
 11
6.726527
 21
0.922523
 31
0.0
  0
ARC
  8
OBJECT
 10
5.382527
 20
0.922523
 30
0.0
 40
0.031
 50
90.0
 51
180.0
  0
ARC
  8
OBJECT
 10
6.695527
 20
0.922523
 30
0.0
 40
0.031
 50
0.0
 51
90.0
  0
LINE
  8
OBJECT
 10
5.351527
 20
0.703523
 30
0.0
 11
5.351527
 21
0.608523
 31
0.0
  0
LINE
  8
OBJECT
 10
6.726527
 20
0.703523
 30
0.0
 11
6.726527
 21
0.608523
 31
0.0
  0
ARC
  8
OBJECT
 10
5.444527
 20
0.608523
 30
0.0
 40
0.093
 50
180.0
 51
270.0
  0
ARC
  8
OBJECT
 10
6.633527
 20
0.608523
 30
0.0
 40
0.093
 50
270.0
 51
0.0
  0
LINE
  8
OBJECT
 10
5.664027
 20
1.046523
 30
0.0
 11
6.414027
 21
1.046523
 31
0.0
  0
LINE
  8
OBJECT
 10
5.664027
 20
1.046523
 30
0.0
 11
5.664027
 21
0.953523
 31
0.0
  0
LINE
  8
OBJECT
 10
6.414027
 20
1.046523
 30
0.0
 11
6.414027
 21
0.953523
 31
0.0
  0
LINE
  8
OBJECT
 10
5.774027
 20
1.265523
 30
0.0
 11
5.774027
 21
1.046523
 31
0.0
  0
LINE
  8
OBJECT
 10
6.304027
 20
1.265523
 30
0.0
 11
6.304027
 21
1.046523
 31
0.0
  0
LINE
  8
OBJECT
 10
5.883027
 20
1.265523
 30
0.0
 11
5.883027
 21
1.046523
 31
0.0
  0
LINE
  8
OBJECT
 10
6.195027
 20
1.265523
 30
0.0
 11
6.195027
 21
1.046523
 31
0.0
  0
LINE
  8
OBJECT
 10
5.851527
 20
4.265523
 30
0.0
 11
5.851527
 21
1.265523
 31
0.0
  0
LINE
  8
OBJECT
 10
6.226527
 20
4.265523
 30
0.0
 11
6.226527
 21
1.265523
 31
0.0
  0
LINE
  8
OBJECT
 10
5.851527
 20
2.565523
 30
0.0
 11
6.226527
 21
2.565523
 31
0.0
  0
LINE
  8
OBJECT
 10
5.851527
 20
2.365523
 30
0.0
 11
6.226527
 21
2.365523
 31
0.0
  0
LINE
  8
OBJECT
 10
5.851527
 20
2.165523
 30
0.0
 11
6.226527
 21
2.165523
 31
0.0
  0
LINE
  8
OBJECT
 10
5.851527
 20
1.965523
 30
0.0
 11
6.226527
 21
1.965523
 31
0.0
  0
LINE
  8
OBJECT
 10
5.851527
 20
1.765523
 30
0.0
 11
6.226527
 21
1.765523
 31
0.0
  0
LINE
  8
OBJECT
 10
5.851527
 20
1.565523
 30
0.0
 11
6.226527
 21
1.565523
 31
0.0
  0
LINE
  8
OBJECT
 10
5.851527
 20
1.365523
 30
0.0
 11
6.226527
 21
1.365523
 31
0.0
  0
LINE
  8
OBJECT
 10
5.926567
 20
2.663352
 30
0.0
 11
6.148926
 21
2.663352
 31
0.0
  0
LINE
  8
OBJECT
 10
5.926567
 20
2.463352
 30
0.0
 11
6.148926
 21
2.463352
 31
0.0
  0
LINE
  8
OBJECT
 10
5.926567
 20
2.263352
 30
0.0
 11
6.148926
 21
2.263352
 31
0.0
  0
LINE
  8
OBJECT
 10
5.926567
 20
2.063352
 30
0.0
 11
6.148926
 21
2.063352
 31
0.0
  0
LINE
  8
OBJECT
 10
5.926567
 20
1.863352
 30
0.0
 11
6.148926
 21
1.863352
 31
0.0
  0
LINE
  8
OBJECT
 10
5.926567
 20
1.663352
 30
0.0
 11
6.148926
 21
1.663352
 31
0.0
  0
LINE
  8
OBJECT
 10
5.926567
 20
1.463352
 30
0.0
 11
6.148926
 21
1.463352
 31
0.0
  0
LINE
  8
OBJECT
 10
5.726527
 20
5.034453
 30
0.0
 11
6.351527
 21
5.034453
 31
0.0
  0
LINE
  8
OBJECT
 10
5.726527
 20
5.034453
 30
0.0
 11
5.726527
 21
4.722669
 31
0.0
  0
LINE
  8
OBJECT
 10
6.351527
 20
5.034453
 30
0.0
 11
6.351527
 21
4.722669
 31
0.0
  0
LINE
  8
OBJECT
 10
16.49201
 20
4.519594
 30
0.0
 11
16.49201
 21
4.410594
 31
0.0
  0
LINE
  8
OBJECT
 10
17.13301
 20
4.519594
 30
0.0
 11
16.49201
 21
4.519594
 31
0.0
  0
LINE
  8
OBJECT
 10
17.13301
 20
6.926594
 30
0.0
 11
17.13301
 21
4.519594
 31
0.0
  0
LINE
  8
OBJECT
 10
17.24201
 20
4.410594
 30
0.0
 11
16.49201
 21
4.410594
 31
0.0
  0
LINE
  8
OBJECT
 10
17.24201
 20
7.035594
 30
0.0
 11
17.24201
 21
4.410594
 31
0.0
  0
LINE
  8
HIDDEN
 10
15.658839
 20
6.926594
 30
0.0
 11
15.658839
 21
7.035594
 31
0.0
  0
LINE
  8
HIDDEN
 10
15.346839
 20
6.926594
 30
0.0
 11
15.346839
 21
7.035594
 31
0.0
  0
LINE
  8
HIDDEN
 10
12.658839
 20
6.926594
 30
0.0
 11
12.658839
 21
7.035594
 31
0.0
  0
LINE
  8
HIDDEN
 10
12.346839
 20
6.926594
 30
0.0
 11
12.346839
 21
7.035594
 31
0.0
  0
LINE
  8
OBJECT
 10
11.178151
 20
7.035594
 30
0.0
 11
17.24201
 21
7.035594
 31
0.0
  0
LINE
  8
OBJECT
 10
11.178151
 20
6.926594
 30
0.0
 11
17.13301
 21
6.926594
 31
0.0
  0
ARC
  8
OBJECT
 10
12.341534
 20
5.127449
 30
0.0
 40
0.03
 50
180.0
 51
270.0
  0
ARC
  8
OBJECT
 10
12.685802
 20
5.127449
 30
0.0
 40
0.03
 50
270.0
 51
0.0
  0
LINE
  8
OBJECT
 10
12.297837
 20
5.283546
 30
0.0
 11
12.328885
 21
5.314594
 31
0.0
  0
LINE
  8
OBJECT
 10
12.347837
 20
5.283546
 30
0.0
 11
12.328885
 21
5.314594
 31
0.0
  0
LINE
  8
OBJECT
 10
12.397837
 20
5.283546
 30
0.0
 11
12.378885
 21
5.314594
 31
0.0
  0
LINE
  8
OBJECT
 10
12.447837
 20
5.283546
 30
0.0
 11
12.428885
 21
5.314594
 31
0.0
  0
LINE
  8
OBJECT
 10
12.497837
 20
5.283546
 30
0.0
 11
12.478885
 21
5.314594
 31
0.0
  0
LINE
  8
OBJECT
 10
12.547837
 20
5.283546
 30
0.0
 11
12.528885
 21
5.314594
 31
0.0
  0
LINE
  8
OBJECT
 10
12.597837
 20
5.283546
 30
0.0
 11
12.578885
 21
5.314594
 31
0.0
  0
LINE
  8
OBJECT
 10
12.647837
 20
5.283546
 30
0.0
 11
12.628885
 21
5.314594
 31
0.0
  0
LINE
  8
OBJECT
 10
12.697837
 20
5.283546
 30
0.0
 11
12.678885
 21
5.314594
 31
0.0
  0
LINE
  8
OBJECT
 10
12.347837
 20
5.283546
 30
0.0
 11
12.378885
 21
5.314594
 31
0.0
  0
LINE
  8
OBJECT
 10
12.397837
 20
5.283546
 30
0.0
 11
12.428885
 21
5.314594
 31
0.0
  0
LINE
  8
OBJECT
 10
12.447837
 20
5.283546
 30
0.0
 11
12.478885
 21
5.314594
 31
0.0
  0
LINE
  8
OBJECT
 10
12.497837
 20
5.283546
 30
0.0
 11
12.528885
 21
5.314594
 31
0.0
  0
LINE
  8
OBJECT
 10
12.547837
 20
5.283546
 30
0.0
 11
12.578885
 21
5.314594
 31
0.0
  0
LINE
  8
OBJECT
 10
12.597837
 20
5.283546
 30
0.0
 11
12.628885
 21
5.314594
 31
0.0
  0
LINE
  8
OBJECT
 10
12.647837
 20
5.283546
 30
0.0
 11
12.678885
 21
5.314594
 31
0.0
  0
LINE
  8
OBJECT
 10
12.728885
 20
5.314594
 30
0.0
 11
12.328885
 21
5.314594
 31
0.0
  0
LINE
  8
OBJECT
 10
12.697837
 20
5.283546
 30
0.0
 11
12.728885
 21
5.314594
 31
0.0
  0
LINE
  8
OBJECT
 10
12.685802
 20
5.097449
 30
0.0
 11
12.341534
 21
5.097449
 31
0.0
  0
ARC
  8
OBJECT
 10
12.450622
 20
5.127449
 30
0.0
 40
0.03
 50
180.0
 51
270.0
  0
ARC
  8
OBJECT
 10
12.576714
 20
5.127449
 30
0.0
 40
0.03
 50
270.0
 51
0.0
  0
ARC
  8
OBJECT
 10
12.390622
 20
5.127449
 30
0.0
 40
0.03
 50
270.0
 51
0.0
  0
ARC
  8
OBJECT
 10
12.636714
 20
5.127449
 30
0.0
 40
0.03
 50
180.0
 51
270.0
  0
LINE
  8
OBJECT
 10
12.420622
 20
5.283546
 30
0.0
 11
12.420622
 21
5.127449
 31
0.0
  0
LINE
  8
OBJECT
 10
12.606714
 20
5.283546
 30
0.0
 11
12.606714
 21
5.127449
 31
0.0
  0
LINE
  8
OBJECT
 10
12.311534
 20
5.283546
 30
0.0
 11
12.311534
 21
5.127449
 31
0.0
  0
LINE
  8
OBJECT
 10
12.715802
 20
5.283546
 30
0.0
 11
12.715802
 21
5.127449
 31
0.0
  0
LINE
  8
OBJECT
 10
12.715802
 20
5.283546
 30
0.0
 11
12.297837
 21
5.283546
 31
0.0
  0
POLYLINE
  8
OBJECT
 66
     1
 10
0.0
 20
0.0
 30
0.0
 70
     1
  0
VERTEX
  8
OBJECT
 10
12.251621
 20
5.314594
 30
0.0
 50
90.0
  0
VERTEX
  8
OBJECT
 10
12.775715
 20
5.314594
 30
0.0
 50
90.0
  0
VERTEX
  8
OBJECT
 10
12.775715
 20
5.364594
 30
0.0
 50
90.0
  0
VERTEX
  8
OBJECT
 10
12.251621
 20
5.364594
 30
0.0
 50
90.0
  0
SEQEND
  8
OBJECT
  0
LINE
  8
HIDDEN
 10
12.346839
 20
5.364594
 30
0.0
 11
12.346839
 21
5.314594
 31
0.0
  0
LINE
  8
HIDDEN
 10
12.658839
 20
5.364594
 30
0.0
 11
12.658839
 21
5.314594
 31
0.0
  0
LINE
  8
HIDDEN
 10
12.658839
 20
5.473594
 30
0.0
 11
12.658839
 21
5.364594
 31
0.0
  0
LINE
  8
HIDDEN
 10
12.346839
 20
5.473594
 30
0.0
 11
12.346839
 21
5.364594
 31
0.0
  0
LINE
  8
HIDDEN
 10
12.346839
 20
6.817594
 30
0.0
 11
12.346839
 21
6.926594
 31
0.0
  0
LINE
  8
HIDDEN
 10
12.658839
 20
6.817594
 30
0.0
 11
12.658839
 21
6.926594
 31
0.0
  0
LINE
  8
HIDDEN
 10
15.346839
 20
6.817594
 30
0.0
 11
15.346839
 21
6.926594
 31
0.0
  0
LINE
  8
HIDDEN
 10
15.658839
 20
6.817594
 30
0.0
 11
15.658839
 21
6.926594
 31
0.0
  0
LINE
  8
HIDDEN
 10
15.658839
 20
5.473594
 30
0.0
 11
15.658839
 21
5.364594
 31
0.0
  0
LINE
  8
HIDDEN
 10
15.346839
 20
5.473594
 30
0.0
 11
15.346839
 21
5.364594
 31
0.0
  0
POLYLINE
  8
OBJECT
 66
     1
 10
0.0
 20
0.0
 30
0.0
 70
     1
  0
VERTEX
  8
OBJECT
 10
13.002839
 20
6.817594
 30
0.0
 50
90.0
  0
VERTEX
  8
OBJECT
 10
12.111839
 20
6.817594
 30
0.0
 50
90.0
  0
VERTEX
  8
OBJECT
 10
12.111839
 20
5.473594
 30
0.0
 50
90.0
  0
VERTEX
  8
OBJECT
 10
15.893839
 20
5.473594
 30
0.0
 50
90.0
  0
VERTEX
  8
OBJECT
 10
15.893839
 20
6.817594
 30
0.0
 50
90.0
  0
VERTEX
  8
OBJECT
 10
15.002839
 20
6.817594
 30
0.0
 50
90.0
  0
VERTEX
  8
OBJECT
 10
15.002839
 20
6.926594
 30
0.0
 50
90.0
  0
VERTEX
  8
OBJECT
 10
15.893839
 20
6.926594
 30
0.0
 42
-0.414214
 50
90.0
  0
VERTEX
  8
OBJECT
 10
16.002839
 20
6.817594
 30
0.0
 50
90.0
  0
VERTEX
  8
OBJECT
 10
16.002839
 20
5.473594
 30
0.0
 42
-0.414214
 50
90.0
  0
VERTEX
  8
OBJECT
 10
15.893839
 20
5.364594
 30
0.0
 50
90.0
  0
VERTEX
  8
OBJECT
 10
12.111839
 20
5.364594
 30
0.0
 42
-0.414214
 50
90.0
  0
VERTEX
  8
OBJECT
 10
12.002839
 20
5.473594
 30
0.0
 50
90.0
  0
VERTEX
  8
OBJECT
 10
12.002839
 20
6.817594
 30
0.0
 42
-0.414214
 50
90.0
  0
VERTEX
  8
OBJECT
 10
12.111839
 20
6.926594
 30
0.0
 50
90.0
  0
VERTEX
  8
OBJECT
 10
13.002839
 20
6.926594
 30
0.0
 50
90.0
  0
SEQEND
  8
OBJECT
  0
LINE
  8
OBJECT
 10
12.55627
 20
6.735594
 30
0.0
 11
12.471066
 21
6.735594
 31
0.0
  0
LINE
  8
OBJECT
 10
12.55627
 20
6.635594
 30
0.0
 11
12.471066
 21
6.635594
 31
0.0
  0
LINE
  8
OBJECT
 10
12.55627
 20
6.535594
 30
0.0
 11
12.471066
 21
6.535594
 31
0.0
  0
LINE
  8
OBJECT
 10
12.55627
 20
6.435594
 30
0.0
 11
12.471066
 21
6.435594
 31
0.0
  0
LINE
  8
OBJECT
 10
12.55627
 20
6.335594
 30
0.0
 11
12.471066
 21
6.335594
 31
0.0
  0
LINE
  8
OBJECT
 10
12.55627
 20
6.235594
 30
0.0
 11
12.471066
 21
6.235594
 31
0.0
  0
LINE
  8
OBJECT
 10
12.55627
 20
6.135594
 30
0.0
 11
12.471066
 21
6.135594
 31
0.0
  0
LINE
  8
OBJECT
 10
12.55627
 20
6.035594
 30
0.0
 11
12.471066
 21
6.035594
 31
0.0
  0
LINE
  8
OBJECT
 10
12.55627
 20
5.935594
 30
0.0
 11
12.471066
 21
5.935594
 31
0.0
  0
LINE
  8
OBJECT
 10
12.55627
 20
5.835594
 30
0.0
 11
12.471066
 21
5.835594
 31
0.0
  0
LINE
  8
OBJECT
 10
12.55627
 20
4.835594
 30
0.0
 11
12.471066
 21
4.835594
 31
0.0
  0
LINE
  8
OBJECT
 10
12.638668
 20
6.785594
 30
0.0
 11
12.388668
 21
6.785594
 31
0.0
  0
LINE
  8
OBJECT
 10
12.638668
 20
6.685594
 30
0.0
 11
12.388668
 21
6.685594
 31
0.0
  0
LINE
  8
OBJECT
 10
12.638668
 20
6.585594
 30
0.0
 11
12.388668
 21
6.585594
 31
0.0
  0
LINE
  8
OBJECT
 10
12.638668
 20
6.485594
 30
0.0
 11
12.388668
 21
6.485594
 31
0.0
  0
LINE
  8
OBJECT
 10
12.638668
 20
6.385594
 30
0.0
 11
12.388668
 21
6.385594
 31
0.0
  0
LINE
  8
OBJECT
 10
12.638668
 20
6.285594
 30
0.0
 11
12.388668
 21
6.285594
 31
0.0
  0
LINE
  8
OBJECT
 10
12.638668
 20
6.185594
 30
0.0
 11
12.388668
 21
6.185594
 31
0.0
  0
LINE
  8
OBJECT
 10
12.638668
 20
6.085594
 30
0.0
 11
12.388668
 21
6.085594
 31
0.0
  0
LINE
  8
OBJECT
 10
12.638668
 20
5.985594
 30
0.0
 11
12.388668
 21
5.985594
 31
0.0
  0
LINE
  8
OBJECT
 10
12.638668
 20
5.885594
 30
0.0
 11
12.388668
 21
5.885594
 31
0.0
  0
LINE
  8
OBJECT
 10
12.638668
 20
5.785594
 30
0.0
 11
12.388668
 21
5.785594
 31
0.0
  0
LINE
  8
OBJECT
 10
12.638668
 20
4.885594
 30
0.0
 11
12.388668
 21
4.885594
 31
0.0
  0
LINE
  8
OBJECT
 10
12.388668
 20
4.785594
 30
0.0
 11
12.388668
 21
5.097449
 31
0.0
  0
LINE
  8
OBJECT
 10
12.638668
 20
4.785594
 30
0.0
 11
12.638668
 21
5.097449
 31
0.0
  0
LINE
  8
OBJECT
 10
12.638668
 20
4.785594
 30
0.0
 11
12.388668
 21
4.785594
 31
0.0
  0
LINE
  8
OBJECT
 10
12.540014
 20
7.081869
 30
0.0
 11
12.487322
 21
7.081869
 31
0.0
  0
ARC
  8
OBJECT
 10
12.513668
 20
6.612149
 30
0.0
 40
0.552381
 50
50.047867
 51
87.266255
  0
LINE
  8
OBJECT
 10
12.487322
 20
7.16453
 30
0.0
 11
12.487322
 21
7.081869
 31
0.0
  0
LINE
  8
OBJECT
 10
12.540014
 20
7.16453
 30
0.0
 11
12.540014
 21
7.081869
 31
0.0
  0
POLYLINE
  8
OBJECT
 66
     1
 10
0.0
 20
0.0
 30
0.0
  0
VERTEX
  8
OBJECT
 10
12.868378
 20
7.035594
 30
0.0
 50
90.0
  0
VERTEX
  8
OBJECT
 10
12.158958
 20
7.035594
 30
0.0
 50
90.0
  0
SEQEND
  8
OBJECT
  0
ARC
  8
OBJECT
 10
12.513668
 20
6.612149
 30
0.0
 40
0.552381
 50
92.733745
 51
129.952133
  0
LINE
  8
OBJECT
 10
12.388668
 20
5.473594
 30
0.0
 11
12.388668
 21
6.817594
 31
0.0
  0
LINE
  8
OBJECT
 10
12.638668
 20
5.473594
 30
0.0
 11
12.638668
 21
6.817594
 31
0.0
  0
LINE
  8
OBJECT
 10
15.36701
 20
5.473594
 30
0.0
 11
15.36701
 21
6.817594
 31
0.0
  0
LINE
  8
OBJECT
 10
15.61701
 20
5.473594
 30
0.0
 11
15.61701
 21
6.817594
 31
0.0
  0
ARC
  8
OBJECT
 10
15.49201
 20
6.612149
 30
0.0
 40
0.552381
 50
50.047867
 51
87.266255
  0
POLYLINE
  8
OBJECT
 66
     1
 10
0.0
 20
0.0
 30
0.0
  0
VERTEX
  8
OBJECT
 10
15.137299
 20
7.035594
 30
0.0
  0
VERTEX
  8
OBJECT
 10
15.84672
 20
7.035594
 30
0.0
  0
SEQEND
  8
OBJECT
  0
LINE
  8
OBJECT
 10
15.465664
 20
7.16453
 30
0.0
 11
15.465664
 21
7.081869
 31
0.0
  0
LINE
  8
OBJECT
 10
15.518355
 20
7.16453
 30
0.0
 11
15.518355
 21
7.081869
 31
0.0
  0
ARC
  8
OBJECT
 10
15.49201
 20
6.612149
 30
0.0
 40
0.552381
 50
92.733745
 51
129.952133
  0
LINE
  8
OBJECT
 10
15.465664
 20
7.081869
 30
0.0
 11
15.518355
 21
7.081869
 31
0.0
  0
LINE
  8
OBJECT
 10
15.36701
 20
4.785594
 30
0.0
 11
15.61701
 21
4.785594
 31
0.0
  0
LINE
  8
OBJECT
 10
15.36701
 20
4.785594
 30
0.0
 11
15.36701
 21
5.097449
 31
0.0
  0
LINE
  8
OBJECT
 10
15.61701
 20
4.785594
 30
0.0
 11
15.61701
 21
5.097449
 31
0.0
  0
LINE
  8
OBJECT
 10
15.36701
 20
4.885594
 30
0.0
 11
15.61701
 21
4.885594
 31
0.0
  0
LINE
  8
OBJECT
 10
15.36701
 20
5.785594
 30
0.0
 11
15.61701
 21
5.785594
 31
0.0
  0
LINE
  8
OBJECT
 10
15.36701
 20
5.885594
 30
0.0
 11
15.61701
 21
5.885594
 31
0.0
  0
LINE
  8
OBJECT
 10
15.36701
 20
5.985594
 30
0.0
 11
15.61701
 21
5.985594
 31
0.0
  0
LINE
  8
OBJECT
 10
15.36701
 20
6.085594
 30
0.0
 11
15.61701
 21
6.085594
 31
0.0
  0
LINE
  8
OBJECT
 10
15.36701
 20
6.185594
 30
0.0
 11
15.61701
 21
6.185594
 31
0.0
  0
LINE
  8
OBJECT
 10
15.36701
 20
6.285594
 30
0.0
 11
15.61701
 21
6.285594
 31
0.0
  0
LINE
  8
OBJECT
 10
15.36701
 20
6.385594
 30
0.0
 11
15.61701
 21
6.385594
 31
0.0
  0
LINE
  8
OBJECT
 10
15.36701
 20
6.485594
 30
0.0
 11
15.61701
 21
6.485594
 31
0.0
  0
LINE
  8
OBJECT
 10
15.36701
 20
6.585594
 30
0.0
 11
15.61701
 21
6.585594
 31
0.0
  0
LINE
  8
OBJECT
 10
15.36701
 20
6.685594
 30
0.0
 11
15.61701
 21
6.685594
 31
0.0
  0
LINE
  8
OBJECT
 10
15.36701
 20
6.785594
 30
0.0
 11
15.61701
 21
6.785594
 31
0.0
  0
LINE
  8
OBJECT
 10
15.449407
 20
4.835594
 30
0.0
 11
15.534612
 21
4.835594
 31
0.0
  0
LINE
  8
OBJECT
 10
15.449407
 20
5.835594
 30
0.0
 11
15.534612
 21
5.835594
 31
0.0
  0
LINE
  8
OBJECT
 10
15.449407
 20
5.935594
 30
0.0
 11
15.534612
 21
5.935594
 31
0.0
  0
LINE
  8
OBJECT
 10
15.449407
 20
6.035594
 30
0.0
 11
15.534612
 21
6.035594
 31
0.0
  0
LINE
  8
OBJECT
 10
15.449407
 20
6.135594
 30
0.0
 11
15.534612
 21
6.135594
 31
0.0
  0
LINE
  8
OBJECT
 10
15.449407
 20
6.235594
 30
0.0
 11
15.534612
 21
6.235594
 31
0.0
  0
LINE
  8
OBJECT
 10
15.449407
 20
6.335594
 30
0.0
 11
15.534612
 21
6.335594
 31
0.0
  0
LINE
  8
OBJECT
 10
15.449407
 20
6.435594
 30
0.0
 11
15.534612
 21
6.435594
 31
0.0
  0
LINE
  8
OBJECT
 10
15.449407
 20
6.535594
 30
0.0
 11
15.534612
 21
6.535594
 31
0.0
  0
LINE
  8
OBJECT
 10
15.449407
 20
6.635594
 30
0.0
 11
15.534612
 21
6.635594
 31
0.0
  0
LINE
  8
OBJECT
 10
15.449407
 20
6.735594
 30
0.0
 11
15.534612
 21
6.735594
 31
0.0
  0
LINE
  8
HIDDEN
 10
15.346839
 20
6.817594
 30
0.0
 11
15.346839
 21
6.926594
 31
0.0
  0
LINE
  8
HIDDEN
 10
15.658839
 20
6.817594
 30
0.0
 11
15.658839
 21
6.926594
 31
0.0
  0
LINE
  8
HIDDEN
 10
15.658839
 20
5.473594
 30
0.0
 11
15.658839
 21
5.364594
 31
0.0
  0
LINE
  8
HIDDEN
 10
15.346839
 20
5.473594
 30
0.0
 11
15.346839
 21
5.364594
 31
0.0
  0
LINE
  8
HIDDEN
 10
15.346839
 20
5.364594
 30
0.0
 11
15.346839
 21
5.314594
 31
0.0
  0
LINE
  8
HIDDEN
 10
15.658839
 20
5.364594
 30
0.0
 11
15.658839
 21
5.314594
 31
0.0
  0
POLYLINE
  8
OBJECT
 66
     1
 10
0.0
 20
0.0
 30
0.0
 70
     1
  0
VERTEX
  8
OBJECT
 10
15.754057
 20
5.314594
 30
0.0
  0
VERTEX
  8
OBJECT
 10
15.229962
 20
5.314594
 30
0.0
  0
VERTEX
  8
OBJECT
 10
15.229962
 20
5.364594
 30
0.0
  0
VERTEX
  8
OBJECT
 10
15.754057
 20
5.364594
 30
0.0
  0
SEQEND
  8
OBJECT
  0
LINE
  8
OBJECT
 10
15.289876
 20
5.283546
 30
0.0
 11
15.70784
 21
5.283546
 31
0.0
  0
LINE
  8
OBJECT
 10
15.289876
 20
5.283546
 30
0.0
 11
15.289876
 21
5.127449
 31
0.0
  0
LINE
  8
OBJECT
 10
15.694144
 20
5.283546
 30
0.0
 11
15.694144
 21
5.127449
 31
0.0
  0
LINE
  8
OBJECT
 10
15.398964
 20
5.283546
 30
0.0
 11
15.398964
 21
5.127449
 31
0.0
  0
LINE
  8
OBJECT
 10
15.585055
 20
5.283546
 30
0.0
 11
15.585055
 21
5.127449
 31
0.0
  0
ARC
  8
OBJECT
 10
15.368964
 20
5.127449
 30
0.0
 40
0.03
 50
270.0
 51
0.0
  0
ARC
  8
OBJECT
 10
15.615055
 20
5.127449
 30
0.0
 40
0.03
 50
180.0
 51
270.0
  0
ARC
  8
OBJECT
 10
15.428964
 20
5.127449
 30
0.0
 40
0.03
 50
180.0
 51
270.0
  0
ARC
  8
OBJECT
 10
15.555055
 20
5.127449
 30
0.0
 40
0.03
 50
270.0
 51
0.0
  0
LINE
  8
OBJECT
 10
15.319876
 20
5.097449
 30
0.0
 11
15.664144
 21
5.097449
 31
0.0
  0
LINE
  8
OBJECT
 10
15.30784
 20
5.283546
 30
0.0
 11
15.276792
 21
5.314594
 31
0.0
  0
LINE
  8
OBJECT
 10
15.276792
 20
5.314594
 30
0.0
 11
15.676792
 21
5.314594
 31
0.0
  0
LINE
  8
OBJECT
 10
15.35784
 20
5.283546
 30
0.0
 11
15.326792
 21
5.314594
 31
0.0
  0
LINE
  8
OBJECT
 10
15.40784
 20
5.283546
 30
0.0
 11
15.376792
 21
5.314594
 31
0.0
  0
LINE
  8
OBJECT
 10
15.45784
 20
5.283546
 30
0.0
 11
15.426792
 21
5.314594
 31
0.0
  0
LINE
  8
OBJECT
 10
15.50784
 20
5.283546
 30
0.0
 11
15.476792
 21
5.314594
 31
0.0
  0
LINE
  8
OBJECT
 10
15.55784
 20
5.283546
 30
0.0
 11
15.526792
 21
5.314594
 31
0.0
  0
LINE
  8
OBJECT
 10
15.60784
 20
5.283546
 30
0.0
 11
15.576792
 21
5.314594
 31
0.0
  0
LINE
  8
OBJECT
 10
15.65784
 20
5.283546
 30
0.0
 11
15.626792
 21
5.314594
 31
0.0
  0
LINE
  8
OBJECT
 10
15.30784
 20
5.283546
 30
0.0
 11
15.326792
 21
5.314594
 31
0.0
  0
LINE
  8
OBJECT
 10
15.35784
 20
5.283546
 30
0.0
 11
15.376792
 21
5.314594
 31
0.0
  0
LINE
  8
OBJECT
 10
15.40784
 20
5.283546
 30
0.0
 11
15.426792
 21
5.314594
 31
0.0
  0
LINE
  8
OBJECT
 10
15.45784
 20
5.283546
 30
0.0
 11
15.476792
 21
5.314594
 31
0.0
  0
LINE
  8
OBJECT
 10
15.50784
 20
5.283546
 30
0.0
 11
15.526792
 21
5.314594
 31
0.0
  0
LINE
  8
OBJECT
 10
15.55784
 20
5.283546
 30
0.0
 11
15.576792
 21
5.314594
 31
0.0
  0
LINE
  8
OBJECT
 10
15.60784
 20
5.283546
 30
0.0
 11
15.626792
 21
5.314594
 31
0.0
  0
LINE
  8
OBJECT
 10
15.65784
 20
5.283546
 30
0.0
 11
15.676792
 21
5.314594
 31
0.0
  0
LINE
  8
OBJECT
 10
15.70784
 20
5.283546
 30
0.0
 11
15.676792
 21
5.314594
 31
0.0
  0
ARC
  8
OBJECT
 10
15.319876
 20
5.127449
 30
0.0
 40
0.03
 50
180.0
 51
270.0
  0
ARC
  8
OBJECT
 10
15.664144
 20
5.127449
 30
0.0
 40
0.03
 50
270.0
 51
0.0
  0
LINE
  8
HIDDEN
 10
15.658839
 20
6.926594
 30
0.0
 11
15.658839
 21
7.035594
 31
0.0
  0
LINE
  8
HIDDEN
 10
15.346839
 20
6.926594
 30
0.0
 11
15.346839
 21
7.035594
 31
0.0
  0
LINE
  8
OBJECT
 10
5.851527
 20
2.765523
 30
0.0
 11
6.226527
 21
2.765523
 31
0.0
  0
LINE
  8
OBJECT
 10
5.926567
 20
2.863352
 30
0.0
 11
6.148926
 21
2.863352
 31
0.0
  0
LINE
  8
OBJECT
 10
5.851527
 20
2.965523
 30
0.0
 11
6.226527
 21
2.965523
 31
0.0
  0
LINE
  8
OBJECT
 10
5.926567
 20
3.063352
 30
0.0
 11
6.148926
 21
3.063352
 31
0.0
  0
LINE
  8
OBJECT
 10
5.851527
 20
3.165523
 30
0.0
 11
6.226527
 21
3.165523
 31
0.0
  0
LINE
  8
OBJECT
 10
5.926567
 20
3.263352
 30
0.0
 11
6.148926
 21
3.263352
 31
0.0
  0
LINE
  8
OBJECT
 10
5.851527
 20
3.365523
 30
0.0
 11
6.226527
 21
3.365523
 31
0.0
  0
LINE
  8
OBJECT
 10
5.926567
 20
3.463352
 30
0.0
 11
6.148926
 21
3.463352
 31
0.0
  0
LINE
  8
OBJECT
 10
5.851527
 20
3.565523
 30
0.0
 11
6.226527
 21
3.565523
 31
0.0
  0
LINE
  8
OBJECT
 10
5.926567
 20
3.663352
 30
0.0
 11
6.148926
 21
3.663352
 31
0.0
  0
LINE
  8
OBJECT
 10
5.851527
 20
3.765523
 30
0.0
 11
6.226527
 21
3.765523
 31
0.0
  0
LINE
  8
OBJECT
 10
5.926567
 20
3.863352
 30
0.0
 11
6.148926
 21
3.863352
 31
0.0
  0
LINE
  8
OBJECT
 10
5.851527
 20
3.965523
 30
0.0
 11
6.226527
 21
3.965523
 31
0.0
  0
LINE
  8
OBJECT
 10
5.926567
 20
4.063352
 30
0.0
 11
6.148926
 21
4.063352
 31
0.0
  0
LINE
  8
OBJECT
 10
5.851527
 20
4.165523
 30
0.0
 11
6.226527
 21
4.165523
 31
0.0
  0
LINE
  8
OBJECT
 10
14.315339
 20
5.785379
 30
0.0
 11
14.315339
 21
5.473594
 31
0.0
  0
LINE
  8
OBJECT
 10
13.690339
 20
5.785379
 30
0.0
 11
13.690339
 21
5.473594
 31
0.0
  0
LINE
  8
OBJECT
 10
13.690339
 20
5.785379
 30
0.0
 11
14.315339
 21
5.785379
 31
0.0
  0
LINE
  8
OBJECT
 10
13.816619
 20
6.76803
 30
0.0
 11
14.191619
 21
6.76803
 31
0.0
  0
LINE
  8
OBJECT
 10
13.891659
 20
6.665858
 30
0.0
 11
14.114018
 21
6.665858
 31
0.0
  0
LINE
  8
OBJECT
 10
13.816619
 20
6.56803
 30
0.0
 11
14.191619
 21
6.56803
 31
0.0
  0
LINE
  8
OBJECT
 10
13.891659
 20
6.465858
 30
0.0
 11
14.114018
 21
6.465858
 31
0.0
  0
LINE
  8
OBJECT
 10
13.816619
 20
6.36803
 30
0.0
 11
14.191619
 21
6.36803
 31
0.0
  0
LINE
  8
OBJECT
 10
13.891659
 20
6.265858
 30
0.0
 11
14.114018
 21
6.265858
 31
0.0
  0
LINE
  8
OBJECT
 10
13.891659
 20
4.065858
 30
0.0
 11
14.114018
 21
4.065858
 31
0.0
  0
LINE
  8
OBJECT
 10
13.891659
 20
4.265858
 30
0.0
 11
14.114018
 21
4.265858
 31
0.0
  0
LINE
  8
OBJECT
 10
13.891659
 20
4.465858
 30
0.0
 11
14.114018
 21
4.465858
 31
0.0
  0
LINE
  8
OBJECT
 10
13.891659
 20
4.665858
 30
0.0
 11
14.114018
 21
4.665858
 31
0.0
  0
LINE
  8
OBJECT
 10
13.891659
 20
4.865858
 30
0.0
 11
14.114018
 21
4.865858
 31
0.0
  0
LINE
  8
OBJECT
 10
13.816619
 20
3.96803
 30
0.0
 11
14.191619
 21
3.96803
 31
0.0
  0
LINE
  8
OBJECT
 10
13.816619
 20
4.16803
 30
0.0
 11
14.191619
 21
4.16803
 31
0.0
  0
LINE
  8
OBJECT
 10
13.816619
 20
4.36803
 30
0.0
 11
14.191619
 21
4.36803
 31
0.0
  0
LINE
  8
OBJECT
 10
13.816619
 20
4.56803
 30
0.0
 11
14.191619
 21
4.56803
 31
0.0
  0
LINE
  8
OBJECT
 10
13.816619
 20
4.76803
 30
0.0
 11
14.191619
 21
4.76803
 31
0.0
  0
LINE
  8
OBJECT
 10
14.191619
 20
6.86803
 30
0.0
 11
14.191619
 21
5.785379
 31
0.0
  0
LINE
  8
OBJECT
 10
13.816619
 20
6.86803
 30
0.0
 11
13.816619
 21
5.785379
 31
0.0
  0
LINE
  8
OBJECT
 10
14.160119
 20
3.86803
 30
0.0
 11
14.160119
 21
3.64903
 31
0.0
  0
LINE
  8
OBJECT
 10
13.848119
 20
3.86803
 30
0.0
 11
13.848119
 21
3.64903
 31
0.0
  0
LINE
  8
OBJECT
 10
14.269119
 20
3.86803
 30
0.0
 11
14.269119
 21
3.64903
 31
0.0
  0
LINE
  8
OBJECT
 10
13.739119
 20
3.86803
 30
0.0
 11
13.739119
 21
3.64903
 31
0.0
  0
LINE
  8
OBJECT
 10
14.379119
 20
3.64903
 30
0.0
 11
14.379119
 21
3.55603
 31
0.0
  0
LINE
  8
OBJECT
 10
13.629119
 20
3.64903
 30
0.0
 11
13.629119
 21
3.55603
 31
0.0
  0
LINE
  8
OBJECT
 10
13.629119
 20
3.64903
 30
0.0
 11
14.379119
 21
3.64903
 31
0.0
  0
ARC
  8
OBJECT
 10
14.598619
 20
3.21103
 30
0.0
 40
0.093
 50
270.0
 51
0.0
  0
ARC
  8
OBJECT
 10
13.409619
 20
3.21103
 30
0.0
 40
0.093
 50
180.0
 51
270.0
  0
LINE
  8
OBJECT
 10
14.691619
 20
3.30603
 30
0.0
 11
14.691619
 21
3.21103
 31
0.0
  0
LINE
  8
OBJECT
 10
13.316619
 20
3.30603
 30
0.0
 11
13.316619
 21
3.21103
 31
0.0
  0
ARC
  8
OBJECT
 10
14.660619
 20
3.52503
 30
0.0
 40
0.031
 50
0.0
 51
90.0
  0
ARC
  8
OBJECT
 10
13.347619
 20
3.52503
 30
0.0
 40
0.031
 50
90.0
 51
180.0
  0
LINE
  8
OBJECT
 10
14.691619
 20
3.30603
 30
0.0
 11
14.691619
 21
3.52503
 31
0.0
  0
LINE
  8
OBJECT
 10
13.316619
 20
3.30603
 30
0.0
 11
13.316619
 21
3.52503
 31
0.0
  0
LINE
  8
OBJECT
 10
13.316619
 20
3.30603
 30
0.0
 11
14.691619
 21
3.30603
 31
0.0
  0
LINE
  8
OBJECT
 10
13.347619
 20
3.55603
 30
0.0
 11
14.660619
 21
3.55603
 31
0.0
  0
LINE
  8
OBJECT
 10
13.409619
 20
3.11803
 30
0.0
 11
14.598619
 21
3.11803
 31
0.0
  0
LINE
  8
OBJECT
 10
13.739119
 20
3.86803
 30
0.0
 11
14.269119
 21
3.86803
 31
0.0
  0
LINE
  8
OBJECT
 10
13.816619
 20
6.86803
 30
0.0
 11
14.191619
 21
6.86803
 31
0.0
  0
LINE
  8
OBJECT
 10
13.816619
 20
5.364594
 30
0.0
 11
13.816619
 21
3.86803
 31
0.0
  0
LINE
  8
OBJECT
 10
14.191619
 20
5.364594
 30
0.0
 11
14.191619
 21
3.86803
 31
0.0
  0
LINE
  8
OBJECT
 10
13.816619
 20
6.163686
 30
0.0
 11
14.191619
 21
6.163686
 31
0.0
  0
LINE
  8
OBJECT
 10
13.891659
 20
6.065858
 30
0.0
 11
14.114018
 21
6.065858
 31
0.0
  0
LINE
  8
OBJECT
 10
13.816619
 20
5.963686
 30
0.0
 11
14.191619
 21
5.963686
 31
0.0
  0
LINE
  8
OBJECT
 10
13.891659
 20
5.861514
 30
0.0
 11
14.114018
 21
5.861514
 31
0.0
  0
TEXT
  8
TEXT
 10
3.946545
 20
11.95956
 30
0.0
 40
0.3125
  1
LEVELER KIT
 41
0.75
  0
TEXT
  8
TEXT
 10
15.093731
 20
11.95515
 30
0.0
 40
0.3125
  1
RL-7770
 41
0.75
  0
TEXT
  8
TEXT
 10
13.147396
 20
1.962748
 30
0.0
 40
0.3125
  1
%%uASSEMBLED
 41
0.75
  0
DIMENSION
  8
DIM
  2
*D0
 10
18.163767
 20
4.410594
 30
0.0
 11
18.163767
 21
3.764312
 31
0.0
 13
14.598619
 23
3.11803
 33
0.0
 14
17.24201
 24
4.410594
 34
0.0
 50
90.0
  3
23NSTDI
  0
TEXT
  8
TEXT
 10
11.802915
 20
11.026354
 30
0.0
 40
0.25
  1
%%uMATERIAL:
 41
0.75
  0
TEXT
  8
TEXT
 10
12.061457
 20
10.609687
 30
0.0
 40
0.25
  1
MOUNTING BRACKET
 41
0.75
  0
TEXT
  8
TEXT
 10
11.802915
 20
10.19302
 30
0.0
 40
0.25
  1
%%uFINISH:
 41
0.75
  0
TEXT
  8
TEXT
 10
12.061457
 20
9.776354
 30
0.0
 40
0.25
  1
MOUNTING BRACKET
 41
0.75
  0
TEXT
  8
TEXT
 10
16.204166
 20
10.609687
 30
0.0
 40
0.25
  1
12 GA. STEEL
 41
0.75
  0
TEXT
  8
TEXT
 10
16.204166
 20
9.776354
 30
0.0
 40
0.25
  1
SMOOTH BLACK
 41
0.75
  0
LINE
  8
TEXT
 10
15.016565
 20
10.596823
 30
0.0
 11
16.027777
 21
10.596823
 31
0.0
  0
LINE
  8
TEXT
 10
15.035895
 20
9.795474
 30
0.0
 11
16.047107
 21
9.795474
 31
0.0
  0
POLYLINE
  8
DIM
 66
     1
 10
0.0
 20
0.0
 30
0.0
 41
0.135
  0
VERTEX
  8
DIM
 10
7.017476
 20
4.613669
 30
0.0
  0
VERTEX
  8
DIM
 10
7.229591
 20
4.322796
 30
0.0
 41
0.0
  0
VERTEX
  8
DIM
 10
7.842635
 20
3.482131
 30
0.0
 41
0.0
  0
VERTEX
  8
DIM
 10
8.092635
 20
3.482131
 30
0.0
 41
0.0
  0
SEQEND
  8
DIM
  0
TEXT
  8
DIM
 10
8.342635
 20
3.357131
 30
0.0
 40
0.25
  1
MOUNTING BRACKET
 41
0.75
  0
POLYLINE
  8
DIM
 66
     1
 10
0.0
 20
0.0
 30
0.0
 41
0.135
  0
VERTEX
  8
DIM
 10
6.726527
 20
0.922523
 30
0.0
  0
VERTEX
  8
DIM
 10
6.999513
 20
1.157212
 30
0.0
 41
0.0
  0
VERTEX
  8
DIM
 10
7.660206
 20
1.725218
 30
0.0
 41
0.0
  0
VERTEX
  8
DIM
 10
7.910206
 20
1.725218
 30
0.0
 41
0.0
  0
SEQEND
  8
DIM
  0
TEXT
  8
DIM
 10
8.160206
 20
1.600218
 30
0.0
 40
0.25
  1
#7767 LEVELER
 41
0.75
  0
TEXT
  8
DIM
 10
8.342635
 20
2.952381
 30
0.0
 40
0.25
  1
(QTY. 2)
 41
0.75
  0
TEXT
  8
DIM
 10
8.160206
 20
1.195468
 30
0.0
 40
0.25
  1
(QTY. 2)
 41
0.75
  0
POLYLINE
  8
DIM
 66
     1
 10
0.0
 20
0.0
 30
0.0
 41
0.135
  0
VERTEX
  8
DIM
 10
4.674856
 20
9.072007
 30
0.0
  0
VERTEX
  8
DIM
 10
5.018112
 20
8.963494
 30
0.0
 41
0.0
  0
VERTEX
  8
DIM
 10
5.693355
 20
8.750031
 30
0.0
 41
0.0
  0
VERTEX
  8
DIM
 10
5.943355
 20
8.750031
 30
0.0
 41
0.0
  0
SEQEND
  8
DIM
  0
TEXT
  8
DIM
 10
6.193355
 20
8.625031
 30
0.0
 40
0.25
  1
BOLT 1/4-20 x 2-1/4" LG.
 41
0.75
  0
TEXT
  8
DIM
 10
6.193355
 20
8.208364
 30
0.0
 40
0.25
  1
(QTY. 8)
 41
0.75
  0
POLYLINE
  8
DIM
 66
     1
 10
0.0
 20
0.0
 30
0.0
 41
0.135
  0
VERTEX
  8
DIM
 10
4.287809
 20
4.193614
 30
0.0
  0
VERTEX
  8
DIM
 10
3.962645
 20
4.348109
 30
0.0
 41
0.0
  0
VERTEX
  8
DIM
 10
3.600859
 20
4.520005
 30
0.0
 41
0.0
  0
VERTEX
  8
DIM
 10
3.350859
 20
4.520005
 30
0.0
 41
0.0
  0
SEQEND
  8
DIM
  0
TEXT
  8
DIM
 10
0.350859
 20
4.395005
 30
0.0
 40
0.25
  1
FLAT WASHER 1/4
 41
0.75
 72
     2
 11
3.100859
 21
4.395005
 31
0.0
  0
TEXT
  8
DIM
 10
1.913359
 20
3.978339
 30
0.0
 40
0.25
  1
(QTY. 8)
 41
0.75
 72
     2
 11
3.100859
 21
3.978339
 31
0.0
  0
POLYLINE
  8
DIM
 66
     1
 10
0.0
 20
0.0
 30
0.0
 41
0.135
  0
VERTEX
  8
DIM
 10
4.42681
 20
3.351735
 30
0.0
  0
VERTEX
  8
DIM
 10
4.136532
 20
3.138807
 30
0.0
 41
0.0
  0
VERTEX
  8
DIM
 10
3.864233
 20
2.939068
 30
0.0
 41
0.0
  0
VERTEX
  8
DIM
 10
3.614233
 20
2.939068
 30
0.0
 41
0.0
  0
SEQEND
  8
DIM
  0
TEXT
  8
DIM
 10
0.707983
 20
2.814068
 30
0.0
 40
0.25
  1
KEPS NUT 1/4-20
 41
0.75
 72
     2
 11
3.364233
 21
2.814068
 31
0.0
  0
TEXT
  8
DIM
 10
2.176733
 20
2.397401
 30
0.0
 40
0.25
  1
(QTY. 8)
 41
0.75
 72
     2
 11
3.364233
 21
2.397401
 31
0.0
  0
POLYLINE
  8
DIM
 66
     1
 10
0.0
 20
0.0
 30
0.0
 41
0.135
  0
VERTEX
  8
DIM
 10
8.072181
 20
7.035594
 30
0.0
  0
VERTEX
  8
DIM
 10
8.294754
 20
7.318545
 30
0.0
 41
0.0
  0
VERTEX
  8
DIM
 10
8.739074
 20
7.8834
 30
0.0
 41
0.0
  0
VERTEX
  8
DIM
 10
8.989074
 20
7.8834
 30
0.0
 41
0.0
  0
SEQEND
  8
DIM
  0
TEXT
  8
DIM
 10
9.239074
 20
7.7584
 30
0.0
 40
0.25
  1
CABINET BASE
 41
0.75
  0
LINE
  8
OBJECT
 10
8.222095
 20
20.662622
 30
0.0
 11
1.316095
 21
20.662622
 31
0.0
  0
LINE
  8
OBJECT
 10
8.222095
 20
18.025025
 30
0.0
 11
1.316095
 21
18.025025
 31
0.0
  0
LINE
  8
OBJECT
 10
8.222095
 20
17.275025
 30
0.0
 11
1.222095
 21
17.275025
 31
0.0
  0
LINE
  8
HIDDEN
 10
8.222095
 20
17.337025
 30
0.0
 11
1.284095
 21
17.337025
 31
0.0
  0
LINE
  8
OBJECT
 10
8.222095
 20
20.724622
 30
0.0
 11
1.316095
 21
20.724622
 31
0.0
  0
LINE
  8
OBJECT
 10
8.222095
 20
20.756622
 30
0.0
 11
1.316095
 21
27.662622
 31
0.0
  0
LINE
  8
OBJECT
 10
8.222095
 20
20.662622
 30
0.0
 11
8.222095
 21
20.756622
 31
0.0
  0
LINE
  8
OBJECT
 10
8.222095
 20
18.025025
 30
0.0
 11
8.222095
 21
17.275025
 31
0.0
  0
LINE
  8
OBJECT
 10
11.391544
 20
20.756622
 30
0.0
 11
11.391544
 21
27.662622
 31
0.0
  0
LINE
  8
CENTER
 10
11.766544
 20
21.818622
 30
0.0
 11
11.766544
 21
26.600622
 31
0.0
  0
LINE
  8
OBJECT
 10
12.141544
 20
20.662622
 30
0.0
 11
12.141544
 21
27.662622
 31
0.0
  0
LINE
  8
OBJECT
 10
12.079544
 20
20.724622
 30
0.0
 11
12.079544
 21
27.662622
 31
0.0
  0
LINE
  8
OBJECT
 10
1.222095
 20
20.756622
 30
0.0
 11
1.222095
 21
27.662622
 31
0.0
  0
LINE
  8
OBJECT
 10
1.284095
 20
20.756622
 30
0.0
 11
1.284095
 21
27.662622
 31
0.0
  0
LINE
  8
CENTER
 10
7.160095
 20
17.650025
 30
0.0
 11
2.378095
 21
17.650025
 31
0.0
  0
CIRCLE
  8
OBJECT
 10
7.269095
 20
17.650025
 30
0.0
 40
0.109
  0
CIRCLE
  8
OBJECT
 10
2.269095
 20
17.650025
 30
0.0
 40
0.109
  0
LINE
  8
OBJECT
 10
11.391544
 20
20.756622
 30
0.0
 11
12.141544
 21
20.756622
 31
0.0
  0
CIRCLE
  8
OBJECT
 10
11.766544
 20
21.709622
 30
0.0
 40
0.109
  0
LINE
  8
OBJECT
 10
12.141544
 20
20.662622
 30
0.0
 11
11.391544
 21
20.662622
 31
0.0
  0
LINE
  8
OBJECT
 10
12.079544
 20
20.724622
 30
0.0
 11
11.391544
 21
20.724622
 31
0.0
  0
LINE
  8
OBJECT
 10
11.391544
 20
20.724622
 30
0.0
 11
11.391544
 21
20.662622
 31
0.0
  0
LINE
  8
OBJECT
 10
1.316095
 20
20.662622
 30
0.0
 11
1.316095
 21
20.756622
 31
0.0
  0
LINE
  8
OBJECT
 10
1.222095
 20
20.756622
 30
0.0
 11
1.316095
 21
20.756622
 31
0.0
  0
LINE
  8
OBJECT
 10
1.316095
 20
18.025025
 30
0.0
 11
1.316095
 21
17.275025
 31
0.0
  0
LINE
  8
OBJECT
 10
1.222095
 20
18.025025
 30
0.0
 11
1.222095
 21
17.275025
 31
0.0
  0
LINE
  8
OBJECT
 10
1.284095
 20
18.025025
 30
0.0
 11
1.284095
 21
17.337025
 31
0.0
  0
LINE
  8
OBJECT
 10
1.284095
 20
18.025025
 30
0.0
 11
1.222095
 21
18.025025
 31
0.0
  0
DIMENSION
  8
DIM
  2
*D26
 10
10.597411
 20
27.662622
 30
0.0
 11
10.597411
 21
27.186122
 31
0.0
 12
12.329645
 22
-0.043812
 32
0.0
 13
11.766544
 23
26.709622
 33
0.0
 14
11.391544
 24
27.662622
 34
0.0
 50
270.0
  3
DIM
  0
CIRCLE
  8
OBJECT
 10
11.766544
 20
26.709622
 30
0.0
 40
0.109
  0
LINE
  8
OBJECT
 10
12.141544
 20
27.662622
 30
0.0
 11
11.391544
 21
27.662622
 31
0.0
  0
LINE
  8
OBJECT
 10
1.316095
 20
27.662622
 30
0.0
 11
1.222095
 21
27.662622
 31
0.0
  0
DIMENSION
  8
DIM
  2
*D27
 10
9.112172
 20
18.025025
 30
0.0
 11
10.011547
 21
18.745025
 31
0.0
 12
0.05654
 22
-0.043812
 32
0.0
 13
7.269095
 23
17.650025
 33
0.0
 14
8.222095
 24
18.025025
 34
0.0
 50
90.0
  3
23NSTD
  0
DIMENSION
  8
DIM
  2
*D29
 10
8.222095
 20
19.919702
 30
0.0
 11
4.722095
 21
19.919702
 31
0.0
 12
-1.018106
 22
-0.73893
 32
0.0
  1
A
 13
1.222095
 23
20.756622
 33
0.0
 14
8.222095
 24
20.662622
 34
0.0
  3
23NSTD
  0
DIMENSION
  8
DIM
  2
*D28
 10
10.597411
 20
21.709622
 30
0.0
 11
10.597411
 21
24.209622
 31
0.0
 12
-0.441506
 22
-0.043812
 32
0.0
  1
D
 13
11.766544
 23
26.709622
 33
0.0
 14
11.766544
 24
21.709622
 34
0.0
 50
90.0
  3
23NSTD
  0
DIMENSION
  8
DIM
  2
*D31
 10
9.738517
 20
27.662622
 30
0.0
 11
9.738517
 21
24.162622
 31
0.0
 12
-1.516151
 22
-0.73893
 32
0.0
  1
B
 13
11.391544
 23
20.662622
 33
0.0
 14
11.391544
 24
27.662622
 34
0.0
 50
90.0
  3
23NSTD
  0
DIMENSION
  8
DIM
  2
*D32
 10
7.269095
 20
16.465942
 30
0.0
 11
4.769095
 21
16.465942
 31
0.0
 12
-1.018106
 22
-0.73893
 32
0.0
  1
C
 13
2.269095
 23
17.650025
 33
0.0
 14
7.269095
 24
17.650025
 34
0.0
  3
23NSTD
  0
DIMENSION
  8
DIM
  2
*D33
 10
8.222095
 20
16.465942
 30
0.0
 11
7.745595
 21
16.465942
 31
0.0
 12
-1.018106
 22
-0.73893
 32
0.0
 13
7.269095
 23
17.650025
 33
0.0
 14
8.222095
 24
17.275025
 34
0.0
  3
23NSTDI
  0
DIMENSION
  8
DIM
  2
*D30
 10
11.391544
 20
19.919702
 30
0.0
 11
10.132169
 21
19.919702
 31
0.0
 12
-1.516151
 22
-0.73893
 32
0.0
 13
11.766544
 23
21.709622
 33
0.0
 14
11.391544
 24
20.662622
 34
0.0
  3
23NSTD
  0
TEXT
  8
TEXT
 10
12.722722
 20
16.431337
 30
0.0
 40
0.25
  1
%%uMATERIAL:
 41
0.75
  0
TEXT
  8
TEXT
 10
12.981264
 20
16.01467
 30
0.0
 40
0.25
  1
16 OR 18 GA. STEEL
 41
0.75
  0
TEXT
  8
TEXT
 10
16.762424
 20
16.427895
 30
0.0
 40
0.25
  1
%%uFINISH:
 41
0.75
  0
TEXT
  8
TEXT
 10
17.020966
 20
16.011228
 30
0.0
 40
0.25
  1
SMOOTH BLACK
 41
0.75
  0
DIMENSION
  8
DIM
  2
*D34
 10
1.316095
 20
20.662622
 30
0.0
 11
5.220641
 21
21.9448
 31
0.0
 12
-1.294798
 22
-1.48574
 32
0.0
 70
     2
 13
8.222095
 23
20.756622
 33
0.0
 14
1.316095
 24
27.662622
 34
0.0
 15
8.222095
 25
20.662622
 35
0.0
 16
5.417724
 26
22.343473
 36
0.0
  3
23NSTD
  0
POLYLINE
  8
DIM
 66
     1
 10
0.0
 20
0.0
 30
0.0
 41
0.135
  0
VERTEX
  8
DIM
 10
2.281051
 20
17.758367
 30
0.0
  0
VERTEX
  8
DIM
 10
2.478302
 20
18.059518
 30
0.0
 41
0.0
  0
VERTEX
  8
DIM
 10
3.185517
 20
19.13925
 30
0.0
 41
0.0
  0
VERTEX
  8
DIM
 10
3.545517
 20
19.13925
 30
0.0
 41
0.0
  0
SEQEND
  8
DIM
  0
TEXT
  8
DIM
 10
3.725517
 20
19.01425
 30
0.0
 40
0.25
  1
0.218 DIA.
 41
0.75
 11
3.725517
 21
19.13925
 31
0.0
 73
     2
  0
TEXT
  8
DIM
 10
3.725517
 20
18.597583
 30
0.0
 40
0.25
  1
(4) HOLES
 41
0.75
 11
3.725517
 21
18.722583
 31
0.0
 73
     2
  0
TEXT
  8
TEXT
 10
1.454585
 20
14.00995
 30
0.0
 40
0.25
  1
PART No.
 41
0.75
 72
     1
 11
2.110835
 21
14.00995
 31
0.0
  0
TEXT
  8
TEXT
 10
1.517085
 20
13.593283
 30
0.0
 40
0.25
  1
MB-1266
 41
0.75
 72
     1
 11
2.110835
 21
13.593283
 31
0.0
  0
TEXT
  8
TEXT
 10
1.517085
 20
13.176617
 30
0.0
 40
0.25
  1
MB-1267
 41
0.75
 72
     1
 11
2.110835
 21
13.176617
 31
0.0
  0
TEXT
  8
TEXT
 10
1.517085
 20
12.75995
 30
0.0
 40
0.25
  1
MB-1268
 41
0.75
 72
     1
 11
2.110835
 21
12.75995
 31
0.0
  0
TEXT
  8
TEXT
 10
5.695922
 20
12.75995
 30
0.0
 40
0.25
  1
9.000
 41
0.75
 72
     1
 11
6.024047
 21
12.75995
 31
0.0
  0
TEXT
  8
TEXT
 10
5.695922
 20
13.176617
 30
0.0
 40
0.25
  1
7.000
 41
0.75
 72
     1
 11
6.024047
 21
13.176617
 31
0.0
  0
TEXT
  8
TEXT
 10
5.695922
 20
13.593283
 30
0.0
 40
0.25
  1
5.000
 41
0.75
 72
     1
 11
6.024047
 21
13.593283
 31
0.0
  0
TEXT
  8
TEXT
 10
5.961547
 20
14.00995
 30
0.0
 40
0.25
  1
A
 41
0.75
 72
     1
 11
6.024047
 21
14.00995
 31
0.0
  0
TEXT
  8
TEXT
 10
9.982388
 20
14.00995
 30
0.0
 40
0.25
  1
B
 41
0.75
 72
     1
 11
10.044888
 21
14.00995
 31
0.0
  0
TEXT
  8
TEXT
 10
9.716763
 20
13.593283
 30
0.0
 40
0.25
  1
5.000
 41
0.75
 72
     1
 11
10.044888
 21
13.593283
 31
0.0
  0
TEXT
  8
TEXT
 10
9.716763
 20
13.176617
 30
0.0
 40
0.25
  1
7.000
 41
0.75
 72
     1
 11
10.044888
 21
13.176617
 31
0.0
  0
TEXT
  8
TEXT
 10
9.716763
 20
12.75995
 30
0.0
 40
0.25
  1
9.000
 41
0.75
 72
     1
 11
10.044888
 21
12.75995
 31
0.0
  0
TEXT
  8
TEXT
 10
13.75586
 20
12.75995
 30
0.0
 40
0.25
  1
7.000
 41
0.75
 72
     1
 11
14.083985
 21
12.75995
 31
0.0
  0
TEXT
  8
TEXT
 10
13.75586
 20
13.176617
 30
0.0
 40
0.25
  1
5.000
 41
0.75
 72
     1
 11
14.083985
 21
13.176617
 31
0.0
  0
TEXT
  8
TEXT
 10
13.75586
 20
13.593283
 30
0.0
 40
0.25
  1
3.000
 41
0.75
 72
     1
 11
14.083985
 21
13.593283
 31
0.0
  0
TEXT
  8
TEXT
 10
14.021485
 20
14.00995
 30
0.0
 40
0.25
  1
C
 41
0.75
 72
     1
 11
14.083985
 21
14.00995
 31
0.0
  0
TEXT
  8
TEXT
 10
18.233843
 20
14.00995
 30
0.0
 40
0.25
  1
D
 41
0.75
 72
     1
 11
18.296343
 21
14.00995
 31
0.0
  0
TEXT
  8
TEXT
 10
17.968218
 20
13.593283
 30
0.0
 40
0.25
  1
3.000
 41
0.75
 72
     1
 11
18.296343
 21
13.593283
 31
0.0
  0
TEXT
  8
TEXT
 10
17.968218
 20
13.176617
 30
0.0
 40
0.25
  1
5.000
 41
0.75
 72
     1
 11
18.296343
 21
13.176617
 31
0.0
  0
TEXT
  8
TEXT
 10
17.968218
 20
12.75995
 30
0.0
 40
0.25
  1
7.000
 41
0.75
 72
     1
 11
18.296343
 21
12.75995
 31
0.0
  0
LINE
  8
TITLE
 10
4.1224
 20
12.660512
 30
0.0
 11
4.1224
 21
14.332512
 31
0.0
  0
LINE
  8
TITLE
 10
8.1208
 20
12.660512
 30
0.0
 11
8.1208
 21
14.332512
 31
0.0
  0
LINE
  8
TITLE
 10
12.1192
 20
12.660512
 30
0.0
 11
12.1192
 21
14.332512
 31
0.0
  0
LINE
  8
TITLE
 10
16.1176
 20
12.660512
 30
0.0
 11
16.1176
 21
14.332512
 31
0.0
  0
LINE
  8
TITLE
 10
0.124
 20
13.078512
 30
0.0
 11
20.116
 21
13.078512
 31
0.0
  0
LINE
  8
TITLE
 10
0.124
 20
13.496512
 30
0.0
 11
20.116
 21
13.496512
 31
0.0
  0
LINE
  8
TITLE
 10
0.124
 20
13.914512
 30
0.0
 11
20.116
 21
13.914512
 31
0.0
  0
LINE
  8
TITLE
 10
0.124
 20
14.332512
 30
0.0
 11
20.116
 21
14.332512
 31
0.0
  0
LINE
  8
OBJECT
 10
14.265286
 20
27.845932
 30
0.0
 11
14.211593
 21
27.876932
 31
0.0
  0
LINE
  8
OBJECT
 10
14.211593
 20
27.876932
 30
0.0
 11
14.861112
 21
28.251932
 31
0.0
  0
LINE
  8
OBJECT
 10
14.861112
 20
28.251932
 30
0.0
 11
14.942518
 21
28.204932
 31
0.0
  0
LINE
  8
OBJECT
 10
18.54172
 20
20.438932
 30
0.0
 11
18.54172
 21
20.376932
 31
0.0
  0
LINE
  8
OBJECT
 10
18.54172
 20
20.376932
 30
0.0
 11
14.292999
 21
22.829932
 31
0.0
  0
LINE
  8
OBJECT
 10
14.211593
 20
22.970932
 30
0.0
 11
14.211593
 21
27.876932
 31
0.0
  0
LINE
  8
OBJECT
 10
19.191239
 20
20.845932
 30
0.0
 11
19.191239
 21
20.751932
 31
0.0
  0
LINE
  8
OBJECT
 10
19.191239
 20
20.751932
 30
0.0
 11
18.54172
 21
20.376932
 31
0.0
  0
LINE
  8
OBJECT
 10
19.137545
 20
20.782932
 30
0.0
 11
18.54172
 21
20.438932
 31
0.0
  0
LINE
  8
OBJECT
 10
14.265286
 20
27.845932
 30
0.0
 11
14.861112
 21
28.189932
 31
0.0
  0
LINE
  8
OBJECT
 10
18.54172
 20
20.438932
 30
0.0
 11
14.292999
 21
22.891932
 31
0.0
  0
LINE
  8
OBJECT
 10
14.265286
 20
22.939932
 30
0.0
 11
14.265286
 21
27.845932
 31
0.0
  0
LINE
  8
OBJECT
 10
19.191239
 20
20.845932
 30
0.0
 11
19.137545
 21
20.814932
 31
0.0
  0
LINE
  8
OBJECT
 10
19.137545
 20
20.814932
 30
0.0
 11
19.137545
 21
20.782932
 31
0.0
  0
LINE
  8
OBJECT
 10
14.888825
 20
28.173932
 30
0.0
 11
14.942518
 21
28.204932
 31
0.0
  0
LINE
  8
OBJECT
 10
14.861112
 20
28.189932
 30
0.0
 11
14.888825
 21
28.173932
 31
0.0
  0
LINE
  8
OBJECT
 10
19.137545
 20
20.814932
 30
0.0
 11
14.888825
 21
28.173932
 31
0.0
  0
LINE
  8
OBJECT
 10
14.942518
 20
28.204932
 30
0.0
 11
19.191239
 21
20.845932
 31
0.0
  0
LINE
  8
OBJECT
 10
14.888825
 20
23.235932
 30
0.0
 11
19.137545
 21
20.782932
 31
0.0
  0
LINE
  8
OBJECT
 10
14.861112
 20
23.283932
 30
0.0
 11
14.861112
 21
28.189932
 31
0.0
  0
LINE
  8
OBJECT
 10
14.265286
 20
22.939932
 30
0.0
 11
14.211593
 21
22.970932
 31
0.0
  0
LINE
  8
OBJECT
 10
14.861112
 20
23.283932
 30
0.0
 11
14.265286
 21
22.939932
 31
0.0
  0
LINE
  8
OBJECT
 10
14.292999
 20
22.829932
 30
0.0
 11
14.292999
 21
22.891932
 31
0.0
  0
LINE
  8
OBJECT
 10
14.888825
 20
23.235932
 30
0.0
 11
14.292999
 21
22.891932
 31
0.0
  0
LINE
  8
OBJECT
 10
14.888825
 20
23.235932
 30
0.0
 11
14.888825
 21
23.267932
 31
0.0
  0
LINE
  8
OBJECT
 10
14.861112
 20
23.283932
 30
0.0
 11
14.888825
 21
23.267932
 31
0.0
  0
POLYLINE
  8
OBJECT
 66
     1
 10
0.0
 20
0.0
 30
0.0
 70
     1
  0
VERTEX
  8
OBJECT
 10
18.041157
 20
21.180007
 30
0.0
 42
0.058752
  0
VERTEX
  8
OBJECT
 10
17.987554
 20
21.173687
 30
0.0
 42
0.072341
  0
VERTEX
  8
OBJECT
 10
17.94676
 20
21.157432
 30
0.0
 42
0.106617
 70
     2
 50
210.0
  0
VERTEX
  8
OBJECT
 10
17.91632
 20
21.129858
 30
0.0
 42
0.156851
 50
210.0
  0
VERTEX
  8
OBJECT
 10
17.90766
 20
21.102932
 30
0.0
 42
0.156851
  0
VERTEX
  8
OBJECT
 10
17.91632
 20
21.076007
 30
0.0
 42
0.106617
  0
VERTEX
  8
OBJECT
 10
17.94676
 20
21.048432
 30
0.0
 42
0.072341
 70
     2
 50
330.0
  0
VERTEX
  8
OBJECT
 10
17.987554
 20
21.032178
 30
0.0
 42
0.058752
 50
330.0
  0
VERTEX
  8
OBJECT
 10
18.041157
 20
21.025858
 30
0.0
 42
0.058752
  0
VERTEX
  8
OBJECT
 10
18.09476
 20
21.032178
 30
0.0
 42
0.072341
  0
VERTEX
  8
OBJECT
 10
18.135554
 20
21.048432
 30
0.0
 42
0.106617
 70
     2
 50
30.0
  0
VERTEX
  8
OBJECT
 10
18.165995
 20
21.076007
 30
0.0
 42
0.156851
 50
30.0
  0
VERTEX
  8
OBJECT
 10
18.174654
 20
21.102932
 30
0.0
 42
0.156851
  0
VERTEX
  8
OBJECT
 10
18.165995
 20
21.129858
 30
0.0
 42
0.106617
  0
VERTEX
  8
OBJECT
 10
18.135554
 20
21.157432
 30
0.0
 42
0.072341
 70
     2
 50
150.0
  0
VERTEX
  8
OBJECT
 10
18.09476
 20
21.173687
 30
0.0
 42
0.058752
 50
150.0
  0
SEQEND
  8
OBJECT
  0
POLYLINE
  8
OBJECT
 66
     1
 10
0.0
 20
0.0
 30
0.0
  0
VERTEX
  8
OBJECT
 10
18.041157
 20
21.118007
 30
0.0
 42
0.058752
  0
VERTEX
  8
OBJECT
 10
17.987554
 20
21.111687
 30
0.0
 42
0.072341
  0
VERTEX
  8
OBJECT
 10
17.94676
 20
21.095432
 30
0.0
 42
0.093362
 70
     2
 50
210.0
  0
VERTEX
  8
OBJECT
 10
17.919408
 20
21.071932
 30
0.0
 42
0.156851
 50
210.0
  0
SEQEND
  8
OBJECT
  0
POLYLINE
  8
OBJECT
 66
     1
 10
0.0
 20
0.0
 30
0.0
  0
VERTEX
  8
OBJECT
 10
18.162907
 20
21.071932
 30
0.0
 42
0.093362
  0
VERTEX
  8
OBJECT
 10
18.135554
 20
21.095432
 30
0.0
 42
0.072341
 70
     2
 50
150.0
  0
VERTEX
  8
OBJECT
 10
18.09476
 20
21.111687
 30
0.0
 42
0.058752
 50
150.0
  0
VERTEX
  8
OBJECT
 10
18.041157
 20
21.118007
 30
0.0
 42
0.058752
  0
SEQEND
  8
OBJECT
  0
POLYLINE
  8
OBJECT
 66
     1
 10
0.0
 20
0.0
 30
0.0
  0
VERTEX
  8
OBJECT
 10
15.56483
 20
22.571932
 30
0.0
 42
0.093362
  0
VERTEX
  8
OBJECT
 10
15.537478
 20
22.595432
 30
0.0
 42
0.072341
 70
     2
 50
150.0
  0
VERTEX
  8
OBJECT
 10
15.496684
 20
22.611687
 30
0.0
 42
0.058752
 50
150.0
  0
VERTEX
  8
OBJECT
 10
15.443081
 20
22.618007
 30
0.0
 42
0.058752
  0
SEQEND
  8
OBJECT
  0
POLYLINE
  8
OBJECT
 66
     1
 10
0.0
 20
0.0
 30
0.0
  0
VERTEX
  8
OBJECT
 10
15.443081
 20
22.618007
 30
0.0
 42
0.058752
  0
VERTEX
  8
OBJECT
 10
15.389478
 20
22.611687
 30
0.0
 42
0.072341
  0
VERTEX
  8
OBJECT
 10
15.348684
 20
22.595432
 30
0.0
 42
0.093362
 70
     2
 50
210.0
  0
VERTEX
  8
OBJECT
 10
15.321332
 20
22.571932
 30
0.0
 42
0.156851
 50
210.0
  0
SEQEND
  8
OBJECT
  0
POLYLINE
  8
OBJECT
 66
     1
 10
0.0
 20
0.0
 30
0.0
 70
     1
  0
VERTEX
  8
OBJECT
 10
15.443081
 20
22.680007
 30
0.0
 42
0.058752
  0
VERTEX
  8
OBJECT
 10
15.389478
 20
22.673687
 30
0.0
 42
0.072341
  0
VERTEX
  8
OBJECT
 10
15.348684
 20
22.657432
 30
0.0
 42
0.106617
 70
     2
 50
210.0
  0
VERTEX
  8
OBJECT
 10
15.318244
 20
22.629858
 30
0.0
 42
0.156851
 50
210.0
  0
VERTEX
  8
OBJECT
 10
15.309584
 20
22.602932
 30
0.0
 42
0.156851
  0
VERTEX
  8
OBJECT
 10
15.318244
 20
22.576007
 30
0.0
 42
0.106617
  0
VERTEX
  8
OBJECT
 10
15.348684
 20
22.548432
 30
0.0
 42
0.072341
 70
     2
 50
330.0
  0
VERTEX
  8
OBJECT
 10
15.389478
 20
22.532178
 30
0.0
 42
0.058752
 50
330.0
  0
VERTEX
  8
OBJECT
 10
15.443081
 20
22.525858
 30
0.0
 42
0.058752
  0
VERTEX
  8
OBJECT
 10
15.496684
 20
22.532178
 30
0.0
 42
0.072341
  0
VERTEX
  8
OBJECT
 10
15.537478
 20
22.548432
 30
0.0
 42
0.106617
 70
     2
 50
30.0
  0
VERTEX
  8
OBJECT
 10
15.567919
 20
22.576007
 30
0.0
 42
0.156851
 50
30.0
  0
VERTEX
  8
OBJECT
 10
15.576578
 20
22.602932
 30
0.0
 42
0.156851
  0
VERTEX
  8
OBJECT
 10
15.567919
 20
22.629858
 30
0.0
 42
0.106617
  0
VERTEX
  8
OBJECT
 10
15.537478
 20
22.657432
 30
0.0
 42
0.072341
 70
     2
 50
150.0
  0
VERTEX
  8
OBJECT
 10
15.496684
 20
22.673687
 30
0.0
 42
0.058752
 50
150.0
  0
SEQEND
  8
OBJECT
  0
POLYLINE
  8
OBJECT
 66
     1
 10
0.0
 20
0.0
 30
0.0
 70
     1
  0
VERTEX
  8
OBJECT
 10
14.523297
 20
24.11897
 30
0.0
 42
0.058752
  0
VERTEX
  8
OBJECT
 10
14.50197
 20
24.069388
 30
0.0
 42
0.072341
  0
VERTEX
  8
OBJECT
 10
14.495649
 20
24.025932
 30
0.0
 42
0.106617
 70
     2
 50
270.0
  0
VERTEX
  8
OBJECT
 10
14.504309
 20
23.985783
 30
0.0
 42
0.156851
 50
270.0
  0
VERTEX
  8
OBJECT
 10
14.523297
 20
23.96482
 30
0.0
 42
0.156851
  0
VERTEX
  8
OBJECT
 10
14.550946
 20
23.958857
 30
0.0
 42
0.106617
  0
VERTEX
  8
OBJECT
 10
14.590046
 20
23.971432
 30
0.0
 42
0.072341
 70
     2
 50
30.0
  0
VERTEX
  8
OBJECT
 10
14.62452
 20
23.998634
 30
0.0
 42
0.058752
 50
30.0
  0
VERTEX
  8
OBJECT
 10
14.656795
 20
24.041895
 30
0.0
 42
0.058752
  0
VERTEX
  8
OBJECT
 10
14.678122
 20
24.091477
 30
0.0
 42
0.072341
  0
VERTEX
  8
OBJECT
 10
14.684443
 20
24.134932
 30
0.0
 42
0.106617
 70
     2
 50
90.0
  0
VERTEX
  8
OBJECT
 10
14.675783
 20
24.175082
 30
0.0
 42
0.156851
 50
90.0
  0
VERTEX
  8
OBJECT
 10
14.656795
 20
24.196044
 30
0.0
 42
0.156851
  0
VERTEX
  8
OBJECT
 10
14.629146
 20
24.202008
 30
0.0
 42
0.106617
  0
VERTEX
  8
OBJECT
 10
14.590046
 20
24.189432
 30
0.0
 42
0.072341
 70
     2
 50
210.0
  0
VERTEX
  8
OBJECT
 10
14.555572
 20
24.162231
 30
0.0
 42
0.058752
 50
210.0
  0
SEQEND
  8
OBJECT
  0
POLYLINE
  8
OBJECT
 66
     1
 10
0.0
 20
0.0
 30
0.0
  0
VERTEX
  8
OBJECT
 10
14.502325
 20
23.990494
 30
0.0
 42
0.093362
  0
VERTEX
  8
OBJECT
 10
14.536352
 20
24.002432
 30
0.0
 42
0.072341
 70
     2
 50
30.0
  0
VERTEX
  8
OBJECT
 10
14.570826
 20
24.029634
 30
0.0
 42
0.058752
 50
30.0
  0
VERTEX
  8
OBJECT
 10
14.603101
 20
24.072895
 30
0.0
 42
0.058752
  0
VERTEX
  8
OBJECT
 10
14.624429
 20
24.122477
 30
0.0
 42
0.072341
  0
VERTEX
  8
OBJECT
 10
14.630749
 20
24.165932
 30
0.0
 42
0.093362
 70
     2
 50
90.0
  0
VERTEX
  8
OBJECT
 10
14.624074
 20
24.20137
 30
0.0
 42
0.156851
 50
90.0
  0
SEQEND
  8
OBJECT
  0
POLYLINE
  8
OBJECT
 66
     1
 10
0.0
 20
0.0
 30
0.0
 70
     1
  0
VERTEX
  8
OBJECT
 10
14.523297
 20
27.11897
 30
0.0
 42
0.058752
  0
VERTEX
  8
OBJECT
 10
14.50197
 20
27.069388
 30
0.0
 42
0.072341
  0
VERTEX
  8
OBJECT
 10
14.495649
 20
27.025932
 30
0.0
 42
0.106617
 70
     2
 50
270.0
  0
VERTEX
  8
OBJECT
 10
14.504309
 20
26.985783
 30
0.0
 42
0.156851
 50
270.0
  0
VERTEX
  8
OBJECT
 10
14.523297
 20
26.96482
 30
0.0
 42
0.156851
  0
VERTEX
  8
OBJECT
 10
14.550946
 20
26.958857
 30
0.0
 42
0.106617
  0
VERTEX
  8
OBJECT
 10
14.590046
 20
26.971432
 30
0.0
 42
0.072341
 70
     2
 50
30.0
  0
VERTEX
  8
OBJECT
 10
14.62452
 20
26.998634
 30
0.0
 42
0.058752
 50
30.0
  0
VERTEX
  8
OBJECT
 10
14.656795
 20
27.041895
 30
0.0
 42
0.058752
  0
VERTEX
  8
OBJECT
 10
14.678122
 20
27.091477
 30
0.0
 42
0.072341
  0
VERTEX
  8
OBJECT
 10
14.684443
 20
27.134932
 30
0.0
 42
0.106617
 70
     2
 50
90.0
  0
VERTEX
  8
OBJECT
 10
14.675783
 20
27.175082
 30
0.0
 42
0.156851
 50
90.0
  0
VERTEX
  8
OBJECT
 10
14.656795
 20
27.196044
 30
0.0
 42
0.156851
  0
VERTEX
  8
OBJECT
 10
14.629146
 20
27.202008
 30
0.0
 42
0.106617
  0
VERTEX
  8
OBJECT
 10
14.590046
 20
27.189432
 30
0.0
 42
0.072341
 70
     2
 50
210.0
  0
VERTEX
  8
OBJECT
 10
14.555572
 20
27.162231
 30
0.0
 42
0.058752
 50
210.0
  0
SEQEND
  8
OBJECT
  0
POLYLINE
  8
OBJECT
 66
     1
 10
0.0
 20
0.0
 30
0.0
  0
VERTEX
  8
OBJECT
 10
14.502325
 20
26.990494
 30
0.0
 42
0.093362
  0
VERTEX
  8
OBJECT
 10
14.536352
 20
27.002432
 30
0.0
 42
0.072341
 70
     2
 50
30.0
  0
VERTEX
  8
OBJECT
 10
14.570826
 20
27.029634
 30
0.0
 42
0.058752
 50
30.0
  0
VERTEX
  8
OBJECT
 10
14.603101
 20
27.072895
 30
0.0
 42
0.058752
  0
VERTEX
  8
OBJECT
 10
14.624429
 20
27.122477
 30
0.0
 42
0.072341
  0
VERTEX
  8
OBJECT
 10
14.630749
 20
27.165932
 30
0.0
 42
0.093362
 70
     2
 50
90.0
  0
VERTEX
  8
OBJECT
 10
14.624074
 20
27.20137
 30
0.0
 42
0.156851
 50
90.0
  0
SEQEND
  8
OBJECT
  0
DIMENSION
  8
DIM
  2
*D35
 10
11.391544
 20
19.312113
 30
0.0
 11
10.147794
 21
19.312113
 31
0.0
 12
-0.205711
 22
-1.527613
 32
0.0
 13
12.141544
 23
20.662622
 33
0.0
 14
11.391544
 24
20.662622
 34
0.0
  3
23NSTD
  0
LINE
  8
OBJECT
 10
12.55627
 20
4.935594
 30
0.0
 11
12.471066
 21
4.935594
 31
0.0
  0
LINE
  8
OBJECT
 10
12.638668
 20
4.985594
 30
0.0
 11
12.388668
 21
4.985594
 31
0.0
  0
LINE
  8
OBJECT
 10
12.55627
 20
5.035594
 30
0.0
 11
12.471066
 21
5.035594
 31
0.0
  0
LINE
  8
OBJECT
 10
15.534612
 20
4.935594
 30
0.0
 11
15.449407
 21
4.935594
 31
0.0
  0
LINE
  8
OBJECT
 10
15.61701
 20
4.985594
 30
0.0
 11
15.36701
 21
4.985594
 31
0.0
  0
LINE
  8
OBJECT
 10
15.534612
 20
5.035594
 30
0.0
 11
15.449407
 21
5.035594
 31
0.0
  0
LINE
  8
OBJECT
 10
12.55627
 20
5.735594
 30
0.0
 11
12.471066
 21
5.735594
 31
0.0
  0
LINE
  8
OBJECT
 10
12.638668
 20
5.685594
 30
0.0
 11
12.388668
 21
5.685594
 31
0.0
  0
LINE
  8
OBJECT
 10
12.55627
 20
5.635594
 30
0.0
 11
12.471066
 21
5.635594
 31
0.0
  0
LINE
  8
OBJECT
 10
12.638668
 20
5.685594
 30
0.0
 11
12.388668
 21
5.685594
 31
0.0
  0
LINE
  8
OBJECT
 10
12.638668
 20
5.585594
 30
0.0
 11
12.388668
 21
5.585594
 31
0.0
  0
LINE
  8
OBJECT
 10
12.55627
 20
5.535594
 30
0.0
 11
12.471066
 21
5.535594
 31
0.0
  0
LINE
  8
OBJECT
 10
15.534612
 20
5.535594
 30
0.0
 11
15.449407
 21
5.535594
 31
0.0
  0
LINE
  8
OBJECT
 10
15.61701
 20
5.585594
 30
0.0
 11
15.36701
 21
5.585594
 31
0.0
  0
LINE
  8
OBJECT
 10
15.534612
 20
5.635594
 30
0.0
 11
15.449407
 21
5.635594
 31
0.0
  0
LINE
  8
OBJECT
 10
15.61701
 20
5.685594
 30
0.0
 11
15.36701
 21
5.685594
 31
0.0
  0
LINE
  8
OBJECT
 10
15.534612
 20
5.735594
 30
0.0
 11
15.449407
 21
5.735594
 31
0.0
  0
LINE
  8
OBJECT
 10
13.816619
 20
4.963686
 30
0.0
 11
14.191619
 21
4.963686
 31
0.0
  0
LINE
  8
OBJECT
 10
13.891659
 20
5.065858
 30
0.0
 11
14.114018
 21
5.065858
 31
0.0
  0
LINE
  8
OBJECT
 10
13.891659
 20
5.265858
 30
0.0
 11
14.114018
 21
5.265858
 31
0.0
  0
LINE
  8
OBJECT
 10
13.816619
 20
5.16803
 30
0.0
 11
14.191619
 21
5.16803
 31
0.0
  0
ENDSEC
  0
EOF
