  0
SECTION
  2
HEADER
  9
$ACADVER
  1
AC1009
  9
$INSBASE
 10
0.0
 20
0.0
 30
0.0
  9
$EXTMIN
 10
-0.0006564558502831
 20
-0.0004726904264913
 30
-0.0000000000112498
  9
$EXTMAX
 10
20.240773075202249
 20
31.000473123517921
 30
0.0000000000002956
  9
$LIMMIN
 10
0.0
 20
0.0
  9
$LIMMAX
 10
20.239999999999998
 20
30.999999999999989
  9
$ORTHOMODE
 70
     1
  9
$REGENMODE
 70
     1
  9
$FILLMODE
 70
     1
  9
$QTEXTMODE
 70
     0
  9
$MIRRTEXT
 70
     0
  9
$DRAGMODE
 70
     2
  9
$LTSCALE
 40
1.0
  9
$OSMODE
 70
   229
  9
$ATTMODE
 70
     1
  9
$TEXTSIZE
 40
0.25
  9
$TRACEWID
 40
0.05
  9
$TEXTSTYLE
  7
STANDARD
  9
$CLAYER
  8
DIM
  9
$CELTYPE
  6
BYLAYER
  9
$CECOLOR
 62
   256
  9
$DIMSCALE
 40
2.0
  9
$DIMASZ
 40
0.18
  9
$DIMEXO
 40
0.063
  9
$DIMDLI
 40
0.38
  9
$DIMRND
 40
0.0
  9
$DIMDLE
 40
0.0
  9
$DIMEXE
 40
0.093
  9
$DIMTP
 40
0.0
  9
$DIMTM
 40
0.0
  9
$DIMTXT
 40
0.125
  9
$DIMCEN
 40
0.09
  9
$DIMTSZ
 40
0.0
  9
$DIMTOL
 70
     0
  9
$DIMLIM
 70
     0
  9
$DIMTIH
 70
     1
  9
$DIMTOH
 70
     1
  9
$DIMSE1
 70
     0
  9
$DIMSE2
 70
     0
  9
$DIMTAD
 70
     0
  9
$DIMZIN
 70
     0
  9
$DIMBLK
  1

  9
$DIMASO
 70
     1
  9
$DIMSHO
 70
     1
  9
$DIMPOST
  1

  9
$DIMAPOST
  1

  9
$DIMALT
 70
     0
  9
$DIMALTD
 70
     2
  9
$DIMALTF
 40
25.399999999999999
  9
$DIMLFAC
 40
1.0
  9
$DIMTOFL
 70
     0
  9
$DIMTVP
 40
0.0
  9
$DIMTIX
 70
     0
  9
$DIMSOXD
 70
     0
  9
$DIMSAH
 70
     0
  9
$DIMBLK1
  1

  9
$DIMBLK2
  1

  9
$DIMSTYLE
  2
23NSTD
  9
$DIMCLRD
 70
     0
  9
$DIMCLRE
 70
     0
  9
$DIMCLRT
 70
     0
  9
$DIMTFAC
 40
1.0
  9
$DIMGAP
 40
0.09
  9
$LUNITS
 70
     2
  9
$LUPREC
 70
     3
  9
$SKETCHINC
 40
0.1232307415789258
  9
$FILLETRAD
 40
0.0
  9
$AUNITS
 70
     0
  9
$AUPREC
 70
     0
  9
$MENU
  1
acad
  9
$ELEVATION
 40
0.0
  9
$PELEVATION
 40
0.0
  9
$THICKNESS
 40
0.0
  9
$LIMCHECK
 70
     0
  9
$BLIPMODE
 70
     0
  9
$CHAMFERA
 40
0.354
  9
$CHAMFERB
 40
0.354
  9
$SKPOLY
 70
     0
  9
$TDCREATE
 40
2448177.3387793978
  9
$TDUPDATE
 40
2451886.5584913879
  9
$TDINDWG
 40
0.5129812269
  9
$TDUSRTIMER
 40
0.5129812269
  9
$USRTIMER
 70
     1
  9
$ANGBASE
 50
0.0
  9
$ANGDIR
 70
     0
  9
$PDMODE
 70
     0
  9
$PDSIZE
 40
0.0
  9
$PLINEWID
 40
0.0
  9
$COORDS
 70
     2
  9
$SPLFRAME
 70
     0
  9
$SPLINETYPE
 70
     6
  9
$SPLINESEGS
 70
     8
  9
$ATTDIA
 70
     0
  9
$ATTREQ
 70
     1
  9
$HANDLING
 70
  4097
  9
$HANDSEED
  5
2CB
  9
$SURFTAB1
 70
     6
  9
$SURFTAB2
 70
     6
  9
$SURFTYPE
 70
     6
  9
$SURFU
 70
     6
  9
$SURFV
 70
     6
  9
$UCSNAME
  2

  9
$UCSORG
 10
0.0
 20
0.0
 30
0.0
  9
$UCSXDIR
 10
1.0
 20
0.0
 30
0.0
  9
$UCSYDIR
 10
0.0
 20
1.0
 30
0.0
  9
$PUCSNAME
  2

  9
$PUCSORG
 10
0.0
 20
0.0
 30
0.0
  9
$PUCSXDIR
 10
1.0
 20
0.0
 30
0.0
  9
$PUCSYDIR
 10
0.0
 20
1.0
 30
0.0
  9
$USERI1
 70
     0
  9
$USERI2
 70
     0
  9
$USERI3
 70
     0
  9
$USERI4
 70
     0
  9
$USERI5
 70
     0
  9
$USERR1
 40
0.0
  9
$USERR2
 40
0.0
  9
$USERR3
 40
0.0
  9
$USERR4
 40
0.0
  9
$USERR5
 40
0.0
  9
$WORLDVIEW
 70
     1
  9
$SHADEDGE
 70
     3
  9
$SHADEDIF
 70
    70
  9
$TILEMODE
 70
     1
  9
$MAXACTVP
 70
    16
  9
$PLIMCHECK
 70
     0
  9
$PEXTMIN
 10
1.0000000000000000E+020
 20
1.0000000000000000E+020
 30
1.0000000000000000E+020
  9
$PEXTMAX
 10
-1.0000000000000000E+020
 20
-1.0000000000000000E+020
 30
-1.0000000000000000E+020
  9
$PLIMMIN
 10
0.0
 20
0.0
  9
$PLIMMAX
 10
12.0
 20
9.0
  9
$UNITMODE
 70
     0
  9
$VISRETAIN
 70
     0
  9
$PLINEGEN
 70
     0
  9
$PSLTSCALE
 70
     0
  0
ENDSEC
  0
SECTION
  2
TABLES
  0
TABLE
  2
VPORT
 70
     2
  0
VPORT
  2
*ACTIVE
 70
     0
 10
0.0
 20
0.0
 11
1.0
 21
1.0
 12
10.11928610150504
 22
15.500000144359401
 13
0.0
 23
0.0
 14
1.0
 24
1.0
 15
1.0
 25
1.0
 16
0.0
 26
0.0
 36
1.0
 17
0.0
 27
0.0
 37
0.0
 40
31.352795000187271
 41
1.8139097744360899
 42
50.0
 43
0.0
 44
0.0
 50
0.0
 51
0.0
 71
     0
 72
   100
 73
     1
 74
     0
 75
     0
 76
     0
 77
     0
 78
     0
  0
ENDTAB
  0
TABLE
  2
LTYPE
 70
     3
  0
LTYPE
  2
CONTINUOUS
 70
     0
  3
Solid line
 72
    65
 73
     0
 40
0.0
  0
LTYPE
  2
HIDDEN
 70
     0
  3
_ _ _ _ _ _ _ _ _ _ _ _ _ _ _ _ _ _ _ _ _ _ _
 72
    65
 73
     2
 40
0.375
 49
0.25
 49
-0.125
  0
LTYPE
  2
CENTER
 70
     0
  3
____ _ ____ _ ____ _ ____ _ ____ _ ____ _ ____ 
 72
    65
 73
     4
 40
2.0
 49
1.25
 49
-0.25
 49
0.25
 49
-0.25
  0
ENDTAB
  0
TABLE
  2
LAYER
 70
     7
  0
LAYER
  2
0
 70
     0
 62
     7
  6
CONTINUOUS
  0
LAYER
  2
OBJECT
 70
     0
 62
     7
  6
CONTINUOUS
  0
LAYER
  2
DIM
 70
     0
 62
     2
  6
CONTINUOUS
  0
LAYER
  2
HIDDEN
 70
     0
 62
     6
  6
HIDDEN
  0
LAYER
  2
TEXT
 70
     0
 62
     1
  6
CONTINUOUS
  0
LAYER
  2
TITLE
 70
     0
 62
     8
  6
CONTINUOUS
  0
LAYER
  2
DEFPOINTS
 70
     0
 62
     7
  6
CONTINUOUS
  0
ENDTAB
  0
TABLE
  2
STYLE
 70
     1
  0
STYLE
  2
STANDARD
 70
     0
 40
0.0
 41
0.75
 50
0.0
 71
     0
 42
0.25
  3
TXT.shx
  4

  0
ENDTAB
  0
TABLE
  2
VIEW
 70
     0
  0
ENDTAB
  0
TABLE
  2
UCS
 70
     0
  0
ENDTAB
  0
TABLE
  2
APPID
 70
     1
  0
APPID
  2
ACAD
 70
     0
  0
ENDTAB
  0
TABLE
  2
DIMSTYLE
 70
     2
  0
DIMSTYLE
  2
23NSTD
 70
     0
  3

  4

  5

  6

  7

 40
2.0
 41
0.18
 42
0.063
 43
0.38
 44
0.093
 45
0.0
 46
0.0
 47
0.0
 48
0.0
140
0.125
141
0.09
142
0.0
143
25.399999999999999
144
1.0
145
0.0
146
1.0
147
0.09
 71
     0
 72
     0
 73
     1
 74
     1
 75
     0
 76
     0
 77
     0
 78
     0
170
     0
171
     2
172
     0
173
     0
174
     0
175
     0
176
     0
177
     0
178
     0
  0
DIMSTYLE
  2
23NSTDI
 70
     0
  3

  4

  5

  6

  7

 40
2.0
 41
0.18
 42
0.063
 43
0.38
 44
0.093
 45
0.0
 46
0.0
 47
0.0
 48
0.0
140
0.125
141
0.09
142
0.0
143
25.399999999999999
144
1.0
145
0.0
146
1.0
147
0.09
 71
     0
 72
     0
 73
     1
 74
     1
 75
     0
 76
     0
 77
     0
 78
     0
170
     0
171
     2
172
     0
173
     0
174
     1
175
     0
176
     0
177
     0
178
     0
  0
ENDTAB
  0
ENDSEC
  0
SECTION
  2
BLOCKS
  0
BLOCK
  8
0
  2
$MODEL_SPACE
 70
     0
 10
0.0
 20
0.0
 30
0.0
  3
$MODEL_SPACE
  1

  0
ENDBLK
  5
4D
  8
0
  0
BLOCK
 67
     1
  8
0
  2
$PAPER_SPACE
 70
     0
 10
0.0
 20
0.0
 30
0.0
  3
$PAPER_SPACE
  1

  0
ENDBLK
  5
4B
 67
     1
  8
0
  0
BLOCK
  8
0
  2
HB
 70
     0
 10
0.0
 20
0.0
 30
0.0
  3
HB
  1

  0
TEXT
  5
4F
  8
TEXT
 10
0.2078333333333363
 20
15.06007919564008
 30
0.0
 40
0.125
  1
NAME
 72
     1
 11
0.437000000000003
 21
15.06007919564008
 31
0.0
  0
TEXT
  5
51
  8
TEXT
 10
0.2078333333333363
 20
15.268412528973411
 30
0.0
 40
0.125
  1
PART
 72
     1
 11
0.437000000000003
 21
15.268412528973411
 31
0.0
  0
TEXT
  5
52
  8
TEXT
 10
5.3719999999999981
 20
15.06007919564008
 30
0.0
 40
0.125
  1
No.
 72
     1
 11
5.4969999999999981
 21
15.06007919564008
 31
0.0
  0
TEXT
  5
53
  8
TEXT
 10
5.2678333333333311
 20
15.268412528973411
 30
0.0
 40
0.125
  1
PART
 72
     1
 11
5.4969999999999981
 21
15.268412528973411
 31
0.0
  0
LINE
  5
54
  8
TITLE
 10
5.8720000000000008
 20
15.438000000000001
 30
0.0
 11
5.8720000000000008
 21
15.019999999999991
 31
0.0
  0
LINE
  5
55
  8
TITLE
 10
5.1220000000000008
 20
15.438000000000001
 30
0.0
 11
5.1220000000000008
 21
15.019999999999991
 31
0.0
  0
LINE
  5
56
  8
TITLE
 10
5.0599999999999996
 20
15.438000000000001
 30
0.0
 11
5.0599999999999996
 21
15.019999999999991
 31
0.0
  0
LINE
  5
57
  8
TITLE
 10
0.8120000000000029
 20
15.019999999999991
 30
0.0
 11
0.8120000000000011
 21
15.438000000000001
 31
0.0
  0
LINE
  5
58
  8
TITLE
 10
0.0620000000000012
 20
15.019999999999991
 30
0.0
 11
10.058
 21
15.019999999999991
 31
0.0
  0
LINE
  5
59
  8
TITLE
 10
10.058
 20
0.0619999999999994
 30
0.0
 11
0.0619999999999976
 21
0.0620000000000012
 31
0.0
  0
LINE
  5
5A
  8
TITLE
 10
10.058
 20
15.438000000000001
 30
0.0
 11
10.058
 21
0.0619999999999994
 31
0.0
  0
LINE
  5
5B
  8
TITLE
 10
0.0620000000000012
 20
15.438000000000001
 30
0.0
 11
10.058
 21
15.438000000000001
 31
0.0
  0
LINE
  5
5C
  8
TITLE
 10
0.0619999999999976
 20
0.0620000000000012
 30
0.0
 11
0.0620000000000012
 21
15.438000000000001
 31
0.0
  0
LINE
  5
5D
  8
TITLE
 10
0.0
 20
0.0
 30
0.0
 11
0.0
 21
15.5
 31
0.0
  0
LINE
  5
5E
  8
TITLE
 10
10.119999999999999
 20
-0.0000000000000018
 30
0.0
 11
0.0
 21
0.0
 31
0.0
  0
LINE
  5
5F
  8
TITLE
 10
10.119999999999999
 20
15.499999999999989
 30
0.0
 11
10.119999999999999
 21
-0.0000000000000018
 31
0.0
  0
LINE
  5
60
  8
TITLE
 10
0.0
 20
15.5
 30
0.0
 11
10.119999999999999
 21
15.499999999999989
 31
0.0
  0
ENDBLK
  5
61
  8
0
  0
BLOCK
  8
0
  2
*D1
 70
     1
 10
0.0
 20
0.0
 30
0.0
  3
*D1
  1

  0
LINE
  5
63
  8
0
  6
BYBLOCK
 62
     0
 10
1.4595187568413239
 20
19.867549957366808
 30
0.0
 11
1.4595187568413239
 21
21.351913780441588
 31
0.0
  0
LINE
  5
64
  8
0
  6
BYBLOCK
 62
     0
 10
14.459518756841319
 20
19.867549957366808
 30
0.0
 11
14.459518756841319
 21
21.351913780441588
 31
0.0
  0
LINE
  5
65
  8
0
  6
BYBLOCK
 62
     0
 10
1.819518756841324
 20
21.165913780441588
 30
0.0
 11
7.7170187568413251
 21
21.165913780441588
 31
0.0
  0
LINE
  5
66
  8
0
  6
BYBLOCK
 62
     0
 10
14.09951875684132
 20
21.165913780441588
 30
0.0
 11
8.2020187568413263
 21
21.165913780441588
 31
0.0
  0
SOLID
  5
67
  8
0
  6
BYBLOCK
 62
     0
 10
1.819518756841324
 20
21.225913780441591
 30
0.0
 11
1.819518756841324
 21
21.10591378044159
 31
0.0
 12
1.4595187568413239
 22
21.165913780441588
 32
0.0
 13
1.4595187568413239
 23
21.165913780441588
 33
0.0
  0
SOLID
  5
68
  8
0
  6
BYBLOCK
 62
     0
 10
14.09951875684132
 20
21.225913780441591
 30
0.0
 11
14.09951875684132
 21
21.10591378044159
 31
0.0
 12
14.459518756841319
 22
21.165913780441588
 32
0.0
 13
14.459518756841319
 23
21.165913780441588
 33
0.0
  0
TEXT
  5
69
  8
0
  6
BYBLOCK
 62
     0
 10
7.8970187568413248
 20
21.040913780441588
 30
0.0
 40
0.25
  1
A
 41
0.75
 72
     1
 11
7.9595187568413248
 21
21.165913780441588
 31
0.0
 73
     2
  0
POINT
  5
6A
  8
DEFPOINTS
  6
BYBLOCK
 62
     0
 10
1.4595187568413239
 20
19.741549957366811
 30
0.0
  0
POINT
  5
6B
  8
DEFPOINTS
  6
BYBLOCK
 62
     0
 10
14.459518756841319
 20
19.741549957366811
 30
0.0
  0
POINT
  5
6C
  8
DEFPOINTS
  6
BYBLOCK
 62
     0
 10
14.459518756841319
 20
21.165913780441588
 30
0.0
  0
ENDBLK
  5
6D
  8
0
  0
BLOCK
  8
0
  2
*D2
 70
     1
 10
0.0
 20
0.0
 30
0.0
  3
*D2
  1

  0
LINE
  5
6F
  8
0
  6
BYBLOCK
 62
     0
 10
16.656320379947282
 20
19.867549957366808
 30
0.0
 11
16.656320379947282
 21
20.679422894397771
 31
0.0
  0
LINE
  5
70
  8
0
  6
BYBLOCK
 62
     0
 10
18.374320379947271
 20
19.867549957366808
 30
0.0
 11
18.374320379947271
 21
20.679422894397771
 31
0.0
  0
LINE
  5
71
  8
0
  6
BYBLOCK
 62
     0
 10
16.296320379947279
 20
20.493422894397771
 30
0.0
 11
15.936320379947279
 21
20.493422894397771
 31
0.0
  0
LINE
  5
72
  8
0
  6
BYBLOCK
 62
     0
 10
18.73432037994727
 20
20.493422894397771
 30
0.0
 11
19.09432037994727
 21
20.493422894397771
 31
0.0
  0
SOLID
  5
73
  8
0
  6
BYBLOCK
 62
     0
 10
16.296320379947279
 20
20.553422894397769
 30
0.0
 11
16.296320379947279
 21
20.433422894397768
 31
0.0
 12
16.656320379947282
 22
20.493422894397771
 32
0.0
 13
16.656320379947282
 23
20.493422894397771
 33
0.0
  0
SOLID
  5
74
  8
0
  6
BYBLOCK
 62
     0
 10
18.73432037994727
 20
20.553422894397769
 30
0.0
 11
18.73432037994727
 21
20.433422894397768
 31
0.0
 12
18.374320379947271
 22
20.493422894397771
 32
0.0
 13
18.374320379947271
 23
20.493422894397771
 33
0.0
  0
TEXT
  5
75
  8
0
  6
BYBLOCK
 62
     0
 10
17.20282037994728
 20
20.368422894397771
 30
0.0
 40
0.25
  1
1.718
 41
0.75
 72
     1
 11
17.51532037994728
 21
20.493422894397771
 31
0.0
 73
     2
  0
POINT
  5
76
  8
DEFPOINTS
  6
BYBLOCK
 62
     0
 10
16.656320379947282
 20
19.741549957366811
 30
0.0
  0
POINT
  5
77
  8
DEFPOINTS
  6
BYBLOCK
 62
     0
 10
18.374320379947271
 20
19.741549957366811
 30
0.0
  0
POINT
  5
78
  8
DEFPOINTS
  6
BYBLOCK
 62
     0
 10
18.374320379947271
 20
20.493422894397771
 30
0.0
  0
ENDBLK
  5
79
  8
0
  0
BLOCK
  8
0
  2
*D3
 70
     1
 10
0.0
 20
0.0
 30
0.0
  3
*D3
  1

  0
LINE
  5
7B
  8
0
  6
BYBLOCK
 62
     0
 10
17.249678428718958
 20
19.287438893171071
 30
0.0
 11
16.498505431153141
 21
19.287438893171071
 31
0.0
  0
LINE
  5
7C
  8
0
  6
BYBLOCK
 62
     0
 10
17.249678428718958
 20
21.005438893171078
 30
0.0
 11
16.498505431153141
 21
21.005438893171078
 31
0.0
  0
LINE
  5
7D
  8
0
  6
BYBLOCK
 62
     0
 10
16.684505431153141
 20
19.647438893171071
 30
0.0
 11
16.684505431153141
 21
19.84143889317108
 31
0.0
  0
LINE
  5
7E
  8
0
  6
BYBLOCK
 62
     0
 10
16.684505431153141
 20
20.645438893171072
 30
0.0
 11
16.684505431153141
 21
20.451438893171069
 31
0.0
  0
SOLID
  5
7F
  8
0
  6
BYBLOCK
 62
     0
 10
16.624505431153139
 20
19.647438893171071
 30
0.0
 11
16.74450543115314
 21
19.647438893171071
 31
0.0
 12
16.684505431153141
 22
19.287438893171071
 32
0.0
 13
16.684505431153141
 23
19.287438893171071
 33
0.0
  0
SOLID
  5
80
  8
0
  6
BYBLOCK
 62
     0
 10
16.624505431153139
 20
20.645438893171072
 30
0.0
 11
16.74450543115314
 21
20.645438893171072
 31
0.0
 12
16.684505431153141
 22
21.005438893171078
 32
0.0
 13
16.684505431153141
 23
21.005438893171078
 33
0.0
  0
TEXT
  5
81
  8
0
  6
BYBLOCK
 62
     0
 10
16.372005431153141
 20
20.02143889317108
 30
0.0
 40
0.25
  1
1.718
 41
0.75
 72
     1
 11
16.684505431153141
 21
20.146438893171069
 31
0.0
 73
     2
  0
POINT
  5
82
  8
DEFPOINTS
  6
BYBLOCK
 62
     0
 10
17.37567842871896
 20
19.287438893171071
 30
0.0
  0
POINT
  5
83
  8
DEFPOINTS
  6
BYBLOCK
 62
     0
 10
17.37567842871896
 20
21.005438893171078
 30
0.0
  0
POINT
  5
84
  8
DEFPOINTS
  6
BYBLOCK
 62
     0
 10
16.684505431153141
 20
21.005438893171078
 30
0.0
  0
ENDBLK
  5
85
  8
0
  0
BLOCK
  8
0
  2
*D4
 70
     1
 10
0.0
 20
0.0
 30
0.0
  3
*D4
  1

  0
LINE
  5
87
  8
0
  6
BYBLOCK
 62
     0
 10
15.109184162930539
 20
19.521438893171069
 30
0.0
 11
16.014501632228669
 21
19.521438893171069
 31
0.0
  0
LINE
  5
88
  8
0
  6
BYBLOCK
 62
     0
 10
13.929185791740441
 20
19.287438893171071
 30
0.0
 11
16.014501632228669
 21
19.287438893171071
 31
0.0
  0
LINE
  5
89
  8
0
  6
BYBLOCK
 62
     0
 10
15.82850163222867
 20
19.881438893171069
 30
0.0
 11
15.82850163222867
 21
20.241438893171068
 31
0.0
  0
LINE
  5
8A
  8
0
  6
BYBLOCK
 62
     0
 10
15.82850163222867
 20
18.927438893171079
 30
0.0
 11
15.82850163222867
 21
18.567438893171069
 31
0.0
  0
SOLID
  5
8B
  8
0
  6
BYBLOCK
 62
     0
 10
15.76850163222867
 20
19.881438893171069
 30
0.0
 11
15.888501632228669
 21
19.881438893171069
 31
0.0
 12
15.82850163222867
 22
19.521438893171069
 32
0.0
 13
15.82850163222867
 23
19.521438893171069
 33
0.0
  0
SOLID
  5
8C
  8
0
  6
BYBLOCK
 62
     0
 10
15.76850163222867
 20
18.927438893171079
 30
0.0
 11
15.888501632228669
 21
18.927438893171079
 31
0.0
 12
15.82850163222867
 22
19.287438893171071
 32
0.0
 13
15.82850163222867
 23
19.287438893171071
 33
0.0
  0
TEXT
  5
8D
  8
0
  6
BYBLOCK
 62
     0
 10
16.231113455617351
 20
18.442438893171069
 30
0.0
 40
0.25
  1
0.234
 41
0.75
 72
     1
 11
16.590488455617351
 21
18.567438893171069
 31
0.0
 73
     2
  0
POINT
  5
8E
  8
DEFPOINTS
  6
BYBLOCK
 62
     0
 10
14.98318416293054
 20
19.521438893171069
 30
0.0
  0
POINT
  5
8F
  8
DEFPOINTS
  6
BYBLOCK
 62
     0
 10
13.803185791740439
 20
19.287438893171071
 30
0.0
  0
POINT
  5
90
  8
DEFPOINTS
  6
BYBLOCK
 62
     0
 10
15.82850163222867
 20
19.287438893171071
 30
0.0
  0
ENDBLK
  5
91
  8
0
  0
BLOCK
  8
0
  2
*D5
 70
     1
 10
0.0
 20
0.0
 30
0.0
  3
*D5
  1

  0
LINE
  5
B7
  8
0
  6
BYBLOCK
 62
     0
 10
13.53318579174044
 20
20.255422207985109
 30
0.0
 11
15.16918416293054
 21
20.255422207985109
 31
0.0
  0
LINE
  5
B8
  8
0
  6
BYBLOCK
 62
     0
 10
13.53318579174044
 20
20.880422207985109
 30
0.0
 11
15.16918416293054
 21
20.880422207985109
 31
0.0
  0
LINE
  5
B9
  8
0
  6
BYBLOCK
 62
     0
 10
14.98318416293054
 20
19.89542220798511
 30
0.0
 11
14.98318416293054
 21
19.535422207985111
 31
0.0
  0
LINE
  5
BA
  8
0
  6
BYBLOCK
 62
     0
 10
14.98318416293054
 20
21.240422207985102
 30
0.0
 11
14.98318416293054
 21
21.600422207985101
 31
0.0
  0
SOLID
  5
BB
  8
0
  6
BYBLOCK
 62
     0
 10
14.923184162930539
 20
19.89542220798511
 30
0.0
 11
15.04318416293054
 21
19.89542220798511
 31
0.0
 12
14.98318416293054
 22
20.255422207985109
 32
0.0
 13
14.98318416293054
 23
20.255422207985109
 33
0.0
  0
SOLID
  5
BC
  8
0
  6
BYBLOCK
 62
     0
 10
14.923184162930539
 20
21.240422207985102
 30
0.0
 11
15.04318416293054
 21
21.240422207985102
 31
0.0
 12
14.98318416293054
 22
20.880422207985109
 32
0.0
 13
14.98318416293054
 23
20.880422207985109
 33
0.0
  0
TEXT
  5
BD
  8
0
  6
BYBLOCK
 62
     0
 10
14.62380916293054
 20
20.442922207985109
 30
0.0
 40
0.25
  1
0.625
 41
0.75
 72
     1
 11
14.98318416293054
 21
20.567922207985109
 31
0.0
 73
     2
  0
POINT
  5
BE
  8
DEFPOINTS
  6
BYBLOCK
 62
     0
 10
13.40718579174044
 20
20.255422207985109
 30
0.0
  0
POINT
  5
BF
  8
DEFPOINTS
  6
BYBLOCK
 62
     0
 10
13.40718579174044
 20
20.880422207985109
 30
0.0
  0
POINT
  5
C0
  8
DEFPOINTS
  6
BYBLOCK
 62
     0
 10
14.98318416293054
 20
20.880422207985109
 30
0.0
  0
ENDBLK
  5
C1
  8
0
  0
BLOCK
  8
0
  2
*D6
 70
     1
 10
0.0
 20
0.0
 30
0.0
  3
*D6
  1

  0
LINE
  5
C3
  8
0
  6
BYBLOCK
 62
     0
 10
8.0634578978887355
 20
7.9874390334625627
 30
0.0
 11
8.0634578978887355
 21
8.6897962642239595
 31
0.0
  0
LINE
  5
C4
  8
0
  6
BYBLOCK
 62
     0
 10
13.06345789788873
 20
7.9874390334625627
 30
0.0
 11
13.06345789788873
 21
8.6897962642239595
 31
0.0
  0
LINE
  5
C5
  8
0
  6
BYBLOCK
 62
     0
 10
8.4234578978887331
 20
8.5037962642239595
 30
0.0
 11
10.05533289788873
 21
8.5037962642239595
 31
0.0
  0
LINE
  5
C6
  8
0
  6
BYBLOCK
 62
     0
 10
12.703457897888731
 20
8.5037962642239595
 30
0.0
 11
11.07158289788873
 21
8.5037962642239595
 31
0.0
  0
SOLID
  5
C7
  8
0
  6
BYBLOCK
 62
     0
 10
8.4234578978887331
 20
8.56379626422396
 30
0.0
 11
8.4234578978887331
 21
8.443796264223959
 31
0.0
 12
8.0634578978887355
 22
8.5037962642239595
 32
0.0
 13
8.0634578978887355
 23
8.5037962642239595
 33
0.0
  0
SOLID
  5
C8
  8
0
  6
BYBLOCK
 62
     0
 10
12.703457897888731
 20
8.56379626422396
 30
0.0
 11
12.703457897888731
 21
8.443796264223959
 31
0.0
 12
13.06345789788873
 22
8.5037962642239595
 32
0.0
 13
13.06345789788873
 23
8.5037962642239595
 33
0.0
  0
TEXT
  5
C9
  8
0
  6
BYBLOCK
 62
     0
 10
10.23533289788873
 20
8.3787962642239595
 30
0.0
 40
0.25
  1
5.000
 41
0.75
 72
     1
 11
10.56345789788873
 21
8.5037962642239595
 31
0.0
 73
     2
  0
POINT
  5
CA
  8
DEFPOINTS
  6
BYBLOCK
 62
     0
 10
8.0634578978887355
 20
7.8614390334625632
 30
0.0
  0
POINT
  5
CB
  8
DEFPOINTS
  6
BYBLOCK
 62
     0
 10
13.06345789788873
 20
7.8614390334625632
 30
0.0
  0
POINT
  5
CC
  8
DEFPOINTS
  6
BYBLOCK
 62
     0
 10
13.06345789788873
 20
8.5037962642239595
 30
0.0
  0
ENDBLK
  5
CD
  8
0
  0
BLOCK
  8
0
  2
*D7
 70
     1
 10
0.0
 20
0.0
 30
0.0
  3
*D7
  1

  0
LINE
  5
CF
  8
0
  6
BYBLOCK
 62
     0
 10
5.5178114260112752
 20
3.9799894457467442
 30
0.0
 11
5.5178114260112752
 21
5.962875067648481
 31
0.0
  0
LINE
  5
D0
  8
0
  6
BYBLOCK
 62
     0
 10
5.845311380096593
 20
5.3234894457467501
 30
0.0
 11
5.845311380096593
 21
5.962875067648481
 31
0.0
  0
LINE
  5
D1
  8
0
  6
BYBLOCK
 62
     0
 10
5.157811426011274
 20
5.776875067648481
 30
0.0
 11
4.7978114260112754
 21
5.776875067648481
 31
0.0
  0
LINE
  5
D2
  8
0
  6
BYBLOCK
 62
     0
 10
6.2053113800965933
 20
5.776875067648481
 30
0.0
 11
6.5653113800965919
 21
5.776875067648481
 31
0.0
  0
SOLID
  5
D3
  8
0
  6
BYBLOCK
 62
     0
 10
5.157811426011274
 20
5.8368750676484806
 30
0.0
 11
5.157811426011274
 21
5.7168750676484823
 31
0.0
 12
5.5178114260112752
 22
5.776875067648481
 32
0.0
 13
5.5178114260112752
 23
5.776875067648481
 33
0.0
  0
SOLID
  5
D4
  8
0
  6
BYBLOCK
 62
     0
 10
6.2053113800965933
 20
5.8368750676484806
 30
0.0
 11
6.2053113800965933
 21
5.7168750676484823
 31
0.0
 12
5.845311380096593
 22
5.776875067648481
 32
0.0
 13
5.845311380096593
 23
5.776875067648481
 33
0.0
  0
TEXT
  5
D5
  8
0
  6
BYBLOCK
 62
     0
 10
6.7453113800965916
 20
5.651875067648481
 30
0.0
 40
0.25
  1
0.327
 41
0.75
 72
     1
 11
7.1046863800965916
 21
5.776875067648481
 31
0.0
 73
     2
  0
POINT
  5
D6
  8
DEFPOINTS
  6
BYBLOCK
 62
     0
 10
5.5178114260112752
 20
3.8539894457467438
 30
0.0
  0
POINT
  5
D7
  8
DEFPOINTS
  6
BYBLOCK
 62
     0
 10
5.845311380096593
 20
5.1974894457467498
 30
0.0
  0
POINT
  5
D8
  8
DEFPOINTS
  6
BYBLOCK
 62
     0
 10
5.845311380096593
 20
5.776875067648481
 30
0.0
  0
ENDBLK
  5
D9
  8
0
  0
BLOCK
  8
0
  2
*D8
 70
     1
 10
0.0
 20
0.0
 30
0.0
  3
*D8
  1

  0
LINE
  5
DB
  8
0
  6
BYBLOCK
 62
     0
 10
12.40618575089108
 20
20.380422207985099
 30
0.0
 11
11.655617781573991
 21
20.380422207985099
 31
0.0
  0
LINE
  5
DC
  8
0
  6
BYBLOCK
 62
     0
 10
12.40618574598725
 20
20.130422207985099
 30
0.0
 11
11.655617781573991
 21
20.130422207985099
 31
0.0
  0
LINE
  5
DD
  8
0
  6
BYBLOCK
 62
     0
 10
11.841617781573991
 20
20.740422207985102
 30
0.0
 11
11.841617781573991
 21
21.100422207985101
 31
0.0
  0
LINE
  5
DE
  8
0
  6
BYBLOCK
 62
     0
 10
11.841617781573991
 20
19.770422207985099
 30
0.0
 11
11.841617781573991
 21
19.4104222079851
 31
0.0
  0
LINE
  5
DF
  8
0
  6
BYBLOCK
 62
     0
 10
11.841617781573991
 20
19.4104222079851
 30
0.0
 11
11.481617781573989
 21
19.4104222079851
 31
0.0
  0
SOLID
  5
E0
  8
0
  6
BYBLOCK
 62
     0
 10
11.78161778157398
 20
20.740422207985102
 30
0.0
 11
11.901617781573989
 21
20.740422207985102
 31
0.0
 12
11.841617781573991
 22
20.380422207985099
 32
0.0
 13
11.841617781573991
 23
20.380422207985099
 33
0.0
  0
SOLID
  5
E1
  8
0
  6
BYBLOCK
 62
     0
 10
11.78161778157398
 20
19.770422207985099
 30
0.0
 11
11.901617781573989
 21
19.770422207985099
 31
0.0
 12
11.841617781573991
 22
20.130422207985099
 32
0.0
 13
11.841617781573991
 23
20.130422207985099
 33
0.0
  0
TEXT
  5
E2
  8
0
  6
BYBLOCK
 62
     0
 10
10.45786778157399
 20
19.2854222079851
 30
0.0
 40
0.25
  1
 REF.
 41
0.75
 72
     1
 11
10.92661778157399
 21
19.4104222079851
 31
0.0
 73
     2
  0
TEXT
  5
E3
  8
0
  6
BYBLOCK
 62
     0
 10
9.8016177815739916
 20
19.2854222079851
 30
0.0
 40
0.25
  1
0.250
 41
0.75
 72
     1
 11
10.14536778157399
 21
19.4104222079851
 31
0.0
 73
     2
  0
POINT
  5
E4
  8
DEFPOINTS
  6
BYBLOCK
 62
     0
 10
12.532185750891079
 20
20.380422207985099
 30
0.0
  0
POINT
  5
E5
  8
DEFPOINTS
  6
BYBLOCK
 62
     0
 10
12.532185745987251
 20
20.130422207985099
 30
0.0
  0
POINT
  5
E6
  8
DEFPOINTS
  6
BYBLOCK
 62
     0
 10
11.841617781573991
 20
20.130422207985099
 30
0.0
  0
ENDBLK
  5
E7
  8
0
  0
BLOCK
  8
0
  2
*D9
 70
     1
 10
0.0
 20
0.0
 30
0.0
  3
*D9
  1

  0
LINE
  5
E9
  8
0
  6
BYBLOCK
 62
     0
 10
13.06345789788873
 20
4.9694894457467509
 30
0.0
 11
13.06345789788873
 21
5.962875067648481
 31
0.0
  0
LINE
  5
EA
  8
0
  6
BYBLOCK
 62
     0
 10
11.813457857039371
 20
3.9639894457467459
 30
0.0
 11
11.813457857039371
 21
5.962875067648481
 31
0.0
  0
LINE
  5
EB
  8
0
  6
BYBLOCK
 62
     0
 10
13.42345789788873
 20
5.776875067648481
 30
0.0
 11
13.783457897888731
 21
5.776875067648481
 31
0.0
  0
LINE
  5
EC
  8
0
  6
BYBLOCK
 62
     0
 10
11.453457857039369
 20
5.776875067648481
 30
0.0
 11
11.09345785703937
 21
5.776875067648481
 31
0.0
  0
SOLID
  5
ED
  8
0
  6
BYBLOCK
 62
     0
 10
13.42345789788873
 20
5.8368750676484806
 30
0.0
 11
13.42345789788873
 21
5.7168750676484823
 31
0.0
 12
13.06345789788873
 22
5.776875067648481
 32
0.0
 13
13.06345789788873
 23
5.776875067648481
 33
0.0
  0
SOLID
  5
EE
  8
0
  6
BYBLOCK
 62
     0
 10
11.453457857039369
 20
5.8368750676484806
 30
0.0
 11
11.453457857039369
 21
5.7168750676484823
 31
0.0
 12
11.813457857039371
 22
5.776875067648481
 32
0.0
 13
11.813457857039371
 23
5.776875067648481
 33
0.0
  0
TEXT
  5
EF
  8
0
  6
BYBLOCK
 62
     0
 10
12.11033287746405
 20
5.651875067648481
 30
0.0
 40
0.25
  1
1.250
 41
0.75
 72
     1
 11
12.43845787746405
 21
5.776875067648481
 31
0.0
 73
     2
  0
POINT
  5
F0
  8
DEFPOINTS
  6
BYBLOCK
 62
     0
 10
13.06345789788873
 20
4.8434894457467514
 30
0.0
  0
POINT
  5
F1
  8
DEFPOINTS
  6
BYBLOCK
 62
     0
 10
11.813457857039371
 20
3.8379894457467461
 30
0.0
  0
POINT
  5
F2
  8
DEFPOINTS
  6
BYBLOCK
 62
     0
 10
11.813457857039371
 20
5.776875067648481
 30
0.0
  0
ENDBLK
  5
F3
  8
0
  0
BLOCK
  8
0
  2
*D10
 70
     1
 10
0.0
 20
0.0
 30
0.0
  3
*D10
  1

  0
LINE
  5
F5
  8
0
  6
BYBLOCK
 62
     0
 10
11.813457857039371
 20
3.9639894457467459
 30
0.0
 11
11.813457857039371
 21
6.5101032497617179
 31
0.0
  0
LINE
  5
F6
  8
0
  6
BYBLOCK
 62
     0
 10
9.8134578570393778
 20
3.9639894457467459
 30
0.0
 11
9.8134578570393778
 21
6.5101032497617179
 31
0.0
  0
LINE
  5
F7
  8
0
  6
BYBLOCK
 62
     0
 10
12.17345785703937
 20
6.324103249761718
 30
0.0
 11
12.53345785703937
 21
6.324103249761718
 31
0.0
  0
LINE
  5
F8
  8
0
  6
BYBLOCK
 62
     0
 10
9.4534578570393784
 20
6.324103249761718
 30
0.0
 11
9.0934578570393771
 21
6.324103249761718
 31
0.0
  0
SOLID
  5
F9
  8
0
  6
BYBLOCK
 62
     0
 10
12.17345785703937
 20
6.3841032497617176
 30
0.0
 11
12.17345785703937
 21
6.2641032497617193
 31
0.0
 12
11.813457857039371
 22
6.324103249761718
 32
0.0
 13
11.813457857039371
 23
6.324103249761718
 33
0.0
  0
SOLID
  5
FA
  8
0
  6
BYBLOCK
 62
     0
 10
9.4534578570393784
 20
6.3841032497617176
 30
0.0
 11
9.4534578570393784
 21
6.2641032497617193
 31
0.0
 12
9.8134578570393778
 22
6.324103249761718
 32
0.0
 13
9.8134578570393778
 23
6.324103249761718
 33
0.0
  0
TEXT
  5
FB
  8
0
  6
BYBLOCK
 62
     0
 10
10.485332857039371
 20
6.199103249761718
 30
0.0
 40
0.25
  1
2.000
 41
0.75
 72
     1
 11
10.813457857039371
 21
6.324103249761718
 31
0.0
 73
     2
  0
POINT
  5
FC
  8
DEFPOINTS
  6
BYBLOCK
 62
     0
 10
11.813457857039371
 20
3.8379894457467461
 30
0.0
  0
POINT
  5
FD
  8
DEFPOINTS
  6
BYBLOCK
 62
     0
 10
9.8134578570393778
 20
3.8379894457467461
 30
0.0
  0
POINT
  5
FE
  8
DEFPOINTS
  6
BYBLOCK
 62
     0
 10
9.8134578570393778
 20
6.324103249761718
 30
0.0
  0
ENDBLK
  5
FF
  8
0
  0
BLOCK
  8
0
  2
*D11
 70
     1
 10
0.0
 20
0.0
 30
0.0
  3
*D11
  1

  0
LINE
  5
101
  8
0
  6
BYBLOCK
 62
     0
 10
9.3124578570393783
 20
3.8379894457467461
 30
0.0
 11
8.7178770292130459
 21
3.8379894457467461
 31
0.0
  0
LINE
  5
102
  8
0
  6
BYBLOCK
 62
     0
 10
9.3124578521355499
 20
3.5879894457467461
 30
0.0
 11
8.7178770292130459
 21
3.5879894457467461
 31
0.0
  0
LINE
  5
103
  8
0
  6
BYBLOCK
 62
     0
 10
8.9038770292130458
 20
4.1979894457467459
 30
0.0
 11
8.9038770292130458
 21
4.5579894457467462
 31
0.0
  0
LINE
  5
104
  8
0
  6
BYBLOCK
 62
     0
 10
8.9038770292130458
 20
3.2279894457467462
 30
0.0
 11
8.9038770292130458
 21
2.8679894457467459
 31
0.0
  0
LINE
  5
105
  8
0
  6
BYBLOCK
 62
     0
 10
8.9038770292130458
 20
2.8679894457467459
 30
0.0
 11
8.5438770292130464
 21
2.8679894457467459
 31
0.0
  0
SOLID
  5
106
  8
0
  6
BYBLOCK
 62
     0
 10
8.8438770292130453
 20
4.1979894457467459
 30
0.0
 11
8.9638770292130463
 21
4.1979894457467459
 31
0.0
 12
8.9038770292130458
 22
3.8379894457467461
 32
0.0
 13
8.9038770292130458
 23
3.8379894457467461
 33
0.0
  0
SOLID
  5
107
  8
0
  6
BYBLOCK
 62
     0
 10
8.8438770292130453
 20
3.2279894457467462
 30
0.0
 11
8.9638770292130463
 21
3.2279894457467462
 31
0.0
 12
8.9038770292130458
 22
3.5879894457467461
 32
0.0
 13
8.9038770292130458
 23
3.5879894457467461
 33
0.0
  0
TEXT
  5
108
  8
0
  6
BYBLOCK
 62
     0
 10
7.5201270292130449
 20
2.7429894457467459
 30
0.0
 40
0.25
  1
 REF.
 41
0.75
 72
     1
 11
7.9888770292130449
 21
2.8679894457467459
 31
0.0
 73
     2
  0
TEXT
  5
109
  8
0
  6
BYBLOCK
 62
     0
 10
6.8638770292130449
 20
2.7429894457467459
 30
0.0
 40
0.25
  1
0.250
 41
0.75
 72
     1
 11
7.2076270292130449
 21
2.8679894457467459
 31
0.0
 73
     2
  0
POINT
  5
10A
  8
DEFPOINTS
  6
BYBLOCK
 62
     0
 10
9.4384578570393778
 20
3.8379894457467461
 30
0.0
  0
POINT
  5
10B
  8
DEFPOINTS
  6
BYBLOCK
 62
     0
 10
9.4384578521355493
 20
3.5879894457467461
 30
0.0
  0
POINT
  5
10C
  8
DEFPOINTS
  6
BYBLOCK
 62
     0
 10
8.9038770292130458
 20
3.5879894457467461
 30
0.0
  0
ENDBLK
  5
10D
  8
0
  0
BLOCK
  8
0
  2
*D12
 70
     1
 10
0.0
 20
0.0
 30
0.0
  3
*D12
  1

  0
LINE
  5
10F
  8
0
  6
BYBLOCK
 62
     0
 10
5.0739549487496642
 20
3.8539894457467438
 30
0.0
 11
6.0343461544363723
 21
3.8539894457467438
 31
0.0
  0
LINE
  5
110
  8
0
  6
BYBLOCK
 62
     0
 10
5.0739549542615672
 20
3.572989445746745
 30
0.0
 11
6.0343461544363723
 21
3.572989445746745
 31
0.0
  0
LINE
  5
111
  8
0
  6
BYBLOCK
 62
     0
 10
5.8483461544363724
 20
4.2139894457467451
 30
0.0
 11
5.8483461544363724
 21
4.5739894457467436
 31
0.0
  0
LINE
  5
112
  8
0
  6
BYBLOCK
 62
     0
 10
5.8483461544363724
 20
3.2129894457467461
 30
0.0
 11
5.8483461544363724
 21
2.8529894457467462
 31
0.0
  0
SOLID
  5
113
  8
0
  6
BYBLOCK
 62
     0
 10
5.7883461544363719
 20
4.2139894457467451
 30
0.0
 11
5.908346154436372
 21
4.2139894457467451
 31
0.0
 12
5.8483461544363724
 22
3.8539894457467438
 32
0.0
 13
5.8483461544363724
 23
3.8539894457467438
 33
0.0
  0
SOLID
  5
114
  8
0
  6
BYBLOCK
 62
     0
 10
5.7883461544363719
 20
3.2129894457467461
 30
0.0
 11
5.908346154436372
 21
3.2129894457467461
 31
0.0
 12
5.8483461544363724
 22
3.572989445746745
 32
0.0
 13
5.8483461544363724
 23
3.572989445746745
 33
0.0
  0
TEXT
  5
115
  8
0
  6
BYBLOCK
 62
     0
 10
6.9495158047290806
 20
2.7279894457467462
 30
0.0
 40
0.25
  1
 REF.
 41
0.75
 72
     1
 11
7.4182658047290806
 21
2.8529894457467462
 31
0.0
 73
     2
  0
TEXT
  5
116
  8
0
  6
BYBLOCK
 62
     0
 10
6.3245158047290806
 20
2.7279894457467462
 30
0.0
 40
0.25
  1
0.281
 41
0.75
 72
     1
 11
6.6526408047290806
 21
2.8529894457467462
 31
0.0
 73
     2
  0
POINT
  5
117
  8
DEFPOINTS
  6
BYBLOCK
 62
     0
 10
4.947954948749663
 20
3.8539894457467438
 30
0.0
  0
POINT
  5
118
  8
DEFPOINTS
  6
BYBLOCK
 62
     0
 10
4.947954954261566
 20
3.572989445746745
 30
0.0
  0
POINT
  5
119
  8
DEFPOINTS
  6
BYBLOCK
 62
     0
 10
5.8483461544363724
 20
3.572989445746745
 30
0.0
  0
ENDBLK
  5
11A
  8
0
  0
BLOCK
  8
0
  2
*D13
 70
     1
 10
0.0
 20
0.0
 30
0.0
  3
*D13
  1

  0
LINE
  5
11C
  8
0
  6
BYBLOCK
 62
     0
 10
7.9374578978887351
 20
3.4794894457467498
 30
0.0
 11
6.9766746208786401
 21
3.4794894457467498
 31
0.0
  0
LINE
  5
11D
  8
0
  6
BYBLOCK
 62
     0
 10
7.9374578978887351
 20
5.1974894457467498
 30
0.0
 11
6.9766746208786401
 21
5.1974894457467498
 31
0.0
  0
LINE
  5
11E
  8
0
  6
BYBLOCK
 62
     0
 10
7.16267462087864
 20
3.8394894457467501
 30
0.0
 11
7.16267462087864
 21
4.0334894457467501
 31
0.0
  0
LINE
  5
11F
  8
0
  6
BYBLOCK
 62
     0
 10
7.16267462087864
 20
4.8374894457467503
 30
0.0
 11
7.16267462087864
 21
4.6434894457467504
 31
0.0
  0
SOLID
  5
120
  8
0
  6
BYBLOCK
 62
     0
 10
7.1026746208786404
 20
3.8394894457467501
 30
0.0
 11
7.2226746208786388
 21
3.8394894457467501
 31
0.0
 12
7.16267462087864
 22
3.4794894457467498
 32
0.0
 13
7.16267462087864
 23
3.4794894457467498
 33
0.0
  0
SOLID
  5
121
  8
0
  6
BYBLOCK
 62
     0
 10
7.1026746208786404
 20
4.8374894457467503
 30
0.0
 11
7.2226746208786388
 21
4.8374894457467503
 31
0.0
 12
7.16267462087864
 22
5.1974894457467498
 32
0.0
 13
7.16267462087864
 23
5.1974894457467498
 33
0.0
  0
TEXT
  5
122
  8
0
  6
BYBLOCK
 62
     0
 10
6.85017462087864
 20
4.2134894457467498
 30
0.0
 40
0.25
  1
1.718
 41
0.75
 72
     1
 11
7.16267462087864
 21
4.3384894457467498
 31
0.0
 73
     2
  0
POINT
  5
123
  8
DEFPOINTS
  6
BYBLOCK
 62
     0
 10
8.0634578978887355
 20
3.4794894457467498
 30
0.0
  0
POINT
  5
124
  8
DEFPOINTS
  6
BYBLOCK
 62
     0
 10
8.0634578978887355
 20
5.1974894457467498
 30
0.0
  0
POINT
  5
125
  8
DEFPOINTS
  6
BYBLOCK
 62
     0
 10
7.16267462087864
 20
5.1974894457467498
 30
0.0
  0
ENDBLK
  5
126
  8
0
  0
BLOCK
  8
0
  2
*D14
 70
     1
 10
0.0
 20
0.0
 30
0.0
  3
*D14
  1

  0
LINE
  5
128
  8
0
  6
BYBLOCK
 62
     0
 10
7.937457897888736
 20
7.111439033462565
 30
0.0
 11
6.9766746208786401
 21
7.111439033462565
 31
0.0
  0
LINE
  5
129
  8
0
  6
BYBLOCK
 62
     0
 10
7.9374578978887351
 20
7.8614390334625632
 30
0.0
 11
6.9766746208786401
 21
7.8614390334625632
 31
0.0
  0
LINE
  5
12A
  8
0
  6
BYBLOCK
 62
     0
 10
7.16267462087864
 20
6.7514390334625638
 30
0.0
 11
7.16267462087864
 21
6.3914390334625653
 31
0.0
  0
LINE
  5
12B
  8
0
  6
BYBLOCK
 62
     0
 10
7.16267462087864
 20
8.2214390334625627
 30
0.0
 11
7.16267462087864
 21
8.5814390334625639
 31
0.0
  0
SOLID
  5
12C
  8
0
  6
BYBLOCK
 62
     0
 10
7.1026746208786404
 20
6.7514390334625638
 30
0.0
 11
7.2226746208786388
 21
6.7514390334625638
 31
0.0
 12
7.16267462087864
 22
7.111439033462565
 32
0.0
 13
7.16267462087864
 23
7.111439033462565
 33
0.0
  0
SOLID
  5
12D
  8
0
  6
BYBLOCK
 62
     0
 10
7.1026746208786404
 20
8.2214390334625627
 30
0.0
 11
7.2226746208786388
 21
8.2214390334625627
 31
0.0
 12
7.16267462087864
 22
7.8614390334625632
 32
0.0
 13
7.16267462087864
 23
7.8614390334625632
 33
0.0
  0
TEXT
  5
12E
  8
0
  6
BYBLOCK
 62
     0
 10
6.81892462087864
 20
7.3614390334625641
 30
0.0
 40
0.25
  1
0.750
 41
0.75
 72
     1
 11
7.16267462087864
 21
7.4864390334625641
 31
0.0
 73
     2
  0
POINT
  5
12F
  8
DEFPOINTS
  6
BYBLOCK
 62
     0
 10
8.0634578978887372
 20
7.111439033462565
 30
0.0
  0
POINT
  5
130
  8
DEFPOINTS
  6
BYBLOCK
 62
     0
 10
8.0634578978887355
 20
7.8614390334625632
 30
0.0
  0
POINT
  5
131
  8
DEFPOINTS
  6
BYBLOCK
 62
     0
 10
7.16267462087864
 20
7.8614390334625632
 30
0.0
  0
ENDBLK
  5
132
  8
0
  0
BLOCK
  8
0
  2
*D15
 70
     1
 10
0.0
 20
0.0
 30
0.0
  3
*D15
  1

  0
LINE
  5
134
  8
0
  6
BYBLOCK
 62
     0
 10
4.52545490283498
 20
4.9634894457467524
 30
0.0
 11
3.4291118364305202
 21
4.9634894457467524
 31
0.0
  0
LINE
  5
135
  8
0
  6
BYBLOCK
 62
     0
 10
4.52545490283498
 20
3.713489445746752
 30
0.0
 11
3.4291118364305202
 21
3.713489445746752
 31
0.0
  0
LINE
  5
136
  8
0
  6
BYBLOCK
 62
     0
 10
3.6151118364305201
 20
5.3234894457467519
 30
0.0
 11
3.6151118364305201
 21
5.6834894457467522
 31
0.0
  0
LINE
  5
137
  8
0
  6
BYBLOCK
 62
     0
 10
3.6151118364305201
 20
3.3534894457467521
 30
0.0
 11
3.6151118364305201
 21
2.9934894457467518
 31
0.0
  0
SOLID
  5
138
  8
0
  6
BYBLOCK
 62
     0
 10
3.5551118364305201
 20
5.3234894457467519
 30
0.0
 11
3.6751118364305202
 21
5.3234894457467519
 31
0.0
 12
3.6151118364305201
 22
4.9634894457467524
 32
0.0
 13
3.6151118364305201
 23
4.9634894457467524
 33
0.0
  0
SOLID
  5
139
  8
0
  6
BYBLOCK
 62
     0
 10
3.5551118364305201
 20
3.3534894457467521
 30
0.0
 11
3.6751118364305202
 21
3.3534894457467521
 31
0.0
 12
3.6151118364305201
 22
3.713489445746752
 32
0.0
 13
3.6151118364305201
 23
3.713489445746752
 33
0.0
  0
TEXT
  5
13A
  8
0
  6
BYBLOCK
 62
     0
 10
3.2869868364305201
 20
4.2134894457467524
 30
0.0
 40
0.25
  1
1.250
 41
0.75
 72
     1
 11
3.6151118364305201
 21
4.3384894457467524
 31
0.0
 73
     2
  0
POINT
  5
13B
  8
DEFPOINTS
  6
BYBLOCK
 62
     0
 10
4.6514549028349812
 20
4.9634894457467524
 30
0.0
  0
POINT
  5
13C
  8
DEFPOINTS
  6
BYBLOCK
 62
     0
 10
4.6514549028349812
 20
3.713489445746752
 30
0.0
  0
POINT
  5
13D
  8
DEFPOINTS
  6
BYBLOCK
 62
     0
 10
3.6151118364305201
 20
3.713489445746752
 30
0.0
  0
ENDBLK
  5
13E
  8
0
  0
BLOCK
  8
0
  2
*D16
 70
     1
 10
0.0
 20
0.0
 30
0.0
  3
*D16
  1

  0
LINE
  5
140
  8
0
  6
BYBLOCK
 62
     0
 10
4.52545490283498
 20
3.713489445746752
 30
0.0
 11
2.6681301608848851
 21
3.713489445746752
 31
0.0
  0
LINE
  5
141
  8
0
  6
BYBLOCK
 62
     0
 10
4.3214549028349802
 20
3.4794894457467498
 30
0.0
 11
2.6681301608848851
 21
3.4794894457467498
 31
0.0
  0
LINE
  5
142
  8
0
  6
BYBLOCK
 62
     0
 10
2.854130160884885
 20
4.0734894457467519
 30
0.0
 11
2.854130160884885
 21
4.4334894457467522
 31
0.0
  0
LINE
  5
143
  8
0
  6
BYBLOCK
 62
     0
 10
2.854130160884885
 20
3.1194894457467499
 30
0.0
 11
2.854130160884885
 21
2.75948944574675
 31
0.0
  0
LINE
  5
144
  8
0
  6
BYBLOCK
 62
     0
 10
2.854130160884885
 20
2.75948944574675
 30
0.0
 11
2.4941301608848852
 21
2.75948944574675
 31
0.0
  0
SOLID
  5
145
  8
0
  6
BYBLOCK
 62
     0
 10
2.794130160884885
 20
4.0734894457467519
 30
0.0
 11
2.9141301608848851
 21
4.0734894457467519
 31
0.0
 12
2.854130160884885
 22
3.713489445746752
 32
0.0
 13
2.854130160884885
 23
3.713489445746752
 33
0.0
  0
SOLID
  5
146
  8
0
  6
BYBLOCK
 62
     0
 10
2.794130160884885
 20
3.1194894457467499
 30
0.0
 11
2.9141301608848851
 21
3.1194894457467499
 31
0.0
 12
2.854130160884885
 22
3.4794894457467498
 32
0.0
 13
2.854130160884885
 23
3.4794894457467498
 33
0.0
  0
TEXT
  5
147
  8
0
  6
BYBLOCK
 62
     0
 10
1.595380160884885
 20
2.63448944574675
 30
0.0
 40
0.25
  1
0.234
 41
0.75
 72
     1
 11
1.954755160884885
 21
2.75948944574675
 31
0.0
 73
     2
  0
POINT
  5
148
  8
DEFPOINTS
  6
BYBLOCK
 62
     0
 10
4.6514549028349812
 20
3.713489445746752
 30
0.0
  0
POINT
  5
149
  8
DEFPOINTS
  6
BYBLOCK
 62
     0
 10
4.4474549028349797
 20
3.4794894457467498
 30
0.0
  0
POINT
  5
14A
  8
DEFPOINTS
  6
BYBLOCK
 62
     0
 10
2.854130160884885
 20
3.4794894457467498
 30
0.0
  0
ENDBLK
  5
14B
  8
0
  0
BLOCK
  8
0
  2
*D17
 70
     1
 10
0.0
 20
0.0
 30
0.0
  3
*D17
  1

  0
LINE
  5
14D
  8
0
  6
BYBLOCK
 62
     0
 10
12.490547550983999
 20
22.279189752846712
 30
0.0
 11
14.95992716730132
 21
22.279189752846712
 31
0.0
  0
LINE
  5
14E
  8
0
  6
BYBLOCK
 62
     0
 10
10.490547550983999
 20
22.904189752846712
 30
0.0
 11
14.95992716730132
 21
22.904189752846712
 31
0.0
  0
LINE
  5
14F
  8
0
  6
BYBLOCK
 62
     0
 10
14.77392716730132
 20
21.919189752846709
 30
0.0
 11
14.77392716730132
 21
21.559189752846709
 31
0.0
  0
LINE
  5
150
  8
0
  6
BYBLOCK
 62
     0
 10
14.77392716730132
 20
23.264189752846711
 30
0.0
 11
14.77392716730132
 21
23.624189752846711
 31
0.0
  0
SOLID
  5
151
  8
0
  6
BYBLOCK
 62
     0
 10
14.713927167301319
 20
21.919189752846709
 30
0.0
 11
14.83392716730132
 21
21.919189752846709
 31
0.0
 12
14.77392716730132
 22
22.279189752846712
 32
0.0
 13
14.77392716730132
 23
22.279189752846712
 33
0.0
  0
SOLID
  5
152
  8
0
  6
BYBLOCK
 62
     0
 10
14.713927167301319
 20
23.264189752846711
 30
0.0
 11
14.83392716730132
 21
23.264189752846711
 31
0.0
 12
14.77392716730132
 22
22.904189752846712
 32
0.0
 13
14.77392716730132
 23
22.904189752846712
 33
0.0
  0
TEXT
  5
153
  8
0
  6
BYBLOCK
 62
     0
 10
14.41455216730132
 20
22.466689752846712
 30
0.0
 40
0.25
  1
0.625
 41
0.75
 72
     1
 11
14.77392716730132
 21
22.591689752846712
 31
0.0
 73
     2
  0
POINT
  5
154
  8
DEFPOINTS
  6
BYBLOCK
 62
     0
 10
12.364547550984
 20
22.279189752846712
 30
0.0
  0
POINT
  5
155
  8
DEFPOINTS
  6
BYBLOCK
 62
     0
 10
10.364547550984
 20
22.904189752846712
 30
0.0
  0
POINT
  5
156
  8
DEFPOINTS
  6
BYBLOCK
 62
     0
 10
14.77392716730132
 20
22.904189752846712
 30
0.0
  0
ENDBLK
  5
157
  8
0
  0
BLOCK
  8
0
  2
*D18
 70
     1
 10
0.0
 20
0.0
 30
0.0
  3
*D18
  1

  0
LINE
  5
159
  8
0
  6
BYBLOCK
 62
     0
 10
12.886547550984
 20
22.045689752846702
 30
0.0
 11
15.764470976695989
 21
22.045689752846702
 31
0.0
  0
LINE
  5
15A
  8
0
  6
BYBLOCK
 62
     0
 10
10.490547550983999
 20
22.279189752846712
 30
0.0
 11
15.764470976695989
 21
22.279189752846712
 31
0.0
  0
LINE
  5
15B
  8
0
  6
BYBLOCK
 62
     0
 10
15.578470976695989
 20
21.685689752846699
 30
0.0
 11
15.578470976695989
 21
21.32568975284671
 31
0.0
  0
LINE
  5
15C
  8
0
  6
BYBLOCK
 62
     0
 10
15.578470976695989
 20
22.639189752846711
 30
0.0
 11
15.578470976695989
 21
22.999189752846711
 31
0.0
  0
SOLID
  5
15D
  8
0
  6
BYBLOCK
 62
     0
 10
15.518470976695991
 20
21.685689752846699
 30
0.0
 11
15.63847097669599
 21
21.685689752846699
 31
0.0
 12
15.578470976695989
 22
22.045689752846702
 32
0.0
 13
15.578470976695989
 23
22.045689752846702
 33
0.0
  0
SOLID
  5
15E
  8
0
  6
BYBLOCK
 62
     0
 10
15.518470976695991
 20
22.639189752846711
 30
0.0
 11
15.63847097669599
 21
22.639189752846711
 31
0.0
 12
15.578470976695989
 22
22.279189752846712
 32
0.0
 13
15.578470976695989
 23
22.279189752846712
 33
0.0
  0
TEXT
  5
15F
  8
0
  6
BYBLOCK
 62
     0
 10
16.118470976695981
 20
21.185327422390571
 30
0.0
 40
0.25
  1
0.234
 41
0.75
 72
     1
 11
16.477845976695981
 21
21.310327422390571
 31
0.0
 73
     2
  0
POINT
  5
160
  8
DEFPOINTS
  6
BYBLOCK
 62
     0
 10
12.760547550984001
 20
22.045689752846702
 30
0.0
  0
POINT
  5
161
  8
DEFPOINTS
  6
BYBLOCK
 62
     0
 10
10.364547550984
 20
22.279189752846712
 30
0.0
  0
POINT
  5
162
  8
DEFPOINTS
  6
BYBLOCK
 62
     0
 10
15.578470976695989
 20
22.279189752846712
 30
0.0
  0
ENDBLK
  5
163
  8
0
  0
BLOCK
  8
0
  2
*D19
 70
     1
 10
0.0
 20
0.0
 30
0.0
  3
*D19
  1

  0
LINE
  5
165
  8
0
  6
BYBLOCK
 62
     0
 10
12.490547550983999
 20
22.904189752846712
 30
0.0
 11
14.175945397856839
 21
22.904189752846712
 31
0.0
  0
LINE
  5
166
  8
0
  6
BYBLOCK
 62
     0
 10
10.490547550983999
 20
23.529189752846712
 30
0.0
 11
14.175945397856839
 21
23.529189752846712
 31
0.0
  0
LINE
  5
167
  8
0
  6
BYBLOCK
 62
     0
 10
13.98994539785684
 20
22.544189752846709
 30
0.0
 11
13.98994539785684
 21
22.184189752846709
 31
0.0
  0
LINE
  5
168
  8
0
  6
BYBLOCK
 62
     0
 10
13.98994539785684
 20
23.889189752846711
 30
0.0
 11
13.98994539785684
 21
24.249189752846711
 31
0.0
  0
SOLID
  5
169
  8
0
  6
BYBLOCK
 62
     0
 10
13.929945397856841
 20
22.544189752846709
 30
0.0
 11
14.04994539785684
 21
22.544189752846709
 31
0.0
 12
13.98994539785684
 22
22.904189752846712
 32
0.0
 13
13.98994539785684
 23
22.904189752846712
 33
0.0
  0
SOLID
  5
16A
  8
0
  6
BYBLOCK
 62
     0
 10
13.929945397856841
 20
23.889189752846711
 30
0.0
 11
14.04994539785684
 21
23.889189752846711
 31
0.0
 12
13.98994539785684
 22
23.529189752846712
 32
0.0
 13
13.98994539785684
 23
23.529189752846712
 33
0.0
  0
TEXT
  5
16B
  8
0
  6
BYBLOCK
 62
     0
 10
13.63057039785684
 20
23.091689752846712
 30
0.0
 40
0.25
  1
0.625
 41
0.75
 72
     1
 11
13.98994539785684
 21
23.216689752846712
 31
0.0
 73
     2
  0
POINT
  5
16C
  8
DEFPOINTS
  6
BYBLOCK
 62
     0
 10
12.364547550984
 20
22.904189752846712
 30
0.0
  0
POINT
  5
16D
  8
DEFPOINTS
  6
BYBLOCK
 62
     0
 10
10.364547550984
 20
23.529189752846712
 30
0.0
  0
POINT
  5
16E
  8
DEFPOINTS
  6
BYBLOCK
 62
     0
 10
13.98994539785684
 20
23.529189752846712
 30
0.0
  0
ENDBLK
  5
16F
  8
0
  0
BLOCK
  8
0
  2
*D20
 70
     1
 10
0.0
 20
0.0
 30
0.0
  3
*D20
  1

  0
LINE
  5
265
  8
DIM
 62
     0
 10
2.407185750891077
 20
6.847609087027509
 30
0.0
 11
2.407185750891077
 21
9.0184820240584855
 31
0.0
  0
LINE
  5
266
  8
DIM
 62
     0
 10
12.9071858325898
 20
8.8649918732526434
 30
0.0
 11
12.9071858325898
 21
9.0184820240584855
 31
0.0
  0
LINE
  5
267
  8
DIM
 62
     0
 10
2.7671857508910769
 20
8.8324820240584856
 30
0.0
 11
5.6334357917404381
 21
8.8324820240584856
 31
0.0
  0
LINE
  5
268
  8
DIM
 62
     0
 10
12.5471858325898
 20
8.8324820240584856
 30
0.0
 11
9.6809357917404384
 21
8.8324820240584856
 31
0.0
  0
SOLID
  5
269
  8
DIM
 62
     0
 10
2.7671857508910769
 20
8.8924820240584861
 30
0.0
 11
2.7671857508910769
 21
8.7724820240584851
 31
0.0
 12
2.407185750891077
 22
8.8324820240584856
 32
0.0
 13
2.407185750891077
 23
8.8324820240584856
 33
0.0
  0
SOLID
  5
26A
  8
DIM
 62
     0
 10
12.5471858325898
 20
8.8924820240584861
 30
0.0
 11
12.5471858325898
 21
8.7724820240584851
 31
0.0
 12
12.9071858325898
 22
8.8324820240584856
 32
0.0
 13
12.9071858325898
 23
8.8324820240584856
 33
0.0
  0
TEXT
  5
26B
  8
DIM
 62
     0
 10
5.8134357917404378
 20
8.7074820240584856
 30
0.0
 40
0.25
  1
(B) SPACES @ (C) = (D)
 41
0.75
  0
POINT
  5
26C
  8
DEFPOINTS
 62
     0
 10
2.407185750891077
 20
6.7216090870275087
 30
0.0
  0
POINT
  5
26D
  8
DEFPOINTS
 62
     0
 10
12.9071858325898
 20
8.7389918732526422
 30
0.0
  0
POINT
  5
26E
  8
DEFPOINTS
 62
     0
 10
12.9071858325898
 20
8.8324820240584856
 30
0.0
  0
ENDBLK
  5
270
  8
0
  0
BLOCK
  8
0
  2
*D21
 70
     1
 10
0.0
 20
0.0
 30
0.0
  3
*D21
  1

  0
LINE
  5
273
  8
DIM
 62
     0
 10
1.1571857917404349
 20
8.2066090870275161
 30
0.0
 11
1.1571857917404349
 21
9.0184820240584855
 31
0.0
  0
LINE
  5
274
  8
DIM
 62
     0
 10
2.407185750891077
 20
6.847609087027509
 30
0.0
 11
2.407185750891077
 21
9.0184820240584855
 31
0.0
  0
LINE
  5
275
  8
DIM
 62
     0
 10
0.7971857917404353
 20
8.8324820240584856
 30
0.0
 11
0.4371857917404352
 21
8.8324820240584856
 31
0.0
  0
LINE
  5
276
  8
DIM
 62
     0
 10
2.7671857508910769
 20
8.8324820240584856
 30
0.0
 11
3.1271857508910772
 21
8.8324820240584856
 31
0.0
  0
SOLID
  5
277
  8
DIM
 62
     0
 10
0.7971857917404353
 20
8.8924820240584861
 30
0.0
 11
0.7971857917404353
 21
8.7724820240584851
 31
0.0
 12
1.1571857917404349
 22
8.8324820240584856
 32
0.0
 13
1.1571857917404349
 23
8.8324820240584856
 33
0.0
  0
SOLID
  5
278
  8
DIM
 62
     0
 10
2.7671857508910769
 20
8.8924820240584861
 30
0.0
 11
2.7671857508910769
 21
8.7724820240584851
 31
0.0
 12
2.407185750891077
 22
8.8324820240584856
 32
0.0
 13
2.407185750891077
 23
8.8324820240584856
 33
0.0
  0
TEXT
  5
279
  8
DIM
 62
     0
 10
1.7196857713157561
 20
8.7074820240584856
 30
0.0
 40
0.25
  1
E
 41
0.75
  0
POINT
  5
27A
  8
DEFPOINTS
 62
     0
 10
1.1571857917404349
 20
8.0806090870275185
 30
0.0
  0
POINT
  5
27B
  8
DEFPOINTS
 62
     0
 10
2.407185750891077
 20
6.7216090870275087
 30
0.0
  0
POINT
  5
27C
  8
DEFPOINTS
 62
     0
 10
2.407185750891077
 20
8.8324820240584856
 30
0.0
  0
ENDBLK
  5
27E
  8
0
  0
BLOCK
  8
0
  2
*D22
 70
     1
 10
0.0
 20
0.0
 30
0.0
  3
*D22
  1

  0
LINE
  5
280
  8
DIM
 62
     0
 10
14.15718579174043
 20
8.2066090870275161
 30
0.0
 11
14.15718579174043
 21
9.0184820240584855
 31
0.0
  0
LINE
  5
281
  8
DIM
 62
     0
 10
12.90718575089107
 20
6.847609087027509
 30
0.0
 11
12.90718575089107
 21
9.0184820240584855
 31
0.0
  0
LINE
  5
282
  8
DIM
 62
     0
 10
14.517185791740429
 20
8.8324820240584856
 30
0.0
 11
14.87718579174043
 21
8.8324820240584856
 31
0.0
  0
LINE
  5
283
  8
DIM
 62
     0
 10
12.547185750891069
 20
8.8324820240584856
 30
0.0
 11
12.18718575089107
 21
8.8324820240584856
 31
0.0
  0
SOLID
  5
284
  8
DIM
 62
     0
 10
14.517185791740429
 20
8.8924820240584861
 30
0.0
 11
14.517185791740429
 21
8.7724820240584851
 31
0.0
 12
14.15718579174043
 22
8.8324820240584856
 32
0.0
 13
14.15718579174043
 23
8.8324820240584856
 33
0.0
  0
SOLID
  5
285
  8
DIM
 62
     0
 10
12.547185750891069
 20
8.8924820240584861
 30
0.0
 11
12.547185750891069
 21
8.7724820240584851
 31
0.0
 12
12.90718575089107
 22
8.8324820240584856
 32
0.0
 13
12.90718575089107
 23
8.8324820240584856
 33
0.0
  0
TEXT
  5
286
  8
DIM
 62
     0
 10
13.469685771315749
 20
8.7074820240584856
 30
0.0
 40
0.25
  1
E
 41
0.75
  0
POINT
  5
287
  8
DEFPOINTS
 62
     0
 10
14.15718579174043
 20
8.0806090870275185
 30
0.0
  0
POINT
  5
288
  8
DEFPOINTS
 62
     0
 10
12.90718575089107
 20
6.7216090870275087
 30
0.0
  0
POINT
  5
289
  8
DEFPOINTS
 62
     0
 10
12.90718575089107
 20
8.8324820240584856
 30
0.0
  0
ENDBLK
  5
28B
  8
0
  0
ENDSEC
  0
SECTION
  2
ENTITIES
  0
TEXT
  5
170
  8
TEXT
 10
1.4756382980879961
 20
14.498634159857801
 30
0.0
 40
0.25
  1
MATERIAL: 14 GA. STEEL
 41
0.75
  0
TEXT
  5
171
  8
TEXT
 10
1.4756382980879961
 20
14.098443201404329
 30
0.0
 40
0.25
  1
FINISH: BLACK 
 41
0.75
  0
LINE
  5
172
  8
OBJECT
 10
1.5111857917404341
 20
6.3626090870275176
 30
0.0
 11
13.803185791740431
 21
6.3626090870275176
 31
0.0
  0
LINE
  5
173
  8
OBJECT
 10
14.15718579174043
 20
6.7166090870275168
 30
0.0
 11
14.15718579174043
 21
8.0806090870275185
 31
0.0
  0
LINE
  5
174
  8
OBJECT
 10
14.15718579174043
 20
8.0806090870275185
 30
0.0
 11
1.1571857917404349
 21
8.0806090870275185
 31
0.0
  0
LINE
  5
175
  8
OBJECT
 10
1.1571857917404349
 20
8.0806090870275185
 30
0.0
 11
1.1571857917404349
 21
6.7166090870275168
 31
0.0
  0
TEXT
  5
176
  8
TEXT
 10
10.62459981248384
 20
1.468983814075286
 30
0.0
 40
0.25
  1
2.050
 41
0.75
 72
     4
 11
10.96834981248384
 21
1.593983814075286
 31
0.0
  0
TEXT
  5
177
  8
TEXT
 10
4.5503175886202953
 20
1.4689838140752851
 30
0.0
 40
0.25
  1
23.000
 41
0.75
 72
     4
 11
4.9721925886202953
 21
1.5939838140752851
 31
0.0
  0
TEXT
  5
178
  8
TEXT
 10
1.1086749062419221
 20
1.4689838140752851
 30
0.0
 40
0.25
  1
CSB-1354
 41
0.75
 72
     4
 11
1.7961749062419221
 21
1.5939838140752851
 31
0.0
  0
TEXT
  5
179
  8
TEXT
 10
1.139924906241919
 20
2.7159999999999922
 30
0.0
 40
0.25
  1
PART No.
 41
0.75
 72
     4
 11
1.796174906241919
 21
2.8409999999999922
 31
0.0
  0
TEXT
  5
17A
  8
TEXT
 10
1.1086749062419221
 20
2.297999999999992
 30
0.0
 40
0.25
  1
CSB-1352
 41
0.75
 72
     4
 11
1.7961749062419221
 21
2.422999999999992
 31
0.0
  0
TEXT
  5
17B
  8
TEXT
 10
1.1086749062419221
 20
1.8852723427835401
 30
0.0
 40
0.25
  1
CSB-1353
 41
0.75
 72
     4
 11
1.7961749062419221
 21
2.0102723427835398
 31
0.0
  0
TEXT
  5
17C
  8
TEXT
 10
4.5824516998417577
 20
1.8852723427835409
 30
0.0
 40
0.25
  1
16.000
 41
0.75
 72
     4
 11
4.9730766998417577
 21
2.0102723427835412
 31
0.0
  0
TEXT
  5
17D
  8
TEXT
 10
4.5777248124838472
 20
2.2979999999999929
 30
0.0
 40
0.25
  1
13.000
 41
0.75
 72
     4
 11
4.9683498124838472
 21
2.4229999999999929
 31
0.0
  0
TEXT
  5
17E
  8
TEXT
 10
4.9058498124838472
 20
2.7159999999999922
 30
0.0
 40
0.25
  1
A
 41
0.75
 72
     4
 11
4.9683498124838472
 21
2.8409999999999922
 31
0.0
  0
TEXT
  5
17F
  8
TEXT
 10
10.90584981248384
 20
2.7159999999999931
 30
0.0
 40
0.25
  1
C
 41
0.75
 72
     4
 11
10.96834981248384
 21
2.8409999999999931
 31
0.0
  0
TEXT
  5
180
  8
TEXT
 10
10.65584981248384
 20
2.2979999999999929
 30
0.0
 40
0.25
  1
2.100
 41
0.75
 72
     4
 11
10.96834981248384
 21
2.4229999999999929
 31
0.0
  0
TEXT
  5
181
  8
TEXT
 10
10.62459981248384
 20
1.8852723427835409
 30
0.0
 40
0.25
  1
1.929
 41
0.75
 72
     4
 11
10.96834981248384
 21
2.0102723427835412
 31
0.0
  0
LINE
  5
182
  8
HIDDEN
 10
14.15718579174043
 20
8.0026090870275191
 30
0.0
 11
1.1571857917404349
 21
8.0026090870275191
 31
0.0
  0
LINE
  5
183
  8
OBJECT
 10
14.15718579174043
 20
10.72855867474332
 30
0.0
 11
1.1571857917404349
 21
10.72855867474332
 31
0.0
  0
LINE
  5
184
  8
OBJECT
 10
1.5111857917404341
 20
12.446558674743329
 30
0.0
 11
13.803185791740431
 21
12.446558674743329
 31
0.0
  0
LINE
  5
185
  8
HIDDEN
 10
14.15718579174043
 20
10.80655867474332
 30
0.0
 11
1.1571857917404349
 21
10.80655867474332
 31
0.0
  0
LINE
  5
186
  8
OBJECT
 10
1.1571857917404349
 20
10.72855867474332
 30
0.0
 11
1.1571857917404349
 21
12.09255867474333
 31
0.0
  0
LINE
  5
187
  8
OBJECT
 10
14.15718579174043
 20
12.09255867474333
 30
0.0
 11
14.15718579174043
 21
10.72855867474332
 31
0.0
  0
LINE
  5
188
  8
OBJECT
 10
2.782185750891077
 20
7.3466090870275087
 30
0.0
 11
2.032185750891077
 21
7.3466090870275087
 31
0.0
  0
LINE
  5
189
  8
OBJECT
 10
2.7821857459872481
 20
7.0966090870275087
 30
0.0
 11
2.0321857459872481
 21
7.0966090870275087
 31
0.0
  0
LINE
  5
18A
  8
OBJECT
 10
2.782185750891077
 20
6.7216090870275087
 30
0.0
 11
2.032185750891077
 21
6.7216090870275087
 31
0.0
  0
LINE
  5
18B
  8
OBJECT
 10
2.7821857459872481
 20
6.4716090870275087
 30
0.0
 11
2.0321857459872481
 21
6.4716090870275087
 31
0.0
  0
ARC
  5
18C
  8
OBJECT
 10
2.0321857917404378
 20
6.5966090870275158
 30
0.0
 40
0.1249999999999996
 50
90.000018723967955
 51
270.00001872396791
  0
ARC
  5
18D
  8
OBJECT
 10
2.0321857917404378
 20
7.2216090870275158
 30
0.0
 40
0.1249999999999996
 50
90.000018723967955
 51
270.00001872396791
  0
ARC
  5
18E
  8
OBJECT
 10
2.7821857917404378
 20
6.5966090870275158
 30
0.0
 40
0.1249999999999996
 50
270.00001872396791
 51
90.000018723967955
  0
ARC
  5
18F
  8
OBJECT
 10
2.7821857917404378
 20
7.2216090870275158
 30
0.0
 40
0.1249999999999996
 50
270.00001872396791
 51
90.000018723967955
  0
LINE
  5
190
  8
OBJECT
 10
13.28218575089107
 20
7.3466090870275087
 30
0.0
 11
12.53218575089107
 21
7.3466090870275087
 31
0.0
  0
LINE
  5
191
  8
OBJECT
 10
13.28218574598724
 20
7.0966090870275087
 30
0.0
 11
12.53218574598724
 21
7.0966090870275087
 31
0.0
  0
LINE
  5
192
  8
OBJECT
 10
13.28218575089107
 20
6.7216090870275087
 30
0.0
 11
12.53218575089107
 21
6.7216090870275087
 31
0.0
  0
LINE
  5
193
  8
OBJECT
 10
13.28218574598724
 20
6.4716090870275087
 30
0.0
 11
12.53218574598724
 21
6.4716090870275087
 31
0.0
  0
ARC
  5
194
  8
OBJECT
 10
12.53218579174044
 20
6.5966090870275158
 30
0.0
 40
0.1249999999999996
 50
90.000018723967955
 51
270.00001872396791
  0
ARC
  5
195
  8
OBJECT
 10
12.53218579174044
 20
7.2216090870275158
 30
0.0
 40
0.1249999999999996
 50
90.000018723967955
 51
270.00001872396791
  0
ARC
  5
196
  8
OBJECT
 10
13.28218579174043
 20
6.5966090870275158
 30
0.0
 40
0.1249999999999996
 50
270.00001872396791
 51
90.000018723967955
  0
ARC
  5
197
  8
OBJECT
 10
13.28218579174043
 20
7.2216090870275158
 30
0.0
 40
0.1249999999999996
 50
270.00001872396791
 51
90.000018723967955
  0
LINE
  5
198
  8
OBJECT
 10
19.05795021126745
 20
8.0806090870275185
 30
0.0
 11
17.33995021126746
 21
8.0806090870275185
 31
0.0
  0
LINE
  5
199
  8
OBJECT
 10
17.33995021126746
 20
8.0806090870275185
 30
0.0
 11
17.33995021126746
 21
6.3626090870275176
 31
0.0
  0
LINE
  5
19A
  8
OBJECT
 10
19.05795021126745
 20
8.0806090870275185
 30
0.0
 11
19.05795021126745
 21
8.0026090870275191
 31
0.0
  0
LINE
  5
19B
  8
OBJECT
 10
17.41795021126746
 20
8.0026090870275191
 30
0.0
 11
17.41795021126746
 21
6.3626090870275176
 31
0.0
  0
LINE
  5
19C
  8
OBJECT
 10
17.41795021126746
 20
6.3626090870275176
 30
0.0
 11
17.33995021126746
 21
6.3626090870275176
 31
0.0
  0
LINE
  5
19D
  8
OBJECT
 10
19.05795021126745
 20
8.0026090870275191
 30
0.0
 11
17.41795021126746
 21
8.0026090870275191
 31
0.0
  0
DIMENSION
  5
19E
  8
DIM
  2
*D2
 10
19.05795021126745
 20
8.8324820240584856
 30
0.0
 11
18.198950211267451
 21
8.8324820240584856
 31
0.0
 12
0.6836298313201789
 22
-11.66094087033929
 32
0.0
 13
17.33995021126746
 23
8.0806090870275185
 33
0.0
 14
19.05795021126745
 24
8.0806090870275185
 34
0.0
  0
DIMENSION
  5
19F
  8
DIM
  2
*D3
 10
16.648777213701639
 20
8.0806090870275185
 30
0.0
 11
16.648777213701639
 21
7.2216090870275202
 31
0.0
 12
-0.0357282174514992
 22
-12.92482980614356
 32
0.0
 13
17.33995021126746
 23
6.3626090870275176
 33
0.0
 14
17.33995021126746
 24
8.0806090870275185
 34
0.0
 50
90.0
  0
DIMENSION
  5
1A0
  8
DIM
  2
*D21
 10
2.407185750891077
 20
8.8324820240584856
 30
0.0
 11
1.7821857713157561
 21
8.8324820240584856
 31
0.0
 70
     0
  1
E
 13
1.1571857917404349
 23
8.0806090870275185
 33
0.0
 14
2.407185750891077
 24
6.7216090870275087
 34
0.0
  0
DIMENSION
  5
1A1
  8
DIM
  2
*D22
 10
12.90718575089107
 20
8.8324820240584856
 30
0.0
 11
13.532185771315749
 21
8.8324820240584856
 31
0.0
 70
     0
  1
E
 13
14.15718579174043
 23
8.0806090870275185
 33
0.0
 14
12.90718575089107
 24
6.7216090870275087
 34
0.0
  0
DIMENSION
  5
1A2
  8
DIM
  2
*D20
 10
12.9071858325898
 20
8.8324820240584856
 30
0.0
 11
7.6571857917404378
 21
8.8324820240584856
 31
0.0
 70
     0
  1
(B) SPACES @ (C) = (D)
 13
2.407185750891077
 23
6.7216090870275087
 33
0.0
 14
12.9071858325898
 24
8.7389918732526422
 34
0.0
  0
DIMENSION
  5
1A3
  8
DIM
  2
*D1
 10
14.15718579174043
 20
9.5049729101023033
 30
0.0
 11
7.6571857917404378
 21
9.5049729101023033
 31
0.0
 12
-0.3023329651008879
 22
-11.66094087033929
 32
0.0
  1
A
 13
1.1571857917404349
 23
8.0806090870275185
 33
0.0
 14
14.15718579174043
 24
8.0806090870275185
 34
0.0
  0
TEXT
  5
1A4
  8
TEXT
 10
1.1086749062419221
 20
1.0453212721873399
 30
0.0
 40
0.25
  1
CSB-1355
 41
0.75
 72
     4
 11
1.7961749062419221
 21
1.1703212721873399
 31
0.0
  0
TEXT
  5
1A5
  8
TEXT
 10
4.5503175886202953
 20
1.0453212721873411
 30
0.0
 40
0.25
  1
28.000
 41
0.75
 72
     4
 11
4.9721925886202953
 21
1.1703212721873411
 31
0.0
  0
TEXT
  5
1A6
  8
TEXT
 10
10.62459981248384
 20
1.0453212721873411
 30
0.0
 40
0.25
  1
1.962
 41
0.75
 72
     4
 11
10.96834981248384
 21
1.1703212721873411
 31
0.0
  0
DIMENSION
  5
1A7
  8
DIM
  2
*D5
 10
14.98318416293054
 20
7.2216090870275158
 30
0.0
 11
14.98318416293054
 21
6.9091090870275158
 31
0.0
 12
-0.0000000000000036
 22
-13.658813120957589
 32
0.0
 13
13.40718579174043
 23
6.5966090870275158
 33
0.0
 14
13.40718579174043
 24
7.2216090870275158
 34
0.0
 50
90.0
  0
LINE
  5
1A8
  8
OBJECT
 10
14.15718579174043
 20
12.09255867474333
 30
0.0
 11
13.803185791740431
 21
12.446558674743329
 31
0.0
  0
LINE
  5
1A9
  8
OBJECT
 10
1.5111857917404341
 20
12.446558674743329
 30
0.0
 11
1.1571857917404349
 21
12.09255867474333
 31
0.0
  0
LINE
  5
1AA
  8
OBJECT
 10
1.1571857917404349
 20
6.7166090870275168
 30
0.0
 11
1.5111857917404341
 21
6.3626090870275176
 31
0.0
  0
LINE
  5
1AB
  8
OBJECT
 10
13.803185791740431
 20
6.3626090870275176
 30
0.0
 11
14.15718579174043
 21
6.7166090870275168
 31
0.0
  0
LINE
  5
1AC
  8
OBJECT
 10
4.882185750891078
 20
7.3466090870275087
 30
0.0
 11
4.132185750891078
 21
7.3466090870275087
 31
0.0
  0
LINE
  5
1AD
  8
OBJECT
 10
4.8821857459872504
 20
7.0966090870275087
 30
0.0
 11
4.1321857459872504
 21
7.0966090870275087
 31
0.0
  0
LINE
  5
1AE
  8
OBJECT
 10
4.882185750891078
 20
6.7216090870275087
 30
0.0
 11
4.132185750891078
 21
6.7216090870275087
 31
0.0
  0
LINE
  5
1AF
  8
OBJECT
 10
4.8821857459872504
 20
6.4716090870275087
 30
0.0
 11
4.1321857459872504
 21
6.4716090870275087
 31
0.0
  0
ARC
  5
1B0
  8
OBJECT
 10
4.1321857917404401
 20
6.5966090870275158
 30
0.0
 40
0.1249999999999996
 50
90.000018723967955
 51
270.00001872396791
  0
ARC
  5
1B1
  8
OBJECT
 10
4.1321857917404401
 20
7.2216090870275158
 30
0.0
 40
0.1249999999999996
 50
90.000018723967955
 51
270.00001872396791
  0
ARC
  5
1B2
  8
OBJECT
 10
4.8821857917404401
 20
6.5966090870275158
 30
0.0
 40
0.1249999999999996
 50
270.00001872396791
 51
90.000018723967955
  0
ARC
  5
1B3
  8
OBJECT
 10
4.8821857917404401
 20
7.2216090870275158
 30
0.0
 40
0.1249999999999996
 50
270.00001872396791
 51
90.000018723967955
  0
LINE
  5
1B4
  8
OBJECT
 10
6.9821857508910758
 20
7.3466090870275087
 30
0.0
 11
6.2321857508910758
 21
7.3466090870275087
 31
0.0
  0
LINE
  5
1B5
  8
OBJECT
 10
6.9821857459872483
 20
7.0966090870275087
 30
0.0
 11
6.2321857459872483
 21
7.0966090870275087
 31
0.0
  0
LINE
  5
1B6
  8
OBJECT
 10
6.9821857508910758
 20
6.7216090870275087
 30
0.0
 11
6.2321857508910758
 21
6.7216090870275087
 31
0.0
  0
LINE
  5
1B7
  8
OBJECT
 10
6.9821857459872483
 20
6.4716090870275087
 30
0.0
 11
6.2321857459872483
 21
6.4716090870275087
 31
0.0
  0
ARC
  5
1B8
  8
OBJECT
 10
6.2321857917404371
 20
6.5966090870275158
 30
0.0
 40
0.1249999999999996
 50
90.000018723967955
 51
270.00001872396791
  0
ARC
  5
1B9
  8
OBJECT
 10
6.2321857917404371
 20
7.2216090870275158
 30
0.0
 40
0.1249999999999996
 50
90.000018723967955
 51
270.00001872396791
  0
ARC
  5
1BA
  8
OBJECT
 10
6.9821857917404371
 20
6.5966090870275158
 30
0.0
 40
0.1249999999999996
 50
270.00001872396791
 51
90.000018723967955
  0
ARC
  5
1BB
  8
OBJECT
 10
6.9821857917404371
 20
7.2216090870275158
 30
0.0
 40
0.1249999999999996
 50
270.00001872396791
 51
90.000018723967955
  0
LINE
  5
1BC
  8
OBJECT
 10
9.0821857508910782
 20
7.3466090870275087
 30
0.0
 11
8.3321857508910782
 21
7.3466090870275087
 31
0.0
  0
LINE
  5
1BD
  8
OBJECT
 10
9.0821857459872497
 20
7.0966090870275087
 30
0.0
 11
8.3321857459872497
 21
7.0966090870275087
 31
0.0
  0
LINE
  5
1BE
  8
OBJECT
 10
9.0821857508910782
 20
6.7216090870275087
 30
0.0
 11
8.3321857508910782
 21
6.7216090870275087
 31
0.0
  0
LINE
  5
1BF
  8
OBJECT
 10
9.0821857459872497
 20
6.4716090870275087
 30
0.0
 11
8.3321857459872497
 21
6.4716090870275087
 31
0.0
  0
ARC
  5
1C0
  8
OBJECT
 10
8.3321857917404394
 20
6.5966090870275158
 30
0.0
 40
0.1249999999999996
 50
90.000018723967955
 51
270.00001872396791
  0
ARC
  5
1C1
  8
OBJECT
 10
8.3321857917404394
 20
7.2216090870275158
 30
0.0
 40
0.1249999999999996
 50
90.000018723967955
 51
270.00001872396791
  0
ARC
  5
1C2
  8
OBJECT
 10
9.0821857917404394
 20
6.5966090870275158
 30
0.0
 40
0.1249999999999996
 50
270.00001872396791
 51
90.000018723967955
  0
ARC
  5
1C3
  8
OBJECT
 10
9.0821857917404394
 20
7.2216090870275158
 30
0.0
 40
0.1249999999999996
 50
270.00001872396791
 51
90.000018723967955
  0
LINE
  5
1C4
  8
OBJECT
 10
11.18218575089108
 20
7.3466090870275087
 30
0.0
 11
10.43218575089108
 21
7.3466090870275087
 31
0.0
  0
LINE
  5
1C5
  8
OBJECT
 10
11.182185745987249
 20
7.0966090870275087
 30
0.0
 11
10.432185745987249
 21
7.0966090870275087
 31
0.0
  0
LINE
  5
1C6
  8
OBJECT
 10
11.18218575089108
 20
6.7216090870275087
 30
0.0
 11
10.43218575089108
 21
6.7216090870275087
 31
0.0
  0
LINE
  5
1C7
  8
OBJECT
 10
11.182185745987249
 20
6.4716090870275087
 30
0.0
 11
10.432185745987249
 21
6.4716090870275087
 31
0.0
  0
ARC
  5
1C8
  8
OBJECT
 10
10.432185791740441
 20
6.5966090870275158
 30
0.0
 40
0.1249999999999996
 50
90.000018723967955
 51
270.00001872396791
  0
ARC
  5
1C9
  8
OBJECT
 10
10.432185791740441
 20
7.2216090870275158
 30
0.0
 40
0.1249999999999996
 50
90.000018723967955
 51
270.00001872396791
  0
ARC
  5
1CA
  8
OBJECT
 10
11.182185791740441
 20
6.5966090870275158
 30
0.0
 40
0.1249999999999996
 50
270.00001872396791
 51
90.000018723967955
  0
ARC
  5
1CB
  8
OBJECT
 10
11.182185791740441
 20
7.2216090870275158
 30
0.0
 40
0.1249999999999996
 50
270.00001872396791
 51
90.000018723967955
  0
TEXT
  5
1CC
  8
TEXT
 10
19.17190179359984
 20
1.8852723427835421
 30
0.0
 40
0.25
  1
16
 41
0.75
 72
     4
 11
19.29690179359984
 21
2.0102723427835421
 31
0.0
  0
TEXT
  5
1CD
  8
TEXT
 10
19.13976768237837
 20
1.468983814075286
 30
0.0
 40
0.25
  1
22
 41
0.75
 72
     4
 11
19.29601768237837
 21
1.593983814075286
 31
0.0
  0
TEXT
  5
1CE
  8
TEXT
 10
19.167174906241922
 20
2.2979999999999938
 30
0.0
 40
0.25
  1
12
 41
0.75
 72
     4
 11
19.292174906241922
 21
2.4229999999999938
 31
0.0
  0
TEXT
  5
1CF
  8
TEXT
 10
19.13976768237837
 20
1.0453212721873419
 30
0.0
 40
0.25
  1
28
 41
0.75
 72
     4
 11
19.29601768237837
 21
1.1703212721873419
 31
0.0
  0
TEXT
  5
1D0
  8
TEXT
 10
19.229674906241922
 20
2.7159999999999931
 30
0.0
 40
0.25
  1
F
 41
0.75
 72
     4
 11
19.292174906241922
 21
2.8409999999999931
 31
0.0
  0
LINE
  5
1D1
  8
OBJECT
 10
17.33995021126745
 20
6.7166090870275141
 30
0.0
 11
17.41795021126746
 21
6.7166090870275141
 31
0.0
  0
LINE
  5
1D2
  8
OBJECT
 10
18.70395021126745
 20
8.0806090870275185
 30
0.0
 11
18.70395021126745
 21
8.0026090870275191
 31
0.0
  0
INSERT
  5
1D3
  8
DIM
  2
HB
 10
0.0
 20
0.0
 30
0.0
 41
2.0
 42
2.0
 43
2.0
  0
DIMENSION
  5
1D4
  8
DIM
  2
*D4
 10
15.82850163222867
 20
6.3626090870275176
 30
0.0
 11
16.59048845561734
 21
5.6426090870275187
 31
0.0
 12
-0.0000000000000036
 22
-12.92482980614356
 32
0.0
 70
   128
 13
14.98318416293054
 23
6.5966090870275158
 33
0.0
 14
13.803185791740431
 24
6.3626090870275176
 34
0.0
 50
90.0
  0
LINE
  5
1D5
  8
DIM
 10
15.82850163222867
 20
5.6426090870275187
 30
0.0
 11
16.132191384531069
 21
5.6426090870275187
 31
0.0
  0
LINE
  5
1D6
  8
TITLE
 10
0.1239999999999952
 20
0.123999999999997
 30
0.0
 11
20.116
 21
0.1239999999999988
 31
0.0
  0
POLYLINE
  5
1D7
  8
DIM
 66
     1
 10
0.0
 20
0.0
 30
0.0
 41
0.135
  0
VERTEX
  5
2BC
  8
DIM
 10
13.04194623336134
 20
6.4716090870275087
 30
0.0
  0
VERTEX
  5
2BD
  8
DIM
 10
13.213361375918501
 20
6.1550386384665181
 30
0.0
 41
0.0
  0
VERTEX
  5
2BE
  8
DIM
 10
13.80650110335954
 20
5.0596248566138611
 30
0.0
 41
0.0
  0
VERTEX
  5
2BF
  8
DIM
 10
14.16650110335954
 20
5.0596248566138611
 30
0.0
 41
0.0
  0
SEQEND
  5
2C0
  8
DIM
  0
TEXT
  5
1DD
  8
DIM
 10
14.34650110335954
 20
4.9346248566138611
 30
0.0
 40
0.25
  1
0.250 x 1.000 OBLONG
 41
0.75
 11
14.34650110335954
 21
5.0596248566138611
 31
0.0
 73
     2
  0
TEXT
  5
1DE
  8
DIM
 10
14.34650110335954
 20
4.5179581899471941
 30
0.0
 40
0.25
  1
(F) HOLES
 41
0.75
 11
14.34650110335954
 21
4.6429581899471941
 31
0.0
 73
     2
  0
DIMENSION
  5
1DF
  8
DIM
  2
*D8
 10
11.84161778157398
 20
6.4716090870275087
 30
0.0
 11
10.551617781573979
 21
5.7516090870275098
 31
0.0
 12
-0.0000000000000036
 22
-13.658813120957589
 32
0.0
  1
<> REF.
 13
12.53218575089107
 23
6.7216090870275087
 33
0.0
 14
12.53218574598724
 24
6.4716090870275087
 34
0.0
 50
90.0
  0
LINE
  5
1E0
  8
TITLE
 10
0.1239999999999952
 20
1.3779999999999939
 30
0.0
 11
20.116
 21
1.3779999999999959
 31
0.0
  0
LINE
  5
1E1
  8
TITLE
 10
0.1239999999999952
 20
1.795999999999994
 30
0.0
 11
20.116
 21
1.7959999999999949
 31
0.0
  0
LINE
  5
1E2
  8
TITLE
 10
0.1239999999999952
 20
2.2139999999999929
 30
0.0
 11
20.116
 21
2.2139999999999951
 31
0.0
  0
LINE
  5
1E3
  8
TITLE
 10
0.1239999999999952
 20
2.6319999999999921
 30
0.0
 11
20.116
 21
2.6319999999999939
 31
0.0
  0
LINE
  5
1E4
  8
TITLE
 10
0.1239999999999952
 20
3.0499999999999909
 30
0.0
 11
20.116
 21
3.0499999999999932
 31
0.0
  0
LINE
  5
1E5
  8
TITLE
 10
3.4683498124838472
 20
3.0499999999999932
 30
0.0
 11
3.4683498124838472
 21
0.1240000000000017
 31
0.0
  0
LINE
  5
1E8
  8
TITLE
 10
0.1239999999999988
 20
16.381186879042399
 30
0.0
 11
20.116
 21
16.381186879042399
 31
0.0
  0
TEXT
  5
1E9
  8
TEXT
 10
2.8882442234227659
 20
16.63484356210709
 30
0.0
 40
0.3497133325095759
  1
CHASSIS SUPPORT BRACKET
 41
0.75
  0
TEXT
  5
1EA
  8
TEXT
 10
0.4156666666666655
 20
16.878011936989228
 30
0.0
 40
0.25
  1
PART
 72
     1
 11
0.8739999999999987
 21
16.878011936989228
 31
0.0
  0
TEXT
  5
1EB
  8
TEXT
 10
0.4156666666666655
 20
16.46134527032256
 30
0.0
 40
0.25
  1
NAME
 72
     1
 11
0.8739999999999987
 21
16.46134527032256
 31
0.0
  0
LINE
  5
1EC
  8
TITLE
 10
1.6239999999999979
 20
16.381186879042399
 30
0.0
 11
1.6239999999999979
 21
17.217186879042401
 31
0.0
  0
TEXT
  5
1ED
  8
TEXT
 10
11.89589217261036
 20
16.629397482374429
 30
0.0
 40
0.3497133325095759
  1
CSB-1352 TO CSB-1355 & CSB-8180 & CSB-8181
 41
0.5764355444716643
 72
     5
 11
19.925782116104301
 21
16.629397482374429
 31
0.0
  0
LINE
  5
1EE
  8
TITLE
 10
10.11999999999999
 20
17.217186879042401
 30
0.0
 11
10.11999999999999
 21
16.381186879042399
 31
0.0
  0
TEXT
  5
1EF
  8
TEXT
 10
10.53566666666665
 20
16.878011936989228
 30
0.0
 40
0.25
  1
PART
 72
     1
 11
10.993999999999989
 21
16.878011936989228
 31
0.0
  0
TEXT
  5
1F0
  8
TEXT
 10
10.743999999999989
 20
16.46134527032256
 30
0.0
 40
0.25
  1
No.
 72
     1
 11
10.993999999999989
 21
16.46134527032256
 31
0.0
  0
LINE
  5
1F1
  8
TITLE
 10
10.244
 20
17.217186879042401
 30
0.0
 11
10.244
 21
16.381186879042399
 31
0.0
  0
LINE
  5
1F2
  8
TITLE
 10
11.744
 20
17.217186879042401
 30
0.0
 11
11.744
 21
16.381186879042399
 31
0.0
  0
LINE
  5
1F3
  8
DIM
 10
5.8994358075316411
 20
21.419189752846702
 30
0.0
 11
6.2307584787895136
 21
21.419189752846702
 31
0.0
  0
TEXT
  5
1F4
  8
DIM
 10
5.8320110702844303
 20
20.228020611947059
 30
0.0
 40
0.25
  1
(2) HOLES
 41
0.75
 11
5.8320110702844303
 21
20.353020611947048
 31
0.0
 73
     2
  0
TEXT
  5
1F5
  8
DIM
 10
5.8320110702844303
 20
20.64468727861372
 30
0.0
 40
0.25
  1
0.281 x 0.437 OBLONG
 41
0.75
 11
5.8320110702844303
 21
20.76968727861372
 31
0.0
 73
     2
  0
DIMENSION
  5
1F6
  8
DIM
  2
*D12
 10
5.8994358075316411
 20
22.139189752846701
 30
0.0
 11
7.1099804578243493
 21
21.419189752846702
 31
0.0
 12
0.0510896530952678
 22
18.566200307099951
 32
0.0
 70
   128
  1
<> REF.
 13
4.9990446018449317
 23
22.420189752846699
 33
0.0
 14
4.999044607356832
 24
22.139189752846701
 34
0.0
 50
90.0
  0
DIMENSION
  5
1F7
  8
DIM
  2
*D7
 10
5.2485445559302484
 20
24.343075374748441
 30
0.0
 11
6.5079195559302461
 21
24.343075374748441
 31
0.0
 12
-0.5967668241663411
 22
18.566200307099951
 32
0.0
 13
4.9210446018449288
 23
22.420189752846699
 33
0.0
 14
5.2485445559302484
 24
23.763689752846709
 34
0.0
  0
LINE
  5
1F8
  8
OBJECT
 10
5.2485445559302484
 20
22.045689752846702
 30
0.0
 11
5.2485445559302484
 21
23.763689752846709
 31
0.0
  0
LINE
  5
1F9
  8
HIDDEN
 10
4.5765445559302513
 20
22.045689752846702
 30
0.0
 11
4.5765445559302513
 21
23.763689752846709
 31
0.0
  0
LINE
  5
1FA
  8
OBJECT
 10
4.4985445559302484
 20
22.045689752846702
 30
0.0
 11
4.4985445559302484
 21
23.763689752846709
 31
0.0
  0
DIMENSION
  5
1FB
  8
DIM
  2
*D15
 10
3.6662014895257862
 20
22.2796897528467
 30
0.0
 11
3.6662014895257862
 21
22.9046897528467
 31
0.0
 12
0.0510896530952678
 22
18.566200307099951
 32
0.0
 13
4.702544555930249
 23
23.5296897528467
 33
0.0
 14
4.702544555930249
 24
22.2796897528467
 34
0.0
 50
90.0
  0
DIMENSION
  5
1FC
  8
DIM
  2
*D16
 10
2.9052198139801528
 20
22.045689752846702
 30
0.0
 11
2.0058448139801541
 21
21.32568975284671
 31
0.0
 12
0.0510896530952678
 22
18.566200307099951
 32
0.0
 13
4.702544555930249
 23
22.2796897528467
 33
0.0
 14
4.4985445559302484
 24
22.045689752846702
 34
0.0
 50
90.0
  0
POLYLINE
  5
1FD
  8
DIM
 66
     1
 10
0.0
 20
0.0
 30
0.0
 41
0.135
  0
VERTEX
  5
2C1
  8
DIM
 10
4.997502007825136
 20
22.139189752846701
 30
0.0
  0
VERTEX
  5
2C2
  8
DIM
 10
5.07318904285437
 20
21.787235959390109
 30
0.0
 41
0.0
  0
VERTEX
  5
2C3
  8
DIM
 10
5.2920110702844312
 20
20.76968727861372
 30
0.0
 41
0.0
  0
VERTEX
  5
2C4
  8
DIM
 10
5.6520110702844297
 20
20.76968727861372
 30
0.0
 41
0.0
  0
SEQEND
  5
2C5
  8
DIM
  0
LINE
  5
203
  8
OBJECT
 10
5.2485445559302484
 20
22.045689752846702
 30
0.0
 11
4.4985445559302484
 21
22.045689752846702
 31
0.0
  0
LINE
  5
204
  8
OBJECT
 10
4.8430446073568341
 20
22.139189752846701
 30
0.0
 11
4.999044607356832
 21
22.139189752846701
 31
0.0
  0
LINE
  5
205
  8
OBJECT
 10
4.8430446018449329
 20
22.420189752846699
 30
0.0
 11
4.9990446018449317
 21
22.420189752846699
 31
0.0
  0
ARC
  5
206
  8
OBJECT
 10
4.8430445559302484
 20
22.2796897528467
 30
0.0
 40
0.1404999999999998
 50
89.99998127603159
 51
269.99998127603152
  0
ARC
  5
207
  8
OBJECT
 10
4.9990445559302499
 20
22.2796897528467
 30
0.0
 40
0.1404999999999998
 50
269.99998127603152
 51
89.99998127603159
  0
TEXT
  5
208
  8
TEXT
 10
1.580813628734272
 20
26.628357797118181
 30
0.0
 40
0.25
  1
FINISH: BLACK 
 41
0.75
  0
TEXT
  5
209
  8
TEXT
 10
1.580813628734272
 20
27.02610742382517
 30
0.0
 40
0.25
  1
MATERIAL: 14 GA. STEEL
 41
0.75
  0
LINE
  5
20A
  8
OBJECT
 10
5.2485445559302484
 20
23.763689752846709
 30
0.0
 11
4.4985445559302484
 21
23.763689752846709
 31
0.0
  0
LINE
  5
20B
  8
OBJECT
 10
4.8430446018449329
 20
23.670189752846699
 30
0.0
 11
4.9990446018449317
 21
23.670189752846699
 31
0.0
  0
LINE
  5
20C
  8
OBJECT
 10
4.8430446073568341
 20
23.389189752846701
 30
0.0
 11
4.999044607356832
 21
23.389189752846701
 31
0.0
  0
ARC
  5
20D
  8
OBJECT
 10
4.8430445559302484
 20
23.5296897528467
 30
0.0
 40
0.1404999999999998
 50
89.99998127603159
 51
269.99998127603152
  0
ARC
  5
20E
  8
OBJECT
 10
4.9990445559302499
 20
23.5296897528467
 30
0.0
 40
0.1404999999999998
 50
269.99998127603152
 51
89.99998127603159
  0
DIMENSION
  5
20F
  8
DIM
  2
*D18
 10
15.578470976695989
 20
22.279189752846712
 30
0.0
 11
16.477845976695981
 21
21.310327422390571
 31
0.0
 70
   128
 13
12.760547550984001
 23
22.045689752846702
 33
0.0
 14
10.364547550984
 24
22.279189752846712
 34
0.0
 50
90.0
  0
TEXT
  5
210
  8
DIM
 10
12.99226095870325
 20
20.64468727861372
 30
0.0
 40
0.25
  1
0.250 x 1.000 OBLONG
 41
0.75
 11
12.99226095870325
 21
20.76968727861372
 31
0.0
 73
     2
  0
TEXT
  5
211
  8
DIM
 10
12.99226095870325
 20
20.228020611947059
 30
0.0
 40
0.25
  1
(6) HOLES
 41
0.75
 11
12.99226095870325
 21
20.353020611947048
 31
0.0
 73
     2
  0
LINE
  5
212
  8
OBJECT
 10
13.114547550984
 20
22.399689752846712
 30
0.0
 11
13.114547550984
 21
23.409689752846699
 31
0.0
  0
LINE
  5
213
  8
OBJECT
 10
8.1145475509840033
 20
22.045689752846702
 30
0.0
 11
8.1145475509840033
 21
23.763689752846709
 31
0.0
  0
LINE
  5
214
  8
OBJECT
 10
8.1925475509840062
 20
22.045689752846702
 30
0.0
 11
8.1925475509840062
 21
23.763689752846709
 31
0.0
  0
DIMENSION
  5
215
  8
DIM
  2
*D10
 10
9.8645475101346456
 20
24.890303556861681
 30
0.0
 11
10.86454751013464
 21
24.890303556861681
 31
0.0
 12
0.0510896530952678
 22
18.566200307099951
 32
0.0
 13
11.86454751013464
 23
22.404189752846701
 33
0.0
 14
9.8645475101346456
 24
22.404189752846701
 34
0.0
  0
DIMENSION
  5
216
  8
DIM
  2
*D13
 10
7.213764273973907
 20
23.763689752846709
 30
0.0
 11
7.213764273973907
 21
22.9046897528467
 31
0.0
 12
0.0510896530952678
 22
18.566200307099951
 32
0.0
 13
8.1145475509840033
 23
22.045689752846702
 33
0.0
 14
8.1145475509840033
 24
23.763689752846709
 34
0.0
 50
90.0
  0
DIMENSION
  5
217
  8
DIM
  2
*D9
 10
11.86454751013464
 20
24.343075374748441
 30
0.0
 11
12.489547530559321
 21
24.343075374748441
 31
0.0
 12
0.0510896530952678
 22
18.566200307099951
 32
0.0
 13
13.114547550984
 23
23.409689752846699
 33
0.0
 14
11.86454751013464
 24
22.404189752846701
 34
0.0
  0
DIMENSION
  5
218
  8
DIM
  2
*D17
 10
14.77392716730132
 20
22.904189752846712
 30
0.0
 11
14.77392716730132
 21
22.591689752846712
 31
0.0
 13
12.364547550984
 23
22.279189752846712
 33
0.0
 14
10.364547550984
 24
22.904189752846712
 34
0.0
 50
90.0
  0
ARC
  5
219
  8
OBJECT
 10
10.239547550984
 20
22.904189752846712
 30
0.0
 40
0.1249999999999996
 50
270.00001872396791
 51
90.000018723967955
  0
ARC
  5
21A
  8
OBJECT
 10
10.239547550984
 20
22.279189752846712
 30
0.0
 40
0.1249999999999996
 50
270.00001872396791
 51
90.000018723967955
  0
LINE
  5
21B
  8
OBJECT
 10
12.760547550984001
 20
22.045689752846702
 30
0.0
 11
8.1145475509840033
 21
22.045689752846702
 31
0.0
  0
DIMENSION
  5
21C
  8
DIM
  2
*D11
 10
10.95496668230831
 20
22.154189752846701
 30
0.0
 11
9.6649666823083145
 21
21.434189752846699
 31
0.0
 12
2.0510896530952669
 22
18.566200307099951
 32
0.0
  1
<> REF.
 13
11.48954751013464
 23
22.404189752846701
 33
0.0
 14
11.489547505230821
 24
22.154189752846701
 34
0.0
 50
90.0
  0
LINE
  5
21D
  8
OBJECT
 10
10.239547505230821
 20
22.154189752846701
 30
0.0
 11
9.4895475052308207
 21
22.154189752846701
 31
0.0
  0
LINE
  5
21E
  8
OBJECT
 10
10.23954751013464
 20
22.404189752846701
 30
0.0
 11
9.4895475101346456
 21
22.404189752846701
 31
0.0
  0
LINE
  5
21F
  8
OBJECT
 10
10.239547505230821
 20
22.779189752846701
 30
0.0
 11
9.4895475052308207
 21
22.779189752846701
 31
0.0
  0
LINE
  5
220
  8
OBJECT
 10
10.23954751013464
 20
23.029189752846701
 30
0.0
 11
9.4895475101346456
 21
23.029189752846701
 31
0.0
  0
ARC
  5
221
  8
OBJECT
 10
9.4895475509840033
 20
22.279189752846712
 30
0.0
 40
0.1249999999999996
 50
90.000018723967955
 51
270.00001872396791
  0
ARC
  5
222
  8
OBJECT
 10
9.4895475509840033
 20
22.904189752846712
 30
0.0
 40
0.1249999999999996
 50
90.000018723967955
 51
270.00001872396791
  0
ARC
  5
223
  8
OBJECT
 10
12.239547550984
 20
22.904189752846712
 30
0.0
 40
0.1249999999999996
 50
270.00001872396791
 51
90.000018723967955
  0
ARC
  5
224
  8
OBJECT
 10
12.239547550984
 20
22.279189752846712
 30
0.0
 40
0.1249999999999996
 50
270.00001872396791
 51
90.000018723967955
  0
POLYLINE
  5
225
  8
DIM
 66
     1
 10
0.0
 20
0.0
 30
0.0
 41
0.135
  0
VERTEX
  5
2C6
  8
DIM
 10
11.973683852251069
 20
22.154189752846701
 30
0.0
  0
VERTEX
  5
2C7
  8
DIM
 10
12.09129578468217
 20
21.81394361642511
 30
0.0
 41
0.0
  0
VERTEX
  5
2C8
  8
DIM
 10
12.45226095870326
 20
20.76968727861372
 30
0.0
 41
0.0
  0
VERTEX
  5
2C9
  8
DIM
 10
12.812260958703259
 20
20.76968727861372
 30
0.0
 41
0.0
  0
SEQEND
  5
2CA
  8
DIM
  0
LINE
  5
22B
  8
OBJECT
 10
12.23954751013464
 20
23.029189752846701
 30
0.0
 11
11.48954751013464
 21
23.029189752846701
 31
0.0
  0
LINE
  5
22C
  8
OBJECT
 10
12.239547505230821
 20
22.779189752846701
 30
0.0
 11
11.489547505230821
 21
22.779189752846701
 31
0.0
  0
LINE
  5
22D
  8
OBJECT
 10
12.23954751013464
 20
22.404189752846701
 30
0.0
 11
11.48954751013464
 21
22.404189752846701
 31
0.0
  0
LINE
  5
22E
  8
OBJECT
 10
12.239547505230821
 20
22.154189752846701
 30
0.0
 11
11.489547505230821
 21
22.154189752846701
 31
0.0
  0
ARC
  5
22F
  8
OBJECT
 10
11.489547550984
 20
22.279189752846712
 30
0.0
 40
0.1249999999999996
 50
90.000018723967955
 51
270.00001872396791
  0
ARC
  5
230
  8
OBJECT
 10
11.489547550984
 20
22.904189752846712
 30
0.0
 40
0.1249999999999996
 50
90.000018723967955
 51
270.00001872396791
  0
LINE
  5
231
  8
OBJECT
 10
12.760547550984001
 20
22.045689752846702
 30
0.0
 11
13.114547550984
 21
22.399689752846712
 31
0.0
  0
LINE
  5
232
  8
OBJECT
 10
12.760547550984001
 20
23.763689752846709
 30
0.0
 11
8.1145475509840033
 21
23.763689752846709
 31
0.0
  0
LINE
  5
233
  8
OBJECT
 10
13.114547550984
 20
26.427639340562521
 30
0.0
 11
8.1145475509840033
 21
26.427639340562521
 31
0.0
  0
LINE
  5
234
  8
OBJECT
 10
13.114547550984
 20
26.349639340562518
 30
0.0
 11
8.1925475509840062
 21
26.349639340562518
 31
0.0
  0
DIMENSION
  5
235
  8
DIM
  2
*D6
 10
13.114547550984
 20
27.069996571323919
 30
0.0
 11
10.614547550984
 21
27.069996571323919
 31
0.0
 12
0.0510896530952678
 22
18.566200307099951
 32
0.0
 13
8.1145475509840033
 23
26.427639340562521
 33
0.0
 14
13.114547550984
 24
26.427639340562521
 34
0.0
  0
DIMENSION
  5
236
  8
DIM
  2
*D14
 10
7.213764273973907
 20
26.427639340562521
 30
0.0
 11
7.213764273973907
 21
26.052639340562521
 31
0.0
 12
0.0510896530952678
 22
18.566200307099951
 32
0.0
 13
8.1145475509840033
 23
25.677639340562521
 33
0.0
 14
8.1145475509840033
 24
26.427639340562521
 34
0.0
 50
90.0
  0
LINE
  5
237
  8
OBJECT
 10
8.1145475509840033
 20
25.677639340562521
 30
0.0
 11
8.1145475509840033
 21
26.427639340562521
 31
0.0
  0
LINE
  5
238
  8
OBJECT
 10
8.1925475509840062
 20
25.677639340562521
 30
0.0
 11
8.1925475509840062
 21
26.349639340562518
 31
0.0
  0
LINE
  5
239
  8
OBJECT
 10
8.1925475509840062
 20
25.677639340562521
 30
0.0
 11
8.1145475509840033
 21
25.677639340562521
 31
0.0
  0
LINE
  5
23A
  8
OBJECT
 10
13.114547550984
 20
23.409689752846699
 30
0.0
 11
12.760547550984001
 21
23.763689752846709
 31
0.0
  0
LINE
  5
23B
  8
OBJECT
 10
12.760547550984001
 20
26.349639340562518
 30
0.0
 11
12.760547550984001
 21
26.427639340562521
 31
0.0
  0
LINE
  5
23C
  8
OBJECT
 10
13.114547550984
 20
26.427639340562521
 30
0.0
 11
13.114547550984
 21
26.349639340562518
 31
0.0
  0
LINE
  5
23D
  8
DIM
 10
15.578470976695989
 20
21.32568975284671
 30
0.0
 11
15.969746183936181
 21
21.32568975284671
 31
0.0
  0
TEXT
  5
23E
  8
TEXT
 10
3.8107457267225651
 20
30.33577283891708
 30
0.0
 40
0.3497133325095759
  1
ADAPTER BRACKET
 41
0.75
  0
TEXT
  5
23F
  8
TEXT
 10
14.37977172595879
 20
30.33032675918442
 30
0.0
 40
0.3497133325095759
  1
CSB-1351
 41
0.75
  0
LINE
  5
240
  8
TITLE
 10
0.1239999999999988
 20
17.217186879042401
 30
0.0
 11
20.116
 21
17.217186879042401
 31
0.0
  0
LINE
  5
241
  8
TITLE
 10
0.1239999999999988
 20
17.3411868790424
 30
0.0
 11
20.116
 21
17.3411868790424
 31
0.0
  0
LINE
  5
242
  8
OBJECT
 10
10.23954751013464
 20
23.654189752846701
 30
0.0
 11
9.4895475101346456
 21
23.654189752846701
 31
0.0
  0
LINE
  5
243
  8
OBJECT
 10
10.239547505230821
 20
23.404189752846701
 30
0.0
 11
9.4895475052308207
 21
23.404189752846701
 31
0.0
  0
ARC
  5
244
  8
OBJECT
 10
9.4895475509840033
 20
23.529189752846712
 30
0.0
 40
0.1249999999999996
 50
90.000018723967955
 51
270.00001872396791
  0
ARC
  5
245
  8
OBJECT
 10
10.239547550984
 20
23.529189752846712
 30
0.0
 40
0.1249999999999996
 50
270.00001872396791
 51
90.000018723967955
  0
LINE
  5
246
  8
OBJECT
 10
12.239547505230821
 20
23.404189752846701
 30
0.0
 11
11.489547505230821
 21
23.404189752846701
 31
0.0
  0
LINE
  5
247
  8
OBJECT
 10
12.23954751013464
 20
23.654189752846701
 30
0.0
 11
11.48954751013464
 21
23.654189752846701
 31
0.0
  0
ARC
  5
248
  8
OBJECT
 10
11.489547550984
 20
23.529189752846712
 30
0.0
 40
0.1249999999999996
 50
90.000018723967955
 51
270.00001872396791
  0
ARC
  5
249
  8
OBJECT
 10
12.239547550984
 20
23.529189752846712
 30
0.0
 40
0.1249999999999996
 50
270.00001872396791
 51
90.000018723967955
  0
DIMENSION
  5
24A
  8
DIM
  2
*D19
 10
13.98994539785684
 20
23.529189752846712
 30
0.0
 11
13.98994539785684
 21
23.216689752846712
 31
0.0
 13
12.364547550984
 23
22.904189752846712
 33
0.0
 14
10.364547550984
 24
23.529189752846712
 34
0.0
 50
90.0
  0
LINE
  5
25A
  8
TITLE
 10
0.1239999999999952
 20
0.9599999999999955
 30
0.0
 11
20.116
 21
0.9599999999999972
 31
0.0
  0
LINE
  5
25B
  8
TITLE
 10
0.1239999999999952
 20
0.5419999999999963
 30
0.0
 11
20.116
 21
0.5419999999999982
 31
0.0
  0
TEXT
  5
25C
  8
TEXT
 10
10.64022481248384
 20
0.209321272187343
 30
0.0
 40
0.25
  1
2.000
 41
0.75
 72
     4
 11
10.96834981248384
 21
0.334321272187343
 31
0.0
  0
TEXT
  5
25D
  8
TEXT
 10
10.64022481248384
 20
0.6329838140752875
 30
0.0
 40
0.25
  1
2.000
 41
0.75
 72
     4
 11
10.96834981248384
 21
0.7579838140752875
 31
0.0
  0
TEXT
  5
25E
  8
TEXT
 10
4.5503175886202953
 20
0.6329838140752871
 30
0.0
 40
0.25
  1
33.000
 41
0.75
 72
     4
 11
4.9721925886202953
 21
0.7579838140752871
 31
0.0
  0
TEXT
  5
25F
  8
TEXT
 10
4.5815675886202953
 20
0.2093212721873425
 30
0.0
 40
0.25
  1
41.000
 41
0.75
 72
     4
 11
4.9721925886202953
 21
0.3343212721873425
 31
0.0
  0
TEXT
  5
260
  8
TEXT
 10
1.1242999062419221
 20
0.6329838140752866
 30
0.0
 40
0.25
  1
CSB-8180
 41
0.75
 72
     4
 11
1.7961749062419221
 21
0.7579838140752866
 31
0.0
  0
TEXT
  5
261
  8
TEXT
 10
1.1399249062419221
 20
0.2093212721873421
 30
0.0
 40
0.25
  1
CSB-8181
 41
0.75
 72
     4
 11
1.7961749062419221
 21
0.3343212721873421
 31
0.0
  0
TEXT
  5
262
  8
TEXT
 10
19.15539268237837
 20
0.2093212721873439
 30
0.0
 40
0.25
  1
40
 41
0.75
 72
     4
 11
19.29601768237837
 21
0.3343212721873439
 31
0.0
  0
TEXT
  5
263
  8
TEXT
 10
19.13976768237837
 20
0.6329838140752884
 30
0.0
 40
0.25
  1
32
 41
0.75
 72
     4
 11
19.29601768237837
 21
0.7579838140752884
 31
0.0
  0
LINE
  5
28C
  8
TITLE
 10
6.4683498124838472
 20
3.049999999999994
 30
0.0
 11
6.4683498124838472
 21
0.1240000000000021
 31
0.0
  0
LINE
  5
28D
  8
TITLE
 10
9.4683498124838472
 20
3.049999999999994
 30
0.0
 11
9.4683498124838472
 21
0.1240000000000021
 31
0.0
  0
LINE
  5
28E
  8
TITLE
 10
12.46834981248384
 20
3.049999999999994
 30
0.0
 11
12.46834981248384
 21
0.1240000000000021
 31
0.0
  0
LINE
  5
28F
  8
TITLE
 10
15.46834981248384
 20
3.049999999999994
 30
0.0
 11
15.46834981248384
 21
0.1240000000000021
 31
0.0
  0
LINE
  5
290
  8
TITLE
 10
18.46834981248384
 20
3.049999999999994
 30
0.0
 11
18.46834981248384
 21
0.1240000000000021
 31
0.0
  0
TEXT
  5
297
  8
TEXT
 10
7.8471925886202953
 20
1.0453212721873411
 30
0.0
 40
0.25
  1
13
 41
0.75
 72
     4
 11
7.9721925886202953
 21
1.1703212721873411
 31
0.0
  0
TEXT
  5
298
  8
TEXT
 10
7.9058498124838472
 20
2.2979999999999929
 30
0.0
 40
0.25
  1
5
 41
0.75
 72
     4
 11
7.9683498124838472
 21
2.4229999999999929
 31
0.0
  0
TEXT
  5
299
  8
TEXT
 10
7.9105766998417577
 20
1.8852723427835409
 30
0.0
 40
0.25
  1
7
 41
0.75
 72
     4
 11
7.9730766998417577
 21
2.0102723427835412
 31
0.0
  0
TEXT
  5
29A
  8
TEXT
 10
7.8628175886202953
 20
1.4689838140752851
 30
0.0
 40
0.25
  1
10
 41
0.75
 72
     4
 11
7.9721925886202953
 21
1.5939838140752851
 31
0.0
  0
TEXT
  5
29B
  8
TEXT
 10
7.8471925886202953
 20
0.6329838140752871
 30
0.0
 40
0.25
  1
15
 41
0.75
 72
     4
 11
7.9721925886202953
 21
0.7579838140752871
 31
0.0
  0
TEXT
  5
29C
  8
TEXT
 10
7.8471925886202953
 20
0.2093212721873426
 30
0.0
 40
0.25
  1
19
 41
0.75
 72
     4
 11
7.9721925886202953
 21
0.3343212721873425
 31
0.0
  0
TEXT
  5
29D
  8
TEXT
 10
7.9058498124838472
 20
2.7159999999999922
 30
0.0
 40
0.25
  1
B
 41
0.75
 72
     4
 11
7.9683498124838472
 21
2.8409999999999922
 31
0.0
  0
TEXT
  5
29F
  8
TEXT
 10
13.57772481248384
 20
2.2979999999999929
 30
0.0
 40
0.25
  1
10.500
 41
0.75
 72
     4
 11
13.96834981248384
 21
2.4229999999999929
 31
0.0
  0
TEXT
  5
2A0
  8
TEXT
 10
13.56209981248384
 20
1.8852723427835409
 30
0.0
 40
0.25
  1
13.500
 41
0.75
 72
     4
 11
13.96834981248384
 21
2.0102723427835412
 31
0.0
  0
TEXT
  5
2A1
  8
TEXT
 10
13.54647481248384
 20
1.468983814075286
 30
0.0
 40
0.25
  1
20.500
 41
0.75
 72
     4
 11
13.96834981248384
 21
1.593983814075286
 31
0.0
  0
TEXT
  5
2A2
  8
TEXT
 10
13.53084981248384
 20
1.0453212721873411
 30
0.0
 40
0.25
  1
25.500
 41
0.75
 72
     4
 11
13.96834981248384
 21
1.1703212721873411
 31
0.0
  0
TEXT
  5
2A3
  8
TEXT
 10
13.54647481248384
 20
0.209321272187343
 30
0.0
 40
0.25
  1
38.000
 41
0.75
 72
     4
 11
13.96834981248384
 21
0.334321272187343
 31
0.0
  0
TEXT
  5
2A4
  8
TEXT
 10
13.56209981248384
 20
0.6329838140752875
 30
0.0
 40
0.25
  1
30.000
 41
0.75
 72
     4
 11
13.96834981248384
 21
0.7579838140752875
 31
0.0
  0
TEXT
  5
2A5
  8
TEXT
 10
13.90584981248384
 20
2.7159999999999931
 30
0.0
 40
0.25
  1
D
 41
0.75
 72
     4
 11
13.96834981248384
 21
2.8409999999999931
 31
0.0
  0
TEXT
  5
2A6
  8
TEXT
 10
16.65584981248384
 20
0.2093212721873435
 30
0.0
 40
0.25
  1
1.500
 41
0.75
 72
     4
 11
16.96834981248384
 21
0.3343212721873434
 31
0.0
  0
TEXT
  5
2A7
  8
TEXT
 10
16.65584981248384
 20
0.632983814075288
 30
0.0
 40
0.25
  1
1.500
 41
0.75
 72
     4
 11
16.96834981248384
 21
0.757983814075288
 31
0.0
  0
TEXT
  5
2A8
  8
TEXT
 10
16.64022481248384
 20
1.0453212721873419
 30
0.0
 40
0.25
  1
1.250
 41
0.75
 72
     4
 11
16.96834981248384
 21
1.1703212721873419
 31
0.0
  0
TEXT
  5
2A9
  8
TEXT
 10
16.64022481248384
 20
1.468983814075286
 30
0.0
 40
0.25
  1
1.250
 41
0.75
 72
     4
 11
16.96834981248384
 21
1.593983814075286
 31
0.0
  0
TEXT
  5
2AA
  8
TEXT
 10
16.64022481248384
 20
1.8852723427835421
 30
0.0
 40
0.25
  1
1.250
 41
0.75
 72
     4
 11
16.96834981248384
 21
2.0102723427835421
 31
0.0
  0
TEXT
  5
2AB
  8
TEXT
 10
16.64022481248384
 20
2.2979999999999938
 30
0.0
 40
0.25
  1
1.250
 41
0.75
 72
     4
 11
16.96834981248384
 21
2.4229999999999938
 31
0.0
  0
TEXT
  5
2AC
  8
TEXT
 10
16.90584981248384
 20
2.7159999999999931
 30
0.0
 40
0.25
  1
E
 41
0.75
 72
     4
 11
16.96834981248384
 21
2.8409999999999931
 31
0.0
  0
ENDSEC
  0
EOF
