  0
SECTION
  2
HEADER
  9
$ACADVER
  1
AC1009
  9
$INSBASE
 10
0.0
 20
0.0
 30
0.0
  9
$EXTMIN
 10
-0.0000000000000036
 20
-0.0000000000000018
 30
0.0
  9
$EXTMAX
 10
10.6
 20
7.9400000000000013
 30
0.0
  9
$LIMMIN
 10
0.0
 20
0.0
  9
$LIMMAX
 10
75.0
 20
50.0
  9
$ORTHOMODE
 70
     1
  9
$REGENMODE
 70
     1
  9
$FILLMODE
 70
     1
  9
$QTEXTMODE
 70
     0
  9
$MIRRTEXT
 70
     0
  9
$DRAGMODE
 70
     2
  9
$LTSCALE
 40
0.375
  9
$OSMODE
 70
   229
  9
$ATTMODE
 70
     1
  9
$TEXTSIZE
 40
0.125
  9
$TRACEWID
 40
0.05
  9
$TEXTSTYLE
  7
TXT
  9
$CLAYER
  8
OBJECT
  9
$CELTYPE
  6
BYLAYER
  9
$CECOLOR
 62
   256
  9
$DIMSCALE
 40
1.0
  9
$DIMASZ
 40
0.18
  9
$DIMEXO
 40
0.063
  9
$DIMDLI
 40
0.281
  9
$DIMRND
 40
0.0
  9
$DIMDLE
 40
0.0
  9
$DIMEXE
 40
0.093
  9
$DIMTP
 40
0.0
  9
$DIMTM
 40
0.0
  9
$DIMTXT
 40
0.125
  9
$DIMCEN
 40
0.09
  9
$DIMTSZ
 40
0.0
  9
$DIMTOL
 70
     0
  9
$DIMLIM
 70
     0
  9
$DIMTIH
 70
     1
  9
$DIMTOH
 70
     1
  9
$DIMSE1
 70
     0
  9
$DIMSE2
 70
     0
  9
$DIMTAD
 70
     0
  9
$DIMZIN
 70
     0
  9
$DIMBLK
  1

  9
$DIMASO
 70
     1
  9
$DIMSHO
 70
     1
  9
$DIMPOST
  1

  9
$DIMAPOST
  1

  9
$DIMALT
 70
     1
  9
$DIMALTD
 70
     1
  9
$DIMALTF
 40
25.399999999999999
  9
$DIMLFAC
 40
1.0
  9
$DIMTOFL
 70
     0
  9
$DIMTVP
 40
0.0
  9
$DIMTIX
 70
     1
  9
$DIMSOXD
 70
     0
  9
$DIMSAH
 70
     0
  9
$DIMBLK1
  1

  9
$DIMBLK2
  1

  9
$DIMSTYLE
  2
23NSTDI
  9
$DIMCLRD
 70
     0
  9
$DIMCLRE
 70
     0
  9
$DIMCLRT
 70
     0
  9
$DIMTFAC
 40
1.0
  9
$DIMGAP
 40
0.09
  9
$LUNITS
 70
     2
  9
$LUPREC
 70
     3
  9
$SKETCHINC
 40
0.1
  9
$FILLETRAD
 40
0.0
  9
$AUNITS
 70
     0
  9
$AUPREC
 70
     0
  9
$MENU
  1
acad
  9
$ELEVATION
 40
0.0
  9
$PELEVATION
 40
0.0
  9
$THICKNESS
 40
0.0
  9
$LIMCHECK
 70
     0
  9
$BLIPMODE
 70
     0
  9
$CHAMFERA
 40
0.0
  9
$CHAMFERB
 40
0.0
  9
$SKPOLY
 70
     0
  9
$TDCREATE
 40
2449209.4566302081
  9
$TDUPDATE
 40
2455895.530102558
  9
$TDINDWG
 40
0.3592372569
  9
$TDUSRTIMER
 40
0.3592372569
  9
$USRTIMER
 70
     1
  9
$ANGBASE
 50
0.0
  9
$ANGDIR
 70
     0
  9
$PDMODE
 70
     0
  9
$PDSIZE
 40
0.0
  9
$PLINEWID
 40
0.0
  9
$COORDS
 70
     2
  9
$SPLFRAME
 70
     0
  9
$SPLINETYPE
 70
     6
  9
$SPLINESEGS
 70
     8
  9
$ATTDIA
 70
     0
  9
$ATTREQ
 70
     1
  9
$HANDLING
 70
  4097
  9
$HANDSEED
  5
305A
  9
$SURFTAB1
 70
     6
  9
$SURFTAB2
 70
     6
  9
$SURFTYPE
 70
     6
  9
$SURFU
 70
     6
  9
$SURFV
 70
     6
  9
$UCSNAME
  2

  9
$UCSORG
 10
0.0
 20
0.0
 30
0.0
  9
$UCSXDIR
 10
1.0
 20
0.0
 30
0.0
  9
$UCSYDIR
 10
0.0
 20
1.0
 30
0.0
  9
$PUCSNAME
  2

  9
$PUCSORG
 10
0.0
 20
0.0
 30
0.0
  9
$PUCSXDIR
 10
1.0
 20
0.0
 30
0.0
  9
$PUCSYDIR
 10
0.0
 20
1.0
 30
0.0
  9
$USERI1
 70
     0
  9
$USERI2
 70
     0
  9
$USERI3
 70
     0
  9
$USERI4
 70
     0
  9
$USERI5
 70
     0
  9
$USERR1
 40
0.0
  9
$USERR2
 40
0.0
  9
$USERR3
 40
0.0
  9
$USERR4
 40
0.0
  9
$USERR5
 40
0.0
  9
$WORLDVIEW
 70
     1
  9
$SHADEDGE
 70
     3
  9
$SHADEDIF
 70
    70
  9
$TILEMODE
 70
     1
  9
$MAXACTVP
 70
    16
  9
$PLIMCHECK
 70
     0
  9
$PEXTMIN
 10
1.0000000000000000E+020
 20
1.0000000000000000E+020
 30
1.0000000000000000E+020
  9
$PEXTMAX
 10
-1.0000000000000000E+020
 20
-1.0000000000000000E+020
 30
-1.0000000000000000E+020
  9
$PLIMMIN
 10
0.0
 20
0.0
  9
$PLIMMAX
 10
12.0
 20
9.0
  9
$UNITMODE
 70
     0
  9
$VISRETAIN
 70
     0
  9
$PLINEGEN
 70
     0
  9
$PSLTSCALE
 70
     1
  0
ENDSEC
  0
SECTION
  2
TABLES
  0
TABLE
  2
VPORT
 70
     2
  0
VPORT
  2
*ACTIVE
 70
     0
 10
0.0
 20
0.0
 11
1.0
 21
1.0
 12
5.2995923875255349
 22
3.9698777479070131
 13
0.0
 23
0.0
 14
1.0
 24
1.0
 15
0.0
 25
0.0
 16
0.0
 26
0.0
 36
1.0
 17
0.0
 27
0.0
 37
0.0
 40
8.0227666366190853
 41
1.8369747899159661
 42
50.0
 43
0.0
 44
0.0
 50
0.0
 51
0.0
 71
     0
 72
   100
 73
     1
 74
     0
 75
     0
 76
     0
 77
     0
 78
     0
  0
ENDTAB
  0
TABLE
  2
LTYPE
 70
     6
  0
LTYPE
  2
CONTINUOUS
 70
     0
  3
Solid line
 72
    65
 73
     0
 40
0.0
  0
LTYPE
  2
HIDDEN
 70
     0
  3
_ _ _ _ _ _ _ _ _ _ _ _ _ _ _ _ _ _ _ _ _ _ _
 72
    65
 73
     2
 40
0.375
 49
0.25
 49
-0.125
  0
LTYPE
  2
PHANTOM
 70
     0
  3
_____ _ _ _____ _ _ _____ _ _ _____ _ _ ____
 72
    65
 73
     6
 40
2.5
 49
1.25
 49
-0.25
 49
0.25
 49
-0.25
 49
0.25
 49
-0.25
  0
LTYPE
  2
CENTER
 70
     0
  3
____ _ ____ _ ____ _ ____ _ ____ _ ____ _ ____
 72
    65
 73
     4
 40
2.0
 49
1.25
 49
-0.25
 49
0.25
 49
-0.25
  0
LTYPE
  2
HIDDEN2
 70
     0
  3
_ _ _ _ _ _ _ _ _ _ _ _ _ _ _ _ _ _ _ _ _ _ _ _
 72
    65
 73
     2
 40
0.1875
 49
0.125
 49
-0.0625
  0
LTYPE
  2
PHANTOM2
 70
     0
  3
___ _ _ ___ _ _ ___ _ _ ___ _ _ ___ _ _ ___ _ _
 72
    65
 73
     6
 40
1.25
 49
0.625
 49
-0.125
 49
0.125
 49
-0.125
 49
0.125
 49
-0.125
  0
ENDTAB
  0
TABLE
  2
LAYER
 70
     9
  0
LAYER
  2
0
 70
     0
 62
     7
  6
CONTINUOUS
  0
LAYER
  2
DEFPOINTS
 70
     0
 62
     7
  6
CONTINUOUS
  0
LAYER
  2
OBJECT
 70
     0
 62
     7
  6
CONTINUOUS
  0
LAYER
  2
DIM
 70
     0
 62
     7
  6
CONTINUOUS
  0
LAYER
  2
HIDDEN
 70
     0
 62
     7
  6
HIDDEN
  0
LAYER
  2
BEND
 70
     0
 62
     7
  6
PHANTOM
  0
LAYER
  2
TEXT
 70
     0
 62
     7
  6
CONTINUOUS
  0
LAYER
  2
TITLE
 70
     0
 62
     7
  6
CONTINUOUS
  0
LAYER
  2
CENTER
 70
     0
 62
     7
  6
CENTER
  0
ENDTAB
  0
TABLE
  2
STYLE
 70
     2
  0
STYLE
  2
STANDARD
 70
     0
 40
0.0
 41
1.0
 50
0.0
 71
     0
 42
0.2
  3
txt
  4

  0
STYLE
  2
TXT
 70
     0
 40
0.0
 41
0.75
 50
0.0
 71
     0
 42
0.125
  3
TXT.shx
  4

  0
ENDTAB
  0
TABLE
  2
VIEW
 70
     0
  0
ENDTAB
  0
TABLE
  2
UCS
 70
     0
  0
ENDTAB
  0
TABLE
  2
APPID
 70
     3
  0
APPID
  2
ACAD
 70
     0
  0
APPID
  2
MCAD_NO_VIS
 70
     0
  0
APPID
  2
AD_SKETCHDIM
 70
     0
  0
ENDTAB
  0
TABLE
  2
DIMSTYLE
 70
     2
  0
DIMSTYLE
  2
23NSTD
 70
     0
  3

  4

  5

  6

  7

 40
1.0
 41
0.18
 42
0.063
 43
0.281
 44
0.093
 45
0.0
 46
0.0
 47
0.0
 48
0.0
140
0.125
141
0.09
142
0.0
143
25.399999999999999
144
1.0
145
0.0
146
1.0
147
0.09
 71
     0
 72
     0
 73
     1
 74
     1
 75
     0
 76
     0
 77
     0
 78
     0
170
     1
171
     1
172
     0
173
     0
174
     0
175
     0
176
     0
177
     0
178
     0
  0
DIMSTYLE
  2
23NSTDI
 70
     0
  3

  4

  5

  6

  7

 40
1.0
 41
0.18
 42
0.063
 43
0.281
 44
0.093
 45
0.0
 46
0.0
 47
0.0
 48
0.0
140
0.125
141
0.09
142
0.0
143
25.399999999999999
144
1.0
145
0.0
146
1.0
147
0.09
 71
     0
 72
     0
 73
     1
 74
     1
 75
     0
 76
     0
 77
     0
 78
     0
170
     1
171
     1
172
     0
173
     0
174
     1
175
     0
176
     0
177
     0
178
     0
  0
ENDTAB
  0
ENDSEC
  0
SECTION
  2
BLOCKS
  0
BLOCK
  8
0
  2
$MODEL_SPACE
 70
     0
 10
0.0
 20
0.0
 30
0.0
  3
$MODEL_SPACE
  1

  0
ENDBLK
  5
41
  8
0
  0
BLOCK
 67
     1
  8
0
  2
$PAPER_SPACE
 70
     0
 10
0.0
 20
0.0
 30
0.0
  3
$PAPER_SPACE
  1

  0
ENDBLK
  5
3F
 67
     1
  8
0
  0
BLOCK
  8
0
  2
*D0
 70
     1
 10
0.0
 20
0.0
 30
0.0
  3
*D0
  1

  0
LINE
  5
2DDC
  8
DIM
 62
     0
 10
5.4262217661156074
 20
2.907537042731307
 30
0.0
 11
6.2887092719445583
 21
2.907537042731307
 31
0.0
  0
LINE
  5
2DDD
  8
DIM
 62
     0
 10
5.7544717661156044
 20
3.4325370427313082
 30
0.0
 11
6.2887092719445583
 21
3.4325370427313082
 31
0.0
  0
LINE
  5
2DDE
  8
DIM
 62
     0
 10
6.1957092719445583
 20
2.7275370427313068
 30
0.0
 11
6.1957092719445583
 21
2.5475370427313071
 31
0.0
  0
LINE
  5
2DDF
  8
DIM
 62
     0
 10
6.1957092719445583
 20
3.6125370427313079
 30
0.0
 11
6.1957092719445583
 21
3.7925370427313081
 31
0.0
  0
SOLID
  5
2DE0
  8
DIM
 62
     0
 10
6.1657092719445581
 20
2.7275370427313068
 30
0.0
 11
6.2257092719445577
 21
2.7275370427313068
 31
0.0
 12
6.1957092719445583
 22
2.907537042731307
 32
0.0
 13
6.1957092719445583
 23
2.907537042731307
 33
0.0
  0
SOLID
  5
2DE1
  8
DIM
 62
     0
 10
6.1657092719445581
 20
3.6125370427313079
 30
0.0
 11
6.2257092719445577
 21
3.6125370427313079
 31
0.0
 12
6.1957092719445583
 22
3.4325370427313082
 32
0.0
 13
6.1957092719445583
 23
3.4325370427313082
 33
0.0
  0
TEXT
  5
2DE2
  8
OBJECT
 62
     0
 10
5.8128967719445566
 20
3.107537042731308
 30
0.0
 40
0.125
  1
0.53 [13.3]
 41
0.75
  7
TXT
  0
POINT
  5
2DE3
  8
DEFPOINTS
 62
     0
 10
5.3632217661156067
 20
2.907537042731307
 30
0.0
  0
POINT
  5
2DE4
  8
DEFPOINTS
 62
     0
 10
5.6914717661156038
 20
3.4325370427313082
 30
0.0
  0
POINT
  5
2DE5
  8
DEFPOINTS
 62
     0
 10
6.1957092719445583
 20
3.4325370427313082
 30
0.0
  0
ENDBLK
  5
22CC
  8
0
  0
BLOCK
  8
0
  2
*D1
 70
     1
 10
0.0
 20
0.0
 30
0.0
  3
*D1
  1

  0
LINE
  5
2DE6
  8
DIM
 62
     0
 10
5.7544717661156044
 20
3.4325370427313082
 30
0.0
 11
6.8869428603512937
 21
3.4325370427313082
 31
0.0
  0
LINE
  5
2DE7
  8
DIM
 62
     0
 10
5.7544717661156044
 20
2.382537042731308
 30
0.0
 11
6.8869428603512937
 21
2.382537042731308
 31
0.0
  0
LINE
  5
2DE8
  8
DIM
 62
     0
 10
6.7939428603512937
 20
3.2525370427313081
 30
0.0
 11
6.7939428603512937
 21
3.0600370427313082
 31
0.0
  0
LINE
  5
2DE9
  8
DIM
 62
     0
 10
6.7939428603512937
 20
2.562537042731309
 30
0.0
 11
6.7939428603512937
 21
2.755037042731308
 31
0.0
  0
SOLID
  5
2DEA
  8
DIM
 62
     0
 10
6.7639428603512943
 20
3.2525370427313081
 30
0.0
 11
6.8239428603512939
 21
3.2525370427313081
 31
0.0
 12
6.7939428603512937
 22
3.4325370427313082
 32
0.0
 13
6.7939428603512937
 23
3.4325370427313082
 33
0.0
  0
SOLID
  5
2DEB
  8
DIM
 62
     0
 10
6.7639428603512943
 20
2.562537042731309
 30
0.0
 11
6.8239428603512939
 21
2.562537042731309
 31
0.0
 12
6.7939428603512937
 22
2.382537042731308
 32
0.0
 13
6.7939428603512937
 23
2.382537042731308
 33
0.0
  0
TEXT
  5
2DEC
  8
OBJECT
 62
     0
 10
6.4111303603512928
 20
2.8450370427313092
 30
0.0
 40
0.125
  1
1.05 [26.7]
 41
0.75
  7
TXT
  0
POINT
  5
2DED
  8
DEFPOINTS
 62
     0
 10
5.6914717661156038
 20
3.4325370427313082
 30
0.0
  0
POINT
  5
2DEE
  8
DEFPOINTS
 62
     0
 10
5.6914717661156038
 20
2.382537042731308
 30
0.0
  0
POINT
  5
2DEF
  8
DEFPOINTS
 62
     0
 10
6.7939428603512937
 20
2.382537042731308
 30
0.0
  0
ENDBLK
  5
22D9
  8
0
  0
BLOCK
  8
0
  2
*D2
 70
     1
 10
0.0
 20
0.0
 30
0.0
  3
*D2
  1

  0
LINE
  5
2F80
  8
DIM
 62
     0
 10
5.7544717661156044
 20
5.9064171927289708
 30
0.0
 11
6.2808967719445574
 21
5.9064171927289699
 31
0.0
  0
LINE
  5
2F81
  8
DIM
 62
     0
 10
5.7544717661156044
 20
6.0634171927289708
 30
0.0
 11
6.2808967719445583
 21
6.06341719272897
 31
0.0
  0
LINE
  5
2F82
  8
DIM
 62
     0
 10
6.1878967719445566
 20
5.7264171927289711
 30
0.0
 11
6.1878967719445566
 21
5.5464171927289696
 31
0.0
  0
LINE
  5
2F83
  8
DIM
 62
     0
 10
6.1878967719445583
 20
6.2434171927289697
 30
0.0
 11
6.1878967719445583
 21
6.5664674298306114
 31
0.0
  0
LINE
  5
2F84
  8
DIM
 62
     0
 10
6.1878967719445583
 20
6.5664674298306114
 30
0.0
 11
6.3678967719445581
 21
6.5664674298306114
 31
0.0
  0
SOLID
  5
2F85
  8
DIM
 62
     0
 10
6.1578967719445572
 20
5.7264171927289711
 30
0.0
 11
6.2178967719445568
 21
5.7264171927289711
 31
0.0
 12
6.1878967719445566
 22
5.9064171927289699
 32
0.0
 13
6.1878967719445566
 23
5.9064171927289699
 33
0.0
  0
SOLID
  5
2F86
  8
DIM
 62
     0
 10
6.1578967719445581
 20
6.2434171927289697
 30
0.0
 11
6.2178967719445577
 21
6.2434171927289697
 31
0.0
 12
6.1878967719445583
 22
6.06341719272897
 32
0.0
 13
6.1878967719445583
 23
6.06341719272897
 33
0.0
  0
TEXT
  5
2F87
  8
OBJECT
 62
     0
 10
6.4578967719445561
 20
6.5039674298306132
 30
0.0
 40
0.125
  1
0.16 [4.0]
 41
0.75
  7
TXT
  0
POINT
  5
2F88
  8
DEFPOINTS
 62
     0
 10
5.6914717661156038
 20
5.9064171927289708
 30
0.0
  0
POINT
  5
2F89
  8
DEFPOINTS
 62
     0
 10
5.6914717661156038
 20
6.0634171927289708
 30
0.0
  0
POINT
  5
2F8A
  8
DEFPOINTS
 62
     0
 10
6.1878967719445583
 20
6.06341719272897
 30
0.0
  0
ENDBLK
  5
22E6
  8
0
  0
BLOCK
  8
0
  2
*D3
 70
     1
 10
0.0
 20
0.0
 30
0.0
  3
*D3
  1

  0
LINE
  5
2F6C
  8
DIM
 62
     0
 10
5.1644717661156001
 20
5.7164171927289722
 30
0.0
 11
6.8869428603512928
 21
5.7164171927289713
 31
0.0
  0
LINE
  5
2F6D
  8
DIM
 62
     0
 10
5.7544717661156044
 20
6.0634171927289708
 30
0.0
 11
6.8869428603512937
 21
6.06341719272897
 31
0.0
  0
LINE
  5
2F6E
  8
DIM
 62
     0
 10
6.7939428603512928
 20
5.5364171927289707
 30
0.0
 11
6.7939428603512928
 21
5.3564171927289701
 31
0.0
  0
LINE
  5
2F6F
  8
DIM
 62
     0
 10
6.7939428603512937
 20
6.2434171927289697
 30
0.0
 11
6.7939428603512937
 21
6.4234171927289712
 31
0.0
  0
SOLID
  5
2F70
  8
DIM
 62
     0
 10
6.7639428603512934
 20
5.5364171927289707
 30
0.0
 11
6.823942860351293
 21
5.5364171927289707
 31
0.0
 12
6.7939428603512928
 22
5.7164171927289713
 32
0.0
 13
6.7939428603512928
 23
5.7164171927289713
 33
0.0
  0
SOLID
  5
2F71
  8
DIM
 62
     0
 10
6.7639428603512943
 20
6.2434171927289697
 30
0.0
 11
6.8239428603512939
 21
6.2434171927289697
 31
0.0
 12
6.7939428603512937
 22
6.06341719272897
 32
0.0
 13
6.7939428603512937
 23
6.06341719272897
 33
0.0
  0
TEXT
  5
2F72
  8
OBJECT
 62
     0
 10
6.4423803603512919
 20
5.827417192728972
 30
0.0
 40
0.125
  1
0.35 [8.8]
 41
0.75
  7
TXT
  0
POINT
  5
2F73
  8
DEFPOINTS
 62
     0
 10
5.1014717661156013
 20
5.7164171927289722
 30
0.0
  0
POINT
  5
2F74
  8
DEFPOINTS
 62
     0
 10
5.6914717661156038
 20
6.0634171927289708
 30
0.0
  0
POINT
  5
2F75
  8
DEFPOINTS
 62
     0
 10
6.7939428603512937
 20
6.06341719272897
 30
0.0
  0
ENDBLK
  5
22F3
  8
0
  0
BLOCK
  8
0
  2
*D4
 70
     1
 10
0.0
 20
0.0
 30
0.0
  3
*D4
  1

  0
LINE
  5
2FE3
  8
DIM
 62
     0
 10
5.1014717661156013
 20
5.6534171927289716
 30
0.0
 11
5.1014717661156013
 21
4.5523393630065199
 31
0.0
  0
LINE
  5
2FE4
  8
DIM
 62
     0
 10
5.6914717661156038
 20
5.8434171927289711
 30
0.0
 11
5.6914717661156038
 21
4.5523393630065199
 31
0.0
  0
LINE
  5
2FE5
  8
DIM
 62
     0
 10
4.9214717661156007
 20
4.6453393630065198
 30
0.0
 11
4.7414717661156001
 21
4.6453393630065198
 31
0.0
  0
LINE
  5
2FE6
  8
DIM
 62
     0
 10
5.8714717661156044
 20
4.6453393630065198
 30
0.0
 11
6.0514717661156041
 21
4.6453393630065198
 31
0.0
  0
SOLID
  5
2FE7
  8
DIM
 62
     0
 10
4.9214717661156007
 20
4.6753393630065201
 30
0.0
 11
4.9214717661156007
 21
4.6153393630065196
 31
0.0
 12
5.1014717661156013
 22
4.6453393630065198
 32
0.0
 13
5.1014717661156013
 23
4.6453393630065198
 33
0.0
  0
SOLID
  5
2FE8
  8
DIM
 62
     0
 10
5.8714717661156044
 20
4.6753393630065201
 30
0.0
 11
5.8714717661156044
 21
4.6153393630065196
 31
0.0
 12
5.6914717661156038
 22
4.6453393630065198
 32
0.0
 13
5.6914717661156038
 23
4.6453393630065198
 33
0.0
  0
TEXT
  5
2FE9
  8
OBJECT
 62
     0
 10
6.141471766115604
 20
4.5828393630065198
 30
0.0
 40
0.125
  1
0.59 [15.0]
 41
0.75
  7
TXT
  0
POINT
  5
2FEA
  8
DEFPOINTS
 62
     0
 10
5.1014717661156013
 20
5.7164171927289722
 30
0.0
  0
POINT
  5
2FEB
  8
DEFPOINTS
 62
     0
 10
5.6914717661156038
 20
5.9064171927289708
 30
0.0
  0
POINT
  5
2FEC
  8
DEFPOINTS
 62
     0
 10
5.6914717661156038
 20
4.6453393630065198
 30
0.0
  0
ENDBLK
  5
22FF
  8
0
  0
BLOCK
  8
0
  2
*D5
 70
     1
 10
0.0
 20
0.0
 30
0.0
  3
*D5
  1

  0
LINE
  5
2FED
  8
DIM
 62
     0
 10
5.1014717661156013
 20
5.6534171927289716
 30
0.0
 11
5.1014717661156013
 21
4.8785426848726416
 31
0.0
  0
LINE
  5
2FEE
  8
DIM
 62
     0
 10
4.9864717661156064
 20
5.6534171927289716
 30
0.0
 11
4.9864717661156064
 21
4.8785426848726416
 31
0.0
  0
LINE
  5
2FEF
  8
DIM
 62
     0
 10
5.2814717661156001
 20
4.9715426848726416
 30
0.0
 11
5.4614717661156007
 21
4.9715426848726416
 31
0.0
  0
LINE
  5
2FF0
  8
DIM
 62
     0
 10
4.8064717661156058
 20
4.9715426848726416
 30
0.0
 11
4.6264717661156061
 21
4.9715426848726416
 31
0.0
  0
SOLID
  5
2FF1
  8
DIM
 62
     0
 10
5.2814717661156001
 20
5.0015426848726419
 30
0.0
 11
5.2814717661156001
 21
4.9415426848726423
 31
0.0
 12
5.1014717661156013
 22
4.9715426848726416
 32
0.0
 13
5.1014717661156013
 23
4.9715426848726416
 33
0.0
  0
SOLID
  5
2FF2
  8
DIM
 62
     0
 10
4.8064717661156058
 20
5.0015426848726419
 30
0.0
 11
4.8064717661156058
 21
4.9415426848726423
 31
0.0
 12
4.9864717661156064
 22
4.9715426848726416
 32
0.0
 13
4.9864717661156064
 23
4.9715426848726416
 33
0.0
  0
TEXT
  5
2FF3
  8
OBJECT
 62
     0
 10
3.8645967661156062
 20
4.9090426848726416
 30
0.0
 40
0.125
  1
0.12 [2.9]
 41
0.75
  7
TXT
  0
POINT
  5
2FF4
  8
DEFPOINTS
 62
     0
 10
5.1014717661156013
 20
5.7164171927289722
 30
0.0
  0
POINT
  5
2FF5
  8
DEFPOINTS
 62
     0
 10
4.9864717661156064
 20
5.7164171927289722
 30
0.0
  0
POINT
  5
2FF6
  8
DEFPOINTS
 62
     0
 10
4.9864717661156064
 20
4.9715426848726416
 30
0.0
  0
ENDBLK
  5
230C
  8
0
  0
BLOCK
  8
0
  2
*D6
 70
     1
 10
0.0
 20
0.0
 30
0.0
  3
*D6
  1

  0
LINE
  5
2FF8
  8
DIM
 62
     0
 10
5.329471766115609
 20
2.8107870427313082
 30
0.0
 11
5.329471766115609
 21
1.1072421494191991
 31
0.0
  0
LINE
  5
2FF9
  8
DIM
 62
     0
 10
5.6914717661156038
 20
2.3195370427313078
 30
0.0
 11
5.6914717661156038
 21
1.1072421494191991
 31
0.0
  0
LINE
  5
2FFA
  8
DIM
 62
     0
 10
5.1494717661156102
 20
1.200242149419199
 30
0.0
 11
4.9694717661156087
 21
1.200242149419199
 31
0.0
  0
LINE
  5
2FFB
  8
DIM
 62
     0
 10
5.8714717661156044
 20
1.200242149419199
 30
0.0
 11
6.0514717661156041
 21
1.200242149419199
 31
0.0
  0
SOLID
  5
2FFC
  8
DIM
 62
     0
 10
5.1494717661156102
 20
1.2302421494191991
 30
0.0
 11
5.1494717661156102
 21
1.170242149419199
 31
0.0
 12
5.329471766115609
 22
1.200242149419199
 32
0.0
 13
5.329471766115609
 23
1.200242149419199
 33
0.0
  0
SOLID
  5
2FFD
  8
DIM
 62
     0
 10
5.8714717661156044
 20
1.2302421494191991
 30
0.0
 11
5.8714717661156044
 21
1.170242149419199
 31
0.0
 12
5.6914717661156038
 22
1.200242149419199
 32
0.0
 13
5.6914717661156038
 23
1.200242149419199
 33
0.0
  0
TEXT
  5
2FFE
  8
OBJECT
 62
     0
 10
6.141471766115604
 20
1.137742149419199
 30
0.0
 40
0.125
  1
0.36 [9.2]
 41
0.75
  7
TXT
  0
POINT
  5
2FFF
  8
DEFPOINTS
 62
     0
 10
5.329471766115609
 20
2.8737870427313079
 30
0.0
  0
POINT
  5
3000
  8
DEFPOINTS
 62
     0
 10
5.6914717661156038
 20
2.382537042731308
 30
0.0
  0
POINT
  5
3001
  8
DEFPOINTS
 62
     0
 10
5.6914717661156038
 20
1.200242149419199
 30
0.0
  0
ENDBLK
  5
2319
  8
0
  0
BLOCK
  8
0
  2
*D8
 70
     1
 10
0.0
 20
0.0
 30
0.0
  3
*D8
  1

  0
LINE
  5
2DD2
  8
DIM
 62
     0
 10
5.6914717661156038
 20
3.4955370427313079
 30
0.0
 11
5.6914717661156038
 21
4.2824588352212336
 31
0.0
  0
LINE
  5
2DD3
  8
DIM
 62
     0
 10
4.2414717661156009
 20
3.261537042731308
 30
0.0
 11
4.2414717661156009
 21
4.2824588352212336
 31
0.0
  0
LINE
  5
2DD4
  8
DIM
 62
     0
 10
5.5114717661156041
 20
4.1894588352212336
 30
0.0
 11
5.4470967661156031
 21
4.1894588352212336
 31
0.0
  0
LINE
  5
2DD5
  8
DIM
 62
     0
 10
4.4214717661156007
 20
4.1894588352212336
 30
0.0
 11
4.4858467661156034
 21
4.1894588352212336
 31
0.0
  0
SOLID
  5
2DD6
  8
DIM
 62
     0
 10
5.5114717661156041
 20
4.2194588352212339
 30
0.0
 11
5.5114717661156041
 21
4.1594588352212343
 31
0.0
 12
5.6914717661156038
 22
4.1894588352212336
 32
0.0
 13
5.6914717661156038
 23
4.1894588352212336
 33
0.0
  0
SOLID
  5
2DD7
  8
DIM
 62
     0
 10
4.4214717661156007
 20
4.2194588352212339
 30
0.0
 11
4.4214717661156007
 21
4.1594588352212343
 31
0.0
 12
4.2414717661156009
 22
4.1894588352212336
 32
0.0
 13
4.2414717661156009
 23
4.1894588352212336
 33
0.0
  0
TEXT
  5
2DD8
  8
OBJECT
 62
     0
 10
4.5758467661156033
 20
4.1269588352212336
 30
0.0
 40
0.125
  1
1.45 [36.8]
 41
0.75
  7
TXT
  0
POINT
  5
2DD9
  8
DEFPOINTS
 62
     0
 10
5.6914717661156038
 20
3.4325370427313082
 30
0.0
  0
POINT
  5
2DDA
  8
DEFPOINTS
 62
     0
 10
4.2414717661156009
 20
3.1985370427313078
 30
0.0
  0
POINT
  5
2DDB
  8
DEFPOINTS
 62
     0
 10
4.2414717661156009
 20
4.1894588352212336
 30
0.0
  0
ENDBLK
  5
2332
  8
0
  0
BLOCK
  8
0
  2
*D9
 70
     1
 10
0.0
 20
0.0
 30
0.0
  3
*D9
  1

  0
LINE
  5
2F8B
  8
DIM
 62
     0
 10
1.942959251377661
 20
2.817537042731308
 30
0.0
 11
1.5397779307184369
 21
2.817537042731308
 31
0.0
  0
LINE
  5
2F8C
  8
DIM
 62
     0
 10
1.942959251377661
 20
2.9975370427313068
 30
0.0
 11
1.5397779307184369
 21
2.9975370427313068
 31
0.0
  0
LINE
  5
2F8D
  8
DIM
 62
     0
 10
1.6327779307184369
 20
3.177537042731307
 30
0.0
 11
1.6327779307184369
 21
3.3575370427313072
 31
0.0
  0
LINE
  5
2F8E
  8
DIM
 62
     0
 10
1.6327779307184369
 20
2.6375370427313078
 30
0.0
 11
1.6327779307184369
 21
2.457537042731309
 31
0.0
  0
LINE
  5
2F8F
  8
DIM
 62
     0
 10
1.6327779307184369
 20
2.457537042731309
 30
0.0
 11
1.452777930718437
 21
2.457537042731309
 31
0.0
  0
SOLID
  5
2F90
  8
DIM
 62
     0
 10
1.6027779307184371
 20
3.177537042731307
 30
0.0
 11
1.6627779307184369
 21
3.177537042731307
 31
0.0
 12
1.6327779307184369
 22
2.9975370427313068
 32
0.0
 13
1.6327779307184369
 23
2.9975370427313068
 33
0.0
  0
SOLID
  5
2F91
  8
DIM
 62
     0
 10
1.6027779307184371
 20
2.6375370427313078
 30
0.0
 11
1.6627779307184369
 21
2.6375370427313078
 31
0.0
 12
1.6327779307184369
 22
2.817537042731308
 32
0.0
 13
1.6327779307184369
 23
2.817537042731308
 33
0.0
  0
TEXT
  5
2F92
  8
OBJECT
 62
     0
 10
0.3159029307184369
 20
2.395037042731309
 30
0.0
 40
0.125
  1
0.18 [4.6] DIA.
 41
0.75
  7
TXT
  0
POINT
  5
2F93
  8
DEFPOINTS
 62
     0
 10
2.0059592513776598
 20
2.817537042731308
 30
0.0
  0
POINT
  5
2F94
  8
DEFPOINTS
 62
     0
 10
2.0059592513776598
 20
2.9975370427313068
 30
0.0
  0
POINT
  5
2F95
  8
DEFPOINTS
 62
     0
 10
1.6327779307184369
 20
2.9975370427313068
 30
0.0
  0
ENDBLK
  5
233F
  8
0
  0
BLOCK
  8
0
  2
*D10
 70
     1
 10
0.0
 20
0.0
 30
0.0
  3
*D10
  1

  0
LINE
  5
2DB3
  8
DIM
 62
     0
 10
2.22595925137766
 20
2.7125370427313089
 30
0.0
 11
3.0973345610827998
 21
2.712537042731308
 31
0.0
  0
LINE
  5
2DB4
  8
DIM
 62
     0
 10
2.22595925137766
 20
3.1025370427313081
 30
0.0
 11
3.0973345610827998
 21
3.1025370427313068
 31
0.0
  0
LINE
  5
2DB5
  8
DIM
 62
     0
 10
3.0043345610827998
 20
2.5325370427313079
 30
0.0
 11
3.0043345610827998
 21
2.352537042731309
 31
0.0
  0
LINE
  5
2DB6
  8
DIM
 62
     0
 10
3.0043345610827998
 20
3.282537042731307
 30
0.0
 11
3.0043345610827998
 21
3.4625370427313071
 31
0.0
  0
SOLID
  5
2DB7
  8
DIM
 62
     0
 10
2.9743345610828
 20
2.5325370427313092
 30
0.0
 11
3.0343345610828001
 21
2.5325370427313079
 31
0.0
 12
3.0043345610827998
 22
2.712537042731308
 32
0.0
 13
3.0043345610827998
 23
2.712537042731308
 33
0.0
  0
SOLID
  5
2DB8
  8
DIM
 62
     0
 10
2.9743345610828
 20
3.2825370427313079
 30
0.0
 11
3.0343345610828001
 21
3.282537042731307
 31
0.0
 12
3.0043345610827998
 22
3.1025370427313068
 32
0.0
 13
3.0043345610827998
 23
3.1025370427313068
 33
0.0
  0
TEXT
  5
2DB9
  8
OBJECT
 62
     0
 10
2.4652720610827989
 20
2.8450370427313092
 30
0.0
 40
0.125
  1
0.39 [9.9] DIA.
 41
0.75
  7
TXT
  0
POINT
  5
2DBA
  8
DEFPOINTS
 62
     0
 10
2.1629592513776599
 20
2.7125370427313089
 30
0.0
  0
POINT
  5
2DBB
  8
DEFPOINTS
 62
     0
 10
2.1629592513776599
 20
3.1025370427313081
 30
0.0
  0
POINT
  5
2DBC
  8
DEFPOINTS
 62
     0
 10
3.0043345610827998
 20
3.1025370427313068
 30
0.0
  0
ENDBLK
  5
234C
  8
0
  0
BLOCK
  8
0
  2
*D11
 70
     1
 10
0.0
 20
0.0
 30
0.0
  3
*D11
  1

  0
LINE
  5
2DA8
  8
DIM
 62
     0
 10
8.5211014997959822
 20
2.817537042731308
 30
0.0
 11
7.9980649069408969
 21
2.817537042731308
 31
0.0
  0
LINE
  5
2DA9
  8
DIM
 62
     0
 10
8.5211014997959822
 20
2.9975370427313068
 30
0.0
 11
7.9980649069408969
 21
2.9975370427313068
 31
0.0
  0
LINE
  5
2DAA
  8
DIM
 62
     0
 10
8.0910649069408969
 20
3.177537042731307
 30
0.0
 11
8.0910649069408969
 21
3.3575370427313072
 31
0.0
  0
LINE
  5
2DAB
  8
DIM
 62
     0
 10
8.0910649069408969
 20
2.637537042731307
 30
0.0
 11
8.0910649069408969
 21
2.4575370427313081
 31
0.0
  0
LINE
  5
2DAC
  8
DIM
 62
     0
 10
8.0910649069408969
 20
2.4575370427313081
 30
0.0
 11
7.911064906940898
 21
2.4575370427313081
 31
0.0
  0
SOLID
  5
2DAD
  8
DIM
 62
     0
 10
8.0610649069408975
 20
3.177537042731307
 30
0.0
 11
8.1210649069408962
 21
3.177537042731307
 31
0.0
 12
8.0910649069408969
 22
2.9975370427313068
 32
0.0
 13
8.0910649069408969
 23
2.9975370427313068
 33
0.0
  0
SOLID
  5
2DAE
  8
DIM
 62
     0
 10
8.0610649069408975
 20
2.637537042731307
 30
0.0
 11
8.1210649069408962
 21
2.637537042731307
 31
0.0
 12
8.0910649069408969
 22
2.817537042731308
 32
0.0
 13
8.0910649069408969
 23
2.817537042731308
 33
0.0
  0
TEXT
  5
2DAF
  8
OBJECT
 62
     0
 10
7.1491899069408973
 20
2.395037042731309
 30
0.0
 40
0.125
  1
0.18 [4.6]
 41
0.75
  7
TXT
  0
POINT
  5
2DB0
  8
DEFPOINTS
 62
     0
 10
8.5841014997959846
 20
2.817537042731308
 30
0.0
  0
POINT
  5
2DB1
  8
DEFPOINTS
 62
     0
 10
8.5841014997959846
 20
2.9975370427313068
 30
0.0
  0
POINT
  5
2DB2
  8
DEFPOINTS
 62
     0
 10
8.0910649069408969
 20
2.9975370427313068
 30
0.0
  0
ENDBLK
  5
2359
  8
0
  0
BLOCK
  8
0
  2
*D12
 70
     1
 10
0.0
 20
0.0
 30
0.0
  3
*D12
  1

  0
LINE
  5
2F96
  8
DIM
 62
     0
 10
8.8041014997959817
 20
2.7075370427313081
 30
0.0
 11
9.3447023600612376
 21
2.7075370427313081
 31
0.0
  0
LINE
  5
2F97
  8
DIM
 62
     0
 10
8.8041014997959817
 20
3.107537042731308
 30
0.0
 11
9.3447023600612376
 21
3.107537042731308
 31
0.0
  0
LINE
  5
2F98
  8
DIM
 62
     0
 10
9.2517023600612376
 20
2.5275370427313071
 30
0.0
 11
9.2517023600612376
 21
2.3475370427313078
 31
0.0
  0
LINE
  5
2F99
  8
DIM
 62
     0
 10
9.2517023600612376
 20
3.2875370427313082
 30
0.0
 11
9.2517023600612376
 21
3.4675370427313079
 31
0.0
  0
SOLID
  5
2F9A
  8
DIM
 62
     0
 10
9.2217023600612382
 20
2.5275370427313071
 30
0.0
 11
9.2817023600612352
 21
2.5275370427313071
 31
0.0
 12
9.2517023600612376
 22
2.7075370427313081
 32
0.0
 13
9.2517023600612376
 23
2.7075370427313081
 33
0.0
  0
SOLID
  5
2F9B
  8
DIM
 62
     0
 10
9.2217023600612382
 20
3.2875370427313082
 30
0.0
 11
9.2817023600612352
 21
3.2875370427313082
 31
0.0
 12
9.2517023600612376
 22
3.107537042731308
 32
0.0
 13
9.2517023600612376
 23
3.107537042731308
 33
0.0
  0
TEXT
  5
2F9C
  8
OBJECT
 62
     0
 10
8.8845148600612376
 20
2.8450370427313092
 30
0.0
 40
0.125
  1
0.40 [10.2]
 41
0.75
  7
TXT
  0
POINT
  5
2F9D
  8
DEFPOINTS
 62
     0
 10
8.7411014997959811
 20
2.7075370427313081
 30
0.0
  0
POINT
  5
2F9E
  8
DEFPOINTS
 62
     0
 10
8.7411014997959811
 20
3.107537042731308
 30
0.0
  0
POINT
  5
2F9F
  8
DEFPOINTS
 62
     0
 10
9.2517023600612376
 20
3.107537042731308
 30
0.0
  0
ENDBLK
  5
2366
  8
0
  0
BLOCK
  8
0
  2
*D13
 70
     1
 10
0.0
 20
0.0
 30
0.0
  3
*D13
  1

  0
LINE
  5
3003
  8
DIM
 62
     0
 10
5.0544717661156042
 20
6.1264171927289706
 30
0.0
 11
5.0544717661156042
 21
6.5606546756043791
 31
0.0
  0
LINE
  5
3004
  8
DIM
 62
     0
 10
5.6044717661156076
 20
6.1264171927289706
 30
0.0
 11
5.6044717661156076
 21
6.5606546756043791
 31
0.0
  0
LINE
  5
3005
  8
DIM
 62
     0
 10
5.7844717661156082
 20
6.4676546756043791
 30
0.0
 11
5.9644717661156079
 21
6.4676546756043791
 31
0.0
  0
LINE
  5
3006
  8
DIM
 62
     0
 10
4.8744717661156036
 20
6.4676546756043791
 30
0.0
 11
4.694471766115603
 21
6.4676546756043791
 31
0.0
  0
SOLID
  5
3007
  8
DIM
 62
     0
 10
5.7844717661156082
 20
6.4976546756043794
 30
0.0
 11
5.7844717661156082
 21
6.437654675604378
 31
0.0
 12
5.6044717661156076
 22
6.4676546756043791
 32
0.0
 13
5.6044717661156076
 23
6.4676546756043791
 33
0.0
  0
SOLID
  5
3008
  8
DIM
 62
     0
 10
4.8744717661156036
 20
6.4976546756043794
 30
0.0
 11
4.8744717661156036
 21
6.437654675604378
 31
0.0
 12
5.0544717661156042
 22
6.4676546756043791
 32
0.0
 13
5.0544717661156042
 23
6.4676546756043791
 33
0.0
  0
TEXT
  5
3009
  8
OBJECT
 62
     0
 10
3.854471766115604
 20
6.4051546756043791
 30
0.0
 40
0.125
  1
0.55 [14.0]
 41
0.75
  7
TXT
  0
POINT
  5
300A
  8
DEFPOINTS
 62
     0
 10
5.0544717661156042
 20
6.0634171927289708
 30
0.0
  0
POINT
  5
300B
  8
DEFPOINTS
 62
     0
 10
5.6044717661156076
 20
6.0634171927289708
 30
0.0
  0
POINT
  5
300C
  8
DEFPOINTS
 62
     0
 10
5.6044717661156076
 20
6.4676546756043791
 30
0.0
  0
ENDBLK
  5
2373
  8
0
  0
BLOCK
  8
0
  2
*D14
 70
     1
 10
0.0
 20
0.0
 30
0.0
  3
*D14
  1

  0
LINE
  5
2EB3
  8
DIM
 62
     0
 10
5.1614717661156027
 20
5.8434171927289711
 30
0.0
 11
5.1614717661156027
 21
5.2024849332324417
 31
0.0
  0
LINE
  5
2EB4
  8
DIM
 62
     0
 10
5.4974717661156092
 20
5.8434171927289711
 30
0.0
 11
5.4974717661156092
 21
5.2024849332324417
 31
0.0
  0
LINE
  5
2EB5
  8
DIM
 62
     0
 10
4.9814717661156029
 20
5.2954849332324416
 30
0.0
 11
4.8014717661156032
 21
5.2954849332324416
 31
0.0
  0
LINE
  5
2EB6
  8
DIM
 62
     0
 10
5.677471766115608
 20
5.2954849332324416
 30
0.0
 11
5.8574717661156086
 21
5.2954849332324416
 31
0.0
  0
SOLID
  5
2EB7
  8
DIM
 62
     0
 10
4.9814717661156029
 20
5.3254849332324419
 30
0.0
 11
4.9814717661156029
 21
5.2654849332324423
 31
0.0
 12
5.1614717661156027
 22
5.2954849332324416
 32
0.0
 13
5.1614717661156027
 23
5.2954849332324416
 33
0.0
  0
SOLID
  5
2EB8
  8
DIM
 62
     0
 10
5.677471766115608
 20
5.3254849332324419
 30
0.0
 11
5.677471766115608
 21
5.2654849332324423
 31
0.0
 12
5.4974717661156092
 22
5.2954849332324416
 32
0.0
 13
5.4974717661156092
 23
5.2954849332324416
 33
0.0
  0
TEXT
  5
2EB9
  8
OBJECT
 62
     0
 10
5.9474717661156093
 20
5.2329849332324416
 30
0.0
 40
0.125
  1
0.34 [8.5]
 41
0.75
  7
TXT
  0
POINT
  5
2EBA
  8
DEFPOINTS
 62
     0
 10
5.1614717661156027
 20
5.9064171927289708
 30
0.0
  0
POINT
  5
2EBB
  8
DEFPOINTS
 62
     0
 10
5.4974717661156092
 20
5.9064171927289708
 30
0.0
  0
POINT
  5
2EBC
  8
DEFPOINTS
 62
     0
 10
5.4974717661156092
 20
5.2954849332324416
 30
0.0
  0
ENDBLK
  5
2380
  8
0
  0
BLOCK
  8
0
  2
HBA
 70
     0
 10
0.0
 20
0.0
 30
0.0
  3
HBA
  1

  0
TEXT
  5
27E2
  8
TEXT
 10
4.2398674814225492
 20
7.5000791956400823
 30
0.0
 40
0.125
  1
No.
  7
TXT
 72
     1
 11
4.3648674814225492
 21
7.5000791956400823
 31
0.0
  0
TEXT
  5
27E3
  8
TEXT
 10
4.1357008147558822
 20
7.7084125289734153
 30
0.0
 40
0.125
  1
PART
  7
TXT
 72
     1
 11
4.3648674814225492
 21
7.7084125289734153
 31
0.0
  0
LINE
  5
27E4
  8
TITLE
 10
0.0619999999999976
 20
7.4599999999999991
 30
0.0
 11
10.538
 21
7.4599999999999991
 31
0.0
  0
LINE
  5
27E5
  8
TITLE
 10
0.0619999999999976
 20
7.8779999999999992
 30
0.0
 11
10.538
 21
7.8779999999999992
 31
0.0
  0
LINE
  5
27E6
  8
TITLE
 10
0.0
 20
7.9400000000000013
 30
0.0
 11
10.6
 21
7.9399999999999968
 31
0.0
  0
LINE
  5
27E7
  8
TITLE
 10
0.0
 20
0.0
 30
0.0
 11
-0.0000000000000036
 21
7.9400000000000013
 31
0.0
  0
LINE
  5
27E8
  8
TITLE
 10
0.0619999999999976
 20
0.0620000000000012
 30
0.0
 11
0.0619999999999976
 21
7.8779999999999992
 31
0.0
  0
LINE
  5
27E9
  8
TITLE
 10
0.8120000000000047
 20
7.4599999999999991
 30
0.0
 11
0.8119999999999976
 21
7.8779999999999992
 31
0.0
  0
TEXT
  5
27EA
  8
TEXT
 10
0.2078333333333381
 20
7.7084125289734153
 30
0.0
 40
0.125
  1
PART
  7
TXT
 72
     1
 11
0.4370000000000048
 21
7.7084125289734153
 31
0.0
  0
TEXT
  5
27EB
  8
TEXT
 10
0.2078333333333381
 20
7.5000791956400823
 30
0.0
 40
0.125
  1
NAME
  7
TXT
 72
     1
 11
0.4370000000000048
 21
7.5000791956400823
 31
0.0
  0
LINE
  5
27EC
  8
TITLE
 10
3.9898674814225559
 20
7.8779999999999992
 30
0.0
 11
3.9898674814225559
 21
7.4599999999999991
 31
0.0
  0
LINE
  5
27ED
  8
TITLE
 10
3.927867481422552
 20
7.8779999999999992
 30
0.0
 11
3.927867481422552
 21
7.4599999999999991
 31
0.0
  0
LINE
  5
27EE
  8
TITLE
 10
10.6
 20
-0.0000000000000018
 30
0.0
 11
10.599999999999991
 21
7.9399999999999968
 31
0.0
  0
LINE
  5
27EF
  8
TITLE
 10
10.538
 20
0.0619999999999994
 30
0.0
 11
10.538
 21
7.8779999999999992
 31
0.0
  0
LINE
  5
27F0
  8
TITLE
 10
4.7398674814225563
 20
7.8779999999999992
 30
0.0
 11
4.7398674814225563
 21
7.4599999999999991
 31
0.0
  0
LINE
  5
27F1
  8
TITLE
 10
10.538
 20
0.0619999999999994
 30
0.0
 11
0.0619999999999976
 21
0.0620000000000012
 31
0.0
  0
LINE
  5
27F2
  8
TITLE
 10
10.6
 20
-0.0000000000000018
 30
0.0
 11
0.0
 21
0.0
 31
0.0
  0
LINE
  5
27F3
  8
TITLE
 10
8.5692548700494822
 20
7.8779999999999992
 30
0.0
 11
8.5692548700494822
 21
7.4599999999999991
 31
0.0
  0
LINE
  5
27F4
  8
TITLE
 10
8.6312548700494887
 20
7.8779999999999992
 30
0.0
 11
8.6312548700494887
 21
7.4599999999999991
 31
0.0
  0
TEXT
  5
27F5
  8
TEXT
 10
8.7979215367161476
 20
7.7084125289734153
 30
0.0
 40
0.125
  1
REV.
  7
TXT
 72
     1
 11
9.0062548700494816
 21
7.7084125289734153
 31
0.0
  0
TEXT
  5
27F6
  8
TEXT
 10
8.7770882033828155
 20
7.5000791956400823
 30
0.0
 40
0.125
  1
DATE
  7
TXT
 72
     1
 11
9.0062548700494816
 21
7.5000791956400823
 31
0.0
  0
LINE
  5
27F7
  8
TITLE
 10
9.3812548700494887
 20
7.8779999999999992
 30
0.0
 11
9.3812548700494887
 21
7.4599999999999991
 31
0.0
  0
ENDBLK
  5
27F9
  8
0
  0
BLOCK
  8
0
  2
*D18
 70
     1
 10
0.0
 20
0.0
 30
0.0
  3
*D18
  1

  0
LINE
  5
2E43
  8
DIM
 62
     0
 10
4.2829883050121582
 20
2.2500044831930919
 30
0.0
 11
3.9898701306159361
 21
1.6918403994182709
 31
0.0
  0
LINE
  5
2E44
  8
DIM
 62
     0
 10
3.9898701306159361
 20
1.6918403994182709
 30
0.0
 11
3.809870130615935
 21
1.691840399418272
 31
0.0
  0
SOLID
  5
2E45
  8
DIM
 62
     0
 10
4.2564279746108369
 20
2.263952560084646
 30
0.0
 11
4.309548635413476
 21
2.2360564063015369
 31
0.0
 12
4.3666767663614854
 22
2.409366465601011
 32
0.0
 13
4.3666767663614854
 23
2.409366465601011
 33
0.0
  0
TEXT
  5
2E46
  8
OBJECT
 62
     0
 10
2.8292451306159339
 20
1.629340399418272
 30
0.0
 40
0.125
  1
R0.23 [R5.9]
 41
0.75
  7
TXT
  0
LINE
  5
2E47
  8
DIM
 62
     0
 10
4.3854717661156117
 20
2.6165370427313071
 30
0.0
 11
4.5654717661156123
 21
2.6165370427313071
 31
0.0
  0
LINE
  5
2E48
  8
DIM
 62
     0
 10
4.4754717661156116
 20
2.5265370427313072
 30
0.0
 11
4.4754717661156116
 21
2.706537042731306
 31
0.0
  0
POINT
  5
2E49
  8
DEFPOINTS
 62
     0
 10
4.3666767663614854
 20
2.409366465601011
 30
0.0
  0
POINT
  5
2E4A
  8
DEFPOINTS
 62
     0
 10
4.4754717661156116
 20
2.6165370427313071
 30
0.0
  0
ENDBLK
  5
2D36
  8
0
  0
BLOCK
  8
0
  2
*D19
 70
     1
 10
0.0
 20
0.0
 30
0.0
  3
*D19
  1

  0
LINE
  5
2E81
  8
DIM
 62
     0
 10
5.329471766115609
 20
2.8107870427313082
 30
0.0
 11
5.329471766115609
 21
1.44688621523743
 31
0.0
  0
LINE
  5
2E82
  8
DIM
 62
     0
 10
4.4974717661156021
 20
2.8107870427313082
 30
0.0
 11
4.4974717661156021
 21
1.44688621523743
 31
0.0
  0
LINE
  5
2E83
  8
DIM
 62
     0
 10
5.5094717661156087
 20
1.53988621523743
 30
0.0
 11
5.6894717661156102
 21
1.53988621523743
 31
0.0
  0
LINE
  5
2E84
  8
DIM
 62
     0
 10
4.3174717661156023
 20
1.53988621523743
 30
0.0
 11
4.1374717661156009
 21
1.53988621523743
 31
0.0
  0
SOLID
  5
2E85
  8
DIM
 62
     0
 10
5.5094717661156087
 20
1.56988621523743
 30
0.0
 11
5.5094717661156087
 21
1.5098862152374299
 31
0.0
 12
5.329471766115609
 22
1.53988621523743
 32
0.0
 13
5.329471766115609
 23
1.53988621523743
 33
0.0
  0
SOLID
  5
2E86
  8
DIM
 62
     0
 10
4.3174717661156023
 20
1.56988621523743
 30
0.0
 11
4.3174717661156023
 21
1.5098862152374299
 31
0.0
 12
4.4974717661156021
 22
1.53988621523743
 32
0.0
 13
4.4974717661156021
 23
1.53988621523743
 33
0.0
  0
TEXT
  5
2E87
  8
OBJECT
 62
     0
 10
4.5462842661156051
 20
1.47738621523743
 30
0.0
 40
0.125
  1
0.83 [21.1]
 41
0.75
  7
TXT
  0
POINT
  5
2E88
  8
DEFPOINTS
 62
     0
 10
5.329471766115609
 20
2.8737870427313079
 30
0.0
  0
POINT
  5
2E89
  8
DEFPOINTS
 62
     0
 10
4.4974717661156021
 20
2.8737870427313079
 30
0.0
  0
POINT
  5
2E8A
  8
DEFPOINTS
 62
     0
 10
4.4974717661156021
 20
1.53988621523743
 30
0.0
  0
ENDBLK
  5
2E58
  8
0
  0
BLOCK
  8
0
  2
*D20
 70
     1
 10
0.0
 20
0.0
 30
0.0
  3
*D20
  1

  0
LINE
  5
302C
  8
DIM
 62
     0
 10
4.2579240389008559
 20
5.8768694655142166
 30
0.0
 11
3.9669000212799381
 21
5.5858454478932993
 31
0.0
  0
LINE
  5
302D
  8
DIM
 62
     0
 10
4.7360767089779428
 20
5.8774202001672782
 30
0.0
 11
5.0276514612519243
 21
5.5858454478932966
 31
0.0
  0
ARC
  5
302E
  8
DIM
 62
     0
 10
4.4972757412659314
 20
6.1162211678792922
 30
0.0
 40
0.6570645363575868
 50
240.74543113164501
 51
249.45194146098811
  0
ARC
  5
302F
  8
DIM
 62
     0
 10
4.4972757412659314
 20
6.1162211678792922
 30
0.0
 40
0.6570645363575868
 50
290.54805853901172
 51
299.2545688683548
  0
SOLID
  5
3030
  8
DIM
 62
     0
 10
4.158066705977248
 20
5.5190416892334362
 30
0.0
 11
4.1942819698591034
 21
5.5668794845627323
 31
0.0
 12
4.0326609519302874
 22
5.6516063785436481
 32
0.0
 13
4.0326609519302874
 23
5.6516063785436481
 33
0.0
  0
SOLID
  5
3031
  8
DIM
 62
     0
 10
4.8002695126727586
 20
5.5668794845627296
 30
0.0
 11
4.8364847765546131
 21
5.5190416892334344
 31
0.0
 12
4.9618905306015746
 22
5.6516063785436463
 32
0.0
 13
4.9618905306015746
 23
5.6516063785436463
 33
0.0
  0
TEXT
  8
0
  40
0.125
  5
3058
  62
0
  72
0
  71
0
 10
4.24728
 20
5.23791
 30
0.000000
  1
90%%d
  7
TXT
  0
TEXT
  8
0
  40
0.125
  5
3059
  62
0
  72
0
  71
0
 10
4.24728
 20
5.07541
 30
0.000000
  1
TYP.
  7
TXT
  0
POINT
  5
3033
  8
DEFPOINTS
 62
     0
 10
4.3272149253951291
 20
5.4815455626728458
 30
0.0
  0
POINT
  5
3034
  8
DEFPOINTS
 62
     0
 10
4.6915289817631907
 20
5.9219679273820311
 30
0.0
  0
POINT
  5
3035
  8
DEFPOINTS
 62
     0
 10
4.302471766115608
 20
5.9214171927289687
 30
0.0
  0
POINT
  5
3036
  8
DEFPOINTS
 62
     0
 10
4.4074717661156049
 20
6.0264171927289656
 30
0.0
  0
POINT
  5
3037
  8
DEFPOINTS
 62
     0
 10
4.5874717661156046
 20
6.0260251430296172
 30
0.0
  0
ENDBLK
  5
2F1E
  8
0
  0
BLOCK
  8
0
  2
*U21
 70
     1
 10
0.0
 20
0.0
 30
0.0
  3
*U21
  1

  0
TEXT
  5
3028
  8
OBJECT
 62
     0
 10
3.516223387724128
 20
5.2725303889539523
 30
0.0
 40
0.125
  1
82°
 41
0.75
  7
TXT
  0
TEXT
  5
3029
  8
OBJECT
 62
     0
 10
3.484973387724128
 20
5.0641970556206184
 30
0.0
 40
0.125
  1
TYP.
 41
0.75
  7
TXT
  0
ENDBLK
  5
302B
  8
0
  0
BLOCK
  8
0
  2
*X22
 70
     1
 10
0.0
 20
0.0
 30
0.0
  3
*X22
  1

  0
LINE
  5
3039
  8
0
 62
     0
 10
2.1615661736105132
 20
2.3825370427313088
 30
0.0
 11
2.1629592513776599
 21
2.383930120498456
 31
0.0
  0
LINE
  5
303A
  8
0
 62
     0
 10
2.0059592513776598
 20
2.5804835110917299
 30
0.0
 11
2.1429860171974511
 21
2.7175102769115211
 31
0.0
  0
LINE
  5
303B
  8
0
 62
     0
 10
2.0059592513776598
 20
3.2875902922782769
 30
0.0
 11
2.1509060018306911
 21
3.4325370427313069
 31
0.0
  0
LINE
  5
303C
  8
0
 62
     0
 10
2.0059592513776598
 20
2.4479009896192521
 30
0.0
 11
2.1629592513776599
 21
2.6049009896192521
 31
0.0
  0
LINE
  5
303D
  8
0
 62
     0
 10
2.0059592513776598
 20
2.801454380212526
 30
0.0
 11
2.0220419138964409
 21
2.817537042731308
 31
0.0
  0
LINE
  5
303E
  8
0
 62
     0
 10
2.0059592513776612
 20
3.1550077708057991
 30
0.0
 11
2.1629592513776612
 21
3.3120077708057991
 31
0.0
  0
LINE
  5
303F
  8
0
 62
     0
 10
2.0059592513776598
 20
2.4037068157950929
 30
0.0
 11
2.1629592513776599
 21
2.5607068157950921
 31
0.0
  0
LINE
  5
3040
  8
0
 62
     0
 10
2.0059592513776598
 20
2.757260206388366
 30
0.0
 11
2.0545976695491328
 21
2.805898624559839
 31
0.0
  0
LINE
  5
3041
  8
0
 62
     0
 10
2.0059592513776598
 20
3.11081359698164
 30
0.0
 11
2.1629592513776599
 21
3.26781359698164
 31
0.0
  0
LINE
  5
3042
  8
0
 62
     0
 10
2.0289836521380349
 20
2.3825370427313088
 30
0.0
 11
2.1629592513776599
 21
2.5165126419709338
 31
0.0
  0
LINE
  5
3043
  8
0
 62
     0
 10
2.0059592513776612
 20
2.7130660325642069
 30
0.0
 11
2.076694756461213
 21
2.7838015376477601
 31
0.0
  0
LINE
  5
3044
  8
0
 62
     0
 10
2.0059592513776598
 20
3.0666194231574808
 30
0.0
 11
2.1629592513776599
 21
3.2236194231574808
 31
0.0
  0
LINE
  5
3045
  8
0
 62
     0
 10
2.0059592513776598
 20
3.4201728137507552
 30
0.0
 11
2.018323480358212
 21
3.4325370427313069
 31
0.0
  0
ENDBLK
  5
3047
  8
0
  0
BLOCK
  8
0
  2
*X23
 70
     1
 10
0.0
 20
0.0
 30
0.0
  3
*X23
  1

  0
LINE
  5
3049
  8
0
 62
     0
 10
8.5841014997959846
 20
2.4411113382378531
 30
0.0
 11
8.7411014997959775
 21
2.598111338237846
 31
0.0
  0
LINE
  5
304A
  8
0
 62
     0
 10
8.5841014997959846
 20
2.7946647288311262
 30
0.0
 11
8.6069738136961664
 21
2.817537042731308
 31
0.0
  0
LINE
  5
304B
  8
0
 62
     0
 10
8.5841014997959846
 20
3.1482181194244001
 30
0.0
 11
8.7411014997959793
 21
3.3052181194243948
 31
0.0
  0
LINE
  5
304C
  8
0
 62
     0
 10
8.6581097257619177
 20
2.382537042731308
 30
0.0
 11
8.7411014997959811
 21
2.4655288167653708
 31
0.0
  0
LINE
  5
304D
  8
0
 62
     0
 10
8.5841014997959864
 20
2.6620822073586501
 30
0.0
 11
8.6762718620433361
 21
2.754252569605999
 31
0.0
  0
LINE
  5
304E
  8
0
 62
     0
 10
8.5841014997959846
 20
3.0156355979519218
 30
0.0
 11
8.7411014997959811
 21
3.1726355979519192
 31
0.0
  0
LINE
  5
304F
  8
0
 62
     0
 10
8.5841014997959864
 20
3.3691889885451971
 30
0.0
 11
8.6474495539820957
 21
3.4325370427313082
 31
0.0
  0
LINE
  5
3050
  8
0
 62
     0
 10
8.7023038995860773
 20
2.382537042731308
 30
0.0
 11
8.7411014997959811
 21
2.4213346429412121
 31
0.0
  0
LINE
  5
3051
  8
0
 62
     0
 10
8.5841014997959846
 20
2.6178880335344901
 30
0.0
 11
8.6983689489554141
 21
2.7321554826939192
 31
0.0
  0
LINE
  5
3052
  8
0
 62
     0
 10
8.6101971183995278
 20
2.9975370427313068
 30
0.0
 11
8.7411014997959811
 21
3.1284414241277601
 31
0.0
  0
LINE
  5
3053
  8
0
 62
     0
 10
8.5841014997959846
 20
3.3249948147210371
 30
0.0
 11
8.6916437278062553
 21
3.4325370427313069
 31
0.0
  0
LINE
  5
3054
  8
0
 62
     0
 10
8.5841014997959846
 20
2.5736938597103309
 30
0.0
 11
8.7204660358674921
 21
2.7100583957818389
 31
0.0
  0
LINE
  5
3055
  8
0
 62
     0
 10
8.5841014997959846
 20
3.2808006408968788
 30
0.0
 11
8.7358379016304148
 21
3.4325370427313082
 31
0.0
  0
ENDBLK
  5
3057
  8
0
  0
ENDSEC
  0
SECTION
  2
ENTITIES
  0
LINE
  5
1DB6
  8
OBJECT
 10
4.4754717661156098
 20
3.4325370427313082
 30
0.0
 11
5.6914717661156038
 21
3.4325370427313082
 31
0.0
  0
LINE
  5
1DB7
  8
OBJECT
 10
5.6914717661156038
 20
3.4325370427313082
 30
0.0
 11
5.6914717661156038
 21
2.3825370427313088
 31
0.0
  0
LINE
  5
1DB8
  8
OBJECT
 10
5.6914717661156038
 20
2.3825370427313088
 30
0.0
 11
4.4754717661156098
 21
2.3825370427313088
 31
0.0
  0
LINE
  5
1DB9
  8
OBJECT
 10
4.2414717661156009
 20
2.6165370427313088
 30
0.0
 11
4.2414717661156009
 21
3.1985370427313078
 31
0.0
  0
ARC
  5
1DBA
  8
OBJECT
 10
5.2514717661156061
 20
2.907537042731307
 30
0.0
 40
0.09
 50
90.00000000000081
 51
269.9999999999992
  0
CIRCLE
  5
1DBB
  8
OBJECT
 10
4.4974717661156021
 20
2.907537042731307
 30
0.0
 40
0.195
  0
CIRCLE
  5
1DBC
  8
OBJECT
 10
4.4974717661156021
 20
2.907537042731307
 30
0.0
 40
0.09
  0
ARC
  5
1DBD
  8
OBJECT
 10
4.4754717661156098
 20
2.6165370427313088
 30
0.0
 40
0.234
 50
180.0
 51
270.0
  0
ARC
  5
1DBE
  8
OBJECT
 10
4.4754717661156098
 20
3.1985370427313078
 30
0.0
 40
0.234
 50
90.0
 51
180.0
  0
LINE
  5
1DBF
  8
OBJECT
 10
5.1014717661156013
 20
3.4325370427313082
 30
0.0
 11
5.1014717661156013
 21
2.3825370427313088
 31
0.0
  0
LINE
  5
1DC0
  8
OBJECT
 10
4.9864717661156064
 20
3.4325370427313082
 30
0.0
 11
4.9864717661156064
 21
2.3825370427313088
 31
0.0
  0
LINE
  5
1DC1
  8
OBJECT
 10
4.9864717661156064
 20
5.906417192728969
 30
0.0
 11
4.9864717661156064
 21
5.7164171927289722
 31
0.0
  0
LINE
  5
1DC2
  8
OBJECT
 10
5.1014717661156013
 20
5.906417192728969
 30
0.0
 11
5.1014717661156013
 21
5.7164171927289722
 31
0.0
  0
LINE
  5
1DC3
  8
OBJECT
 10
4.2414717661156009
 20
6.0634171927289708
 30
0.0
 11
5.6914717661156038
 21
6.0634171927289708
 31
0.0
  0
LINE
  5
1DC4
  8
OBJECT
 10
5.6914717661156038
 20
6.0634171927289708
 30
0.0
 11
5.6914717661156038
 21
5.9064171927289708
 31
0.0
  0
LINE
  5
1DC5
  8
OBJECT
 10
4.2414717661156009
 20
5.906417192728969
 30
0.0
 11
4.9864717661156064
 21
5.9064171927289708
 31
0.0
  0
LINE
  5
1DC6
  8
OBJECT
 10
4.9864717661156064
 20
5.7164171927289722
 30
0.0
 11
5.1014717661156013
 21
5.7164171927289722
 31
0.0
  0
LINE
  5
1DC7
  8
OBJECT
 10
5.1014717661156013
 20
5.9064171927289708
 30
0.0
 11
5.6914717661156038
 21
5.9064171927289708
 31
0.0
  0
LINE
  5
1DC8
  8
OBJECT
 10
4.2414717661156009
 20
6.0634171927289708
 30
0.0
 11
4.2414717661156009
 21
5.9064171927289708
 31
0.0
  0
DIMENSION
  5
1DD6
  8
DIM
  2
*D0
 10
6.1957092719445583
 20
3.4325370427313082
 30
0.0
 11
6.1957092719445566
 21
3.170037042731308
 31
0.0
 70
     0
 13
5.3632217661156067
 23
2.907537042731307
 33
0.0
 14
5.6914717661156038
 24
3.4325370427313082
 34
0.0
 50
90.0
  0
DIMENSION
  5
1DD7
  8
DIM
  2
*D1
 10
6.7939428603512937
 20
2.382537042731308
 30
0.0
 11
6.7939428603512928
 21
2.9075370427313092
 31
0.0
 70
   128
 13
5.6914717661156038
 23
3.4325370427313082
 33
0.0
 14
5.6914717661156038
 24
2.382537042731308
 34
0.0
 50
90.0
  0
DIMENSION
  5
1DD8
  8
DIM
  2
*D2
 10
6.1878967719445583
 20
6.06341719272897
 30
0.0
 11
6.7860217719445561
 21
6.5664674298306132
 31
0.0
 70
   128
 13
5.6914717661156038
 23
5.9064171927289708
 33
0.0
 14
5.6914717661156038
 24
6.0634171927289708
 34
0.0
 50
90.0
  0
DIMENSION
  5
1DD9
  8
DIM
  2
*D3
 10
6.7939428603512937
 20
6.06341719272897
 30
0.0
 11
6.7939428603512919
 21
5.889917192728972
 31
0.0
 70
   128
 13
5.1014717661156013
 23
5.7164171927289722
 33
0.0
 14
5.6914717661156038
 24
6.0634171927289708
 34
0.0
 50
90.0
  0
DIMENSION
  5
1DDA
  8
DIM
  2
*D4
 10
5.6914717661156038
 20
4.6453393630065198
 30
0.0
 11
6.516471766115604
 21
4.6453393630065198
 31
0.0
 70
   128
 13
5.1014717661156013
 23
5.7164171927289722
 33
0.0
 14
5.6914717661156038
 24
5.9064171927289708
 34
0.0
  0
DIMENSION
  5
1DDB
  8
DIM
  2
*D5
 10
4.9864717661156064
 20
4.9715426848726416
 30
0.0
 11
4.2005342661156062
 21
4.9715426848726416
 31
0.0
 70
   128
 13
5.1014717661156013
 23
5.7164171927289722
 33
0.0
 14
4.9864717661156064
 24
5.7164171927289722
 34
0.0
  0
DIMENSION
  5
1DDC
  8
DIM
  2
*D6
 10
5.6914717661156038
 20
1.200242149419199
 30
0.0
 11
6.493034266115604
 21
1.200242149419199
 31
0.0
 70
   128
 13
5.329471766115609
 23
2.8737870427313079
 33
0.0
 14
5.6914717661156038
 24
2.382537042731308
 34
0.0
  0
DIMENSION
  5
1DDE
  8
DIM
  2
*D8
 10
4.2414717661156009
 20
4.1894588352212336
 30
0.0
 11
4.9664717661156033
 21
4.1894588352212336
 31
0.0
 70
   128
 13
5.6914717661156038
 23
3.4325370427313082
 33
0.0
 14
4.2414717661156009
 24
3.1985370427313078
 34
0.0
  0
LINE
  5
1DE5
  8
BEND
  6
PHANTOM2
 10
5.329471766115609
 20
2.6874572259733638
 30
0.0
 11
5.329471766115609
 21
3.7603888297978991
 31
0.0
  0
LINE
  5
1DE6
  8
BEND
  6
PHANTOM2
 10
5.329471766115609
 20
2.1953751188759898
 30
0.0
 11
5.329471766115609
 21
2.0576851285708431
 31
0.0
  0
POLYLINE
  5
1DE7
  8
BEND
  6
PHANTOM2
 66
     1
 10
0.0
 20
0.0
 30
0.0
 41
0.06732047872125
  0
VERTEX
  5
3017
  8
BEND
  6
PHANTOM2
 10
4.9990311857573833
 20
2.0576851285708431
 30
0.0
  0
VERTEX
  5
3018
  8
BEND
  6
PHANTOM2
 10
5.1785524623473904
 20
2.0576851285708431
 30
0.0
 41
0.0
  0
VERTEX
  5
3019
  8
BEND
  6
PHANTOM2
 10
5.329471766115609
 20
2.0576851285708431
 30
0.0
 41
0.0
  0
SEQEND
  5
301A
  8
BEND
  6
PHANTOM2
  0
TEXT
  5
1DE8
  8
BEND
  6
PHANTOM2
 10
5.0720817090548129
 20
1.846924455809472
 30
0.0
 40
0.125
  1
B
 41
0.75
  7
TXT
 72
     4
 11
5.1033317090548129
 21
1.909424455809472
 31
0.0
  0
TEXT
  5
1DE9
  8
BEND
  6
PHANTOM2
 10
5.0720817090548058
 20
3.862622918860199
 30
0.0
 40
0.125
  1
B
 41
0.75
  7
TXT
 72
     4
 11
5.1033317090548058
 21
3.925122918860199
 31
0.0
  0
TEXT
  5
1DEA
  8
BEND
  6
PHANTOM2
 10
4.703416506735393
 20
1.841494947057813
 30
0.0
 40
0.125
  1
A
 41
0.75
  7
TXT
 72
     4
 11
4.734666506735393
 21
1.903994947057813
 31
0.0
  0
POLYLINE
  5
1DEB
  8
BEND
  6
PHANTOM2
 66
     1
 10
0.0
 20
0.0
 30
0.0
 41
0.06732047872125
  0
VERTEX
  5
301B
  8
BEND
  6
PHANTOM2
 10
4.8279123464738278
 20
2.0576851285708431
 30
0.0
  0
VERTEX
  5
301C
  8
BEND
  6
PHANTOM2
 10
4.6483910698838207
 20
2.0576851285708431
 30
0.0
 41
0.0
  0
VERTEX
  5
301D
  8
BEND
  6
PHANTOM2
 10
4.4974717661156021
 20
2.0576851285708431
 30
0.0
 41
0.0
  0
SEQEND
  5
301E
  8
BEND
  6
PHANTOM2
  0
LINE
  5
1DEC
  8
BEND
  6
PHANTOM2
 10
4.4974717661156021
 20
2.4615892841223039
 30
0.0
 11
4.4974717661156021
 21
2.0576851285708431
 31
0.0
  0
LINE
  5
1DED
  8
BEND
  6
PHANTOM2
 10
4.4974717661156021
 20
2.6874572259733638
 30
0.0
 11
4.4974717661156021
 21
3.7603888297978991
 31
0.0
  0
TEXT
  5
1DEF
  8
BEND
  6
PHANTOM2
 10
4.703416506735393
 20
3.8571934101085401
 30
0.0
 40
0.125
  1
A
 41
0.75
  7
TXT
 72
     4
 11
4.734666506735393
 21
3.9196934101085401
 31
0.0
  0
LINE
  5
1DF2
  8
OBJECT
 10
2.352959251377658
 20
3.4325370427313082
 30
0.0
 11
2.352959251377658
 21
2.3825370427313088
 31
0.0
  0
LINE
  5
1DF3
  8
OBJECT
 10
2.352959251377658
 20
3.4325370427313082
 30
0.0
 11
2.0059592513776598
 21
3.4325370427313082
 31
0.0
  0
LINE
  5
1DF4
  8
OBJECT
 10
2.352959251377658
 20
2.3825370427313088
 30
0.0
 11
2.1629592513776599
 21
2.3825370427313088
 31
0.0
  0
LINE
  5
1DF5
  8
OBJECT
 10
8.3941014997959797
 20
3.4325370427313082
 30
0.0
 11
8.3941014997959797
 21
2.3825370427313088
 31
0.0
  0
LINE
  5
1DF6
  8
OBJECT
 10
8.7411014997959811
 20
3.4325370427313082
 30
0.0
 11
8.7411014997959811
 21
2.3825370427313088
 31
0.0
1001
ACAD
1000
ASC_BOUNDS
1002
{
1070
    19
1005
2FD7
1005
2FD7
1002
}
  0
LINE
  5
1DF7
  8
OBJECT
 10
8.5841014997959846
 20
3.4325370427313082
 30
0.0
 11
8.5841014997959846
 21
2.3825370427313088
 31
0.0
1001
ACAD
1000
ASC_BOUNDS
1002
{
1070
    19
1005
2FD7
1005
2FD7
1002
}
  0
LINE
  5
1DF8
  8
OBJECT
 10
8.3941014997959797
 20
2.3825370427313088
 30
0.0
 11
8.7411014997959811
 21
2.3825370427313088
 31
0.0
1001
ACAD
1000
ASC_BOUNDS
1002
{
1070
    19
1005
2FD7
1002
}
  0
LINE
  5
1DF9
  8
OBJECT
 10
8.3941014997959797
 20
3.4325370427313082
 30
0.0
 11
8.7411014997959811
 21
3.4325370427313082
 31
0.0
1001
ACAD
1000
ASC_BOUNDS
1002
{
1070
    19
1005
2FD7
1002
}
  0
TEXT
  5
1DFA
  8
TEXT
 10
1.639838380826008
 20
2.0943937189116451
 30
0.0
 40
0.125
  1
%%USECTION "A-A"
 41
0.75
  7
TXT
 72
     1
 11
2.1882758808260081
 21
2.0943937189116451
 31
0.0
  0
TEXT
  5
1DFB
  8
TEXT
 10
8.0531562301162989
 20
2.0943937189116451
 30
0.0
 40
0.125
  1
%%USECTION "B-B"
 41
0.75
  7
TXT
 72
     1
 11
8.6015937301162992
 21
2.0943937189116451
 31
0.0
  0
LINE
  5
1DFC
  8
OBJECT
 10
2.0059592513776598
 20
2.817537042731308
 30
0.0
 11
2.0059592513776598
 21
2.3825370427313088
 31
0.0
  0
LINE
  5
1DFD
  8
OBJECT
 10
2.0059592513776598
 20
2.3825370427313088
 30
0.0
 11
2.1629592513776599
 21
2.3825370427313088
 31
0.0
  0
LINE
  5
1DFE
  8
OBJECT
 10
2.1629592513776599
 20
2.3825370427313088
 30
0.0
 11
2.1629592513776599
 21
2.7125370427313089
 31
0.0
  0
LINE
  5
1DFF
  8
OBJECT
 10
2.1629592513776599
 20
3.4325370427313082
 30
0.0
 11
2.0059592513776598
 21
3.4325370427313082
 31
0.0
  0
LINE
  5
1E00
  8
OBJECT
 10
2.0059592513776598
 20
3.4325370427313082
 30
0.0
 11
2.0059592513776598
 21
2.9975370427313068
 31
0.0
  0
LINE
  5
1E01
  8
OBJECT
 10
2.1629592513776599
 20
3.1025370427313081
 30
0.0
 11
2.1629592513776599
 21
3.4325370427313082
 31
0.0
  0
DIMENSION
  5
1E02
  8
DIM
  2
*D9
 10
1.6327779307184369
 20
2.9975370427313068
 30
0.0
 11
0.8393404307184368
 21
2.457537042731309
 31
0.0
 70
   128
  1
<> DIA.
 13
2.0059592513776598
 23
2.817537042731308
 33
0.0
 14
2.0059592513776598
 24
2.9975370427313068
 34
0.0
 50
90.0
  0
DIMENSION
  5
1E03
  8
DIM
  2
*D10
 10
3.0043345610827998
 20
3.1025370427313068
 30
0.0
 11
3.0043345610827989
 21
2.9075370427313092
 31
0.0
 70
   128
  1
<> DIA.
 13
2.1629592513776599
 23
2.7125370427313089
 33
0.0
 14
2.1629592513776599
 24
3.1025370427313081
 34
0.0
 50
90.0
  0
DIMENSION
  5
1E04
  8
DIM
  2
*D11
 10
8.0910649069408969
 20
2.9975370427313068
 30
0.0
 11
7.4851274069408973
 21
2.457537042731309
 31
0.0
 70
   128
 13
8.5841014997959846
 23
2.817537042731308
 33
0.0
 14
8.5841014997959846
 24
2.9975370427313068
 34
0.0
 50
90.0
  0
DIMENSION
  5
1E05
  8
DIM
  2
*D12
 10
9.2517023600612376
 20
3.107537042731308
 30
0.0
 11
9.2517023600612376
 21
2.9075370427313092
 31
0.0
 70
     0
 13
8.7411014997959811
 23
2.7075370427313081
 33
0.0
 14
8.7411014997959811
 24
3.107537042731308
 34
0.0
 50
90.0
  0
ARC
  5
1E0B
  8
OBJECT
 10
5.407471766115612
 20
2.907537042731307
 30
0.0
 40
0.09
 50
269.9999999999992
 51
90.00000000000081
  0
LINE
  5
1E0C
  8
OBJECT
 10
5.2514717661156061
 20
2.9975370427313068
 30
0.0
 11
5.4074717661156049
 21
2.9975370427313068
 31
0.0
  0
LINE
  5
1E0D
  8
OBJECT
 10
5.4074717661156049
 20
2.817537042731308
 30
0.0
 11
5.2514717661156061
 21
2.817537042731308
 31
0.0
  0
ARC
  5
1E0E
  8
HIDDEN
 10
5.2544717661156071
 20
2.907537042731307
 30
0.0
 40
0.2
 50
90.000000000000398
 51
269.9999999999996
  0
ARC
  5
1E0F
  8
HIDDEN
 10
5.4044717661156119
 20
2.907537042731307
 30
0.0
 40
0.2
 50
269.9999999999996
 51
90.000000000000398
  0
LINE
  5
1E10
  8
HIDDEN
 10
5.2544717661156071
 20
3.107537042731308
 30
0.0
 11
5.4044717661156048
 21
3.107537042731308
 31
0.0
  0
LINE
  5
1E11
  8
HIDDEN
 10
5.2514717661156061
 20
2.7075595439970752
 30
0.0
 11
5.4044717661156048
 21
2.7075370427313081
 31
0.0
  0
DIMENSION
  5
1E12
  8
DIM
  2
*D13
 10
5.6044717661156076
 20
6.4676546756043791
 30
0.0
 11
4.229471766115604
 21
6.4676546756043791
 31
0.0
 70
   128
 13
5.0544717661156042
 23
6.0634171927289708
 33
0.0
 14
5.6044717661156076
 24
6.0634171927289708
 34
0.0
  0
DIMENSION
  5
1E13
  8
DIM
  2
*D14
 10
5.4974717661156092
 20
5.2954849332324416
 30
0.0
 11
6.2990342661156093
 21
5.2954849332324416
 31
0.0
 70
     0
 13
5.1614717661156027
 23
5.9064171927289708
 33
0.0
 14
5.4974717661156092
 24
5.9064171927289708
 34
0.0
  0
LINE
  5
1E3D
  8
CENTER
 10
5.2957217661156122
 20
2.907537042731307
 30
0.0
 11
5.3632217661156067
 21
2.907537042731307
 31
0.0
  0
LINE
  5
1E3E
  8
CENTER
 10
5.329471766115609
 20
2.8737870427313079
 30
0.0
 11
5.329471766115609
 21
2.9412870427313078
 31
0.0
  0
LINE
  5
1E41
  8
HIDDEN
 10
4.4074717661156049
 20
6.0634171927289708
 30
0.0
 11
4.4074717661156049
 21
6.0264171927289656
 31
0.0
  0
LINE
  5
1E42
  8
HIDDEN
 10
4.5874717661156046
 20
6.0634171927289708
 30
0.0
 11
4.5874717661156046
 21
6.0260251430296172
 31
0.0
  0
LINE
  5
1E43
  8
HIDDEN
 10
4.302471766115608
 20
5.9064171927289699
 30
0.0
 11
4.302471766115608
 21
5.9214171927289687
 31
0.0
  0
LINE
  5
1E44
  8
HIDDEN
 10
4.6915289817631907
 20
5.907853816504077
 30
0.0
 11
4.6915289817631907
 21
5.9219679273820311
 31
0.0
  0
LINE
  5
1E4F
  8
OBJECT
 10
2.1629592513776599
 20
3.4325370427313082
 30
0.0
 11
2.0059592513776598
 21
3.4325370427313082
 31
0.0
  0
LINE
  5
1E50
  8
OBJECT
 10
2.0059592513776598
 20
3.4325370427313082
 30
0.0
 11
2.0059592513776598
 21
2.9975370427313068
 31
0.0
  0
LINE
  5
1E51
  8
OBJECT
 10
2.1629592513776599
 20
3.1025370427313081
 30
0.0
 11
2.1629592513776599
 21
3.4325370427313082
 31
0.0
  0
LINE
  5
1E52
  8
OBJECT
 10
2.0059592513776598
 20
2.817537042731308
 30
0.0
 11
2.0059592513776598
 21
2.3825370427313088
 31
0.0
  0
LINE
  5
1E53
  8
OBJECT
 10
2.0059592513776598
 20
2.3825370427313088
 30
0.0
 11
2.1629592513776599
 21
2.3825370427313088
 31
0.0
  0
LINE
  5
1E54
  8
OBJECT
 10
2.1629592513776599
 20
2.3825370427313088
 30
0.0
 11
2.1629592513776599
 21
2.7125370427313089
 31
0.0
  0
INSERT
  5
27FA
  8
OBJECT
  2
HBA
 10
0.0
 20
0.0
 30
0.0
  0
TEXT
  5
28A9
  8
TEXT
 10
0.6221526215351645
 20
6.719099012016013
 30
0.0
 40
0.125
  1
MATERIAL
 41
0.75
  7
TXT
  0
TEXT
  5
28AA
  8
TEXT
 10
0.6221526215351645
 20
6.5107656786826791
 30
0.0
 40
0.125
  1
  ABS  UL94-HB
 41
0.75
  7
TXT
  0
TEXT
  5
28AB
  8
OBJECT
 10
0.3144253089508524
 20
6.1419999203845608
 30
0.0
 40
0.125
  1
 
 41
0.75
  7
TXT
  0
TEXT
  5
28AC
  8
TEXT
 10
0.6221526215351645
 20
6.094099012016013
 30
0.0
 40
0.125
  1
FINISH:
 41
0.75
  7
TXT
  0
TEXT
  5
28AD
  8
TEXT
 10
0.6221526215351645
 20
5.88576567868268
 30
0.0
 40
0.125
  1
  (SUFFIX -LG) LIGHT GRAY
 41
0.75
  7
TXT
  0
TEXT
  5
28AE
  8
TEXT
 10
0.6221526215351645
 20
5.6774323453493469
 30
0.0
 40
0.125
  1
  (SUFFIX -DG) DARK GRAY
 41
0.75
  7
TXT
  0
TEXT
  5
28AF
  8
OBJECT
 10
0.3144253089508524
 20
5.3086665870512286
 30
0.0
 40
0.125
  1
 
 41
0.75
  7
TXT
  0
TEXT
  5
28B0
  8
TEXT
 10
0.6221526215351645
 20
5.2607656786826809
 30
0.0
 40
0.125
  1
EACH KIT INCLUDES:
 41
0.75
  7
TXT
  0
TEXT
  5
28B1
  8
TEXT
 10
0.6221526215351645
 20
5.0524323453493478
 30
0.0
 40
0.125
  1
  QTY. (4) BRACKETS
 41
0.75
  7
TXT
  0
TEXT
  5
28B2
  8
TEXT
 10
0.6221526215351645
 20
4.8440990120160148
 30
0.0
 40
0.125
  1
  QTY. (4) SCREWS M5 x 11mm LG.
 41
0.75
  7
TXT
  0
TEXT
  5
28B3
  8
TEXT
 10
0.6221526215351645
 20
4.6357656786826817
 30
0.0
 40
0.125
  1
   FLAT HEAD, PHILLIPS DRIVE,
 41
0.75
  7
TXT
  0
TEXT
  5
28B6
  8
TEXT
 10
0.9558493562756254
 20
7.5982127160846424
 30
0.0
 40
0.156
  1
EXTERNAL MOUNTING BRACKET
 41
0.75
  7
TXT
 72
     1
 11
2.3793493562756249
 21
7.5982127160846424
 31
0.0
  0
TEXT
  5
28B7
  8
TEXT
 10
5.2650444681682593
 20
7.5982127160846424
 30
0.0
 40
0.156
  1
MB-1390-LG  &  MB-1390-DG
 41
0.75
  7
TXT
 72
     1
 11
6.6495444681682576
 21
7.5982127160846424
 31
0.0
  0
TEXT
  5
28B8
  8
TEXT
 10
9.5897164195209612
 20
7.5982127160846424
 30
0.0
 40
0.156
  1
11-29-11
 41
0.75
  7
TXT
 72
     1
 11
9.960216419520961
 21
7.5982127160846424
 31
0.0
  0
POLYLINE
  5
2A76
  8
BEND
  6
PHANTOM2
 66
     1
 10
0.0
 20
0.0
 30
0.0
 41
0.06732047872125
  0
VERTEX
  5
301F
  8
BEND
  6
PHANTOM2
 10
4.8279123464738278
 20
3.7603888297978991
 30
0.0
  0
VERTEX
  5
3020
  8
BEND
  6
PHANTOM2
 10
4.6483910698838207
 20
3.7603888297978991
 30
0.0
 41
0.0
  0
VERTEX
  5
3021
  8
BEND
  6
PHANTOM2
 10
4.4974717661156021
 20
3.7603888297978991
 30
0.0
 41
0.0
  0
SEQEND
  5
3022
  8
BEND
  6
PHANTOM2
  0
POLYLINE
  5
2A77
  8
BEND
  6
PHANTOM2
 66
     1
 10
0.0
 20
0.0
 30
0.0
 41
0.06732047872125
  0
VERTEX
  5
3023
  8
BEND
  6
PHANTOM2
 10
4.9990311857573833
 20
3.7603888297978991
 30
0.0
  0
VERTEX
  5
3024
  8
BEND
  6
PHANTOM2
 10
5.1785524623473904
 20
3.7603888297978991
 30
0.0
 41
0.0
  0
VERTEX
  5
3025
  8
BEND
  6
PHANTOM2
 10
5.329471766115609
 20
3.7603888297978991
 30
0.0
 41
0.0
  0
SEQEND
  5
3026
  8
BEND
  6
PHANTOM2
  0
TEXT
  5
2BA5
  8
TEXT
 10
7.5597011041225448
 20
4.8789737749765996
 30
0.0
 40
0.125
  1
%%uNOTE:
 41
0.75
  7
TXT
  0
TEXT
  5
2BA6
  8
TEXT
 10
8.0920390043527384
 20
4.8689762731460711
 30
0.0
 40
0.125
  1
WILL NOT FIT PN-1344
 41
0.75
  7
TXT
  0
TEXT
  5
2D0A
  8
TEXT
 10
0.6221526215351645
 20
4.4274323453493487
 30
0.0
 40
0.125
  1
   SELF-TAPPING, ZINC PLATED
 41
0.75
  7
TXT
  0
DIMENSION
  5
2D2B
  8
DIM
  2
*D18
 10
4.4754717661156116
 20
2.6165370427313071
 30
0.0
 11
3.2745576306159339
 21
1.691840399418272
 31
0.0
 70
   132
 15
4.3666767663614854
 25
2.409366465601011
 35
0.0
 40
0.0
  0
DIMENSION
  5
2E4B
  8
DIM
  2
*D19
 10
4.4974717661156021
 20
1.53988621523743
 30
0.0
 11
4.9134717661156051
 21
1.53988621523743
 31
0.0
 70
     0
 13
5.329471766115609
 23
2.8737870427313079
 33
0.0
 14
4.4974717661156021
 24
2.8737870427313079
 34
0.0
  0
LINE
  5
2F0B
  8
HIDDEN
 10
4.302471766115608
 20
5.9214171927289687
 30
0.0
 11
4.4074717661156049
 21
6.0264171927289656
 31
0.0
  0
LINE
  5
2F0D
  8
HIDDEN
 10
4.6915289817631907
 20
5.9219679273820311
 30
0.0
 11
4.5874717661156046
 21
6.0260251430296172
 31
0.0
  0
DIMENSION
  5
2F0F
  8
DIM
  2
*D20
 10
4.5874717661156046
 20
6.0260251430296172
 30
0.0
 11
4.4972757412659297
 21
5.4591566315217053
 31
0.0
 70
     2
  1
<>\PTYP.
 13
4.302471766115608
 23
5.9214171927289687
 33
0.0
 14
4.4074717661156049
 24
6.0264171927289656
 34
0.0
 15
4.6915289817631907
 25
5.9219679273820311
 35
0.0
 16
4.3272149253951291
 26
5.4815455626728458
 36
0.0
1001
ACAD
1000
DSTYLE
1002
{
1070
   271
1070
     0
1002
}
  0
LINE
  5
2F40
  8
OBJECT
 10
2.1615226276025541
 20
3.1015942583788929
 30
0.0
 11
2.1474085167246009
 21
3.1015942583788929
 31
0.0
  0
LINE
  5
2F41
  8
OBJECT
 10
2.1629592513776612
 20
2.7125370427313111
 30
0.0
 11
2.147959251377662
 21
2.7125370427313111
 31
0.0
  0
LINE
  5
2F42
  8
OBJECT
 10
2.0059592513776598
 20
2.817537042731308
 30
0.0
 11
2.0429592513776651
 21
2.817537042731308
 31
0.0
  0
LINE
  5
2F43
  8
OBJECT
 10
2.147959251377662
 20
2.7125370427313111
 30
0.0
 11
2.0429592513776651
 21
2.817537042731308
 31
0.0
  0
LINE
  5
2F44
  8
OBJECT
 10
2.0059592513776598
 20
2.9975370427313068
 30
0.0
 11
2.0433513010770148
 21
2.9975370427313068
 31
0.0
  0
LINE
  5
2F45
  8
OBJECT
 10
2.1474085167246009
 20
3.1015942583788929
 30
0.0
 11
2.0433513010770148
 21
2.9975370427313068
 31
0.0
  0
LINE
  5
2F46
  8
OBJECT
 10
2.1629592513776599
 20
3.1025370427313081
 30
0.0
 11
2.1629592513776612
 21
2.7125370427313111
 31
0.0
  0
LINE
  5
2F47
  8
OBJECT
 10
2.0059592513776598
 20
2.9975370427313068
 30
0.0
 11
2.0059592513776598
 21
2.817537042731308
 31
0.0
  0
LINE
  5
2F50
  8
HIDDEN
 10
5.4974717661156092
 20
5.9064171927289708
 30
0.0
 11
5.4974717661156083
 21
5.9353030818510186
 31
0.0
  0
LINE
  5
2F51
  8
HIDDEN
 10
5.6044717661156076
 20
6.0634171927289708
 30
0.0
 11
5.6044717661156076
 21
6.0423030818510179
 31
0.0
  0
LINE
  5
2F52
  8
HIDDEN
 10
5.6044717661156076
 20
6.0423030818510179
 30
0.0
 11
5.4974717661156083
 21
5.9353030818510186
 31
0.0
  0
LINE
  5
2F55
  8
HIDDEN
 10
5.0544717661156042
 20
6.0423030818510179
 30
0.0
 11
5.1614717661156027
 21
5.9353030818510186
 31
0.0
  0
LINE
  5
2F56
  8
HIDDEN
 10
5.0544717661156042
 20
6.0634171927289708
 30
0.0
 11
5.0544717661156042
 21
6.0423030818510179
 31
0.0
  0
LINE
  5
2F57
  8
HIDDEN
 10
5.1614717661156027
 20
5.9064171927289708
 30
0.0
 11
5.1614717661156027
 21
5.9353030818510186
 31
0.0
  0
LINE
  5
2F5F
  8
OBJECT
 10
8.584101499795981
 20
2.9975370427313068
 30
0.0
 11
8.6129873889180288
 21
2.9975370427313068
 31
0.0
1001
ACAD
1000
ASC_BOUNDS
1002
{
1070
    19
1005
2FD7
1002
}
  0
LINE
  5
2F60
  8
OBJECT
 10
8.72298738891803
 20
3.107537042731308
 30
0.0
 11
8.6129873889180288
 21
2.9975370427313068
 31
0.0
1001
ACAD
1000
ASC_BOUNDS
1002
{
1070
    19
1005
2FD7
1002
}
  0
LINE
  5
2F61
  8
OBJECT
 10
8.7411014997959811
 20
3.107537042731308
 30
0.0
 11
8.72298738891803
 21
3.107537042731308
 31
0.0
1001
ACAD
1000
ASC_BOUNDS
1002
{
1070
    19
1005
2FD7
1002
}
  0
LINE
  5
2F68
  8
OBJECT
 10
8.584101499795981
 20
2.817537042731308
 30
0.0
 11
8.6129873889180288
 21
2.817537042731308
 31
0.0
1001
ACAD
1000
ASC_BOUNDS
1002
{
1070
    19
1005
2FD7
1002
}
  0
LINE
  5
2F69
  8
OBJECT
 10
8.7229873889180283
 20
2.7075370427313081
 30
0.0
 11
8.6129873889180288
 21
2.817537042731308
 31
0.0
1001
ACAD
1000
ASC_BOUNDS
1002
{
1070
    19
1005
2FD7
1002
}
  0
LINE
  5
2F6A
  8
OBJECT
 10
8.7411014997959811
 20
2.7075370427313081
 30
0.0
 11
8.7229873889180283
 21
2.7075370427313081
 31
0.0
1001
ACAD
1000
ASC_BOUNDS
1002
{
1070
    19
1005
2FD7
1002
}
  0
INSERT
  5
2FB2
  8
OBJECT
  6
CONTINUOUS
  2
*X22
 10
0.0
 20
0.0
 30
0.0
1001
ACAD
1000
HATCH
1002
{
1070
    19
1000
PLASTI
1040
1.0
1040
0.7853981633974483
1000
R14_HATCH_DATA
1000
2FB2
1011
1.0
1021
-0.0
1031
0.0
1021
0.0
1031
0.0
1011
0.0
1021
-0.0
1031
0.0
1021
1.0
1031
0.0
1011
0.0
1021
-0.0
1031
0.0
1021
0.0
1031
1.0
1040
0.0
1010
0.0
1020
0.0
1030
1.0
1000
PLASTI
1070
     0
1070
     0
1071
        2
1071
        7
1070
     0
1070
     1
1071
        7
1040
2.1629592513776599
1040
3.4325370427313082
1040
2.0059592513776598
1040
3.4325370427313069
1040
2.0059592513776598
1040
2.9975370427313082
1040
2.0433513010770148
1040
2.9975370427313059
1040
2.1474085167246
1040
3.1015942583788929
1040
2.1629592513776599
1040
3.1015942583788929
1040
2.1629592513776599
1040
3.1025370427313081
1071
        0
1071
        7
1070
     0
1070
     1
1071
        6
1040
2.1629592513776599
1040
2.7125370427313111
1040
2.147959251377662
1040
2.7125370427313111
1040
2.0429592513776651
1040
2.817537042731308
1040
2.0059592513776598
1040
2.817537042731308
1040
2.0059592513776598
1040
2.3825370427313088
1040
2.1629592513776599
1040
2.3825370427313088
1071
        0
1070
     0
1070
     1
1040
0.7853981633974483
1040
1.0
1070
     0
1070
     4
1040
0.7853981633974483
1040
0.0
1040
0.0
1040
-0.1767766952966369
1040
0.1767766952966369
1070
     0
1040
0.7853981633974483
1040
-0.0220970869120796
1040
0.0220970869120796
1040
-0.1767766952966369
1040
0.1767766952966369
1070
     0
1040
0.7853981633974483
1040
-0.0441941738241592
1040
0.0441941738241592
1040
-0.1767766952966369
1040
0.1767766952966369
1070
     0
1040
0.7853981633974483
1040
-0.110485434560398
1040
0.110485434560398
1040
-0.1767766952966369
1040
0.1767766952966369
1070
     0
1040
0.0030123734299651
1071
        2
1040
2.1203053574211022
1040
3.2165392301466471
1040
0.0
1040
2.1022172963053052
1040
2.6261140258342262
1040
0.0
1002
}
  0
INSERT
  5
2FD7
  8
OBJECT
  6
CONTINUOUS
  2
*X23
 10
0.0
 20
0.0
 30
0.0
1001
ACAD
1000
HATCH
1002
{
1070
    19
1000
PLASTI
1040
1.0
1040
0.7853981633974483
1000
ASC_BOUNDS
1070
     2
1070
     1
1070
     6
1005
1DF6
1005
1DF8
1005
1DF7
1005
2F68
1005
2F69
1005
2F6A
1070
     1
1070
     6
1005
1DF6
1005
2F61
1005
2F60
1005
2F5F
1005
1DF7
1005
1DF9
1000
ASC_SEEDPOINT
1011
8.6708684345467688
1021
-0.0
1031
0.0
1021
3.2940601227968642
1031
0.0
1000
R14_HATCH_DATA
1000
2FD7
1011
1.0
1021
-0.0
1031
0.0
1021
0.0
1031
0.0
1011
0.0
1021
-0.0
1031
0.0
1021
1.0
1031
0.0
1011
0.0
1021
-0.0
1031
0.0
1021
0.0
1031
1.0
1040
0.0
1010
0.0
1020
0.0
1030
1.0
1000
PLASTI
1070
     0
1070
     1
1071
        2
1071
        7
1070
     0
1070
     1
1071
        6
1040
8.7411014997959811
1040
3.4325370427313069
1040
8.5841014997959846
1040
3.4325370427313069
1040
8.5841014997959846
1040
2.9975370427313068
1040
8.6129873889180288
1040
2.9975370427313068
1040
8.72298738891803
1040
3.107537042731308
1040
8.7411014997959811
1040
3.107537042731308
1071
        6
1005
1DF9
1005
1DF7
1005
2F5F
1005
2F60
1005
2F61
1005
1DF6
1071
        7
1070
     0
1070
     1
1071
        6
1040
8.7411014997959793
1040
2.707537042731309
1040
8.7229873889180265
1040
2.7075370427313081
1040
8.6129873889180288
1040
2.817537042731308
1040
8.5841014997959846
1040
2.817537042731308
1040
8.5841014997959846
1040
2.3825370427313088
1040
8.7411014997959811
1040
2.3825370427313088
1071
        6
1005
2F6A
1005
2F69
1005
2F68
1005
1DF7
1005
1DF8
1005
1DF6
1070
     0
1070
     1
1040
0.7853981633974483
1040
1.0
1070
     0
1070
     4
1040
0.7853981633974483
1040
0.0
1040
0.0
1040
-0.1767766952966369
1040
0.1767766952966369
1070
     0
1040
0.7853981633974483
1040
-0.0220970869120796
1040
0.0220970869120796
1040
-0.1767766952966369
1040
0.1767766952966369
1070
     0
1040
0.7853981633974483
1040
-0.0441941738241592
1040
0.0441941738241592
1040
-0.1767766952966369
1040
0.1767766952966369
1070
     0
1040
0.7853981633974483
1040
-0.110485434560398
1040
0.110485434560398
1040
-0.1767766952966369
1040
0.1767766952966369
1070
     0
1040
0.0039524800487538
1071
        2
1040
8.6708684345467688
1040
3.2940601227968642
1040
0.0
1040
8.6985569656593622
1040
2.594471145665501
1040
0.0
1002
}
  0
ENDSEC
  0
EOF
