  0
SECTION
  2
HEADER
  9
$ACADVER
  1
AC1015
  9
$ACADMAINTVER
 70
     6
  9
$DWGCODEPAGE
  3
ANSI_1252
  9
$INSBASE
 10
0.0
 20
0.0
 30
0.0
  9
$EXTMIN
 10
-0.0006099976560847
 20
-0.0004879981248678
 30
-0.0000000000112498
  9
$EXTMAX
 10
20.24293496677161
 20
31.0023805971706
 30
0.0000000000002956
  9
$LIMMIN
 10
0.0
 20
0.0
  9
$LIMMAX
 10
40.0
 20
32.0
  9
$ORTHOMODE
 70
     1
  9
$REGENMODE
 70
     1
  9
$FILLMODE
 70
     1
  9
$QTEXTMODE
 70
     0
  9
$MIRRTEXT
 70
     0
  9
$LTSCALE
 40
0.5
  9
$ATTMODE
 70
     1
  9
$TEXTSIZE
 40
0.2
  9
$TRACEWID
 40
0.05
  9
$TEXTSTYLE
  7
TXT
  9
$CLAYER
  8
DIM
  9
$CELTYPE
  6
ByLayer
  9
$CECOLOR
 62
   256
  9
$CELTSCALE
 40
1.0
  9
$DISPSILH
 70
     0
  9
$DIMSCALE
 40
1.6
  9
$DIMASZ
 40
0.18
  9
$DIMEXO
 40
0.063
  9
$DIMDLI
 40
0.38
  9
$DIMRND
 40
0.0
  9
$DIMDLE
 40
0.0
  9
$DIMEXE
 40
0.093
  9
$DIMTP
 40
0.0
  9
$DIMTM
 40
0.0
  9
$DIMTXT
 40
0.125
  9
$DIMCEN
 40
0.09
  9
$DIMTSZ
 40
0.0
  9
$DIMTOL
 70
     0
  9
$DIMLIM
 70
     0
  9
$DIMTIH
 70
     1
  9
$DIMTOH
 70
     1
  9
$DIMSE1
 70
     0
  9
$DIMSE2
 70
     0
  9
$DIMTAD
 70
     0
  9
$DIMZIN
 70
     0
  9
$DIMBLK
  1

  9
$DIMASO
 70
     1
  9
$DIMSHO
 70
     1
  9
$DIMPOST
  1

  9
$DIMAPOST
  1

  9
$DIMALT
 70
     0
  9
$DIMALTD
 70
     2
  9
$DIMALTF
 40
25.4
  9
$DIMLFAC
 40
1.0
  9
$DIMTOFL
 70
     0
  9
$DIMTVP
 40
0.0
  9
$DIMTIX
 70
     0
  9
$DIMSOXD
 70
     0
  9
$DIMSAH
 70
     0
  9
$DIMBLK1
  1

  9
$DIMBLK2
  1

  9
$DIMSTYLE
  2
23NSTD
  9
$DIMCLRD
 70
     0
  9
$DIMCLRE
 70
     0
  9
$DIMCLRT
 70
     0
  9
$DIMTFAC
 40
1.0
  9
$DIMGAP
 40
0.09
  9
$DIMJUST
 70
     0
  9
$DIMSD1
 70
     0
  9
$DIMSD2
 70
     0
  9
$DIMTOLJ
 70
     1
  9
$DIMTZIN
 70
     0
  9
$DIMALTZ
 70
     0
  9
$DIMALTTZ
 70
     0
  9
$DIMUPT
 70
     0
  9
$DIMDEC
 70
     3
  9
$DIMTDEC
 70
     3
  9
$DIMALTU
 70
     2
  9
$DIMALTTD
 70
     2
  9
$DIMTXSTY
  7
TXT
  9
$DIMAUNIT
 70
     0
  9
$DIMADEC
 70
     0
  9
$DIMALTRND
 40
0.0
  9
$DIMAZIN
 70
     0
  9
$DIMDSEP
 70
    46
  9
$DIMATFIT
 70
     1
  9
$DIMFRAC
 70
     0
  9
$DIMLDRBLK
  1

  9
$DIMLUNIT
 70
     2
  9
$DIMLWD
 70
    -2
  9
$DIMLWE
 70
    -2
  9
$DIMTMOVE
 70
     0
  9
$LUNITS
 70
     2
  9
$LUPREC
 70
     3
  9
$SKETCHINC
 40
0.1
  9
$FILLETRAD
 40
0.0
  9
$AUNITS
 70
     0
  9
$AUPREC
 70
     0
  9
$MENU
  1
acad
  9
$ELEVATION
 40
0.0
  9
$PELEVATION
 40
0.0
  9
$THICKNESS
 40
0.0
  9
$LIMCHECK
 70
     0
  9
$CHAMFERA
 40
0.0
  9
$CHAMFERB
 40
0.0
  9
$CHAMFERC
 40
0.0
  9
$CHAMFERD
 40
0.0
  9
$SKPOLY
 70
     0
  9
$TDCREATE
 40
2448371.324109259
  9
$TDUCREATE
 40
2448371.490775925
  9
$TDUPDATE
 40
2454553.579543183
  9
$TDUUPDATE
 40
2454553.746209849
  9
$TDINDWG
 40
0.1069962500
  9
$TDUSRTIMER
 40
0.1069951736
  9
$USRTIMER
 70
     1
  9
$ANGBASE
 50
0.0
  9
$ANGDIR
 70
     0
  9
$PDMODE
 70
     0
  9
$PDSIZE
 40
0.0
  9
$PLINEWID
 40
0.0
  9
$SPLFRAME
 70
     0
  9
$SPLINETYPE
 70
     6
  9
$SPLINESEGS
 70
     8
  9
$HANDSEED
  5
89D
  9
$SURFTAB1
 70
     6
  9
$SURFTAB2
 70
     6
  9
$SURFTYPE
 70
     6
  9
$SURFU
 70
     6
  9
$SURFV
 70
     6
  9
$UCSBASE
  2

  9
$UCSNAME
  2

  9
$UCSORG
 10
0.0
 20
0.0
 30
0.0
  9
$UCSXDIR
 10
1.0
 20
0.0
 30
0.0
  9
$UCSYDIR
 10
0.0
 20
1.0
 30
0.0
  9
$UCSORTHOREF
  2

  9
$UCSORTHOVIEW
 70
     0
  9
$UCSORGTOP
 10
0.0
 20
0.0
 30
0.0
  9
$UCSORGBOTTOM
 10
0.0
 20
0.0
 30
0.0
  9
$UCSORGLEFT
 10
0.0
 20
0.0
 30
0.0
  9
$UCSORGRIGHT
 10
0.0
 20
0.0
 30
0.0
  9
$UCSORGFRONT
 10
0.0
 20
0.0
 30
0.0
  9
$UCSORGBACK
 10
0.0
 20
0.0
 30
0.0
  9
$PUCSBASE
  2

  9
$PUCSNAME
  2

  9
$PUCSORG
 10
0.0
 20
0.0
 30
0.0
  9
$PUCSXDIR
 10
1.0
 20
0.0
 30
0.0
  9
$PUCSYDIR
 10
0.0
 20
1.0
 30
0.0
  9
$PUCSORTHOREF
  2

  9
$PUCSORTHOVIEW
 70
     0
  9
$PUCSORGTOP
 10
0.0
 20
0.0
 30
0.0
  9
$PUCSORGBOTTOM
 10
0.0
 20
0.0
 30
0.0
  9
$PUCSORGLEFT
 10
0.0
 20
0.0
 30
0.0
  9
$PUCSORGRIGHT
 10
0.0
 20
0.0
 30
0.0
  9
$PUCSORGFRONT
 10
0.0
 20
0.0
 30
0.0
  9
$PUCSORGBACK
 10
0.0
 20
0.0
 30
0.0
  9
$USERI1
 70
     0
  9
$USERI2
 70
     0
  9
$USERI3
 70
     0
  9
$USERI4
 70
     0
  9
$USERI5
 70
     0
  9
$USERR1
 40
0.0
  9
$USERR2
 40
0.0
  9
$USERR3
 40
0.0
  9
$USERR4
 40
0.0
  9
$USERR5
 40
0.0
  9
$WORLDVIEW
 70
     1
  9
$SHADEDGE
 70
     3
  9
$SHADEDIF
 70
    70
  9
$TILEMODE
 70
     1
  9
$MAXACTVP
 70
    16
  9
$PINSBASE
 10
0.0
 20
0.0
 30
0.0
  9
$PLIMCHECK
 70
     0
  9
$PEXTMIN
 10
1.000000000000000E+20
 20
1.000000000000000E+20
 30
1.000000000000000E+20
  9
$PEXTMAX
 10
-1.000000000000000E+20
 20
-1.000000000000000E+20
 30
-1.000000000000000E+20
  9
$PLIMMIN
 10
0.0
 20
0.0
  9
$PLIMMAX
 10
12.0
 20
9.0
  9
$UNITMODE
 70
     0
  9
$VISRETAIN
 70
     0
  9
$PLINEGEN
 70
     0
  9
$PSLTSCALE
 70
     0
  9
$TREEDEPTH
 70
  3020
  9
$CMLSTYLE
  2
Standard
  9
$CMLJUST
 70
     0
  9
$CMLSCALE
 40
1.0
  9
$PROXYGRAPHICS
 70
     1
  9
$MEASUREMENT
 70
     0
  9
$CELWEIGHT
370
    -1
  9
$ENDCAPS
280
     0
  9
$JOINSTYLE
280
     0
  9
$LWDISPLAY
290
     0
  9
$INSUNITS
 70
     0
  9
$HYPERLINKBASE
  1

  9
$STYLESHEET
  1

  9
$XEDIT
290
     1
  9
$CEPSNTYPE
380
     0
  9
$PSTYLEMODE
290
     1
  9
$FINGERPRINTGUID
  2
{761FDA13-9A7F-442C-9FCA-0DAE1827AE02}
  9
$VERSIONGUID
  2
{531A09E8-81AB-48A1-A7D3-A93019B2EA8B}
  9
$EXTNAMES
290
     1
  9
$PSVPSCALE
 40
0.0
  9
$OLESTARTUP
290
     0
  0
ENDSEC
  0
SECTION
  2
CLASSES
  0
CLASS
  1
ACDBDICTIONARYWDFLT
  2
AcDbDictionaryWithDefault
  3
AutoCAD 2000
 90
        0
280
     0
281
     0
  0
CLASS
  1
ACDBPLACEHOLDER
  2
AcDbPlaceHolder
  3
AutoCAD 2000
 90
        0
280
     0
281
     0
  0
CLASS
  1
LAYOUT
  2
AcDbLayout
  3
AutoCAD 2000
 90
        0
280
     0
281
     0
  0
ENDSEC
  0
SECTION
  2
TABLES
  0
TABLE
  2
VPORT
  5
8
330
0
100
AcDbSymbolTable
 70
     6
  0
VPORT
  5
89C
330
8
100
AcDbSymbolTableRecord
100
AcDbViewportTableRecord
  2
*Active
 70
     0
 10
0.0
 20
0.0
 11
1.0
 21
1.0
 12
10.12116248455776
 22
15.50094629952286
 13
0.0
 23
0.0
 14
1.0
 24
1.0
 15
0.5
 25
0.5
 16
0.0
 26
0.0
 36
1.0
 17
0.0
 27
0.0
 37
0.0
 40
31.32303591297493
 41
1.884482758620689
 42
50.0
 43
0.0
 44
0.0
 50
0.0
 51
0.0
 71
     0
 72
   100
 73
     1
 74
     0
 75
     0
 76
     0
 77
     0
 78
     0
281
     0
 65
     1
110
0.0
120
0.0
130
0.0
111
1.0
121
0.0
131
0.0
112
0.0
122
1.0
132
0.0
 79
     0
146
0.0
  0
ENDTAB
  0
TABLE
  2
LTYPE
  5
5
330
0
100
AcDbSymbolTable
 70
     4
  0
LTYPE
  5
13
330
5
100
AcDbSymbolTableRecord
100
AcDbLinetypeTableRecord
  2
ByBlock
 70
     0
  3

 72
    65
 73
     0
 40
0.0
  0
LTYPE
  5
14
330
5
100
AcDbSymbolTableRecord
100
AcDbLinetypeTableRecord
  2
ByLayer
 70
     0
  3

 72
    65
 73
     0
 40
0.0
  0
LTYPE
  5
15
330
5
100
AcDbSymbolTableRecord
100
AcDbLinetypeTableRecord
  2
CONTINUOUS
 70
     0
  3
Solid line
 72
    65
 73
     0
 40
0.0
  0
LTYPE
  5
24
330
5
100
AcDbSymbolTableRecord
100
AcDbLinetypeTableRecord
  2
HIDDEN
 70
     0
  3
_ _ _ _ _ _ _ _ _ _ _ _ _ _ _ _ _ _ _ _ _ _ _
 72
    65
 73
     2
 40
0.375
 49
0.25
 74
     0
 49
-0.125
 74
     0
  0
LTYPE
  5
25
330
5
100
AcDbSymbolTableRecord
100
AcDbLinetypeTableRecord
  2
PHANTOM
 70
     0
  3
_____ _ _ _____ _ _ _____ _ _ _____ _ _ ____
 72
    65
 73
     6
 40
2.5
 49
1.25
 74
     0
 49
-0.25
 74
     0
 49
0.25
 74
     0
 49
-0.25
 74
     0
 49
0.25
 74
     0
 49
-0.25
 74
     0
  0
LTYPE
  5
26
330
5
100
AcDbSymbolTableRecord
100
AcDbLinetypeTableRecord
  2
CENTER
 70
     0
  3
____ _ ____ _ ____ _ ____ _ ____ _ ____ _ ____
 72
    65
 73
     4
 40
2.0
 49
1.25
 74
     0
 49
-0.25
 74
     0
 49
0.25
 74
     0
 49
-0.25
 74
     0
  0
ENDTAB
  0
TABLE
  2
LAYER
  5
2
330
0
100
AcDbSymbolTable
 70
     9
  0
LAYER
  5
10
330
2
100
AcDbSymbolTableRecord
100
AcDbLayerTableRecord
  2
0
 70
     0
 62
     7
  6
CONTINUOUS
370
    -3
390
F
  0
LAYER
  5
22
330
2
100
AcDbSymbolTableRecord
100
AcDbLayerTableRecord
  2
DIM
 70
     0
 62
     2
  6
CONTINUOUS
370
    -3
390
F
  0
LAYER
  5
27
330
2
100
AcDbSymbolTableRecord
100
AcDbLayerTableRecord
  2
OBJECT
 70
     0
 62
     7
  6
CONTINUOUS
370
    -3
390
F
  0
LAYER
  5
28
330
2
100
AcDbSymbolTableRecord
100
AcDbLayerTableRecord
  2
HIDDEN
 70
     0
 62
     6
  6
HIDDEN
370
    -3
390
F
  0
LAYER
  5
29
330
2
100
AcDbSymbolTableRecord
100
AcDbLayerTableRecord
  2
BEND
 70
     0
 62
     4
  6
PHANTOM
370
    -3
390
F
  0
LAYER
  5
2A
330
2
100
AcDbSymbolTableRecord
100
AcDbLayerTableRecord
  2
TEXT
 70
     0
 62
     1
  6
CONTINUOUS
370
    -3
390
F
  0
LAYER
  5
2B
330
2
100
AcDbSymbolTableRecord
100
AcDbLayerTableRecord
  2
TITLE
 70
     0
 62
     8
  6
CONTINUOUS
370
    -3
390
F
  0
LAYER
  5
2C
330
2
100
AcDbSymbolTableRecord
100
AcDbLayerTableRecord
  2
CENTER
 70
     0
 62
     3
  6
CENTER
370
    -3
390
F
  0
LAYER
  5
2D
330
2
100
AcDbSymbolTableRecord
100
AcDbLayerTableRecord
  2
DEFPOINTS
 70
     0
 62
     7
  6
CONTINUOUS
290
     0
370
    -3
390
F
  0
ENDTAB
  0
TABLE
  2
STYLE
  5
3
330
0
100
AcDbSymbolTable
 70
     1
  0
STYLE
  5
11
330
3
100
AcDbSymbolTableRecord
100
AcDbTextStyleTableRecord
  2
TXT
 70
     0
 40
0.0
 41
0.75
 50
0.0
 71
     0
 42
0.2
  3
TXT.shx
  4

  0
ENDTAB
  0
TABLE
  2
VIEW
  5
6
330
0
100
AcDbSymbolTable
 70
     0
  0
ENDTAB
  0
TABLE
  2
UCS
  5
7
330
0
100
AcDbSymbolTable
 70
     0
  0
ENDTAB
  0
TABLE
  2
APPID
  5
9
330
0
100
AcDbSymbolTable
 70
     1
  0
APPID
  5
12
330
9
100
AcDbSymbolTableRecord
100
AcDbRegAppTableRecord
  2
ACAD
 70
     0
  0
ENDTAB
  0
TABLE
  2
DIMSTYLE
  5
A
330
0
100
AcDbSymbolTable
 70
     3
100
AcDbDimStyleTable
 71
     2
340
2E
340
2F
  0
DIMSTYLE
105
2E
102
{ACAD_REACTORS
330
361
330
37D
330
38B
330
399
330
3A7
330
3B5
330
3C3
330
3DF
330
3ED
330
40D
330
41B
330
432
330
440
330
45A
330
4B3
330
539
330
563
330
57F
330
5A9
330
5DB
330
621
330
62F
330
63D
102
}
330
A
100
AcDbSymbolTableRecord
100
AcDbDimStyleTableRecord
  2
23NSTD
 70
     0
 40
1.6
 42
0.063
 44
0.093
140
0.125
271
     3
272
     3
289
     1
340
11
  0
DIMSTYLE
105
2F
102
{ACAD_REACTORS
330
329
330
337
330
345
330
353
330
36F
330
3D1
330
3FB
330
489
330
497
330
4A5
330
52B
330
547
330
555
330
571
330
58D
330
59B
330
5BF
330
5CD
330
5E9
330
5F7
330
605
330
613
102
}
330
A
100
AcDbSymbolTableRecord
100
AcDbDimStyleTableRecord
  2
23NSTDI
 70
     0
 40
1.6
 44
0.093
140
0.125
174
     1
271
     3
272
     3
340
11
  0
DIMSTYLE
105
886
330
A
100
AcDbSymbolTableRecord
100
AcDbDimStyleTableRecord
  2
22NSTD
 70
     0
 42
0.063
 43
0.281
 44
0.093
140
0.125
271
     3
272
     3
289
     1
340
11
  0
ENDTAB
  0
TABLE
  2
BLOCK_RECORD
  5
1
330
0
100
AcDbSymbolTable
 70
    91
  0
BLOCK_RECORD
  5
1E
330
1
100
AcDbSymbolTableRecord
100
AcDbBlockTableRecord
  2
*Model_Space
340
21
  0
BLOCK_RECORD
  5
1A
330
1
100
AcDbSymbolTableRecord
100
AcDbBlockTableRecord
  2
*Paper_Space
340
1D
  0
BLOCK_RECORD
  5
32A
330
1
100
AcDbSymbolTableRecord
100
AcDbBlockTableRecord
  2
*D45
340
0
  0
BLOCK_RECORD
  5
338
330
1
100
AcDbSymbolTableRecord
100
AcDbBlockTableRecord
  2
*D46
340
0
  0
BLOCK_RECORD
  5
346
330
1
100
AcDbSymbolTableRecord
100
AcDbBlockTableRecord
  2
*D47
340
0
  0
BLOCK_RECORD
  5
354
330
1
100
AcDbSymbolTableRecord
100
AcDbBlockTableRecord
  2
*D48
340
0
  0
BLOCK_RECORD
  5
362
330
1
100
AcDbSymbolTableRecord
100
AcDbBlockTableRecord
  2
*D49
340
0
  0
BLOCK_RECORD
  5
370
330
1
100
AcDbSymbolTableRecord
100
AcDbBlockTableRecord
  2
*D50
340
0
  0
BLOCK_RECORD
  5
37E
330
1
100
AcDbSymbolTableRecord
100
AcDbBlockTableRecord
  2
*D51
340
0
  0
BLOCK_RECORD
  5
38C
330
1
100
AcDbSymbolTableRecord
100
AcDbBlockTableRecord
  2
*D52
340
0
  0
BLOCK_RECORD
  5
39A
330
1
100
AcDbSymbolTableRecord
100
AcDbBlockTableRecord
  2
*D53
340
0
  0
BLOCK_RECORD
  5
3A8
330
1
100
AcDbSymbolTableRecord
100
AcDbBlockTableRecord
  2
*D54
340
0
  0
BLOCK_RECORD
  5
3B6
330
1
100
AcDbSymbolTableRecord
100
AcDbBlockTableRecord
  2
*D55
340
0
  0
BLOCK_RECORD
  5
3C4
330
1
100
AcDbSymbolTableRecord
100
AcDbBlockTableRecord
  2
*D56
340
0
  0
BLOCK_RECORD
  5
3D2
330
1
100
AcDbSymbolTableRecord
100
AcDbBlockTableRecord
  2
*D57
340
0
  0
BLOCK_RECORD
  5
3E0
330
1
100
AcDbSymbolTableRecord
100
AcDbBlockTableRecord
  2
*D58
340
0
  0
BLOCK_RECORD
  5
3EE
330
1
100
AcDbSymbolTableRecord
100
AcDbBlockTableRecord
  2
*D59
340
0
  0
BLOCK_RECORD
  5
3FC
330
1
100
AcDbSymbolTableRecord
100
AcDbBlockTableRecord
  2
*D60
340
0
  0
BLOCK_RECORD
  5
40E
330
1
100
AcDbSymbolTableRecord
100
AcDbBlockTableRecord
  2
*D61
340
0
  0
BLOCK_RECORD
  5
41C
330
1
100
AcDbSymbolTableRecord
100
AcDbBlockTableRecord
  2
*D62
340
0
  0
BLOCK_RECORD
  5
433
330
1
100
AcDbSymbolTableRecord
100
AcDbBlockTableRecord
  2
*D63
340
0
  0
BLOCK_RECORD
  5
441
330
1
100
AcDbSymbolTableRecord
100
AcDbBlockTableRecord
  2
*D64
340
0
  0
BLOCK_RECORD
  5
45B
330
1
100
AcDbSymbolTableRecord
100
AcDbBlockTableRecord
  2
*D65
340
0
  0
BLOCK_RECORD
  5
48A
330
1
100
AcDbSymbolTableRecord
100
AcDbBlockTableRecord
  2
*D66
340
0
  0
BLOCK_RECORD
  5
498
330
1
100
AcDbSymbolTableRecord
100
AcDbBlockTableRecord
  2
*D67
340
0
  0
BLOCK_RECORD
  5
4A6
330
1
100
AcDbSymbolTableRecord
100
AcDbBlockTableRecord
  2
*D68
340
0
  0
BLOCK_RECORD
  5
4B4
330
1
100
AcDbSymbolTableRecord
100
AcDbBlockTableRecord
  2
*D69
340
0
  0
BLOCK_RECORD
  5
52C
330
1
100
AcDbSymbolTableRecord
100
AcDbBlockTableRecord
  2
*D70
340
0
  0
BLOCK_RECORD
  5
53A
330
1
100
AcDbSymbolTableRecord
100
AcDbBlockTableRecord
  2
*D71
340
0
  0
BLOCK_RECORD
  5
548
330
1
100
AcDbSymbolTableRecord
100
AcDbBlockTableRecord
  2
*D72
340
0
  0
BLOCK_RECORD
  5
556
330
1
100
AcDbSymbolTableRecord
100
AcDbBlockTableRecord
  2
*D73
340
0
  0
BLOCK_RECORD
  5
564
330
1
100
AcDbSymbolTableRecord
100
AcDbBlockTableRecord
  2
*D74
340
0
  0
BLOCK_RECORD
  5
572
330
1
100
AcDbSymbolTableRecord
100
AcDbBlockTableRecord
  2
*D75
340
0
  0
BLOCK_RECORD
  5
580
330
1
100
AcDbSymbolTableRecord
100
AcDbBlockTableRecord
  2
*D76
340
0
  0
BLOCK_RECORD
  5
58E
330
1
100
AcDbSymbolTableRecord
100
AcDbBlockTableRecord
  2
*D77
340
0
  0
BLOCK_RECORD
  5
59C
330
1
100
AcDbSymbolTableRecord
100
AcDbBlockTableRecord
  2
*D78
340
0
  0
BLOCK_RECORD
  5
5AA
330
1
100
AcDbSymbolTableRecord
100
AcDbBlockTableRecord
  2
*D79
340
0
  0
BLOCK_RECORD
  5
5C0
330
1
100
AcDbSymbolTableRecord
100
AcDbBlockTableRecord
  2
*D80
340
0
  0
BLOCK_RECORD
  5
5CE
330
1
100
AcDbSymbolTableRecord
100
AcDbBlockTableRecord
  2
*D81
340
0
  0
BLOCK_RECORD
  5
5DC
330
1
100
AcDbSymbolTableRecord
100
AcDbBlockTableRecord
  2
*D82
340
0
  0
BLOCK_RECORD
  5
5EA
330
1
100
AcDbSymbolTableRecord
100
AcDbBlockTableRecord
  2
*D83
340
0
  0
BLOCK_RECORD
  5
5F8
330
1
100
AcDbSymbolTableRecord
100
AcDbBlockTableRecord
  2
*D84
340
0
  0
BLOCK_RECORD
  5
606
330
1
100
AcDbSymbolTableRecord
100
AcDbBlockTableRecord
  2
*D85
340
0
  0
BLOCK_RECORD
  5
614
330
1
100
AcDbSymbolTableRecord
100
AcDbBlockTableRecord
  2
*D86
340
0
  0
BLOCK_RECORD
  5
622
330
1
100
AcDbSymbolTableRecord
100
AcDbBlockTableRecord
  2
*D87
340
0
  0
BLOCK_RECORD
  5
630
330
1
100
AcDbSymbolTableRecord
100
AcDbBlockTableRecord
  2
*D88
340
0
  0
BLOCK_RECORD
  5
63E
330
1
100
AcDbSymbolTableRecord
100
AcDbBlockTableRecord
  2
*D89
340
0
  0
ENDTAB
  0
ENDSEC
  0
SECTION
  2
BLOCKS
  0
BLOCK
  5
1F
330
1E
100
AcDbEntity
  8
0
100
AcDbBlockBegin
  2
*Model_Space
 70
     0
 10
0.0
 20
0.0
 30
0.0
  3
*Model_Space
  1

  0
ENDBLK
  5
20
330
1E
100
AcDbEntity
  8
0
100
AcDbBlockEnd
  0
BLOCK
  5
1B
330
1A
100
AcDbEntity
 67
     1
  8
0
100
AcDbBlockBegin
  2
*Paper_Space
 70
     0
 10
0.0
 20
0.0
 30
0.0
  3
*Paper_Space
  1

  0
ENDBLK
  5
1C
330
1A
100
AcDbEntity
 67
     1
  8
0
100
AcDbBlockEnd
  0
BLOCK
  5
335
330
32A
100
AcDbEntity
  8
0
100
AcDbBlockBegin
  2
*D45
 70
     1
 10
0.0
 20
0.0
 30
0.0
  3
*D45
  1

  0
LINE
  5
858
330
32A
100
AcDbEntity
  8
DIM
 62
     0
370
    -2
100
AcDbLine
 10
4.121389999999999
 20
22.497485
 30
0.0
 11
5.580014
 21
22.497485
 31
0.0
  0
LINE
  5
859
330
32A
100
AcDbEntity
  8
DIM
 62
     0
370
    -2
100
AcDbLine
 10
4.121389999999999
 20
21.997485
 30
0.0
 11
5.580013999999999
 21
21.997485
 31
0.0
  0
LINE
  5
85A
330
32A
100
AcDbEntity
  8
DIM
 62
     0
370
    -2
100
AcDbLine
 10
5.431214
 20
22.785485
 30
0.0
 11
5.431214
 21
23.073485
 31
0.0
  0
LINE
  5
85B
330
32A
100
AcDbEntity
  8
DIM
 62
     0
370
    -2
100
AcDbLine
 10
5.431213999999999
 20
21.709485
 30
0.0
 11
5.431213999999999
 21
21.421485
 31
0.0
  0
SOLID
  5
85C
330
32A
100
AcDbEntity
  8
DIM
 62
     0
100
AcDbTrace
 10
5.383214
 20
22.785485
 30
0.0
 11
5.479214
 21
22.785485
 31
0.0
 12
5.431214
 22
22.497485
 32
0.0
 13
5.431214
 23
22.497485
 33
0.0
  0
SOLID
  5
85D
330
32A
100
AcDbEntity
  8
DIM
 62
     0
100
AcDbTrace
 10
5.383213999999999
 20
21.709485
 30
0.0
 11
5.479213999999999
 21
21.709485
 31
0.0
 12
5.431213999999999
 22
21.997485
 32
0.0
 13
5.431213999999999
 23
21.997485
 33
0.0
  0
MTEXT
  5
85E
330
32A
100
AcDbEntity
  8
DIM
 62
     0
100
AcDbMText
 10
5.431213999999997
 20
22.247485
 30
0.0
 40
0.2
 41
0.0
 71
     5
 72
     1
  1
\A1;0.500
 73
     1
 44
1.0
  0
POINT
  5
85F
330
32A
100
AcDbEntity
  8
DEFPOINTS
 62
     0
100
AcDbPoint
 10
4.02139
 20
22.497485
 30
0.0
  0
POINT
  5
860
330
32A
100
AcDbEntity
  8
DEFPOINTS
 62
     0
100
AcDbPoint
 10
4.02139
 20
21.997485
 30
0.0
  0
POINT
  5
861
330
32A
100
AcDbEntity
  8
DEFPOINTS
 62
     0
100
AcDbPoint
 10
5.431213999999999
 20
21.997485
 30
0.0
  0
ENDBLK
  5
336
330
32A
100
AcDbEntity
  8
0
100
AcDbBlockEnd
  0
BLOCK
  5
343
330
338
100
AcDbEntity
  8
0
100
AcDbBlockBegin
  2
*D46
 70
     1
 10
0.0
 20
0.0
 30
0.0
  3
*D46
  1

  0
LINE
  5
844
330
338
100
AcDbEntity
  8
DIM
 62
     0
370
    -2
100
AcDbLine
 10
4.121389999999999
 20
21.997485
 30
0.0
 11
6.277024999999999
 21
21.997485
 31
0.0
  0
LINE
  5
845
330
338
100
AcDbEntity
  8
DIM
 62
     0
370
    -2
100
AcDbLine
 10
4.121389999999999
 20
21.372485
 30
0.0
 11
6.277024999999999
 21
21.372485
 31
0.0
  0
LINE
  5
846
330
338
100
AcDbEntity
  8
DIM
 62
     0
370
    -2
100
AcDbLine
 10
6.128225
 20
22.285485
 30
0.0
 11
6.128225
 21
22.573485
 31
0.0
  0
LINE
  5
847
330
338
100
AcDbEntity
  8
DIM
 62
     0
370
    -2
100
AcDbLine
 10
6.128224999999999
 20
21.084485
 30
0.0
 11
6.128224999999999
 21
20.796485
 31
0.0
  0
SOLID
  5
848
330
338
100
AcDbEntity
  8
DIM
 62
     0
100
AcDbTrace
 10
6.080225
 20
22.285485
 30
0.0
 11
6.176225
 21
22.285485
 31
0.0
 12
6.128224999999999
 22
21.997485
 32
0.0
 13
6.128224999999999
 23
21.997485
 33
0.0
  0
SOLID
  5
849
330
338
100
AcDbEntity
  8
DIM
 62
     0
100
AcDbTrace
 10
6.080224999999999
 20
21.084485
 30
0.0
 11
6.176224999999999
 21
21.084485
 31
0.0
 12
6.128224999999999
 22
21.372485
 32
0.0
 13
6.128224999999999
 23
21.372485
 33
0.0
  0
MTEXT
  5
84A
330
338
100
AcDbEntity
  8
DIM
 62
     0
100
AcDbMText
 10
6.128224999999996
 20
21.684985
 30
0.0
 40
0.2
 41
0.0
 71
     5
 72
     1
  1
\A1;0.625
 73
     1
 44
1.0
  0
POINT
  5
84B
330
338
100
AcDbEntity
  8
DEFPOINTS
 62
     0
100
AcDbPoint
 10
4.02139
 20
21.997485
 30
0.0
  0
POINT
  5
84C
330
338
100
AcDbEntity
  8
DEFPOINTS
 62
     0
100
AcDbPoint
 10
4.02139
 20
21.372485
 30
0.0
  0
POINT
  5
84D
330
338
100
AcDbEntity
  8
DEFPOINTS
 62
     0
100
AcDbPoint
 10
6.128224999999999
 20
21.372485
 30
0.0
  0
ENDBLK
  5
344
330
338
100
AcDbEntity
  8
0
100
AcDbBlockEnd
  0
BLOCK
  5
351
330
346
100
AcDbEntity
  8
0
100
AcDbBlockBegin
  2
*D47
 70
     1
 10
0.0
 20
0.0
 30
0.0
  3
*D47
  1

  0
LINE
  5
75E
330
346
100
AcDbEntity
  8
DIM
 62
     0
370
    -2
100
AcDbLine
 10
15.725542
 20
27.45144299999999
 30
0.0
 11
17.66951099999999
 21
27.45144299999999
 31
0.0
  0
LINE
  5
75F
330
346
100
AcDbEntity
  8
DIM
 62
     0
370
    -2
100
AcDbLine
 10
16.990542
 20
27.101443
 30
0.0
 11
17.66951099999999
 21
27.101443
 31
0.0
  0
LINE
  5
760
330
346
100
AcDbEntity
  8
DIM
 62
     0
370
    -2
100
AcDbLine
 10
17.520711
 20
27.739443
 30
0.0
 11
17.520711
 21
28.027443
 31
0.0
  0
LINE
  5
761
330
346
100
AcDbEntity
  8
DIM
 62
     0
370
    -2
100
AcDbLine
 10
17.520711
 20
26.813443
 30
0.0
 11
17.520711
 21
26.525443
 31
0.0
  0
SOLID
  5
762
330
346
100
AcDbEntity
  8
DIM
 62
     0
100
AcDbTrace
 10
17.472711
 20
27.739443
 30
0.0
 11
17.56871099999999
 21
27.739443
 31
0.0
 12
17.520711
 22
27.45144299999999
 32
0.0
 13
17.520711
 23
27.45144299999999
 33
0.0
  0
SOLID
  5
763
330
346
100
AcDbEntity
  8
DIM
 62
     0
100
AcDbTrace
 10
17.472711
 20
26.813443
 30
0.0
 11
17.56871099999999
 21
26.813443
 31
0.0
 12
17.520711
 22
27.101443
 32
0.0
 13
17.520711
 23
27.101443
 33
0.0
  0
MTEXT
  5
764
330
346
100
AcDbEntity
  8
DIM
 62
     0
100
AcDbMText
 10
17.52071099999999
 20
27.276443
 30
0.0
 40
0.2
 41
0.0
 71
     5
 72
     1
  1
\A1;0.350
 73
     1
 44
1.0
  0
POINT
  5
765
330
346
100
AcDbEntity
  8
DEFPOINTS
 62
     0
100
AcDbPoint
 10
15.625542
 20
27.45144299999999
 30
0.0
  0
POINT
  5
766
330
346
100
AcDbEntity
  8
DEFPOINTS
 62
     0
100
AcDbPoint
 10
16.890542
 20
27.101443
 30
0.0
  0
POINT
  5
767
330
346
100
AcDbEntity
  8
DEFPOINTS
 62
     0
100
AcDbPoint
 10
17.520711
 20
27.101443
 30
0.0
  0
ENDBLK
  5
352
330
346
100
AcDbEntity
  8
0
100
AcDbBlockEnd
  0
BLOCK
  5
35F
330
354
100
AcDbEntity
  8
0
100
AcDbBlockBegin
  2
*D48
 70
     1
 10
0.0
 20
0.0
 30
0.0
  3
*D48
  1

  0
LINE
  5
84E
330
354
100
AcDbEntity
  8
DIM
 62
     0
370
    -2
100
AcDbLine
 10
4.121389999999999
 20
22.497485
 30
0.0
 11
4.941468999999999
 21
22.497485
 31
0.0
  0
LINE
  5
84F
330
354
100
AcDbEntity
  8
DIM
 62
     0
370
    -2
100
AcDbLine
 10
4.121389999999999
 20
23.122485
 30
0.0
 11
4.941468999999999
 21
23.122485
 31
0.0
  0
LINE
  5
850
330
354
100
AcDbEntity
  8
DIM
 62
     0
370
    -2
100
AcDbLine
 10
4.792669
 20
22.20948499999999
 30
0.0
 11
4.792668999999999
 21
21.921485
 31
0.0
  0
LINE
  5
851
330
354
100
AcDbEntity
  8
DIM
 62
     0
370
    -2
100
AcDbLine
 10
4.792669
 20
23.410485
 30
0.0
 11
4.792669
 21
23.698485
 31
0.0
  0
SOLID
  5
852
330
354
100
AcDbEntity
  8
DIM
 62
     0
100
AcDbTrace
 10
4.744669
 20
22.20948499999999
 30
0.0
 11
4.840669
 21
22.20948499999999
 31
0.0
 12
4.792669
 22
22.497485
 32
0.0
 13
4.792669
 23
22.497485
 33
0.0
  0
SOLID
  5
853
330
354
100
AcDbEntity
  8
DIM
 62
     0
100
AcDbTrace
 10
4.744669
 20
23.410485
 30
0.0
 11
4.840669
 21
23.410485
 31
0.0
 12
4.792669
 22
23.122485
 32
0.0
 13
4.792669
 23
23.122485
 33
0.0
  0
MTEXT
  5
854
330
354
100
AcDbEntity
  8
DIM
 62
     0
100
AcDbMText
 10
4.792668999999996
 20
22.809985
 30
0.0
 40
0.2
 41
0.0
 71
     5
 72
     1
  1
\A1;0.625
 73
     1
 44
1.0
  0
POINT
  5
855
330
354
100
AcDbEntity
  8
DEFPOINTS
 62
     0
100
AcDbPoint
 10
4.02139
 20
22.497485
 30
0.0
  0
POINT
  5
856
330
354
100
AcDbEntity
  8
DEFPOINTS
 62
     0
100
AcDbPoint
 10
4.02139
 20
23.122485
 30
0.0
  0
POINT
  5
857
330
354
100
AcDbEntity
  8
DEFPOINTS
 62
     0
100
AcDbPoint
 10
4.792669
 20
23.122485
 30
0.0
  0
ENDBLK
  5
360
330
354
100
AcDbEntity
  8
0
100
AcDbBlockEnd
  0
BLOCK
  5
36D
330
362
100
AcDbEntity
  8
0
100
AcDbBlockBegin
  2
*D49
 70
     1
 10
0.0
 20
0.0
 30
0.0
  3
*D49
  1

  0
LINE
  5
65F
330
362
100
AcDbEntity
  8
DIM
 62
     0
370
    -2
100
AcDbLine
 10
3.06759
 20
21.552485
 30
0.0
 11
2.117129999999999
 21
21.552485
 31
0.0
  0
LINE
  5
660
330
362
100
AcDbEntity
  8
DIM
 62
     0
370
    -2
100
AcDbLine
 10
3.06759
 20
22.942485
 30
0.0
 11
2.117129999999999
 21
22.942485
 31
0.0
  0
LINE
  5
661
330
362
100
AcDbEntity
  8
DIM
 62
     0
370
    -2
100
AcDbLine
 10
2.265929999999999
 20
21.840485
 30
0.0
 11
2.265929999999999
 21
22.003485
 31
0.0
  0
LINE
  5
662
330
362
100
AcDbEntity
  8
DIM
 62
     0
370
    -2
100
AcDbLine
 10
2.265929999999999
 20
22.654485
 30
0.0
 11
2.265929999999999
 21
22.49148499999999
 31
0.0
  0
SOLID
  5
663
330
362
100
AcDbEntity
  8
DIM
 62
     0
100
AcDbTrace
 10
2.217929999999999
 20
21.840485
 30
0.0
 11
2.31393
 21
21.840485
 31
0.0
 12
2.265929999999999
 22
21.552485
 32
0.0
 13
2.265929999999999
 23
21.552485
 33
0.0
  0
SOLID
  5
664
330
362
100
AcDbEntity
  8
DIM
 62
     0
100
AcDbTrace
 10
2.217929999999999
 20
22.654485
 30
0.0
 11
2.31393
 21
22.654485
 31
0.0
 12
2.265929999999999
 22
22.942485
 32
0.0
 13
2.265929999999999
 23
22.942485
 33
0.0
  0
MTEXT
  5
665
330
362
100
AcDbEntity
  8
DIM
 62
     0
100
AcDbMText
 10
2.265929999999996
 20
22.247485
 30
0.0
 40
0.2
 41
0.0
 71
     5
 72
     1
  1
\A1;1.390
 73
     1
 44
1.0
  0
POINT
  5
666
330
362
100
AcDbEntity
  8
DEFPOINTS
 62
     0
100
AcDbPoint
 10
3.16839
 20
21.552485
 30
0.0
  0
POINT
  5
667
330
362
100
AcDbEntity
  8
DEFPOINTS
 62
     0
100
AcDbPoint
 10
3.16839
 20
22.942485
 30
0.0
  0
POINT
  5
668
330
362
100
AcDbEntity
  8
DEFPOINTS
 62
     0
100
AcDbPoint
 10
2.265929999999999
 20
22.942485
 30
0.0
  0
ENDBLK
  5
36E
330
362
100
AcDbEntity
  8
0
100
AcDbBlockEnd
  0
BLOCK
  5
37B
330
370
100
AcDbEntity
  8
0
100
AcDbBlockBegin
  2
*D50
 70
     1
 10
0.0
 20
0.0
 30
0.0
  3
*D50
  1

  0
LINE
  5
772
330
370
100
AcDbEntity
  8
DIM
 62
     0
370
    -2
100
AcDbLine
 10
3.068389999999999
 20
22.942485
 30
0.0
 11
2.600109999999999
 21
22.942485
 31
0.0
  0
LINE
  5
773
330
370
100
AcDbEntity
  8
DIM
 62
     0
370
    -2
100
AcDbLine
 10
3.41839
 20
23.997485
 30
0.0
 11
2.600109999999999
 21
23.997485
 31
0.0
  0
LINE
  5
774
330
370
100
AcDbEntity
  8
DIM
 62
     0
370
    -2
100
AcDbLine
 10
2.748909999999999
 20
22.654485
 30
0.0
 11
2.748909999999999
 21
22.366485
 31
0.0
  0
LINE
  5
775
330
370
100
AcDbEntity
  8
DIM
 62
     0
370
    -2
100
AcDbLine
 10
2.748909999999999
 20
24.285485
 30
0.0
 11
2.748909999999999
 21
24.573485
 31
0.0
  0
SOLID
  5
776
330
370
100
AcDbEntity
  8
DIM
 62
     0
100
AcDbTrace
 10
2.700909999999999
 20
22.654485
 30
0.0
 11
2.796909999999999
 21
22.654485
 31
0.0
 12
2.748909999999999
 22
22.942485
 32
0.0
 13
2.748909999999999
 23
22.942485
 33
0.0
  0
SOLID
  5
777
330
370
100
AcDbEntity
  8
DIM
 62
     0
100
AcDbTrace
 10
2.700909999999999
 20
24.285485
 30
0.0
 11
2.79691
 21
24.285485
 31
0.0
 12
2.748909999999999
 22
23.997485
 32
0.0
 13
2.748909999999999
 23
23.997485
 33
0.0
  0
MTEXT
  5
778
330
370
100
AcDbEntity
  8
DIM
 62
     0
100
AcDbMText
 10
2.748909999999995
 20
23.469985
 30
0.0
 40
0.2
 41
0.0
 71
     5
 72
     1
  1
\A1;1.055
 73
     1
 44
1.0
  0
POINT
  5
779
330
370
100
AcDbEntity
  8
DEFPOINTS
 62
     0
100
AcDbPoint
 10
3.16839
 20
22.942485
 30
0.0
  0
POINT
  5
77A
330
370
100
AcDbEntity
  8
DEFPOINTS
 62
     0
100
AcDbPoint
 10
3.51839
 20
23.997485
 30
0.0
  0
POINT
  5
77B
330
370
100
AcDbEntity
  8
DEFPOINTS
 62
     0
100
AcDbPoint
 10
2.748909999999999
 20
23.997485
 30
0.0
  0
ENDBLK
  5
37C
330
370
100
AcDbEntity
  8
0
100
AcDbBlockEnd
  0
BLOCK
  5
389
330
37E
100
AcDbEntity
  8
0
100
AcDbBlockBegin
  2
*D51
 70
     1
 10
0.0
 20
0.0
 30
0.0
  3
*D51
  1

  0
LINE
  5
83A
330
37E
100
AcDbEntity
  8
DIM
 62
     0
370
    -2
100
AcDbLine
 10
4.02139
 20
21.271685
 30
0.0
 11
4.02139
 21
19.931625
 31
0.0
  0
LINE
  5
83B
330
37E
100
AcDbEntity
  8
DIM
 62
     0
370
    -2
100
AcDbLine
 10
4.081389999999999
 20
20.958685
 30
0.0
 11
4.081389999999999
 21
19.931625
 31
0.0
  0
LINE
  5
83C
330
37E
100
AcDbEntity
  8
DIM
 62
     0
370
    -2
100
AcDbLine
 10
3.73339
 20
20.080425
 30
0.0
 11
3.44539
 21
20.080425
 31
0.0
  0
LINE
  5
83D
330
37E
100
AcDbEntity
  8
DIM
 62
     0
370
    -2
100
AcDbLine
 10
4.36939
 20
20.080425
 30
0.0
 11
4.657389999999999
 21
20.080425
 31
0.0
  0
SOLID
  5
83E
330
37E
100
AcDbEntity
  8
DIM
 62
     0
100
AcDbTrace
 10
3.73339
 20
20.128425
 30
0.0
 11
3.73339
 21
20.032425
 31
0.0
 12
4.02139
 22
20.080425
 32
0.0
 13
4.02139
 23
20.080425
 33
0.0
  0
SOLID
  5
83F
330
37E
100
AcDbEntity
  8
DIM
 62
     0
100
AcDbTrace
 10
4.36939
 20
20.128425
 30
0.0
 11
4.36939
 21
20.032425
 31
0.0
 12
4.081389999999999
 22
20.080425
 32
0.0
 13
4.081389999999999
 23
20.080425
 33
0.0
  0
MTEXT
  5
840
330
37E
100
AcDbEntity
  8
DIM
 62
     0
100
AcDbMText
 10
5.063889999999999
 20
20.080425
 30
0.0
 40
0.2
 41
0.0
 71
     5
 72
     1
  1
\A1;0.060
 73
     1
 44
1.0
  0
POINT
  5
841
330
37E
100
AcDbEntity
  8
DEFPOINTS
 62
     0
100
AcDbPoint
 10
4.02139
 20
21.372485
 30
0.0
  0
POINT
  5
842
330
37E
100
AcDbEntity
  8
DEFPOINTS
 62
     0
100
AcDbPoint
 10
4.081389999999999
 20
21.059485
 30
0.0
  0
POINT
  5
843
330
37E
100
AcDbEntity
  8
DEFPOINTS
 62
     0
100
AcDbPoint
 10
4.081389999999999
 20
20.080425
 30
0.0
  0
ENDBLK
  5
38A
330
37E
100
AcDbEntity
  8
0
100
AcDbBlockEnd
  0
BLOCK
  5
397
330
38C
100
AcDbEntity
  8
0
100
AcDbBlockBegin
  2
*D52
 70
     1
 10
0.0
 20
0.0
 30
0.0
  3
*D52
  1

  0
LINE
  5
830
330
38C
100
AcDbEntity
  8
DIM
 62
     0
370
    -2
100
AcDbLine
 10
3.51839
 20
20.396685
 30
0.0
 11
3.51839
 21
19.47339799999999
 31
0.0
  0
LINE
  5
831
330
38C
100
AcDbEntity
  8
DIM
 62
     0
370
    -2
100
AcDbLine
 10
4.081389999999999
 20
20.958685
 30
0.0
 11
4.081389999999999
 21
19.47339799999999
 31
0.0
  0
LINE
  5
832
330
38C
100
AcDbEntity
  8
DIM
 62
     0
370
    -2
100
AcDbLine
 10
3.23039
 20
19.622198
 30
0.0
 11
2.942389999999999
 21
19.622198
 31
0.0
  0
LINE
  5
833
330
38C
100
AcDbEntity
  8
DIM
 62
     0
370
    -2
100
AcDbLine
 10
4.36939
 20
19.622198
 30
0.0
 11
4.65739
 21
19.622198
 31
0.0
  0
SOLID
  5
834
330
38C
100
AcDbEntity
  8
DIM
 62
     0
100
AcDbTrace
 10
3.23039
 20
19.670198
 30
0.0
 11
3.23039
 21
19.574198
 31
0.0
 12
3.51839
 22
19.622198
 32
0.0
 13
3.51839
 23
19.622198
 33
0.0
  0
SOLID
  5
835
330
38C
100
AcDbEntity
  8
DIM
 62
     0
100
AcDbTrace
 10
4.36939
 20
19.670198
 30
0.0
 11
4.36939
 21
19.574198
 31
0.0
 12
4.081389999999999
 22
19.622198
 32
0.0
 13
4.081389999999999
 23
19.622198
 33
0.0
  0
MTEXT
  5
836
330
38C
100
AcDbEntity
  8
DIM
 62
     0
100
AcDbMText
 10
5.08889
 20
19.622198
 30
0.0
 40
0.2
 41
0.0
 71
     5
 72
     1
  1
\A1;0.563
 73
     1
 44
1.0
  0
POINT
  5
837
330
38C
100
AcDbEntity
  8
DEFPOINTS
 62
     0
100
AcDbPoint
 10
3.51839
 20
20.497485
 30
0.0
  0
POINT
  5
838
330
38C
100
AcDbEntity
  8
DEFPOINTS
 62
     0
100
AcDbPoint
 10
4.081389999999999
 20
21.059485
 30
0.0
  0
POINT
  5
839
330
38C
100
AcDbEntity
  8
DEFPOINTS
 62
     0
100
AcDbPoint
 10
4.081389999999999
 20
19.622198
 30
0.0
  0
ENDBLK
  5
398
330
38C
100
AcDbEntity
  8
0
100
AcDbBlockEnd
  0
BLOCK
  5
3A5
330
39A
100
AcDbEntity
  8
0
100
AcDbBlockBegin
  2
*D53
 70
     1
 10
0.0
 20
0.0
 30
0.0
  3
*D53
  1

  0
LINE
  5
67D
330
39A
100
AcDbEntity
  8
DIM
 62
     0
370
    -2
100
AcDbLine
 10
16.786342
 20
23.747485
 30
0.0
 11
17.753394
 21
23.747485
 31
0.0
  0
LINE
  5
67E
330
39A
100
AcDbEntity
  8
DIM
 62
     0
370
    -2
100
AcDbLine
 10
16.804342
 20
23.997485
 30
0.0
 11
17.753394
 21
23.997485
 31
0.0
  0
LINE
  5
67F
330
39A
100
AcDbEntity
  8
DIM
 62
     0
370
    -2
100
AcDbLine
 10
17.604594
 20
23.45948499999999
 30
0.0
 11
17.604594
 21
23.171485
 31
0.0
  0
LINE
  5
680
330
39A
100
AcDbEntity
  8
DIM
 62
     0
370
    -2
100
AcDbLine
 10
17.604594
 20
24.285485
 30
0.0
 11
17.604594
 21
24.573485
 31
0.0
  0
LINE
  5
681
330
39A
100
AcDbEntity
  8
DIM
 62
     0
370
    -2
100
AcDbLine
 10
17.604594
 20
24.573485
 30
0.0
 11
17.892594
 21
24.573485
 31
0.0
  0
SOLID
  5
682
330
39A
100
AcDbEntity
  8
DIM
 62
     0
100
AcDbTrace
 10
17.556594
 20
23.45948499999999
 30
0.0
 11
17.65259399999999
 21
23.45948499999999
 31
0.0
 12
17.604594
 22
23.747485
 32
0.0
 13
17.604594
 23
23.747485
 33
0.0
  0
SOLID
  5
683
330
39A
100
AcDbEntity
  8
DIM
 62
     0
100
AcDbTrace
 10
17.556594
 20
24.285485
 30
0.0
 11
17.652594
 21
24.285485
 31
0.0
 12
17.604594
 22
23.997485
 32
0.0
 13
17.604594
 23
23.997485
 33
0.0
  0
MTEXT
  5
684
330
39A
100
AcDbEntity
  8
DIM
 62
     0
100
AcDbMText
 10
18.31159399999999
 20
24.573485
 30
0.0
 40
0.2
 41
0.0
 71
     5
 72
     1
  1
\A1;0.250
 73
     1
 44
1.0
  0
POINT
  5
685
330
39A
100
AcDbEntity
  8
DEFPOINTS
 62
     0
100
AcDbPoint
 10
16.685542
 20
23.747485
 30
0.0
  0
POINT
  5
686
330
39A
100
AcDbEntity
  8
DEFPOINTS
 62
     0
100
AcDbPoint
 10
16.703542
 20
23.997485
 30
0.0
  0
POINT
  5
687
330
39A
100
AcDbEntity
  8
DEFPOINTS
 62
     0
100
AcDbPoint
 10
17.604594
 20
23.997485
 30
0.0
  0
ENDBLK
  5
3A6
330
39A
100
AcDbEntity
  8
0
100
AcDbBlockEnd
  0
BLOCK
  5
3B3
330
3A8
100
AcDbEntity
  8
0
100
AcDbBlockBegin
  2
*D54
 70
     1
 10
0.0
 20
0.0
 30
0.0
  3
*D54
  1

  0
LINE
  5
688
330
3A8
100
AcDbEntity
  8
DIM
 62
     0
370
    -2
100
AcDbLine
 10
16.81134199999999
 20
22.247485
 30
0.0
 11
18.515003
 21
22.247485
 31
0.0
  0
LINE
  5
689
330
3A8
100
AcDbEntity
  8
DIM
 62
     0
370
    -2
100
AcDbLine
 10
16.804342
 20
23.997485
 30
0.0
 11
18.515003
 21
23.997485
 31
0.0
  0
LINE
  5
68A
330
3A8
100
AcDbEntity
  8
DIM
 62
     0
370
    -2
100
AcDbLine
 10
18.36620299999999
 20
22.535485
 30
0.0
 11
18.36620299999999
 21
22.878485
 31
0.0
  0
LINE
  5
68B
330
3A8
100
AcDbEntity
  8
DIM
 62
     0
370
    -2
100
AcDbLine
 10
18.36620299999999
 20
23.709485
 30
0.0
 11
18.36620299999999
 21
23.366485
 31
0.0
  0
SOLID
  5
68C
330
3A8
100
AcDbEntity
  8
DIM
 62
     0
100
AcDbTrace
 10
18.318203
 20
22.535485
 30
0.0
 11
18.41420299999999
 21
22.535485
 31
0.0
 12
18.36620299999999
 22
22.247485
 32
0.0
 13
18.36620299999999
 23
22.247485
 33
0.0
  0
SOLID
  5
68D
330
3A8
100
AcDbEntity
  8
DIM
 62
     0
100
AcDbTrace
 10
18.318203
 20
23.709485
 30
0.0
 11
18.41420299999999
 21
23.709485
 31
0.0
 12
18.36620299999999
 22
23.997485
 32
0.0
 13
18.36620299999999
 23
23.997485
 33
0.0
  0
MTEXT
  5
68E
330
3A8
100
AcDbEntity
  8
DIM
 62
     0
100
AcDbMText
 10
18.36620299999999
 20
23.122485
 30
0.0
 40
0.2
 41
0.0
 71
     5
 72
     1
  1
\A1;1.750
 73
     1
 44
1.0
  0
POINT
  5
68F
330
3A8
100
AcDbEntity
  8
DEFPOINTS
 62
     0
100
AcDbPoint
 10
16.710542
 20
22.247485
 30
0.0
  0
POINT
  5
690
330
3A8
100
AcDbEntity
  8
DEFPOINTS
 62
     0
100
AcDbPoint
 10
16.703542
 20
23.997485
 30
0.0
  0
POINT
  5
691
330
3A8
100
AcDbEntity
  8
DEFPOINTS
 62
     0
100
AcDbPoint
 10
18.36620299999999
 20
23.997485
 30
0.0
  0
ENDBLK
  5
3B4
330
3A8
100
AcDbEntity
  8
0
100
AcDbBlockEnd
  0
BLOCK
  5
3C1
330
3B6
100
AcDbEntity
  8
0
100
AcDbBlockBegin
  2
*D55
 70
     1
 10
0.0
 20
0.0
 30
0.0
  3
*D55
  1

  0
LINE
  5
86D
330
3B6
100
AcDbEntity
  8
DIM
 62
     0
370
    -2
100
AcDbLine
 10
10.162742
 20
23.997485
 30
0.0
 11
8.587892
 21
23.997485
 31
0.0
  0
LINE
  5
86E
330
3B6
100
AcDbEntity
  8
DIM
 62
     0
370
    -2
100
AcDbLine
 10
10.162742
 20
20.497485
 30
0.0
 11
8.587892
 21
20.497485
 31
0.0
  0
LINE
  5
86F
330
3B6
100
AcDbEntity
  8
DIM
 62
     0
370
    -2
100
AcDbLine
 10
8.736691999999999
 20
23.709485
 30
0.0
 11
8.736691999999999
 21
22.49148499999999
 31
0.0
  0
LINE
  5
870
330
3B6
100
AcDbEntity
  8
DIM
 62
     0
370
    -2
100
AcDbLine
 10
8.736691999999999
 20
20.785485
 30
0.0
 11
8.736691999999999
 21
22.003485
 31
0.0
  0
SOLID
  5
871
330
3B6
100
AcDbEntity
  8
DIM
 62
     0
100
AcDbTrace
 10
8.688691999999999
 20
23.709485
 30
0.0
 11
8.784691999999999
 21
23.709485
 31
0.0
 12
8.736691999999999
 22
23.997485
 32
0.0
 13
8.736691999999999
 23
23.997485
 33
0.0
  0
SOLID
  5
872
330
3B6
100
AcDbEntity
  8
DIM
 62
     0
100
AcDbTrace
 10
8.688691999999999
 20
20.785485
 30
0.0
 11
8.784691999999999
 21
20.785485
 31
0.0
 12
8.736691999999999
 22
20.497485
 32
0.0
 13
8.736691999999999
 23
20.497485
 33
0.0
  0
MTEXT
  5
873
330
3B6
100
AcDbEntity
  8
DIM
 62
     0
100
AcDbMText
 10
8.736691999999996
 20
22.247485
 30
0.0
 40
0.2
 41
0.0
 71
     5
 72
     1
  1
\A1;3.500
 73
     1
 44
1.0
  0
POINT
  5
874
330
3B6
100
AcDbEntity
  8
DEFPOINTS
 62
     0
100
AcDbPoint
 10
10.26354199999999
 20
23.997485
 30
0.0
  0
POINT
  5
875
330
3B6
100
AcDbEntity
  8
DEFPOINTS
 62
     0
100
AcDbPoint
 10
10.26354199999999
 20
20.497485
 30
0.0
  0
POINT
  5
876
330
3B6
100
AcDbEntity
  8
DEFPOINTS
 62
     0
100
AcDbPoint
 10
8.736691999999999
 20
20.497485
 30
0.0
  0
ENDBLK
  5
3C2
330
3B6
100
AcDbEntity
  8
0
100
AcDbBlockEnd
  0
BLOCK
  5
3CF
330
3C4
100
AcDbEntity
  8
0
100
AcDbBlockBegin
  2
*D56
 70
     1
 10
0.0
 20
0.0
 30
0.0
  3
*D56
  1

  0
LINE
  5
69C
330
3C4
100
AcDbEntity
  8
DIM
 62
     0
370
    -2
100
AcDbLine
 10
16.786342
 20
20.747485
 30
0.0
 11
18.595174
 21
20.747485
 31
0.0
  0
LINE
  5
69D
330
3C4
100
AcDbEntity
  8
DIM
 62
     0
370
    -2
100
AcDbLine
 10
16.804342
 20
20.497485
 30
0.0
 11
18.595174
 21
20.497485
 31
0.0
  0
LINE
  5
69E
330
3C4
100
AcDbEntity
  8
DIM
 62
     0
370
    -2
100
AcDbLine
 10
18.44637399999999
 20
21.035485
 30
0.0
 11
18.44637399999999
 21
21.323485
 31
0.0
  0
LINE
  5
69F
330
3C4
100
AcDbEntity
  8
DIM
 62
     0
370
    -2
100
AcDbLine
 10
18.44637399999999
 20
20.209485
 30
0.0
 11
18.44637399999999
 21
19.921485
 31
0.0
  0
LINE
  5
6A0
330
3C4
100
AcDbEntity
  8
DIM
 62
     0
370
    -2
100
AcDbLine
 10
18.44637399999999
 20
19.921485
 30
0.0
 11
18.15837399999999
 21
19.921485
 31
0.0
  0
SOLID
  5
6A1
330
3C4
100
AcDbEntity
  8
DIM
 62
     0
100
AcDbTrace
 10
18.398374
 20
21.035485
 30
0.0
 11
18.49437399999999
 21
21.035485
 31
0.0
 12
18.44637399999999
 22
20.747485
 32
0.0
 13
18.44637399999999
 23
20.747485
 33
0.0
  0
SOLID
  5
6A2
330
3C4
100
AcDbEntity
  8
DIM
 62
     0
100
AcDbTrace
 10
18.398374
 20
20.209485
 30
0.0
 11
18.49437399999999
 21
20.209485
 31
0.0
 12
18.44637399999999
 22
20.497485
 32
0.0
 13
18.44637399999999
 23
20.497485
 33
0.0
  0
MTEXT
  5
6A3
330
3C4
100
AcDbEntity
  8
DIM
 62
     0
100
AcDbMText
 10
17.73937399999999
 20
19.921485
 30
0.0
 40
0.2
 41
0.0
 71
     5
 72
     1
  1
\A1;0.250
 73
     1
 44
1.0
  0
POINT
  5
6A4
330
3C4
100
AcDbEntity
  8
DEFPOINTS
 62
     0
100
AcDbPoint
 10
16.685542
 20
20.747485
 30
0.0
  0
POINT
  5
6A5
330
3C4
100
AcDbEntity
  8
DEFPOINTS
 62
     0
100
AcDbPoint
 10
16.703542
 20
20.497485
 30
0.0
  0
POINT
  5
6A6
330
3C4
100
AcDbEntity
  8
DEFPOINTS
 62
     0
100
AcDbPoint
 10
18.44637399999999
 20
20.497485
 30
0.0
  0
ENDBLK
  5
3D0
330
3C4
100
AcDbEntity
  8
0
100
AcDbBlockEnd
  0
BLOCK
  5
3DD
330
3D2
100
AcDbEntity
  8
0
100
AcDbBlockBegin
  2
*D57
 70
     1
 10
0.0
 20
0.0
 30
0.0
  3
*D57
  1

  0
LINE
  5
77C
330
3D2
100
AcDbEntity
  8
DIM
 62
     0
370
    -2
100
AcDbLine
 10
11.14054199999999
 20
20.522485
 30
0.0
 11
11.14054199999999
 21
19.73527799999999
 31
0.0
  0
LINE
  5
77D
330
3D2
100
AcDbEntity
  8
DIM
 62
     0
370
    -2
100
AcDbLine
 10
12.76054199999999
 20
20.522485
 30
0.0
 11
12.76054199999999
 21
19.73527799999999
 31
0.0
  0
LINE
  5
77E
330
3D2
100
AcDbEntity
  8
DIM
 62
     0
370
    -2
100
AcDbLine
 10
10.852542
 20
19.884078
 30
0.0
 11
10.56454199999999
 21
19.884078
 31
0.0
  0
LINE
  5
77F
330
3D2
100
AcDbEntity
  8
DIM
 62
     0
370
    -2
100
AcDbLine
 10
13.048542
 20
19.884078
 30
0.0
 11
13.336542
 21
19.884078
 31
0.0
  0
SOLID
  5
780
330
3D2
100
AcDbEntity
  8
DIM
 62
     0
100
AcDbTrace
 10
10.852542
 20
19.93207799999999
 30
0.0
 11
10.852542
 21
19.836078
 31
0.0
 12
11.14054199999999
 22
19.884078
 32
0.0
 13
11.14054199999999
 23
19.884078
 33
0.0
  0
SOLID
  5
781
330
3D2
100
AcDbEntity
  8
DIM
 62
     0
100
AcDbTrace
 10
13.048542
 20
19.93207799999999
 30
0.0
 11
13.048542
 21
19.836078
 31
0.0
 12
12.76054199999999
 22
19.884078
 32
0.0
 13
12.76054199999999
 23
19.884078
 33
0.0
  0
MTEXT
  5
782
330
3D2
100
AcDbEntity
  8
DIM
 62
     0
100
AcDbMText
 10
11.95054199999999
 20
19.884078
 30
0.0
 40
0.2
 41
0.0
 71
     5
 72
     1
  1
\A1;1.620
 73
     1
 44
1.0
  0
POINT
  5
783
330
3D2
100
AcDbEntity
  8
DEFPOINTS
 62
     0
100
AcDbPoint
 10
11.14054199999999
 20
20.622485
 30
0.0
  0
POINT
  5
784
330
3D2
100
AcDbEntity
  8
DEFPOINTS
 62
     0
100
AcDbPoint
 10
12.76054199999999
 20
20.622485
 30
0.0
  0
POINT
  5
785
330
3D2
100
AcDbEntity
  8
DEFPOINTS
 62
     0
100
AcDbPoint
 10
12.76054199999999
 20
19.884078
 30
0.0
  0
ENDBLK
  5
3DE
330
3D2
100
AcDbEntity
  8
0
100
AcDbBlockEnd
  0
BLOCK
  5
3EB
330
3E0
100
AcDbEntity
  8
0
100
AcDbBlockBegin
  2
*D58
 70
     1
 10
0.0
 20
0.0
 30
0.0
  3
*D58
  1

  0
LINE
  5
6A7
330
3E0
100
AcDbEntity
  8
DIM
 62
     0
370
    -2
100
AcDbLine
 10
11.14054199999999
 20
20.521685
 30
0.0
 11
11.14054199999999
 21
19.27184699999999
 31
0.0
  0
LINE
  5
6A8
330
3E0
100
AcDbEntity
  8
DIM
 62
     0
370
    -2
100
AcDbLine
 10
14.380542
 20
20.521685
 30
0.0
 11
14.380542
 21
19.27184699999999
 31
0.0
  0
LINE
  5
6A9
330
3E0
100
AcDbEntity
  8
DIM
 62
     0
370
    -2
100
AcDbLine
 10
11.428542
 20
19.42064699999999
 30
0.0
 11
12.329042
 21
19.42064699999999
 31
0.0
  0
LINE
  5
6AA
330
3E0
100
AcDbEntity
  8
DIM
 62
     0
370
    -2
100
AcDbLine
 10
14.092542
 20
19.42064699999999
 30
0.0
 11
13.192042
 21
19.42064699999999
 31
0.0
  0
SOLID
  5
6AB
330
3E0
100
AcDbEntity
  8
DIM
 62
     0
100
AcDbTrace
 10
11.428542
 20
19.46864699999999
 30
0.0
 11
11.428542
 21
19.372647
 31
0.0
 12
11.14054199999999
 22
19.42064699999999
 32
0.0
 13
11.14054199999999
 23
19.42064699999999
 33
0.0
  0
SOLID
  5
6AC
330
3E0
100
AcDbEntity
  8
DIM
 62
     0
100
AcDbTrace
 10
14.092542
 20
19.46864699999999
 30
0.0
 11
14.092542
 21
19.372647
 31
0.0
 12
14.380542
 22
19.42064699999999
 32
0.0
 13
14.380542
 23
19.42064699999999
 33
0.0
  0
MTEXT
  5
6AD
330
3E0
100
AcDbEntity
  8
DIM
 62
     0
100
AcDbMText
 10
12.760542
 20
19.42064699999999
 30
0.0
 40
0.2
 41
0.0
 71
     5
 72
     1
  1
\A1;3.240
 73
     1
 44
1.0
  0
POINT
  5
6AE
330
3E0
100
AcDbEntity
  8
DEFPOINTS
 62
     0
100
AcDbPoint
 10
11.14054199999999
 20
20.622485
 30
0.0
  0
POINT
  5
6AF
330
3E0
100
AcDbEntity
  8
DEFPOINTS
 62
     0
100
AcDbPoint
 10
14.380542
 20
20.622485
 30
0.0
  0
POINT
  5
6B0
330
3E0
100
AcDbEntity
  8
DEFPOINTS
 62
     0
100
AcDbPoint
 10
14.380542
 20
19.42064699999999
 30
0.0
  0
ENDBLK
  5
3EC
330
3E0
100
AcDbEntity
  8
0
100
AcDbBlockEnd
  0
BLOCK
  5
3F9
330
3EE
100
AcDbEntity
  8
0
100
AcDbBlockBegin
  2
*D59
 70
     1
 10
0.0
 20
0.0
 30
0.0
  3
*D59
  1

  0
LINE
  5
6B1
330
3EE
100
AcDbEntity
  8
DIM
 62
     0
370
    -2
100
AcDbLine
 10
11.14054199999999
 20
20.521685
 30
0.0
 11
11.14054199999999
 21
18.793936
 31
0.0
  0
LINE
  5
6B2
330
3EE
100
AcDbEntity
  8
DIM
 62
     0
370
    -2
100
AcDbLine
 10
16.000542
 20
20.521685
 30
0.0
 11
16.000542
 21
18.793936
 31
0.0
  0
LINE
  5
6B3
330
3EE
100
AcDbEntity
  8
DIM
 62
     0
370
    -2
100
AcDbLine
 10
11.428542
 20
18.942736
 30
0.0
 11
13.139042
 21
18.942736
 31
0.0
  0
LINE
  5
6B4
330
3EE
100
AcDbEntity
  8
DIM
 62
     0
370
    -2
100
AcDbLine
 10
15.712542
 20
18.942736
 30
0.0
 11
14.002042
 21
18.942736
 31
0.0
  0
SOLID
  5
6B5
330
3EE
100
AcDbEntity
  8
DIM
 62
     0
100
AcDbTrace
 10
11.428542
 20
18.99073599999999
 30
0.0
 11
11.428542
 21
18.894736
 31
0.0
 12
11.14054199999999
 22
18.942736
 32
0.0
 13
11.14054199999999
 23
18.942736
 33
0.0
  0
SOLID
  5
6B6
330
3EE
100
AcDbEntity
  8
DIM
 62
     0
100
AcDbTrace
 10
15.712542
 20
18.99073599999999
 30
0.0
 11
15.712542
 21
18.894736
 31
0.0
 12
16.000542
 22
18.942736
 32
0.0
 13
16.000542
 23
18.942736
 33
0.0
  0
MTEXT
  5
6B7
330
3EE
100
AcDbEntity
  8
DIM
 62
     0
100
AcDbMText
 10
13.570542
 20
18.942736
 30
0.0
 40
0.2
 41
0.0
 71
     5
 72
     1
  1
\A1;4.860
 73
     1
 44
1.0
  0
POINT
  5
6B8
330
3EE
100
AcDbEntity
  8
DEFPOINTS
 62
     0
100
AcDbPoint
 10
11.14054199999999
 20
20.622485
 30
0.0
  0
POINT
  5
6B9
330
3EE
100
AcDbEntity
  8
DEFPOINTS
 62
     0
100
AcDbPoint
 10
16.000542
 20
20.622485
 30
0.0
  0
POINT
  5
6BA
330
3EE
100
AcDbEntity
  8
DEFPOINTS
 62
     0
100
AcDbPoint
 10
16.000542
 20
18.942736
 30
0.0
  0
ENDBLK
  5
3FA
330
3EE
100
AcDbEntity
  8
0
100
AcDbBlockEnd
  0
BLOCK
  5
407
330
3FC
100
AcDbEntity
  8
0
100
AcDbBlockBegin
  2
*D60
 70
     1
 10
0.0
 20
0.0
 30
0.0
  3
*D60
  1

  0
LINE
  5
877
330
3FC
100
AcDbEntity
  8
DIM
 62
     0
370
    -2
100
AcDbLine
 10
11.14054199999999
 20
20.522485
 30
0.0
 11
11.14054199999999
 21
18.793936
 31
0.0
  0
LINE
  5
878
330
3FC
100
AcDbEntity
  8
DIM
 62
     0
370
    -2
100
AcDbLine
 10
9.613542
 20
20.772485
 30
0.0
 11
9.613542
 21
18.793936
 31
0.0
  0
LINE
  5
879
330
3FC
100
AcDbEntity
  8
DIM
 62
     0
370
    -2
100
AcDbLine
 10
11.428542
 20
18.942736
 30
0.0
 11
11.716542
 21
18.942736
 31
0.0
  0
LINE
  5
87A
330
3FC
100
AcDbEntity
  8
DIM
 62
     0
370
    -2
100
AcDbLine
 10
9.325542
 20
18.942736
 30
0.0
 11
9.037542
 21
18.942736
 31
0.0
  0
SOLID
  5
87B
330
3FC
100
AcDbEntity
  8
DIM
 62
     0
100
AcDbTrace
 10
11.428542
 20
18.99073599999999
 30
0.0
 11
11.428542
 21
18.894736
 31
0.0
 12
11.14054199999999
 22
18.942736
 32
0.0
 13
11.14054199999999
 23
18.942736
 33
0.0
  0
SOLID
  5
87C
330
3FC
100
AcDbEntity
  8
DIM
 62
     0
100
AcDbTrace
 10
9.325542
 20
18.99073599999999
 30
0.0
 11
9.325542
 21
18.894736
 31
0.0
 12
9.613542
 22
18.942736
 32
0.0
 13
9.613542
 23
18.942736
 33
0.0
  0
MTEXT
  5
87D
330
3FC
100
AcDbEntity
  8
DIM
 62
     0
100
AcDbMText
 10
10.377042
 20
18.942736
 30
0.0
 40
0.2
 41
0.0
 71
     5
 72
     1
  1
\A1;1.527
 73
     1
 44
1.0
  0
POINT
  5
87E
330
3FC
100
AcDbEntity
  8
DEFPOINTS
 62
     0
100
AcDbPoint
 10
11.14054199999999
 20
20.622485
 30
0.0
  0
POINT
  5
87F
330
3FC
100
AcDbEntity
  8
DEFPOINTS
 62
     0
100
AcDbPoint
 10
9.613542
 20
20.872485
 30
0.0
  0
POINT
  5
880
330
3FC
100
AcDbEntity
  8
DEFPOINTS
 62
     0
100
AcDbPoint
 10
9.613542
 20
18.942736
 30
0.0
  0
ENDBLK
  5
408
330
3FC
100
AcDbEntity
  8
0
100
AcDbBlockEnd
  0
BLOCK
  5
419
330
40E
100
AcDbEntity
  8
0
100
AcDbBlockBegin
  2
*D61
 70
     1
 10
0.0
 20
0.0
 30
0.0
  3
*D61
  1

  0
LINE
  5
863
330
40E
100
AcDbEntity
  8
DIM
 62
     0
370
    -2
100
AcDbLine
 10
9.613542
 20
23.723285
 30
0.0
 11
9.613542
 21
25.157664
 31
0.0
  0
LINE
  5
864
330
40E
100
AcDbEntity
  8
DIM
 62
     0
370
    -2
100
AcDbLine
 10
16.890542
 20
23.848285
 30
0.0
 11
16.890542
 21
25.157664
 31
0.0
  0
LINE
  5
865
330
40E
100
AcDbEntity
  8
DIM
 62
     0
370
    -2
100
AcDbLine
 10
9.901542
 20
25.008864
 30
0.0
 11
12.808042
 21
25.008864
 31
0.0
  0
LINE
  5
866
330
40E
100
AcDbEntity
  8
DIM
 62
     0
370
    -2
100
AcDbLine
 10
16.60254199999999
 20
25.008864
 30
0.0
 11
13.69604199999999
 21
25.008864
 31
0.0
  0
SOLID
  5
867
330
40E
100
AcDbEntity
  8
DIM
 62
     0
100
AcDbTrace
 10
9.901542
 20
25.056864
 30
0.0
 11
9.901542
 21
24.960864
 31
0.0
 12
9.613542
 22
25.008864
 32
0.0
 13
9.613542
 23
25.008864
 33
0.0
  0
SOLID
  5
868
330
40E
100
AcDbEntity
  8
DIM
 62
     0
100
AcDbTrace
 10
16.60254199999999
 20
25.056864
 30
0.0
 11
16.60254199999999
 21
24.960864
 31
0.0
 12
16.890542
 22
25.008864
 32
0.0
 13
16.890542
 23
25.008864
 33
0.0
  0
MTEXT
  5
869
330
40E
100
AcDbEntity
  8
DIM
 62
     0
100
AcDbMText
 10
13.25204199999999
 20
25.008864
 30
0.0
 40
0.2
 41
0.0
 71
     5
 72
     1
  1
\A1;7.277
 73
     1
 44
1.0
  0
POINT
  5
86A
330
40E
100
AcDbEntity
  8
DEFPOINTS
 62
     0
100
AcDbPoint
 10
9.613542
 20
23.622485
 30
0.0
  0
POINT
  5
86B
330
40E
100
AcDbEntity
  8
DEFPOINTS
 62
     0
100
AcDbPoint
 10
16.890542
 20
23.747485
 30
0.0
  0
POINT
  5
86C
330
40E
100
AcDbEntity
  8
DEFPOINTS
 62
     0
100
AcDbPoint
 10
16.890542
 20
25.008864
 30
0.0
  0
ENDBLK
  5
41A
330
40E
100
AcDbEntity
  8
0
100
AcDbBlockEnd
  0
BLOCK
  5
427
330
41C
100
AcDbEntity
  8
0
100
AcDbBlockBegin
  2
*D62
 70
     1
 10
0.0
 20
0.0
 30
0.0
  3
*D62
  1

  0
LINE
  5
826
330
41C
100
AcDbEntity
  8
DIM
 62
     0
370
    -2
100
AcDbLine
 10
3.99519
 20
23.622485
 30
0.0
 11
7.114817
 21
23.622485
 31
0.0
  0
LINE
  5
827
330
41C
100
AcDbEntity
  8
DIM
 62
     0
370
    -2
100
AcDbLine
 10
3.99519
 20
20.872485
 30
0.0
 11
7.114816999999999
 21
20.872485
 31
0.0
  0
LINE
  5
828
330
41C
100
AcDbEntity
  8
DIM
 62
     0
370
    -2
100
AcDbLine
 10
6.966017
 20
23.334485
 30
0.0
 11
6.966017
 21
22.49148499999999
 31
0.0
  0
LINE
  5
829
330
41C
100
AcDbEntity
  8
DIM
 62
     0
370
    -2
100
AcDbLine
 10
6.966016999999999
 20
21.160485
 30
0.0
 11
6.966017
 21
22.003485
 31
0.0
  0
SOLID
  5
82A
330
41C
100
AcDbEntity
  8
DIM
 62
     0
100
AcDbTrace
 10
6.918017
 20
23.334485
 30
0.0
 11
7.014017
 21
23.334485
 31
0.0
 12
6.966017
 22
23.622485
 32
0.0
 13
6.966017
 23
23.622485
 33
0.0
  0
SOLID
  5
82B
330
41C
100
AcDbEntity
  8
DIM
 62
     0
100
AcDbTrace
 10
6.918016999999999
 20
21.160485
 30
0.0
 11
7.014016999999999
 21
21.160485
 31
0.0
 12
6.966016999999999
 22
20.872485
 32
0.0
 13
6.966016999999999
 23
20.872485
 33
0.0
  0
MTEXT
  5
82C
330
41C
100
AcDbEntity
  8
DIM
 62
     0
100
AcDbMText
 10
6.966016999999997
 20
22.247485
 30
0.0
 40
0.2
 41
0.0
 71
     5
 72
     1
  1
\A1;2.750
 73
     1
 44
1.0
  0
POINT
  5
82D
330
41C
100
AcDbEntity
  8
DEFPOINTS
 62
     0
100
AcDbPoint
 10
3.894389999999999
 20
23.622485
 30
0.0
  0
POINT
  5
82E
330
41C
100
AcDbEntity
  8
DEFPOINTS
 62
     0
100
AcDbPoint
 10
3.894389999999999
 20
20.872485
 30
0.0
  0
POINT
  5
82F
330
41C
100
AcDbEntity
  8
DEFPOINTS
 62
     0
100
AcDbPoint
 10
6.966016999999999
 20
20.872485
 30
0.0
  0
ENDBLK
  5
428
330
41C
100
AcDbEntity
  8
0
100
AcDbBlockEnd
  0
BLOCK
  5
43E
330
433
100
AcDbEntity
  8
0
100
AcDbBlockBegin
  2
*D63
 70
     1
 10
0.0
 20
0.0
 30
0.0
  3
*D63
  1

  0
LINE
  5
6CF
330
433
100
AcDbEntity
  8
DIM
 62
     0
370
    -2
100
AcDbLine
 10
13.515542
 20
22.44178499999999
 30
0.0
 11
13.515542
 21
24.628598
 31
0.0
  0
LINE
  5
6D0
330
433
100
AcDbEntity
  8
DIM
 62
     0
370
    -2
100
AcDbLine
 10
16.890542
 20
23.911285
 30
0.0
 11
16.890542
 21
24.628598
 31
0.0
  0
LINE
  5
6D1
330
433
100
AcDbEntity
  8
DIM
 62
     0
370
    -2
100
AcDbLine
 10
13.803542
 20
24.479798
 30
0.0
 11
14.759042
 21
24.479798
 31
0.0
  0
LINE
  5
6D2
330
433
100
AcDbEntity
  8
DIM
 62
     0
370
    -2
100
AcDbLine
 10
16.60254199999999
 20
24.479798
 30
0.0
 11
15.64704199999999
 21
24.479798
 31
0.0
  0
SOLID
  5
6D3
330
433
100
AcDbEntity
  8
DIM
 62
     0
100
AcDbTrace
 10
13.803542
 20
24.527798
 30
0.0
 11
13.803542
 21
24.431798
 31
0.0
 12
13.515542
 22
24.479798
 32
0.0
 13
13.515542
 23
24.479798
 33
0.0
  0
SOLID
  5
6D4
330
433
100
AcDbEntity
  8
DIM
 62
     0
100
AcDbTrace
 10
16.60254199999999
 20
24.527798
 30
0.0
 11
16.60254199999999
 21
24.431798
 31
0.0
 12
16.890542
 22
24.479798
 32
0.0
 13
16.890542
 23
24.479798
 33
0.0
  0
MTEXT
  5
6D5
330
433
100
AcDbEntity
  8
DIM
 62
     0
100
AcDbMText
 10
15.20304199999999
 20
24.479798
 30
0.0
 40
0.2
 41
0.0
 71
     5
 72
     1
  1
\A1;3.375
 73
     1
 44
1.0
  0
POINT
  5
6D6
330
433
100
AcDbEntity
  8
DEFPOINTS
 62
     0
100
AcDbPoint
 10
13.515542
 20
22.34098499999999
 30
0.0
  0
POINT
  5
6D7
330
433
100
AcDbEntity
  8
DEFPOINTS
 62
     0
100
AcDbPoint
 10
16.890542
 20
23.81048499999999
 30
0.0
  0
POINT
  5
6D8
330
433
100
AcDbEntity
  8
DEFPOINTS
 62
     0
100
AcDbPoint
 10
16.890542
 20
24.479798
 30
0.0
  0
ENDBLK
  5
43F
330
433
100
AcDbEntity
  8
0
100
AcDbBlockEnd
  0
BLOCK
  5
44C
330
441
100
AcDbEntity
  8
0
100
AcDbBlockBegin
  2
*D64
 70
     1
 10
0.0
 20
0.0
 30
0.0
  3
*D64
  1

  0
LINE
  5
6D9
330
441
100
AcDbEntity
  8
DIM
 62
     0
370
    -2
100
AcDbLine
 10
3.41759
 20
21.481485
 30
0.0
 11
2.732426999999999
 21
21.481485
 31
0.0
  0
LINE
  5
6DA
330
441
100
AcDbEntity
  8
DIM
 62
     0
370
    -2
100
AcDbLine
 10
3.41759
 20
21.263485
 30
0.0
 11
2.732426999999999
 21
21.263485
 31
0.0
  0
LINE
  5
6DB
330
441
100
AcDbEntity
  8
DIM
 62
     0
370
    -2
100
AcDbLine
 10
2.881226999999999
 20
21.76948499999999
 30
0.0
 11
2.881226999999999
 21
22.05748499999999
 31
0.0
  0
LINE
  5
6DC
330
441
100
AcDbEntity
  8
DIM
 62
     0
370
    -2
100
AcDbLine
 10
2.881226999999999
 20
20.97548499999999
 30
0.0
 11
2.881226999999999
 21
20.68748499999999
 31
0.0
  0
LINE
  5
6DD
330
441
100
AcDbEntity
  8
DIM
 62
     0
370
    -2
100
AcDbLine
 10
2.881226999999999
 20
20.68748499999999
 30
0.0
 11
2.593226999999999
 21
20.68748499999999
 31
0.0
  0
SOLID
  5
6DE
330
441
100
AcDbEntity
  8
DIM
 62
     0
100
AcDbTrace
 10
2.833226999999999
 20
21.76948499999999
 30
0.0
 11
2.929227
 21
21.76948499999999
 31
0.0
 12
2.881226999999999
 22
21.481485
 32
0.0
 13
2.881226999999999
 23
21.481485
 33
0.0
  0
SOLID
  5
6DF
330
441
100
AcDbEntity
  8
DIM
 62
     0
100
AcDbTrace
 10
2.833226999999999
 20
20.97548499999999
 30
0.0
 11
2.929226999999999
 21
20.97548499999999
 31
0.0
 12
2.881226999999999
 22
21.263485
 32
0.0
 13
2.881226999999999
 23
21.263485
 33
0.0
  0
MTEXT
  5
6E0
330
441
100
AcDbEntity
  8
DIM
 62
     0
100
AcDbMText
 10
2.186726999999996
 20
20.68748499999999
 30
0.0
 40
0.2
 41
0.0
 71
     5
 72
     1
  1
\A1;0.218
 73
     1
 44
1.0
  0
POINT
  5
6E1
330
441
100
AcDbEntity
  8
DEFPOINTS
 62
     0
100
AcDbPoint
 10
3.51839
 20
21.481485
 30
0.0
  0
POINT
  5
6E2
330
441
100
AcDbEntity
  8
DEFPOINTS
 62
     0
100
AcDbPoint
 10
3.51839
 20
21.263485
 30
0.0
  0
POINT
  5
6E3
330
441
100
AcDbEntity
  8
DEFPOINTS
 62
     0
100
AcDbPoint
 10
2.881226999999999
 20
21.263485
 30
0.0
  0
ENDBLK
  5
44D
330
441
100
AcDbEntity
  8
0
100
AcDbBlockEnd
  0
BLOCK
  5
466
330
45B
100
AcDbEntity
  8
0
100
AcDbBlockBegin
  2
*D65
 70
     1
 10
0.0
 20
0.0
 30
0.0
  3
*D65
  1

  0
LINE
  5
6E4
330
45B
100
AcDbEntity
  8
DIM
 62
     0
370
    -2
100
AcDbLine
 10
4.15219
 20
6.673722999999999
 30
0.0
 11
4.697354
 21
6.673722999999999
 31
0.0
  0
LINE
  5
6E5
330
45B
100
AcDbEntity
  8
DIM
 62
     0
370
    -2
100
AcDbLine
 10
4.15219
 20
6.891722999999999
 30
0.0
 11
4.697354
 21
6.891722999999999
 31
0.0
  0
LINE
  5
6E6
330
45B
100
AcDbEntity
  8
DIM
 62
     0
370
    -2
100
AcDbLine
 10
4.548554
 20
6.385722999999999
 30
0.0
 11
4.548554
 21
6.097723
 31
0.0
  0
LINE
  5
6E7
330
45B
100
AcDbEntity
  8
DIM
 62
     0
370
    -2
100
AcDbLine
 10
4.548554
 20
7.179723
 30
0.0
 11
4.548554
 21
7.467723
 31
0.0
  0
LINE
  5
6E8
330
45B
100
AcDbEntity
  8
DIM
 62
     0
370
    -2
100
AcDbLine
 10
4.548554
 20
7.467723
 30
0.0
 11
4.836554
 21
7.467723
 31
0.0
  0
SOLID
  5
6E9
330
45B
100
AcDbEntity
  8
DIM
 62
     0
100
AcDbTrace
 10
4.500554
 20
6.385722999999999
 30
0.0
 11
4.596554
 21
6.385722999999999
 31
0.0
 12
4.548554
 22
6.673722999999999
 32
0.0
 13
4.548554
 23
6.673722999999999
 33
0.0
  0
SOLID
  5
6EA
330
45B
100
AcDbEntity
  8
DIM
 62
     0
100
AcDbTrace
 10
4.500554
 20
7.179723
 30
0.0
 11
4.596554
 21
7.179723
 31
0.0
 12
4.548554
 22
6.891722999999999
 32
0.0
 13
4.548554
 23
6.891722999999999
 33
0.0
  0
MTEXT
  5
6EB
330
45B
100
AcDbEntity
  8
DIM
 62
     0
100
AcDbMText
 10
5.243053999999998
 20
7.467723000000001
 30
0.0
 40
0.2
 41
0.0
 71
     5
 72
     1
  1
\A1;0.218
 73
     1
 44
1.0
  0
POINT
  5
6EC
330
45B
100
AcDbEntity
  8
DEFPOINTS
 62
     0
100
AcDbPoint
 10
4.05139
 20
6.673722999999999
 30
0.0
  0
POINT
  5
6ED
330
45B
100
AcDbEntity
  8
DEFPOINTS
 62
     0
100
AcDbPoint
 10
4.05139
 20
6.891722999999999
 30
0.0
  0
POINT
  5
6EE
330
45B
100
AcDbEntity
  8
DEFPOINTS
 62
     0
100
AcDbPoint
 10
4.548554
 20
6.891722999999999
 30
0.0
  0
ENDBLK
  5
467
330
45B
100
AcDbEntity
  8
0
100
AcDbBlockEnd
  0
BLOCK
  5
495
330
48A
100
AcDbEntity
  8
0
100
AcDbBlockBegin
  2
*D66
 70
     1
 10
0.0
 20
0.0
 30
0.0
  3
*D66
  1

  0
LINE
  5
790
330
48A
100
AcDbEntity
  8
DIM
 62
     0
370
    -2
100
AcDbLine
 10
3.26939
 20
6.782722999999999
 30
0.0
 11
2.646684999999999
 21
6.782722999999999
 31
0.0
  0
LINE
  5
791
330
48A
100
AcDbEntity
  8
DIM
 62
     0
370
    -2
100
AcDbLine
 10
3.26939
 20
6.157723
 30
0.0
 11
2.646684999999999
 21
6.157723
 31
0.0
  0
LINE
  5
792
330
48A
100
AcDbEntity
  8
DIM
 62
     0
370
    -2
100
AcDbLine
 10
2.795485
 20
7.070723
 30
0.0
 11
2.795485
 21
7.358722999999999
 31
0.0
  0
LINE
  5
793
330
48A
100
AcDbEntity
  8
DIM
 62
     0
370
    -2
100
AcDbLine
 10
2.795484999999999
 20
5.869723
 30
0.0
 11
2.795484999999999
 21
5.581723000000001
 31
0.0
  0
SOLID
  5
794
330
48A
100
AcDbEntity
  8
DIM
 62
     0
100
AcDbTrace
 10
2.747485
 20
7.070723
 30
0.0
 11
2.843485
 21
7.070723
 31
0.0
 12
2.795484999999999
 22
6.782722999999999
 32
0.0
 13
2.795484999999999
 23
6.782722999999999
 33
0.0
  0
SOLID
  5
795
330
48A
100
AcDbEntity
  8
DIM
 62
     0
100
AcDbTrace
 10
2.747484999999999
 20
5.869723
 30
0.0
 11
2.843484999999999
 21
5.869723
 31
0.0
 12
2.795484999999999
 22
6.157723
 32
0.0
 13
2.795484999999999
 23
6.157723
 33
0.0
  0
MTEXT
  5
796
330
48A
100
AcDbEntity
  8
DIM
 62
     0
100
AcDbMText
 10
2.795484999999998
 20
6.470223
 30
0.0
 40
0.2
 41
0.0
 71
     5
 72
     1
  1
\A1;0.625
 73
     1
 44
1.0
  0
POINT
  5
797
330
48A
100
AcDbEntity
  8
DEFPOINTS
 62
     0
100
AcDbPoint
 10
3.36939
 20
6.782722999999999
 30
0.0
  0
POINT
  5
798
330
48A
100
AcDbEntity
  8
DEFPOINTS
 62
     0
100
AcDbPoint
 10
3.36939
 20
6.157723
 30
0.0
  0
POINT
  5
799
330
48A
100
AcDbEntity
  8
DEFPOINTS
 62
     0
100
AcDbPoint
 10
2.795484999999999
 20
6.157723
 30
0.0
  0
ENDBLK
  5
496
330
48A
100
AcDbEntity
  8
0
100
AcDbBlockEnd
  0
BLOCK
  5
4A3
330
498
100
AcDbEntity
  8
0
100
AcDbBlockBegin
  2
*D67
 70
     1
 10
0.0
 20
0.0
 30
0.0
  3
*D67
  1

  0
LINE
  5
79A
330
498
100
AcDbEntity
  8
DIM
 62
     0
370
    -2
100
AcDbLine
 10
3.26939
 20
6.157723
 30
0.0
 11
2.038684999999999
 21
6.157723
 31
0.0
  0
LINE
  5
79B
330
498
100
AcDbEntity
  8
DIM
 62
     0
370
    -2
100
AcDbLine
 10
3.26939
 20
5.657723
 30
0.0
 11
2.038684999999999
 21
5.657723
 31
0.0
  0
LINE
  5
79C
330
498
100
AcDbEntity
  8
DIM
 62
     0
370
    -2
100
AcDbLine
 10
2.187484999999999
 20
6.445723
 30
0.0
 11
2.187484999999999
 21
6.733723
 31
0.0
  0
LINE
  5
79D
330
498
100
AcDbEntity
  8
DIM
 62
     0
370
    -2
100
AcDbLine
 10
2.187484999999999
 20
5.369723
 30
0.0
 11
2.187484999999999
 21
5.081723000000001
 31
0.0
  0
SOLID
  5
79E
330
498
100
AcDbEntity
  8
DIM
 62
     0
100
AcDbTrace
 10
2.139484999999999
 20
6.445723
 30
0.0
 11
2.235484999999999
 21
6.445723
 31
0.0
 12
2.187484999999999
 22
6.157723
 32
0.0
 13
2.187484999999999
 23
6.157723
 33
0.0
  0
SOLID
  5
79F
330
498
100
AcDbEntity
  8
DIM
 62
     0
100
AcDbTrace
 10
2.139484999999999
 20
5.369723
 30
0.0
 11
2.235484999999999
 21
5.369723
 31
0.0
 12
2.187484999999999
 22
5.657723
 32
0.0
 13
2.187484999999999
 23
5.657723
 33
0.0
  0
MTEXT
  5
7A0
330
498
100
AcDbEntity
  8
DIM
 62
     0
100
AcDbMText
 10
2.187484999999998
 20
5.907723000000001
 30
0.0
 40
0.2
 41
0.0
 71
     5
 72
     1
  1
\A1;0.500
 73
     1
 44
1.0
  0
POINT
  5
7A1
330
498
100
AcDbEntity
  8
DEFPOINTS
 62
     0
100
AcDbPoint
 10
3.36939
 20
6.157723
 30
0.0
  0
POINT
  5
7A2
330
498
100
AcDbEntity
  8
DEFPOINTS
 62
     0
100
AcDbPoint
 10
3.36939
 20
5.657723
 30
0.0
  0
POINT
  5
7A3
330
498
100
AcDbEntity
  8
DEFPOINTS
 62
     0
100
AcDbPoint
 10
2.187484999999999
 20
5.657723
 30
0.0
  0
ENDBLK
  5
4A4
330
498
100
AcDbEntity
  8
0
100
AcDbBlockEnd
  0
BLOCK
  5
4B1
330
4A6
100
AcDbEntity
  8
0
100
AcDbBlockBegin
  2
*D68
 70
     1
 10
0.0
 20
0.0
 30
0.0
  3
*D68
  1

  0
LINE
  5
7A4
330
4A6
100
AcDbEntity
  8
DIM
 62
     0
370
    -2
100
AcDbLine
 10
3.26939
 20
5.657723
 30
0.0
 11
1.430685
 21
5.657723000000001
 31
0.0
  0
LINE
  5
7A5
330
4A6
100
AcDbEntity
  8
DIM
 62
     0
370
    -2
100
AcDbLine
 10
3.26939
 20
5.032723
 30
0.0
 11
1.430684999999999
 21
5.032723000000001
 31
0.0
  0
LINE
  5
7A6
330
4A6
100
AcDbEntity
  8
DIM
 62
     0
370
    -2
100
AcDbLine
 10
1.579485
 20
5.945723000000001
 30
0.0
 11
1.579485
 21
6.233723000000001
 31
0.0
  0
LINE
  5
7A7
330
4A6
100
AcDbEntity
  8
DIM
 62
     0
370
    -2
100
AcDbLine
 10
1.579485
 20
4.744723000000001
 30
0.0
 11
1.579484999999999
 21
4.456723000000001
 31
0.0
  0
SOLID
  5
7A8
330
4A6
100
AcDbEntity
  8
DIM
 62
     0
100
AcDbTrace
 10
1.531485
 20
5.945723000000001
 30
0.0
 11
1.627485
 21
5.945723000000001
 31
0.0
 12
1.579485
 22
5.657723000000001
 32
0.0
 13
1.579485
 23
5.657723000000001
 33
0.0
  0
SOLID
  5
7A9
330
4A6
100
AcDbEntity
  8
DIM
 62
     0
100
AcDbTrace
 10
1.531484999999999
 20
4.744723000000001
 30
0.0
 11
1.627485
 21
4.744723000000001
 31
0.0
 12
1.579485
 22
5.032723000000001
 32
0.0
 13
1.579485
 23
5.032723000000001
 33
0.0
  0
MTEXT
  5
7AA
330
4A6
100
AcDbEntity
  8
DIM
 62
     0
100
AcDbMText
 10
1.579484999999999
 20
5.345223000000001
 30
0.0
 40
0.2
 41
0.0
 71
     5
 72
     1
  1
\A1;0.625
 73
     1
 44
1.0
  0
POINT
  5
7AB
330
4A6
100
AcDbEntity
  8
DEFPOINTS
 62
     0
100
AcDbPoint
 10
3.36939
 20
5.657723
 30
0.0
  0
POINT
  5
7AC
330
4A6
100
AcDbEntity
  8
DEFPOINTS
 62
     0
100
AcDbPoint
 10
3.36939
 20
5.032723
 30
0.0
  0
POINT
  5
7AD
330
4A6
100
AcDbEntity
  8
DEFPOINTS
 62
     0
100
AcDbPoint
 10
1.579485
 20
5.032723000000001
 30
0.0
  0
ENDBLK
  5
4B2
330
4A6
100
AcDbEntity
  8
0
100
AcDbBlockEnd
  0
BLOCK
  5
4BF
330
4B4
100
AcDbEntity
  8
0
100
AcDbBlockBegin
  2
*D69
 70
     1
 10
0.0
 20
0.0
 30
0.0
  3
*D69
  1

  0
LINE
  5
6EF
330
4B4
100
AcDbEntity
  8
DIM
 62
     0
370
    -2
100
AcDbLine
 10
3.27759
 20
4.532723
 30
0.0
 11
0.7971629999999991
 21
4.532723000000001
 31
0.0
  0
LINE
  5
6F0
330
4B4
100
AcDbEntity
  8
DIM
 62
     0
370
    -2
100
AcDbLine
 10
3.27759
 20
7.282722999999999
 30
0.0
 11
0.7971629999999998
 21
7.282723
 31
0.0
  0
LINE
  5
6F1
330
4B4
100
AcDbEntity
  8
DIM
 62
     0
370
    -2
100
AcDbLine
 10
0.9459629999999993
 20
4.820723000000001
 30
0.0
 11
0.9459629999999993
 21
5.663723
 31
0.0
  0
LINE
  5
6F2
330
4B4
100
AcDbEntity
  8
DIM
 62
     0
370
    -2
100
AcDbLine
 10
0.9459629999999997
 20
6.994723
 30
0.0
 11
0.9459629999999995
 21
6.151723
 31
0.0
  0
SOLID
  5
6F3
330
4B4
100
AcDbEntity
  8
DIM
 62
     0
100
AcDbTrace
 10
0.8979629999999993
 20
4.820723000000001
 30
0.0
 11
0.9939629999999993
 21
4.820723000000001
 31
0.0
 12
0.9459629999999991
 22
4.532723000000001
 32
0.0
 13
0.9459629999999991
 23
4.532723000000001
 33
0.0
  0
SOLID
  5
6F4
330
4B4
100
AcDbEntity
  8
DIM
 62
     0
100
AcDbTrace
 10
0.8979629999999996
 20
6.994723
 30
0.0
 11
0.9939629999999997
 21
6.994723
 31
0.0
 12
0.9459629999999998
 22
7.282723
 32
0.0
 13
0.9459629999999998
 23
7.282723
 33
0.0
  0
MTEXT
  5
6F5
330
4B4
100
AcDbEntity
  8
DIM
 62
     0
100
AcDbMText
 10
0.9459629999999986
 20
5.907723
 30
0.0
 40
0.2
 41
0.0
 71
     5
 72
     1
  1
\A1;2.750
 73
     1
 44
1.0
  0
POINT
  5
6F6
330
4B4
100
AcDbEntity
  8
DEFPOINTS
 62
     0
100
AcDbPoint
 10
3.37839
 20
4.532723
 30
0.0
  0
POINT
  5
6F7
330
4B4
100
AcDbEntity
  8
DEFPOINTS
 62
     0
100
AcDbPoint
 10
3.37839
 20
7.282722999999999
 30
0.0
  0
POINT
  5
6F8
330
4B4
100
AcDbEntity
  8
DEFPOINTS
 62
     0
100
AcDbPoint
 10
0.9459629999999998
 20
7.282723
 30
0.0
  0
ENDBLK
  5
4C0
330
4B4
100
AcDbEntity
  8
0
100
AcDbBlockEnd
  0
BLOCK
  5
537
330
52C
100
AcDbEntity
  8
0
100
AcDbBlockBegin
  2
*D70
 70
     1
 10
0.0
 20
0.0
 30
0.0
  3
*D70
  1

  0
LINE
  5
7AE
330
52C
100
AcDbEntity
  8
DIM
 62
     0
370
    -2
100
AcDbLine
 10
9.610310999999999
 20
9.884296
 30
0.0
 11
10.22514299999999
 21
9.884296
 31
0.0
  0
LINE
  5
7AF
330
52C
100
AcDbEntity
  8
DIM
 62
     0
370
    -2
100
AcDbLine
 10
6.875310999999999
 20
10.306296
 30
0.0
 11
10.22514299999999
 21
10.306296
 31
0.0
  0
LINE
  5
7B0
330
52C
100
AcDbEntity
  8
DIM
 62
     0
370
    -2
100
AcDbLine
 10
10.076343
 20
9.596296
 30
0.0
 11
10.076343
 21
9.308296
 31
0.0
  0
LINE
  5
7B1
330
52C
100
AcDbEntity
  8
DIM
 62
     0
370
    -2
100
AcDbLine
 10
10.076343
 20
10.594296
 30
0.0
 11
10.076343
 21
10.882296
 31
0.0
  0
SOLID
  5
7B2
330
52C
100
AcDbEntity
  8
DIM
 62
     0
100
AcDbTrace
 10
10.02834299999999
 20
9.596296
 30
0.0
 11
10.124343
 21
9.596296
 31
0.0
 12
10.076343
 22
9.884296
 32
0.0
 13
10.076343
 23
9.884296
 33
0.0
  0
SOLID
  5
7B3
330
52C
100
AcDbEntity
  8
DIM
 62
     0
100
AcDbTrace
 10
10.02834299999999
 20
10.594296
 30
0.0
 11
10.124343
 21
10.594296
 31
0.0
 12
10.076343
 22
10.306296
 32
0.0
 13
10.076343
 23
10.306296
 33
0.0
  0
MTEXT
  5
7B4
330
52C
100
AcDbEntity
  8
DIM
 62
     0
100
AcDbMText
 10
10.07634299999999
 20
10.095296
 30
0.0
 40
0.2
 41
0.0
 71
     5
 72
     1
  1
\A1;0.422
 73
     1
 44
1.0
  0
POINT
  5
7B5
330
52C
100
AcDbEntity
  8
DEFPOINTS
 62
     0
100
AcDbPoint
 10
9.510310999999999
 20
9.884296
 30
0.0
  0
POINT
  5
7B6
330
52C
100
AcDbEntity
  8
DEFPOINTS
 62
     0
100
AcDbPoint
 10
6.775311
 20
10.306296
 30
0.0
  0
POINT
  5
7B7
330
52C
100
AcDbEntity
  8
DEFPOINTS
 62
     0
100
AcDbPoint
 10
10.076343
 20
10.306296
 30
0.0
  0
ENDBLK
  5
538
330
52C
100
AcDbEntity
  8
0
100
AcDbBlockEnd
  0
BLOCK
  5
545
330
53A
100
AcDbEntity
  8
0
100
AcDbBlockBegin
  2
*D71
 70
     1
 10
0.0
 20
0.0
 30
0.0
  3
*D71
  1

  0
LINE
  5
6F9
330
53A
100
AcDbEntity
  8
DIM
 62
     0
370
    -2
100
AcDbLine
 10
4.05139
 20
4.822923000000001
 30
0.0
 11
4.05139
 21
3.895307
 31
0.0
  0
LINE
  5
6FA
330
53A
100
AcDbEntity
  8
DIM
 62
     0
370
    -2
100
AcDbLine
 10
4.11139
 20
4.587922999999999
 30
0.0
 11
4.11139
 21
3.895307
 31
0.0
  0
LINE
  5
6FB
330
53A
100
AcDbEntity
  8
DIM
 62
     0
370
    -2
100
AcDbLine
 10
3.76339
 20
4.044107
 30
0.0
 11
3.47539
 21
4.044107
 31
0.0
  0
LINE
  5
6FC
330
53A
100
AcDbEntity
  8
DIM
 62
     0
370
    -2
100
AcDbLine
 10
4.39939
 20
4.044107
 30
0.0
 11
4.687389999999999
 21
4.044107
 31
0.0
  0
SOLID
  5
6FD
330
53A
100
AcDbEntity
  8
DIM
 62
     0
100
AcDbTrace
 10
3.76339
 20
4.092107
 30
0.0
 11
3.76339
 21
3.996107
 31
0.0
 12
4.05139
 22
4.044107
 32
0.0
 13
4.05139
 23
4.044107
 33
0.0
  0
SOLID
  5
6FE
330
53A
100
AcDbEntity
  8
DIM
 62
     0
100
AcDbTrace
 10
4.39939
 20
4.092107
 30
0.0
 11
4.39939
 21
3.996107
 31
0.0
 12
4.11139
 22
4.044107
 32
0.0
 13
4.11139
 23
4.044107
 33
0.0
  0
MTEXT
  5
6FF
330
53A
100
AcDbEntity
  8
DIM
 62
     0
100
AcDbMText
 10
5.09389
 20
4.044107
 30
0.0
 40
0.2
 41
0.0
 71
     5
 72
     1
  1
\A1;0.060
 73
     1
 44
1.0
  0
POINT
  5
700
330
53A
100
AcDbEntity
  8
DEFPOINTS
 62
     0
100
AcDbPoint
 10
4.05139
 20
4.923723
 30
0.0
  0
POINT
  5
701
330
53A
100
AcDbEntity
  8
DEFPOINTS
 62
     0
100
AcDbPoint
 10
4.11139
 20
4.688723
 30
0.0
  0
POINT
  5
702
330
53A
100
AcDbEntity
  8
DEFPOINTS
 62
     0
100
AcDbPoint
 10
4.11139
 20
4.044107
 30
0.0
  0
ENDBLK
  5
546
330
53A
100
AcDbEntity
  8
0
100
AcDbBlockEnd
  0
BLOCK
  5
553
330
548
100
AcDbEntity
  8
0
100
AcDbBlockBegin
  2
*D72
 70
     1
 10
0.0
 20
0.0
 30
0.0
  3
*D72
  1

  0
LINE
  5
7B8
330
548
100
AcDbEntity
  8
DIM
 62
     0
370
    -2
100
AcDbLine
 10
4.11139
 20
4.588723
 30
0.0
 11
4.11139
 21
3.315529
 31
0.0
  0
LINE
  5
7B9
330
548
100
AcDbEntity
  8
DIM
 62
     0
370
    -2
100
AcDbLine
 10
3.37839
 20
4.432723000000001
 30
0.0
 11
3.37839
 21
3.315529
 31
0.0
  0
LINE
  5
7BA
330
548
100
AcDbEntity
  8
DIM
 62
     0
370
    -2
100
AcDbLine
 10
4.39939
 20
3.464329
 30
0.0
 11
4.687389999999999
 21
3.464329
 31
0.0
  0
LINE
  5
7BB
330
548
100
AcDbEntity
  8
DIM
 62
     0
370
    -2
100
AcDbLine
 10
3.09039
 20
3.464329
 30
0.0
 11
2.802389999999999
 21
3.464329
 31
0.0
  0
SOLID
  5
7BC
330
548
100
AcDbEntity
  8
DIM
 62
     0
100
AcDbTrace
 10
4.39939
 20
3.512329
 30
0.0
 11
4.39939
 21
3.416329
 31
0.0
 12
4.11139
 22
3.464329
 32
0.0
 13
4.11139
 23
3.464329
 33
0.0
  0
SOLID
  5
7BD
330
548
100
AcDbEntity
  8
DIM
 62
     0
100
AcDbTrace
 10
3.09039
 20
3.512329
 30
0.0
 11
3.09039
 21
3.416329
 31
0.0
 12
3.37839
 22
3.464329
 32
0.0
 13
3.37839
 23
3.464329
 33
0.0
  0
MTEXT
  5
7BE
330
548
100
AcDbEntity
  8
DIM
 62
     0
100
AcDbMText
 10
3.744889999999999
 20
3.464329
 30
0.0
 40
0.2
 41
0.0
 71
     5
 72
     1
  1
\A1;0.733
 73
     1
 44
1.0
  0
POINT
  5
7BF
330
548
100
AcDbEntity
  8
DEFPOINTS
 62
     0
100
AcDbPoint
 10
4.11139
 20
4.688723
 30
0.0
  0
POINT
  5
7C0
330
548
100
AcDbEntity
  8
DEFPOINTS
 62
     0
100
AcDbPoint
 10
3.37839
 20
4.532723
 30
0.0
  0
POINT
  5
7C1
330
548
100
AcDbEntity
  8
DEFPOINTS
 62
     0
100
AcDbPoint
 10
3.37839
 20
3.464329
 30
0.0
  0
ENDBLK
  5
554
330
548
100
AcDbEntity
  8
0
100
AcDbBlockEnd
  0
BLOCK
  5
561
330
556
100
AcDbEntity
  8
0
100
AcDbBlockBegin
  2
*D73
 70
     1
 10
0.0
 20
0.0
 30
0.0
  3
*D73
  1

  0
LINE
  5
7C2
330
556
100
AcDbEntity
  8
DIM
 62
     0
370
    -2
100
AcDbLine
 10
6.463311
 20
7.382722999999999
 30
0.0
 11
6.463311
 21
8.132903
 31
0.0
  0
LINE
  5
7C3
330
556
100
AcDbEntity
  8
DIM
 62
     0
370
    -2
100
AcDbLine
 10
7.525311
 20
6.007723
 30
0.0
 11
7.525311
 21
8.132903
 31
0.0
  0
LINE
  5
7C4
330
556
100
AcDbEntity
  8
DIM
 62
     0
370
    -2
100
AcDbLine
 10
6.175310999999999
 20
7.984103
 30
0.0
 11
5.887311
 21
7.984103
 31
0.0
  0
LINE
  5
7C5
330
556
100
AcDbEntity
  8
DIM
 62
     0
370
    -2
100
AcDbLine
 10
7.813311
 20
7.984103
 30
0.0
 11
8.101311
 21
7.984103
 31
0.0
  0
SOLID
  5
7C6
330
556
100
AcDbEntity
  8
DIM
 62
     0
100
AcDbTrace
 10
6.175310999999999
 20
8.032102999999999
 30
0.0
 11
6.175310999999999
 21
7.936103
 31
0.0
 12
6.463311
 22
7.984103
 32
0.0
 13
6.463311
 23
7.984103
 33
0.0
  0
SOLID
  5
7C7
330
556
100
AcDbEntity
  8
DIM
 62
     0
100
AcDbTrace
 10
7.813311
 20
8.032102999999999
 30
0.0
 11
7.813311
 21
7.936103
 31
0.0
 12
7.525311
 22
7.984103
 32
0.0
 13
7.525311
 23
7.984103
 33
0.0
  0
MTEXT
  5
7C8
330
556
100
AcDbEntity
  8
DIM
 62
     0
100
AcDbMText
 10
6.994310999999999
 20
7.984103
 30
0.0
 40
0.2
 41
0.0
 71
     5
 72
     1
  1
\A1;1.062
 73
     1
 44
1.0
  0
POINT
  5
7C9
330
556
100
AcDbEntity
  8
DEFPOINTS
 62
     0
100
AcDbPoint
 10
6.463311
 20
7.282722999999999
 30
0.0
  0
POINT
  5
7CA
330
556
100
AcDbEntity
  8
DEFPOINTS
 62
     0
100
AcDbPoint
 10
7.525311
 20
5.907723
 30
0.0
  0
POINT
  5
7CB
330
556
100
AcDbEntity
  8
DEFPOINTS
 62
     0
100
AcDbPoint
 10
7.525311
 20
7.984103
 30
0.0
  0
ENDBLK
  5
562
330
556
100
AcDbEntity
  8
0
100
AcDbBlockEnd
  0
BLOCK
  5
56F
330
564
100
AcDbEntity
  8
0
100
AcDbBlockBegin
  2
*D74
 70
     1
 10
0.0
 20
0.0
 30
0.0
  3
*D74
  1

  0
LINE
  5
703
330
564
100
AcDbEntity
  8
DIM
 62
     0
370
    -2
100
AcDbLine
 10
7.525311
 20
6.008523
 30
0.0
 11
7.525311
 21
8.132903
 31
0.0
  0
LINE
  5
704
330
564
100
AcDbEntity
  8
DIM
 62
     0
370
    -2
100
AcDbLine
 10
9.415311
 20
6.008523
 30
0.0
 11
9.415311
 21
8.132903
 31
0.0
  0
LINE
  5
705
330
564
100
AcDbEntity
  8
DIM
 62
     0
370
    -2
100
AcDbLine
 10
7.813311
 20
7.984103
 30
0.0
 11
8.063811000000001
 21
7.984103
 31
0.0
  0
LINE
  5
706
330
564
100
AcDbEntity
  8
DIM
 62
     0
370
    -2
100
AcDbLine
 10
9.127311
 20
7.984103
 30
0.0
 11
8.876811
 21
7.984103
 31
0.0
  0
SOLID
  5
707
330
564
100
AcDbEntity
  8
DIM
 62
     0
100
AcDbTrace
 10
7.813311
 20
8.032102999999999
 30
0.0
 11
7.813311
 21
7.936103
 31
0.0
 12
7.525311
 22
7.984103
 32
0.0
 13
7.525311
 23
7.984103
 33
0.0
  0
SOLID
  5
708
330
564
100
AcDbEntity
  8
DIM
 62
     0
100
AcDbTrace
 10
9.127311
 20
8.032102999999999
 30
0.0
 11
9.127311
 21
7.936103
 31
0.0
 12
9.415311
 22
7.984103
 32
0.0
 13
9.415311
 23
7.984103
 33
0.0
  0
MTEXT
  5
709
330
564
100
AcDbEntity
  8
DIM
 62
     0
100
AcDbMText
 10
8.470311
 20
7.984103
 30
0.0
 40
0.2
 41
0.0
 71
     5
 72
     1
  1
\A1;1.890
 73
     1
 44
1.0
  0
POINT
  5
70A
330
564
100
AcDbEntity
  8
DEFPOINTS
 62
     0
100
AcDbPoint
 10
7.525311
 20
5.907723
 30
0.0
  0
POINT
  5
70B
330
564
100
AcDbEntity
  8
DEFPOINTS
 62
     0
100
AcDbPoint
 10
9.415311
 20
5.907723
 30
0.0
  0
POINT
  5
70C
330
564
100
AcDbEntity
  8
DEFPOINTS
 62
     0
100
AcDbPoint
 10
9.415311
 20
7.984103
 30
0.0
  0
ENDBLK
  5
570
330
564
100
AcDbEntity
  8
0
100
AcDbBlockEnd
  0
BLOCK
  5
57D
330
572
100
AcDbEntity
  8
0
100
AcDbBlockBegin
  2
*D75
 70
     1
 10
0.0
 20
0.0
 30
0.0
  3
*D75
  1

  0
LINE
  5
7CC
330
572
100
AcDbEntity
  8
DIM
 62
     0
370
    -2
100
AcDbLine
 10
8.135310999999999
 20
5.432723000000001
 30
0.0
 11
8.135310999999999
 21
4.401521
 31
0.0
  0
LINE
  5
7CD
330
572
100
AcDbEntity
  8
DIM
 62
     0
370
    -2
100
AcDbLine
 10
9.510310999999999
 20
5.213723
 30
0.0
 11
9.510310999999999
 21
4.401521
 31
0.0
  0
LINE
  5
7CE
330
572
100
AcDbEntity
  8
DIM
 62
     0
370
    -2
100
AcDbLine
 10
7.847310999999999
 20
4.550321
 30
0.0
 11
7.559311
 21
4.550321
 31
0.0
  0
LINE
  5
7CF
330
572
100
AcDbEntity
  8
DIM
 62
     0
370
    -2
100
AcDbLine
 10
9.798310999999999
 20
4.550321
 30
0.0
 11
10.086311
 21
4.550321
 31
0.0
  0
SOLID
  5
7D0
330
572
100
AcDbEntity
  8
DIM
 62
     0
100
AcDbTrace
 10
7.847310999999999
 20
4.598321
 30
0.0
 11
7.847310999999999
 21
4.502321
 31
0.0
 12
8.135310999999999
 22
4.550321
 32
0.0
 13
8.135310999999999
 23
4.550321
 33
0.0
  0
SOLID
  5
7D1
330
572
100
AcDbEntity
  8
DIM
 62
     0
100
AcDbTrace
 10
9.798310999999999
 20
4.598321
 30
0.0
 11
9.798310999999999
 21
4.502321
 31
0.0
 12
9.510310999999999
 22
4.550321
 32
0.0
 13
9.510310999999999
 23
4.550321
 33
0.0
  0
MTEXT
  5
7D2
330
572
100
AcDbEntity
  8
DIM
 62
     0
100
AcDbMText
 10
8.822810999999999
 20
4.550321
 30
0.0
 40
0.2
 41
0.0
 71
     5
 72
     1
  1
\A1;1.375
 73
     1
 44
1.0
  0
POINT
  5
7D3
330
572
100
AcDbEntity
  8
DEFPOINTS
 62
     0
100
AcDbPoint
 10
8.135310999999999
 20
5.532723
 30
0.0
  0
POINT
  5
7D4
330
572
100
AcDbEntity
  8
DEFPOINTS
 62
     0
100
AcDbPoint
 10
9.510310999999999
 20
5.313723
 30
0.0
  0
POINT
  5
7D5
330
572
100
AcDbEntity
  8
DEFPOINTS
 62
     0
100
AcDbPoint
 10
9.510310999999999
 20
4.550321
 30
0.0
  0
ENDBLK
  5
57E
330
572
100
AcDbEntity
  8
0
100
AcDbBlockEnd
  0
BLOCK
  5
58B
330
580
100
AcDbEntity
  8
0
100
AcDbBlockBegin
  2
*D76
 70
     1
 10
0.0
 20
0.0
 30
0.0
  3
*D76
  1

  0
LINE
  5
70D
330
580
100
AcDbEntity
  8
DIM
 62
     0
370
    -2
100
AcDbLine
 10
9.220110999999999
 20
6.610722999999999
 30
0.0
 11
11.674331
 21
6.610722999999998
 31
0.0
  0
LINE
  5
70E
330
580
100
AcDbEntity
  8
DIM
 62
     0
370
    -2
100
AcDbLine
 10
9.220110999999999
 20
5.204723
 30
0.0
 11
11.674331
 21
5.204722999999999
 31
0.0
  0
LINE
  5
70F
330
580
100
AcDbEntity
  8
DIM
 62
     0
370
    -2
100
AcDbLine
 10
11.52553099999999
 20
6.322722999999998
 30
0.0
 11
11.52553099999999
 21
6.151722999999998
 31
0.0
  0
LINE
  5
710
330
580
100
AcDbEntity
  8
DIM
 62
     0
370
    -2
100
AcDbLine
 10
11.52553099999999
 20
5.492722999999999
 30
0.0
 11
11.52553099999999
 21
5.663722999999999
 31
0.0
  0
SOLID
  5
711
330
580
100
AcDbEntity
  8
DIM
 62
     0
100
AcDbTrace
 10
11.47753099999999
 20
6.322722999999998
 30
0.0
 11
11.57353099999999
 21
6.322722999999998
 31
0.0
 12
11.52553099999999
 22
6.610722999999998
 32
0.0
 13
11.52553099999999
 23
6.610722999999998
 33
0.0
  0
SOLID
  5
712
330
580
100
AcDbEntity
  8
DIM
 62
     0
100
AcDbTrace
 10
11.47753099999999
 20
5.492722999999999
 30
0.0
 11
11.57353099999999
 21
5.492722999999999
 31
0.0
 12
11.52553099999999
 22
5.204722999999999
 32
0.0
 13
11.52553099999999
 23
5.204722999999999
 33
0.0
  0
MTEXT
  5
713
330
580
100
AcDbEntity
  8
DIM
 62
     0
100
AcDbMText
 10
11.52553099999999
 20
5.907723
 30
0.0
 40
0.2
 41
0.0
 71
     5
 72
     1
  1
\A1;1.406
 73
     1
 44
1.0
  0
POINT
  5
714
330
580
100
AcDbEntity
  8
DEFPOINTS
 62
     0
100
AcDbPoint
 10
9.119310999999999
 20
6.610722999999999
 30
0.0
  0
POINT
  5
715
330
580
100
AcDbEntity
  8
DEFPOINTS
 62
     0
100
AcDbPoint
 10
9.119310999999999
 20
5.204723
 30
0.0
  0
POINT
  5
716
330
580
100
AcDbEntity
  8
DEFPOINTS
 62
     0
100
AcDbPoint
 10
11.52553099999999
 20
5.204722999999999
 30
0.0
  0
ENDBLK
  5
58C
330
580
100
AcDbEntity
  8
0
100
AcDbBlockEnd
  0
BLOCK
  5
599
330
58E
100
AcDbEntity
  8
0
100
AcDbBlockBegin
  2
*D77
 70
     1
 10
0.0
 20
0.0
 30
0.0
  3
*D77
  1

  0
LINE
  5
7D6
330
58E
100
AcDbEntity
  8
DIM
 62
     0
370
    -2
100
AcDbLine
 10
8.235310999999999
 20
6.282723
 30
0.0
 11
10.236368
 21
6.282722999999999
 31
0.0
  0
LINE
  5
7D7
330
58E
100
AcDbEntity
  8
DIM
 62
     0
370
    -2
100
AcDbLine
 10
9.425310999999998
 20
5.907723
 30
0.0
 11
10.236368
 21
5.907722999999999
 31
0.0
  0
LINE
  5
7D8
330
58E
100
AcDbEntity
  8
DIM
 62
     0
370
    -2
100
AcDbLine
 10
10.087568
 20
6.570723
 30
0.0
 11
10.087568
 21
6.858722999999999
 31
0.0
  0
LINE
  5
7D9
330
58E
100
AcDbEntity
  8
DIM
 62
     0
370
    -2
100
AcDbLine
 10
10.087568
 20
5.619722999999999
 30
0.0
 11
10.087568
 21
5.331723
 31
0.0
  0
SOLID
  5
7DA
330
58E
100
AcDbEntity
  8
DIM
 62
     0
100
AcDbTrace
 10
10.03956799999999
 20
6.570723
 30
0.0
 11
10.13556799999999
 21
6.570723
 31
0.0
 12
10.087568
 22
6.282722999999999
 32
0.0
 13
10.087568
 23
6.282722999999999
 33
0.0
  0
SOLID
  5
7DB
330
58E
100
AcDbEntity
  8
DIM
 62
     0
100
AcDbTrace
 10
10.03956799999999
 20
5.619722999999999
 30
0.0
 11
10.13556799999999
 21
5.619722999999999
 31
0.0
 12
10.087568
 22
5.907722999999999
 32
0.0
 13
10.087568
 23
5.907722999999999
 33
0.0
  0
MTEXT
  5
7DC
330
58E
100
AcDbEntity
  8
DIM
 62
     0
100
AcDbMText
 10
10.08756799999999
 20
6.095223000000001
 30
0.0
 40
0.2
 41
0.0
 71
     5
 72
     1
  1
\A1;0.375
 73
     1
 44
1.0
  0
POINT
  5
7DD
330
58E
100
AcDbEntity
  8
DEFPOINTS
 62
     0
100
AcDbPoint
 10
8.135310999999999
 20
6.282723
 30
0.0
  0
POINT
  5
7DE
330
58E
100
AcDbEntity
  8
DEFPOINTS
 62
     0
100
AcDbPoint
 10
9.325310999999999
 20
5.907723
 30
0.0
  0
POINT
  5
7DF
330
58E
100
AcDbEntity
  8
DEFPOINTS
 62
     0
100
AcDbPoint
 10
10.087568
 20
5.907722999999999
 30
0.0
  0
ENDBLK
  5
59A
330
58E
100
AcDbEntity
  8
0
100
AcDbBlockEnd
  0
BLOCK
  5
5A7
330
59C
100
AcDbEntity
  8
0
100
AcDbBlockBegin
  2
*D78
 70
     1
 10
0.0
 20
0.0
 30
0.0
  3
*D78
  1

  0
LINE
  5
7E0
330
59C
100
AcDbEntity
  8
DIM
 62
     0
370
    -2
100
AcDbLine
 10
9.425310999999998
 20
5.907723
 30
0.0
 11
10.956611
 21
5.907722999999999
 31
0.0
  0
LINE
  5
7E1
330
59C
100
AcDbEntity
  8
DIM
 62
     0
370
    -2
100
AcDbLine
 10
8.235310999999999
 20
5.532723
 30
0.0
 11
10.956611
 21
5.532722999999999
 31
0.0
  0
LINE
  5
7E2
330
59C
100
AcDbEntity
  8
DIM
 62
     0
370
    -2
100
AcDbLine
 10
10.807811
 20
6.195723
 30
0.0
 11
10.807811
 21
6.483722999999999
 31
0.0
  0
LINE
  5
7E3
330
59C
100
AcDbEntity
  8
DIM
 62
     0
370
    -2
100
AcDbLine
 10
10.807811
 20
5.244722999999999
 30
0.0
 11
10.807811
 21
4.956723
 31
0.0
  0
SOLID
  5
7E4
330
59C
100
AcDbEntity
  8
DIM
 62
     0
100
AcDbTrace
 10
10.759811
 20
6.195723
 30
0.0
 11
10.855811
 21
6.195723
 31
0.0
 12
10.807811
 22
5.907722999999999
 32
0.0
 13
10.807811
 23
5.907722999999999
 33
0.0
  0
SOLID
  5
7E5
330
59C
100
AcDbEntity
  8
DIM
 62
     0
100
AcDbTrace
 10
10.759811
 20
5.244722999999999
 30
0.0
 11
10.855811
 21
5.244722999999999
 31
0.0
 12
10.807811
 22
5.532722999999999
 32
0.0
 13
10.807811
 23
5.532722999999999
 33
0.0
  0
MTEXT
  5
7E6
330
59C
100
AcDbEntity
  8
DIM
 62
     0
100
AcDbMText
 10
10.807811
 20
5.720223000000001
 30
0.0
 40
0.2
 41
0.0
 71
     5
 72
     1
  1
\A1;0.375
 73
     1
 44
1.0
  0
POINT
  5
7E7
330
59C
100
AcDbEntity
  8
DEFPOINTS
 62
     0
100
AcDbPoint
 10
9.325310999999999
 20
5.907723
 30
0.0
  0
POINT
  5
7E8
330
59C
100
AcDbEntity
  8
DEFPOINTS
 62
     0
100
AcDbPoint
 10
8.135310999999999
 20
5.532723
 30
0.0
  0
POINT
  5
7E9
330
59C
100
AcDbEntity
  8
DEFPOINTS
 62
     0
100
AcDbPoint
 10
10.807811
 20
5.532722999999999
 30
0.0
  0
ENDBLK
  5
5A8
330
59C
100
AcDbEntity
  8
0
100
AcDbBlockEnd
  0
BLOCK
  5
5B5
330
5AA
100
AcDbEntity
  8
0
100
AcDbBlockBegin
  2
*D79
 70
     1
 10
0.0
 20
0.0
 30
0.0
  3
*D79
  1

  0
LINE
  5
717
330
5AA
100
AcDbEntity
  8
DIM
 62
     0
370
    -2
100
AcDbLine
 10
7.514510999999999
 20
5.997723
 30
0.0
 11
5.9217
 21
5.997723000000001
 31
0.0
  0
LINE
  5
718
330
5AA
100
AcDbEntity
  8
DIM
 62
     0
370
    -2
100
AcDbLine
 10
7.514510999999999
 20
5.817722999999999
 30
0.0
 11
5.9217
 21
5.817723
 31
0.0
  0
LINE
  5
719
330
5AA
100
AcDbEntity
  8
DIM
 62
     0
370
    -2
100
AcDbLine
 10
6.0705
 20
6.285723
 30
0.0
 11
6.0705
 21
6.573723
 31
0.0
  0
LINE
  5
71A
330
5AA
100
AcDbEntity
  8
DIM
 62
     0
370
    -2
100
AcDbLine
 10
6.0705
 20
5.529722999999999
 30
0.0
 11
6.0705
 21
5.241723
 31
0.0
  0
LINE
  5
71B
330
5AA
100
AcDbEntity
  8
DIM
 62
     0
370
    -2
100
AcDbLine
 10
6.0705
 20
5.241723
 30
0.0
 11
5.782499999999999
 21
5.241723000000001
 31
0.0
  0
SOLID
  5
71C
330
5AA
100
AcDbEntity
  8
DIM
 62
     0
100
AcDbTrace
 10
6.0225
 20
6.285723
 30
0.0
 11
6.1185
 21
6.285723
 31
0.0
 12
6.0705
 22
5.997723
 32
0.0
 13
6.0705
 23
5.997723
 33
0.0
  0
SOLID
  5
71D
330
5AA
100
AcDbEntity
  8
DIM
 62
     0
100
AcDbTrace
 10
6.022499999999999
 20
5.529722999999999
 30
0.0
 11
6.1185
 21
5.529722999999999
 31
0.0
 12
6.0705
 22
5.817722999999999
 32
0.0
 13
6.0705
 23
5.817722999999999
 33
0.0
  0
MTEXT
  5
71E
330
5AA
100
AcDbEntity
  8
DIM
 62
     0
100
AcDbMText
 10
5.388499999999998
 20
5.241723000000002
 30
0.0
 40
0.2
 41
0.0
 71
     5
 72
     1
  1
\A1;0.180
 73
     1
 44
1.0
  0
POINT
  5
71F
330
5AA
100
AcDbEntity
  8
DEFPOINTS
 62
     0
100
AcDbPoint
 10
7.615311
 20
5.997723
 30
0.0
  0
POINT
  5
720
330
5AA
100
AcDbEntity
  8
DEFPOINTS
 62
     0
100
AcDbPoint
 10
7.615311
 20
5.817722999999999
 30
0.0
  0
POINT
  5
721
330
5AA
100
AcDbEntity
  8
DEFPOINTS
 62
     0
100
AcDbPoint
 10
6.0705
 20
5.817722999999999
 30
0.0
  0
ENDBLK
  5
5B6
330
5AA
100
AcDbEntity
  8
0
100
AcDbBlockEnd
  0
BLOCK
  5
5CB
330
5C0
100
AcDbEntity
  8
0
100
AcDbBlockBegin
  2
*D80
 70
     1
 10
0.0
 20
0.0
 30
0.0
  3
*D80
  1

  0
LINE
  5
7EA
330
5C0
100
AcDbEntity
  8
DIM
 62
     0
370
    -2
100
AcDbLine
 10
15.31183599999999
 20
8.946263
 30
0.0
 11
15.31183599999999
 21
8.427549
 31
0.0
  0
LINE
  5
7EB
330
5C0
100
AcDbEntity
  8
DIM
 62
     0
370
    -2
100
AcDbLine
 10
16.061836
 20
8.946263
 30
0.0
 11
16.061836
 21
8.427549
 31
0.0
  0
LINE
  5
7EC
330
5C0
100
AcDbEntity
  8
DIM
 62
     0
370
    -2
100
AcDbLine
 10
15.02383599999999
 20
8.576349
 30
0.0
 11
14.73583599999999
 21
8.576349
 31
0.0
  0
LINE
  5
7ED
330
5C0
100
AcDbEntity
  8
DIM
 62
     0
370
    -2
100
AcDbLine
 10
16.34983599999999
 20
8.576349
 30
0.0
 11
16.637836
 21
8.576349
 31
0.0
  0
SOLID
  5
7EE
330
5C0
100
AcDbEntity
  8
DIM
 62
     0
100
AcDbTrace
 10
15.02383599999999
 20
8.624349
 30
0.0
 11
15.02383599999999
 21
8.528349
 31
0.0
 12
15.31183599999999
 22
8.576349
 32
0.0
 13
15.31183599999999
 23
8.576349
 33
0.0
  0
SOLID
  5
7EF
330
5C0
100
AcDbEntity
  8
DIM
 62
     0
100
AcDbTrace
 10
16.34983599999999
 20
8.624349
 30
0.0
 11
16.34983599999999
 21
8.528349
 31
0.0
 12
16.061836
 22
8.576349
 32
0.0
 13
16.061836
 23
8.576349
 33
0.0
  0
MTEXT
  5
7F0
330
5C0
100
AcDbEntity
  8
DIM
 62
     0
100
AcDbMText
 10
15.68683599999999
 20
8.576349
 30
0.0
 40
0.2
 41
0.0
 71
     5
 72
     1
  1
\A1;0.750
 73
     1
 44
1.0
  0
POINT
  5
7F1
330
5C0
100
AcDbEntity
  8
DEFPOINTS
 62
     0
100
AcDbPoint
 10
15.31183599999999
 20
9.046262999999999
 30
0.0
  0
POINT
  5
7F2
330
5C0
100
AcDbEntity
  8
DEFPOINTS
 62
     0
100
AcDbPoint
 10
16.061836
 20
9.046262999999999
 30
0.0
  0
POINT
  5
7F3
330
5C0
100
AcDbEntity
  8
DEFPOINTS
 62
     0
100
AcDbPoint
 10
16.061836
 20
8.576349
 30
0.0
  0
ENDBLK
  5
5CC
330
5C0
100
AcDbEntity
  8
0
100
AcDbBlockEnd
  0
BLOCK
  5
5D9
330
5CE
100
AcDbEntity
  8
0
100
AcDbBlockBegin
  2
*D81
 70
     1
 10
0.0
 20
0.0
 30
0.0
  3
*D81
  1

  0
LINE
  5
7F4
330
5CE
100
AcDbEntity
  8
DIM
 62
     0
370
    -2
100
AcDbLine
 10
16.161836
 20
9.046262999999999
 30
0.0
 11
17.18299
 21
9.046262999999999
 31
0.0
  0
LINE
  5
7F5
330
5CE
100
AcDbEntity
  8
DIM
 62
     0
370
    -2
100
AcDbLine
 10
16.161836
 20
9.734263
 30
0.0
 11
17.18299
 21
9.734263
 31
0.0
  0
LINE
  5
7F6
330
5CE
100
AcDbEntity
  8
DIM
 62
     0
370
    -2
100
AcDbLine
 10
17.03419
 20
8.758262999999999
 30
0.0
 11
17.03419
 21
8.470262999999999
 31
0.0
  0
LINE
  5
7F7
330
5CE
100
AcDbEntity
  8
DIM
 62
     0
370
    -2
100
AcDbLine
 10
17.03419
 20
10.022263
 30
0.0
 11
17.03419
 21
10.310263
 31
0.0
  0
SOLID
  5
7F8
330
5CE
100
AcDbEntity
  8
DIM
 62
     0
100
AcDbTrace
 10
16.98619
 20
8.758262999999999
 30
0.0
 11
17.08218999999999
 21
8.758262999999999
 31
0.0
 12
17.03419
 22
9.046262999999999
 32
0.0
 13
17.03419
 23
9.046262999999999
 33
0.0
  0
SOLID
  5
7F9
330
5CE
100
AcDbEntity
  8
DIM
 62
     0
100
AcDbTrace
 10
16.98619
 20
10.022263
 30
0.0
 11
17.08218999999999
 21
10.022263
 31
0.0
 12
17.03419
 22
9.734263
 32
0.0
 13
17.03419
 23
9.734263
 33
0.0
  0
MTEXT
  5
7FA
330
5CE
100
AcDbEntity
  8
DIM
 62
     0
100
AcDbMText
 10
17.03418999999999
 20
9.390263000000002
 30
0.0
 40
0.2
 41
0.0
 71
     5
 72
     1
  1
\A1;0.688
 73
     1
 44
1.0
  0
POINT
  5
7FB
330
5CE
100
AcDbEntity
  8
DEFPOINTS
 62
     0
100
AcDbPoint
 10
16.061836
 20
9.046262999999999
 30
0.0
  0
POINT
  5
7FC
330
5CE
100
AcDbEntity
  8
DEFPOINTS
 62
     0
100
AcDbPoint
 10
16.061836
 20
9.734263
 30
0.0
  0
POINT
  5
7FD
330
5CE
100
AcDbEntity
  8
DEFPOINTS
 62
     0
100
AcDbPoint
 10
17.03419
 20
9.734263
 30
0.0
  0
ENDBLK
  5
5DA
330
5CE
100
AcDbEntity
  8
0
100
AcDbBlockEnd
  0
BLOCK
  5
5E7
330
5DC
100
AcDbEntity
  8
0
100
AcDbBlockBegin
  2
*D82
 70
     1
 10
0.0
 20
0.0
 30
0.0
  3
*D82
  1

  0
LINE
  5
722
330
5DC
100
AcDbEntity
  8
DIM
 62
     0
370
    -2
100
AcDbLine
 10
17.78582899999999
 20
5.032723
 30
0.0
 11
18.718231
 21
5.032722999999999
 31
0.0
  0
LINE
  5
723
330
5DC
100
AcDbEntity
  8
DIM
 62
     0
370
    -2
100
AcDbLine
 10
17.78582899999999
 20
6.782722999999999
 30
0.0
 11
18.718231
 21
6.782722999999998
 31
0.0
  0
LINE
  5
724
330
5DC
100
AcDbEntity
  8
DIM
 62
     0
370
    -2
100
AcDbLine
 10
18.56943099999999
 20
5.320723
 30
0.0
 11
18.56943099999999
 21
5.663723
 31
0.0
  0
LINE
  5
725
330
5DC
100
AcDbEntity
  8
DIM
 62
     0
370
    -2
100
AcDbLine
 10
18.56943099999999
 20
6.494722999999998
 30
0.0
 11
18.56943099999999
 21
6.151722999999999
 31
0.0
  0
SOLID
  5
726
330
5DC
100
AcDbEntity
  8
DIM
 62
     0
100
AcDbTrace
 10
18.521431
 20
5.320723
 30
0.0
 11
18.61743099999999
 21
5.320723
 31
0.0
 12
18.56943099999999
 22
5.032722999999999
 32
0.0
 13
18.56943099999999
 23
5.032722999999999
 33
0.0
  0
SOLID
  5
727
330
5DC
100
AcDbEntity
  8
DIM
 62
     0
100
AcDbTrace
 10
18.521431
 20
6.494722999999998
 30
0.0
 11
18.61743099999999
 21
6.494722999999998
 31
0.0
 12
18.56943099999999
 22
6.782722999999998
 32
0.0
 13
18.56943099999999
 23
6.782722999999998
 33
0.0
  0
MTEXT
  5
728
330
5DC
100
AcDbEntity
  8
DIM
 62
     0
100
AcDbMText
 10
18.56943099999999
 20
5.907723000000003
 30
0.0
 40
0.2
 41
0.0
 71
     5
 72
     1
  1
\A1;1.750
 73
     1
 44
1.0
  0
POINT
  5
729
330
5DC
100
AcDbEntity
  8
DEFPOINTS
 62
     0
100
AcDbPoint
 10
17.685029
 20
5.032723
 30
0.0
  0
POINT
  5
72A
330
5DC
100
AcDbEntity
  8
DEFPOINTS
 62
     0
100
AcDbPoint
 10
17.685029
 20
6.782722999999999
 30
0.0
  0
POINT
  5
72B
330
5DC
100
AcDbEntity
  8
DEFPOINTS
 62
     0
100
AcDbPoint
 10
18.56943099999999
 20
6.782722999999998
 30
0.0
  0
ENDBLK
  5
5E8
330
5DC
100
AcDbEntity
  8
0
100
AcDbBlockEnd
  0
BLOCK
  5
5F5
330
5EA
100
AcDbEntity
  8
0
100
AcDbBlockBegin
  2
*D83
 70
     1
 10
0.0
 20
0.0
 30
0.0
  3
*D83
  1

  0
LINE
  5
7FE
330
5EA
100
AcDbEntity
  8
DIM
 62
     0
370
    -2
100
AcDbLine
 10
17.785029
 20
6.782722999999999
 30
0.0
 11
18.718231
 21
6.782722999999998
 31
0.0
  0
LINE
  5
7FF
330
5EA
100
AcDbEntity
  8
DIM
 62
     0
370
    -2
100
AcDbLine
 10
18.035029
 20
7.282722999999998
 30
0.0
 11
18.718231
 21
7.282722999999998
 31
0.0
  0
LINE
  5
800
330
5EA
100
AcDbEntity
  8
DIM
 62
     0
370
    -2
100
AcDbLine
 10
18.56943099999999
 20
6.494722999999998
 30
0.0
 11
18.56943099999999
 21
6.206722999999999
 31
0.0
  0
LINE
  5
801
330
5EA
100
AcDbEntity
  8
DIM
 62
     0
370
    -2
100
AcDbLine
 10
18.56943099999999
 20
7.570722999999999
 30
0.0
 11
18.56943099999999
 21
7.858722999999998
 31
0.0
  0
SOLID
  5
802
330
5EA
100
AcDbEntity
  8
DIM
 62
     0
100
AcDbTrace
 10
18.521431
 20
6.494722999999998
 30
0.0
 11
18.61743099999999
 21
6.494722999999998
 31
0.0
 12
18.56943099999999
 22
6.782722999999998
 32
0.0
 13
18.56943099999999
 23
6.782722999999998
 33
0.0
  0
SOLID
  5
803
330
5EA
100
AcDbEntity
  8
DIM
 62
     0
100
AcDbTrace
 10
18.521431
 20
7.570722999999999
 30
0.0
 11
18.61743099999999
 21
7.570722999999999
 31
0.0
 12
18.56943099999999
 22
7.282722999999998
 32
0.0
 13
18.56943099999999
 23
7.282722999999998
 33
0.0
  0
MTEXT
  5
804
330
5EA
100
AcDbEntity
  8
DIM
 62
     0
100
AcDbMText
 10
18.56943099999999
 20
7.032723000000002
 30
0.0
 40
0.2
 41
0.0
 71
     5
 72
     1
  1
\A1;0.500
 73
     1
 44
1.0
  0
POINT
  5
805
330
5EA
100
AcDbEntity
  8
DEFPOINTS
 62
     0
100
AcDbPoint
 10
17.685029
 20
6.782722999999999
 30
0.0
  0
POINT
  5
806
330
5EA
100
AcDbEntity
  8
DEFPOINTS
 62
     0
100
AcDbPoint
 10
17.935029
 20
7.282722999999999
 30
0.0
  0
POINT
  5
807
330
5EA
100
AcDbEntity
  8
DEFPOINTS
 62
     0
100
AcDbPoint
 10
18.56943099999999
 20
7.282722999999998
 30
0.0
  0
ENDBLK
  5
5F6
330
5EA
100
AcDbEntity
  8
0
100
AcDbBlockEnd
  0
BLOCK
  5
603
330
5F8
100
AcDbEntity
  8
0
100
AcDbBlockBegin
  2
*D84
 70
     1
 10
0.0
 20
0.0
 30
0.0
  3
*D84
  1

  0
LINE
  5
808
330
5F8
100
AcDbEntity
  8
DIM
 62
     0
370
    -2
100
AcDbLine
 10
15.46183599999999
 20
5.657723
 30
0.0
 11
13.364132
 21
5.657723000000001
 31
0.0
  0
LINE
  5
809
330
5F8
100
AcDbEntity
  8
DIM
 62
     0
370
    -2
100
AcDbLine
 10
15.46183599999999
 20
5.032723
 30
0.0
 11
13.364132
 21
5.032723000000001
 31
0.0
  0
LINE
  5
80A
330
5F8
100
AcDbEntity
  8
DIM
 62
     0
370
    -2
100
AcDbLine
 10
13.512932
 20
5.945723000000001
 30
0.0
 11
13.512932
 21
6.233723000000001
 31
0.0
  0
LINE
  5
80B
330
5F8
100
AcDbEntity
  8
DIM
 62
     0
370
    -2
100
AcDbLine
 10
13.512932
 20
4.744723000000001
 30
0.0
 11
13.512932
 21
4.456723000000001
 31
0.0
  0
SOLID
  5
80C
330
5F8
100
AcDbEntity
  8
DIM
 62
     0
100
AcDbTrace
 10
13.464932
 20
5.945723000000001
 30
0.0
 11
13.560932
 21
5.945723000000001
 31
0.0
 12
13.512932
 22
5.657723000000001
 32
0.0
 13
13.512932
 23
5.657723000000001
 33
0.0
  0
SOLID
  5
80D
330
5F8
100
AcDbEntity
  8
DIM
 62
     0
100
AcDbTrace
 10
13.464932
 20
4.744723000000001
 30
0.0
 11
13.560932
 21
4.744723000000001
 31
0.0
 12
13.512932
 22
5.032723000000001
 32
0.0
 13
13.512932
 23
5.032723000000001
 33
0.0
  0
MTEXT
  5
80E
330
5F8
100
AcDbEntity
  8
DIM
 62
     0
100
AcDbMText
 10
13.51293199999999
 20
5.345223000000003
 30
0.0
 40
0.2
 41
0.0
 71
     5
 72
     1
  1
\A1;0.625
 73
     1
 44
1.0
  0
POINT
  5
80F
330
5F8
100
AcDbEntity
  8
DEFPOINTS
 62
     0
100
AcDbPoint
 10
15.56183599999999
 20
5.657723
 30
0.0
  0
POINT
  5
810
330
5F8
100
AcDbEntity
  8
DEFPOINTS
 62
     0
100
AcDbPoint
 10
15.56183599999999
 20
5.032723
 30
0.0
  0
POINT
  5
811
330
5F8
100
AcDbEntity
  8
DEFPOINTS
 62
     0
100
AcDbPoint
 10
13.512932
 20
5.032723000000001
 30
0.0
  0
ENDBLK
  5
604
330
5F8
100
AcDbEntity
  8
0
100
AcDbBlockEnd
  0
BLOCK
  5
611
330
606
100
AcDbEntity
  8
0
100
AcDbBlockBegin
  2
*D85
 70
     1
 10
0.0
 20
0.0
 30
0.0
  3
*D85
  1

  0
LINE
  5
812
330
606
100
AcDbEntity
  8
DIM
 62
     0
370
    -2
100
AcDbLine
 10
15.46183599999999
 20
6.157723
 30
0.0
 11
13.972132
 21
6.157723000000001
 31
0.0
  0
LINE
  5
813
330
606
100
AcDbEntity
  8
DIM
 62
     0
370
    -2
100
AcDbLine
 10
15.46183599999999
 20
5.657723
 30
0.0
 11
13.972132
 21
5.657723000000001
 31
0.0
  0
LINE
  5
814
330
606
100
AcDbEntity
  8
DIM
 62
     0
370
    -2
100
AcDbLine
 10
14.120932
 20
6.445723
 30
0.0
 11
14.120932
 21
6.733723
 31
0.0
  0
LINE
  5
815
330
606
100
AcDbEntity
  8
DIM
 62
     0
370
    -2
100
AcDbLine
 10
14.120932
 20
5.369723
 30
0.0
 11
14.120932
 21
5.081723000000001
 31
0.0
  0
SOLID
  5
816
330
606
100
AcDbEntity
  8
DIM
 62
     0
100
AcDbTrace
 10
14.07293199999999
 20
6.445723
 30
0.0
 11
14.168932
 21
6.445723
 31
0.0
 12
14.120932
 22
6.157723
 32
0.0
 13
14.120932
 23
6.157723
 33
0.0
  0
SOLID
  5
817
330
606
100
AcDbEntity
  8
DIM
 62
     0
100
AcDbTrace
 10
14.07293199999999
 20
5.369723
 30
0.0
 11
14.168932
 21
5.369723
 31
0.0
 12
14.120932
 22
5.657723
 32
0.0
 13
14.120932
 23
5.657723
 33
0.0
  0
MTEXT
  5
818
330
606
100
AcDbEntity
  8
DIM
 62
     0
100
AcDbMText
 10
14.12093199999999
 20
5.907723000000003
 30
0.0
 40
0.2
 41
0.0
 71
     5
 72
     1
  1
\A1;0.500
 73
     1
 44
1.0
  0
POINT
  5
819
330
606
100
AcDbEntity
  8
DEFPOINTS
 62
     0
100
AcDbPoint
 10
15.56183599999999
 20
6.157723
 30
0.0
  0
POINT
  5
81A
330
606
100
AcDbEntity
  8
DEFPOINTS
 62
     0
100
AcDbPoint
 10
15.56183599999999
 20
5.657723
 30
0.0
  0
POINT
  5
81B
330
606
100
AcDbEntity
  8
DEFPOINTS
 62
     0
100
AcDbPoint
 10
14.120932
 20
5.657723
 30
0.0
  0
ENDBLK
  5
612
330
606
100
AcDbEntity
  8
0
100
AcDbBlockEnd
  0
BLOCK
  5
61F
330
614
100
AcDbEntity
  8
0
100
AcDbBlockBegin
  2
*D86
 70
     1
 10
0.0
 20
0.0
 30
0.0
  3
*D86
  1

  0
LINE
  5
81C
330
614
100
AcDbEntity
  8
DIM
 62
     0
370
    -2
100
AcDbLine
 10
15.46183599999999
 20
6.782722999999999
 30
0.0
 11
14.580132
 21
6.782722999999999
 31
0.0
  0
LINE
  5
81D
330
614
100
AcDbEntity
  8
DIM
 62
     0
370
    -2
100
AcDbLine
 10
15.46183599999999
 20
6.157723
 30
0.0
 11
14.580132
 21
6.157723
 31
0.0
  0
LINE
  5
81E
330
614
100
AcDbEntity
  8
DIM
 62
     0
370
    -2
100
AcDbLine
 10
14.728932
 20
7.070723
 30
0.0
 11
14.728932
 21
7.358722999999999
 31
0.0
  0
LINE
  5
81F
330
614
100
AcDbEntity
  8
DIM
 62
     0
370
    -2
100
AcDbLine
 10
14.728932
 20
5.869723
 30
0.0
 11
14.728932
 21
5.581723000000001
 31
0.0
  0
SOLID
  5
820
330
614
100
AcDbEntity
  8
DIM
 62
     0
100
AcDbTrace
 10
14.680932
 20
7.070723
 30
0.0
 11
14.776932
 21
7.070723
 31
0.0
 12
14.728932
 22
6.782722999999999
 32
0.0
 13
14.728932
 23
6.782722999999999
 33
0.0
  0
SOLID
  5
821
330
614
100
AcDbEntity
  8
DIM
 62
     0
100
AcDbTrace
 10
14.680932
 20
5.869723
 30
0.0
 11
14.776932
 21
5.869723
 31
0.0
 12
14.728932
 22
6.157723
 32
0.0
 13
14.728932
 23
6.157723
 33
0.0
  0
MTEXT
  5
822
330
614
100
AcDbEntity
  8
DIM
 62
     0
100
AcDbMText
 10
14.72893199999999
 20
6.470223000000003
 30
0.0
 40
0.2
 41
0.0
 71
     5
 72
     1
  1
\A1;0.625
 73
     1
 44
1.0
  0
POINT
  5
823
330
614
100
AcDbEntity
  8
DEFPOINTS
 62
     0
100
AcDbPoint
 10
15.56183599999999
 20
6.782722999999999
 30
0.0
  0
POINT
  5
824
330
614
100
AcDbEntity
  8
DEFPOINTS
 62
     0
100
AcDbPoint
 10
15.56183599999999
 20
6.157723
 30
0.0
  0
POINT
  5
825
330
614
100
AcDbEntity
  8
DEFPOINTS
 62
     0
100
AcDbPoint
 10
14.728932
 20
6.157723
 30
0.0
  0
ENDBLK
  5
620
330
614
100
AcDbEntity
  8
0
100
AcDbBlockEnd
  0
BLOCK
  5
62D
330
622
100
AcDbEntity
  8
0
100
AcDbBlockBegin
  2
*D87
 70
     1
 10
0.0
 20
0.0
 30
0.0
  3
*D87
  1

  0
LINE
  5
72C
330
622
100
AcDbEntity
  8
DIM
 62
     0
370
    -2
100
AcDbLine
 10
15.56183599999999
 20
6.883523
 30
0.0
 11
15.56183599999999
 21
7.874807999999999
 31
0.0
  0
LINE
  5
72D
330
622
100
AcDbEntity
  8
DIM
 62
     0
370
    -2
100
AcDbLine
 10
15.31183599999999
 20
7.383523
 30
0.0
 11
15.31183599999999
 21
7.874807999999999
 31
0.0
  0
LINE
  5
72E
330
622
100
AcDbEntity
  8
DIM
 62
     0
370
    -2
100
AcDbLine
 10
15.84983599999999
 20
7.726008
 30
0.0
 11
16.13783599999999
 21
7.726008
 31
0.0
  0
LINE
  5
72F
330
622
100
AcDbEntity
  8
DIM
 62
     0
370
    -2
100
AcDbLine
 10
15.02383599999999
 20
7.726008
 30
0.0
 11
14.73583599999999
 21
7.726008
 31
0.0
  0
SOLID
  5
730
330
622
100
AcDbEntity
  8
DIM
 62
     0
100
AcDbTrace
 10
15.84983599999999
 20
7.774008
 30
0.0
 11
15.84983599999999
 21
7.678008
 31
0.0
 12
15.56183599999999
 22
7.726008
 32
0.0
 13
15.56183599999999
 23
7.726008
 33
0.0
  0
SOLID
  5
731
330
622
100
AcDbEntity
  8
DIM
 62
     0
100
AcDbTrace
 10
15.02383599999999
 20
7.774008
 30
0.0
 11
15.02383599999999
 21
7.678008
 31
0.0
 12
15.31183599999999
 22
7.726008
 32
0.0
 13
15.31183599999999
 23
7.726008
 33
0.0
  0
MTEXT
  5
732
330
622
100
AcDbEntity
  8
DIM
 62
     0
100
AcDbMText
 10
14.31683599999999
 20
7.726008
 30
0.0
 40
0.2
 41
0.0
 71
     5
 72
     1
  1
\A1;0.250
 73
     1
 44
1.0
  0
POINT
  5
733
330
622
100
AcDbEntity
  8
DEFPOINTS
 62
     0
100
AcDbPoint
 10
15.56183599999999
 20
6.782722999999999
 30
0.0
  0
POINT
  5
734
330
622
100
AcDbEntity
  8
DEFPOINTS
 62
     0
100
AcDbPoint
 10
15.31183599999999
 20
7.282722999999999
 30
0.0
  0
POINT
  5
735
330
622
100
AcDbEntity
  8
DEFPOINTS
 62
     0
100
AcDbPoint
 10
15.31183599999999
 20
7.726008
 30
0.0
  0
ENDBLK
  5
62E
330
622
100
AcDbEntity
  8
0
100
AcDbBlockEnd
  0
BLOCK
  5
63B
330
630
100
AcDbEntity
  8
0
100
AcDbBlockBegin
  2
*D88
 70
     1
 10
0.0
 20
0.0
 30
0.0
  3
*D88
  1

  0
LINE
  5
736
330
630
100
AcDbEntity
  8
DIM
 62
     0
370
    -2
100
AcDbLine
 10
17.685029
 20
4.931923000000001
 30
0.0
 11
17.685029
 21
3.995053
 31
0.0
  0
LINE
  5
737
330
630
100
AcDbEntity
  8
DIM
 62
     0
370
    -2
100
AcDbLine
 10
17.935029
 20
4.431923000000001
 30
0.0
 11
17.935029
 21
3.995053
 31
0.0
  0
LINE
  5
738
330
630
100
AcDbEntity
  8
DIM
 62
     0
370
    -2
100
AcDbLine
 10
17.397029
 20
4.143853
 30
0.0
 11
17.10902899999999
 21
4.143853
 31
0.0
  0
LINE
  5
739
330
630
100
AcDbEntity
  8
DIM
 62
     0
370
    -2
100
AcDbLine
 10
18.223029
 20
4.143853
 30
0.0
 11
18.511029
 21
4.143853
 31
0.0
  0
SOLID
  5
73A
330
630
100
AcDbEntity
  8
DIM
 62
     0
100
AcDbTrace
 10
17.397029
 20
4.191853
 30
0.0
 11
17.397029
 21
4.095852999999999
 31
0.0
 12
17.685029
 22
4.143853
 32
0.0
 13
17.685029
 23
4.143853
 33
0.0
  0
SOLID
  5
73B
330
630
100
AcDbEntity
  8
DIM
 62
     0
100
AcDbTrace
 10
18.223029
 20
4.191853
 30
0.0
 11
18.223029
 21
4.095852999999999
 31
0.0
 12
17.935029
 22
4.143853
 32
0.0
 13
17.935029
 23
4.143853
 33
0.0
  0
MTEXT
  5
73C
330
630
100
AcDbEntity
  8
DIM
 62
     0
100
AcDbMText
 10
18.930029
 20
4.143853
 30
0.0
 40
0.2
 41
0.0
 71
     5
 72
     1
  1
\A1;0.250
 73
     1
 44
1.0
  0
POINT
  5
73D
330
630
100
AcDbEntity
  8
DEFPOINTS
 62
     0
100
AcDbPoint
 10
17.685029
 20
5.032723
 30
0.0
  0
POINT
  5
73E
330
630
100
AcDbEntity
  8
DEFPOINTS
 62
     0
100
AcDbPoint
 10
17.935029
 20
4.532723
 30
0.0
  0
POINT
  5
73F
330
630
100
AcDbEntity
  8
DEFPOINTS
 62
     0
100
AcDbPoint
 10
17.935029
 20
4.143853
 30
0.0
  0
ENDBLK
  5
63C
330
630
100
AcDbEntity
  8
0
100
AcDbBlockEnd
  0
BLOCK
  5
649
330
63E
100
AcDbEntity
  8
0
100
AcDbBlockBegin
  2
*D89
 70
     1
 10
0.0
 20
0.0
 30
0.0
  3
*D89
  1

  0
LINE
  5
740
330
63E
100
AcDbEntity
  8
DIM
 62
     0
370
    -2
100
AcDbLine
 10
16.16263599999999
 20
4.532723
 30
0.0
 11
16.731184
 21
4.532723
 31
0.0
  0
LINE
  5
741
330
63E
100
AcDbEntity
  8
DIM
 62
     0
370
    -2
100
AcDbLine
 10
16.16263599999999
 20
7.282722999999999
 30
0.0
 11
16.731184
 21
7.282722999999999
 31
0.0
  0
LINE
  5
742
330
63E
100
AcDbEntity
  8
DIM
 62
     0
370
    -2
100
AcDbLine
 10
16.582384
 20
4.820723
 30
0.0
 11
16.582384
 21
5.663723
 31
0.0
  0
LINE
  5
743
330
63E
100
AcDbEntity
  8
DIM
 62
     0
370
    -2
100
AcDbLine
 10
16.582384
 20
6.994722999999999
 30
0.0
 11
16.582384
 21
6.151723
 31
0.0
  0
SOLID
  5
744
330
63E
100
AcDbEntity
  8
DIM
 62
     0
100
AcDbTrace
 10
16.534384
 20
4.820723
 30
0.0
 11
16.630384
 21
4.820723
 31
0.0
 12
16.582384
 22
4.532723
 32
0.0
 13
16.582384
 23
4.532723
 33
0.0
  0
SOLID
  5
745
330
63E
100
AcDbEntity
  8
DIM
 62
     0
100
AcDbTrace
 10
16.534384
 20
6.994722999999999
 30
0.0
 11
16.630384
 21
6.994722999999999
 31
0.0
 12
16.582384
 22
7.282722999999999
 32
0.0
 13
16.582384
 23
7.282722999999999
 33
0.0
  0
MTEXT
  5
746
330
63E
100
AcDbEntity
  8
DIM
 62
     0
100
AcDbMText
 10
16.582384
 20
5.907723000000003
 30
0.0
 40
0.2
 41
0.0
 71
     5
 72
     1
  1
\A1;2.750
 73
     1
 44
1.0
  0
POINT
  5
747
330
63E
100
AcDbEntity
  8
DEFPOINTS
 62
     0
100
AcDbPoint
 10
16.061836
 20
4.532723
 30
0.0
  0
POINT
  5
748
330
63E
100
AcDbEntity
  8
DEFPOINTS
 62
     0
100
AcDbPoint
 10
16.061836
 20
7.282722999999999
 30
0.0
  0
POINT
  5
749
330
63E
100
AcDbEntity
  8
DEFPOINTS
 62
     0
100
AcDbPoint
 10
16.582384
 20
7.282722999999999
 30
0.0
  0
ENDBLK
  5
64A
330
63E
100
AcDbEntity
  8
0
100
AcDbBlockEnd
  0
ENDSEC
  0
SECTION
  2
ENTITIES
  0
TEXT
  5
27F
330
1E
100
AcDbEntity
  8
TEXT
100
AcDbText
 10
0.4156666666666668
 20
30.120158
 30
0.0
 40
0.25
  1
NAME
 72
     1
 11
0.8740000000000001
 21
30.120158
 31
0.0
100
AcDbText
  0
TEXT
  5
280
330
1E
100
AcDbEntity
  8
TEXT
100
AcDbText
 10
0.4156666666666668
 20
30.536825
 30
0.0
 40
0.25
  1
PART
 72
     1
 11
0.8740000000000001
 21
30.536825
 31
0.0
100
AcDbText
  0
TEXT
  5
281
330
1E
100
AcDbEntity
  8
TEXT
100
AcDbText
 10
10.744
 20
30.120158
 30
0.0
 40
0.25
  1
No.
 72
     1
 11
10.994
 21
30.120158
 31
0.0
100
AcDbText
  0
TEXT
  5
282
330
1E
100
AcDbEntity
  8
TEXT
100
AcDbText
 10
10.53566666666666
 20
30.536825
 30
0.0
 40
0.25
  1
PART
 72
     1
 11
10.994
 21
30.536825
 31
0.0
100
AcDbText
  0
LINE
  5
283
330
1E
100
AcDbEntity
  8
TITLE
100
AcDbLine
 10
11.744
 20
30.876
 30
0.0
 11
11.744
 21
30.04
 31
0.0
  0
LINE
  5
284
330
1E
100
AcDbEntity
  8
TITLE
100
AcDbLine
 10
10.244
 20
30.876
 30
0.0
 11
10.244
 21
30.04
 31
0.0
  0
LINE
  5
285
330
1E
100
AcDbEntity
  8
TITLE
100
AcDbLine
 10
10.12
 20
30.876
 30
0.0
 11
10.12
 21
30.04
 31
0.0
  0
LINE
  5
286
330
1E
100
AcDbEntity
  8
TITLE
100
AcDbLine
 10
1.624
 20
30.04
 30
0.0
 11
1.624
 21
30.876
 31
0.0
  0
LINE
  5
287
330
1E
100
AcDbEntity
  8
TITLE
100
AcDbLine
 10
0.124
 20
30.04
 30
0.0
 11
20.116
 21
30.04
 31
0.0
  0
LINE
  5
288
330
1E
100
AcDbEntity
  8
TITLE
100
AcDbLine
 10
20.116
 20
0.124
 30
0.0
 11
0.124
 21
0.124
 31
0.0
  0
LINE
  5
289
330
1E
100
AcDbEntity
  8
TITLE
100
AcDbLine
 10
20.116
 20
30.876
 30
0.0
 11
20.116
 21
15.562
 31
0.0
  0
LINE
  5
28A
330
1E
100
AcDbEntity
  8
TITLE
100
AcDbLine
 10
0.124
 20
30.876
 30
0.0
 11
20.116
 21
30.876
 31
0.0
  0
LINE
  5
28B
330
1E
100
AcDbEntity
  8
TITLE
100
AcDbLine
 10
0.124
 20
0.124
 30
0.0
 11
0.124
 21
15.438
 31
0.0
  0
LINE
  5
28C
330
1E
100
AcDbEntity
  8
TITLE
100
AcDbLine
 10
0.0
 20
0.0
 30
0.0
 11
0.0
 21
31.0
 31
0.0
  0
LINE
  5
28D
330
1E
100
AcDbEntity
  8
TITLE
100
AcDbLine
 10
20.24
 20
0.0
 30
0.0
 11
0.0
 21
0.0
 31
0.0
  0
LINE
  5
28E
330
1E
100
AcDbEntity
  8
TITLE
100
AcDbLine
 10
20.24
 20
31.0
 30
0.0
 11
20.24
 21
0.0
 31
0.0
  0
LINE
  5
28F
330
1E
100
AcDbEntity
  8
TITLE
100
AcDbLine
 10
0.0
 20
31.0
 30
0.0
 11
20.24
 21
31.0
 31
0.0
  0
LINE
  5
290
330
1E
100
AcDbEntity
  8
TITLE
100
AcDbLine
 10
0.124
 20
15.562
 30
0.0
 11
20.116
 21
15.562
 31
0.0
  0
LINE
  5
291
330
1E
100
AcDbEntity
  8
TITLE
100
AcDbLine
 10
0.124
 20
15.438
 30
0.0
 11
20.116
 21
15.438
 31
0.0
  0
LINE
  5
292
330
1E
100
AcDbEntity
  8
TITLE
100
AcDbLine
 10
0.124
 20
14.602
 30
0.0
 11
20.116
 21
14.602
 31
0.0
  0
LINE
  5
293
330
1E
100
AcDbEntity
  8
TITLE
100
AcDbLine
 10
1.624
 20
14.602
 30
0.0
 11
1.624
 21
15.438
 31
0.0
  0
LINE
  5
294
330
1E
100
AcDbEntity
  8
TITLE
100
AcDbLine
 10
10.12
 20
15.438
 30
0.0
 11
10.12
 21
14.602
 31
0.0
  0
LINE
  5
295
330
1E
100
AcDbEntity
  8
TITLE
100
AcDbLine
 10
10.244
 20
15.438
 30
0.0
 11
10.244
 21
14.602
 31
0.0
  0
LINE
  5
296
330
1E
100
AcDbEntity
  8
TITLE
100
AcDbLine
 10
11.744
 20
15.438
 30
0.0
 11
11.744
 21
14.602
 31
0.0
  0
TEXT
  5
297
330
1E
100
AcDbEntity
  8
TEXT
100
AcDbText
 10
10.53566666666666
 20
15.09882499999999
 30
0.0
 40
0.25
  1
PART
 72
     1
 11
10.994
 21
15.09882499999999
 31
0.0
100
AcDbText
  0
TEXT
  5
298
330
1E
100
AcDbEntity
  8
TEXT
100
AcDbText
 10
10.744
 20
14.682158
 30
0.0
 40
0.25
  1
No.
 72
     1
 11
10.994
 21
14.682158
 31
0.0
100
AcDbText
  0
TEXT
  5
299
330
1E
100
AcDbEntity
  8
TEXT
100
AcDbText
 10
0.4156666666666668
 20
15.09882499999999
 30
0.0
 40
0.25
  1
PART
 72
     1
 11
0.8740000000000001
 21
15.09882499999999
 31
0.0
100
AcDbText
  0
TEXT
  5
29A
330
1E
100
AcDbEntity
  8
TEXT
100
AcDbText
 10
0.4156666666666668
 20
14.682158
 30
0.0
 40
0.25
  1
NAME
 72
     1
 11
0.8740000000000001
 21
14.682158
 31
0.0
100
AcDbText
  0
LINE
  5
29B
330
1E
100
AcDbEntity
  8
TITLE
100
AcDbLine
 10
0.124
 20
15.562
 30
0.0
 11
0.124
 21
30.876
 31
0.0
  0
LINE
  5
29C
330
1E
100
AcDbEntity
  8
TITLE
100
AcDbLine
 10
20.116
 20
15.438
 30
0.0
 11
20.116
 21
0.124
 31
0.0
  0
TEXT
  5
29D
330
1E
100
AcDbEntity
  8
TEXT
100
AcDbText
 10
2.986000000000001
 20
30.302
 30
0.0
 40
0.312
  1
SLIDE MOUNTING BRACKET KIT
 41
0.75
 72
     1
 11
5.872
 21
30.302
 31
0.0
100
AcDbText
  0
TEXT
  5
29E
330
1E
100
AcDbEntity
  8
TEXT
100
AcDbText
 10
13.27949999999999
 20
30.302
 30
0.0
 40
0.312
  1
BAS-5106
 41
0.75
 72
     1
 11
14.11799999999999
 21
30.302
 31
0.0
100
AcDbText
  0
TEXT
  5
29F
330
1E
100
AcDbEntity
  8
DIM
100
AcDbText
 10
71.801781
 20
34.87778
 30
0.0
 40
0.5
  1

100
AcDbText
  0
TEXT
  5
2A0
330
1E
100
AcDbEntity
  8
DIM
100
AcDbText
 10
54.37978100000001
 20
52.77447399999999
 30
0.0
 40
0.5
  1

100
AcDbText
  0
TEXT
  5
2A1
330
1E
100
AcDbEntity
  8
DIM
100
AcDbText
 10
87.448961
 20
47.29275999999999
 30
0.0
 40
0.5
  1

100
AcDbText
  0
TEXT
  5
2A2
330
1E
100
AcDbEntity
  8
DIM
100
AcDbText
 10
89.976239
 20
45.549278
 30
0.0
 40
0.5
  1

100
AcDbText
  0
TEXT
  5
2A3
330
1E
100
AcDbEntity
  8
DIM
100
AcDbText
 10
31.74321599999999
 20
25.924103
 30
0.0
 40
0.5
  1

100
AcDbText
  0
TEXT
  5
2A4
330
1E
100
AcDbEntity
  8
DIM
100
AcDbText
 10
41.80234399999999
 20
29.840124
 30
0.0
 40
0.5
  1

100
AcDbText
  0
TEXT
  5
2A5
330
1E
100
AcDbEntity
  8
DIM
100
AcDbText
 10
71.07339899999999
 20
39.946353
 30
0.0
 40
0.5
  1

100
AcDbText
  0
TEXT
  5
2A6
330
1E
100
AcDbEntity
  8
DIM
100
AcDbText
 10
52.323399
 20
39.946353
 30
0.0
 40
0.5
  1

100
AcDbText
  0
TEXT
  5
2A7
330
1E
100
AcDbEntity
  8
DIM
100
AcDbText
 10
67.90673199999999
 20
31.802667
 30
0.0
 40
0.5
  1

100
AcDbText
  0
LINE
  5
2A8
330
1E
100
AcDbEntity
  8
OBJECT
100
AcDbLine
 10
10.414042
 20
22.34098499999999
 30
0.0
 11
16.617042
 21
22.34098499999999
 31
0.0
  0
LINE
  5
2A9
330
1E
100
AcDbEntity
  8
OBJECT
100
AcDbLine
 10
16.703542
 20
23.997485
 30
0.0
 11
10.26354199999999
 21
23.997485
 31
0.0
  0
LINE
  5
2AA
330
1E
100
AcDbEntity
  8
OBJECT
100
AcDbLine
 10
10.26354199999999
 20
20.497485
 30
0.0
 11
16.703542
 21
20.497485
 31
0.0
  0
LINE
  5
2AB
330
1E
100
AcDbEntity
  8
OBJECT
100
AcDbLine
 10
16.890542
 20
20.684485
 30
0.0
 11
16.890542
 21
23.81048499999999
 31
0.0
  0
ARC
  5
2AC
330
1E
100
AcDbEntity
  8
OBJECT
100
AcDbCircle
 10
16.560542
 20
20.747485
 30
0.0
 40
0.125
100
AcDbArc
 50
270.0
 51
90.0
  0
ARC
  5
2AD
330
1E
100
AcDbEntity
  8
OBJECT
100
AcDbCircle
 10
15.440542
 20
20.747485
 30
0.0
 40
0.125
100
AcDbArc
 50
90.0
 51
270.0
  0
LINE
  5
2AE
330
1E
100
AcDbEntity
  8
OBJECT
100
AcDbLine
 10
16.560542
 20
20.622485
 30
0.0
 11
15.440542
 21
20.622485
 31
0.0
  0
LINE
  5
2AF
330
1E
100
AcDbEntity
  8
OBJECT
100
AcDbLine
 10
15.440542
 20
20.872485
 30
0.0
 11
16.560542
 21
20.872485
 31
0.0
  0
LINE
  5
2B0
330
1E
100
AcDbEntity
  8
OBJECT
100
AcDbLine
 10
13.820542
 20
20.872485
 30
0.0
 11
14.940542
 21
20.872485
 31
0.0
  0
LINE
  5
2B1
330
1E
100
AcDbEntity
  8
OBJECT
100
AcDbLine
 10
14.940542
 20
20.622485
 30
0.0
 11
13.820542
 21
20.622485
 31
0.0
  0
ARC
  5
2B2
330
1E
100
AcDbEntity
  8
OBJECT
100
AcDbCircle
 10
13.820542
 20
20.747485
 30
0.0
 40
0.125
100
AcDbArc
 50
90.0
 51
270.0
  0
ARC
  5
2B3
330
1E
100
AcDbEntity
  8
OBJECT
100
AcDbCircle
 10
14.940542
 20
20.747485
 30
0.0
 40
0.125
100
AcDbArc
 50
270.0
 51
90.0
  0
LINE
  5
2B4
330
1E
100
AcDbEntity
  8
OBJECT
100
AcDbLine
 10
12.200542
 20
20.872485
 30
0.0
 11
13.320542
 21
20.872485
 31
0.0
  0
LINE
  5
2B5
330
1E
100
AcDbEntity
  8
OBJECT
100
AcDbLine
 10
13.320542
 20
20.622485
 30
0.0
 11
12.200542
 21
20.622485
 31
0.0
  0
ARC
  5
2B6
330
1E
100
AcDbEntity
  8
OBJECT
100
AcDbCircle
 10
12.200542
 20
20.747485
 30
0.0
 40
0.125
100
AcDbArc
 50
90.0
 51
270.0
  0
ARC
  5
2B7
330
1E
100
AcDbEntity
  8
OBJECT
100
AcDbCircle
 10
13.320542
 20
20.747485
 30
0.0
 40
0.125
100
AcDbArc
 50
270.0
 51
90.0
  0
LINE
  5
2B8
330
1E
100
AcDbEntity
  8
OBJECT
100
AcDbLine
 10
10.58054199999999
 20
20.872485
 30
0.0
 11
11.700542
 21
20.872485
 31
0.0
  0
LINE
  5
2B9
330
1E
100
AcDbEntity
  8
OBJECT
100
AcDbLine
 10
11.700542
 20
20.622485
 30
0.0
 11
10.58054199999999
 21
20.622485
 31
0.0
  0
ARC
  5
2BA
330
1E
100
AcDbEntity
  8
OBJECT
100
AcDbCircle
 10
10.58054199999999
 20
20.747485
 30
0.0
 40
0.125
100
AcDbArc
 50
90.0
 51
270.0
  0
ARC
  5
2BB
330
1E
100
AcDbEntity
  8
OBJECT
100
AcDbCircle
 10
11.700542
 20
20.747485
 30
0.0
 40
0.125
100
AcDbArc
 50
270.0
 51
90.0
  0
ARC
  5
2BC
330
1E
100
AcDbEntity
  8
OBJECT
100
AcDbCircle
 10
16.617042
 20
22.247485
 30
0.0
 40
0.0935
100
AcDbArc
 50
270.0
 51
90.0
  0
ARC
  5
2BD
330
1E
100
AcDbEntity
  8
OBJECT
100
AcDbCircle
 10
10.414042
 20
22.247485
 30
0.0
 40
0.0935
100
AcDbArc
 50
90.0
 51
270.0
  0
LINE
  5
2BE
330
1E
100
AcDbEntity
  8
OBJECT
100
AcDbLine
 10
16.617042
 20
22.153985
 30
0.0
 11
10.414042
 21
22.153985
 31
0.0
  0
ARC
  5
2BF
330
1E
100
AcDbEntity
  8
OBJECT
100
AcDbCircle
 10
11.700542
 20
23.747485
 30
0.0
 40
0.125
100
AcDbArc
 50
270.0
 51
90.0
  0
ARC
  5
2C0
330
1E
100
AcDbEntity
  8
OBJECT
100
AcDbCircle
 10
10.58054199999999
 20
23.747485
 30
0.0
 40
0.125
100
AcDbArc
 50
90.0
 51
270.0
  0
LINE
  5
2C1
330
1E
100
AcDbEntity
  8
OBJECT
100
AcDbLine
 10
11.700542
 20
23.872485
 30
0.0
 11
10.58054199999999
 21
23.872485
 31
0.0
  0
LINE
  5
2C2
330
1E
100
AcDbEntity
  8
OBJECT
100
AcDbLine
 10
10.58054199999999
 20
23.622485
 30
0.0
 11
11.700542
 21
23.622485
 31
0.0
  0
ARC
  5
2C3
330
1E
100
AcDbEntity
  8
OBJECT
100
AcDbCircle
 10
13.320542
 20
23.747485
 30
0.0
 40
0.125
100
AcDbArc
 50
270.0
 51
90.0
  0
ARC
  5
2C4
330
1E
100
AcDbEntity
  8
OBJECT
100
AcDbCircle
 10
12.200542
 20
23.747485
 30
0.0
 40
0.125
100
AcDbArc
 50
90.0
 51
270.0
  0
LINE
  5
2C5
330
1E
100
AcDbEntity
  8
OBJECT
100
AcDbLine
 10
13.320542
 20
23.872485
 30
0.0
 11
12.200542
 21
23.872485
 31
0.0
  0
LINE
  5
2C6
330
1E
100
AcDbEntity
  8
OBJECT
100
AcDbLine
 10
12.200542
 20
23.622485
 30
0.0
 11
13.320542
 21
23.622485
 31
0.0
  0
ARC
  5
2C7
330
1E
100
AcDbEntity
  8
OBJECT
100
AcDbCircle
 10
14.940542
 20
23.747485
 30
0.0
 40
0.125
100
AcDbArc
 50
270.0
 51
90.0
  0
ARC
  5
2C8
330
1E
100
AcDbEntity
  8
OBJECT
100
AcDbCircle
 10
13.820542
 20
23.747485
 30
0.0
 40
0.125
100
AcDbArc
 50
90.0
 51
270.0
  0
LINE
  5
2C9
330
1E
100
AcDbEntity
  8
OBJECT
100
AcDbLine
 10
14.940542
 20
23.872485
 30
0.0
 11
13.820542
 21
23.872485
 31
0.0
  0
LINE
  5
2CA
330
1E
100
AcDbEntity
  8
OBJECT
100
AcDbLine
 10
13.820542
 20
23.622485
 30
0.0
 11
14.940542
 21
23.622485
 31
0.0
  0
LINE
  5
2CB
330
1E
100
AcDbEntity
  8
OBJECT
100
AcDbLine
 10
15.440542
 20
23.622485
 30
0.0
 11
16.560542
 21
23.622485
 31
0.0
  0
LINE
  5
2CC
330
1E
100
AcDbEntity
  8
OBJECT
100
AcDbLine
 10
16.560542
 20
23.872485
 30
0.0
 11
15.440542
 21
23.872485
 31
0.0
  0
ARC
  5
2CD
330
1E
100
AcDbEntity
  8
OBJECT
100
AcDbCircle
 10
15.440542
 20
23.747485
 30
0.0
 40
0.125
100
AcDbArc
 50
90.0
 51
270.0
  0
ARC
  5
2CE
330
1E
100
AcDbEntity
  8
OBJECT
100
AcDbCircle
 10
16.560542
 20
23.747485
 30
0.0
 40
0.125
100
AcDbArc
 50
270.0
 51
90.0
  0
LINE
  5
2CF
330
1E
100
AcDbEntity
  8
OBJECT
100
AcDbLine
 10
9.613542
 20
20.872485
 30
0.0
 11
9.888541999999999
 21
20.872485
 31
0.0
  0
LINE
  5
2D0
330
1E
100
AcDbEntity
  8
OBJECT
100
AcDbLine
 10
10.26354199999999
 20
20.497485
 30
0.0
 11
9.888541999999999
 21
20.872485
 31
0.0
  0
ARC
  5
2D1
330
1E
100
AcDbEntity
  8
OBJECT
100
AcDbCircle
 10
9.842541999999999
 20
23.122485
 30
0.0
 40
0.109
100
AcDbArc
 50
270.0
 51
90.0
  0
LINE
  5
2D2
330
1E
100
AcDbEntity
  8
OBJECT
100
AcDbLine
 10
10.26354199999999
 20
23.997485
 30
0.0
 11
9.888541999999999
 21
23.622485
 31
0.0
  0
LINE
  5
2D3
330
1E
100
AcDbEntity
  8
OBJECT
100
AcDbLine
 10
9.613542
 20
23.622485
 30
0.0
 11
9.888541999999999
 21
23.622485
 31
0.0
  0
ARC
  5
2D4
330
1E
100
AcDbEntity
  8
OBJECT
100
AcDbCircle
 10
16.703542
 20
20.684485
 30
0.0
 40
0.187
100
AcDbArc
 50
270.0
 51
0.0
  0
ARC
  5
2D5
330
1E
100
AcDbEntity
  8
OBJECT
100
AcDbCircle
 10
16.703542
 20
23.81048499999999
 30
0.0
 40
0.187
100
AcDbArc
 50
0.0
 51
90.0
  0
LINE
  5
2D6
330
1E
100
AcDbEntity
  8
OBJECT
100
AcDbLine
 10
13.00691999999999
 20
23.00448499999999
 30
0.0
 11
11.154165
 21
23.00448499999999
 31
0.0
  0
LINE
  5
2D7
330
1E
100
AcDbEntity
  8
OBJECT
100
AcDbLine
 10
9.613542
 20
20.872485
 30
0.0
 11
9.613542
 21
23.622485
 31
0.0
  0
LINE
  5
2D8
330
1E
100
AcDbEntity
  8
OBJECT
100
AcDbLine
 10
9.675542
 20
20.872485
 30
0.0
 11
9.675542
 21
23.622485
 31
0.0
  0
LINE
  5
2D9
330
1E
100
AcDbEntity
  8
OBJECT
100
AcDbLine
 10
3.51839
 20
21.263485
 30
0.0
 11
3.912389999999999
 21
21.263485
 31
0.0
  0
LINE
  5
2DA
330
1E
100
AcDbEntity
  8
OBJECT
100
AcDbLine
 10
3.51839
 20
21.481485
 30
0.0
 11
3.912389999999999
 21
21.481485
 31
0.0
  0
ARC
  5
2DB
330
1E
100
AcDbEntity
  8
OBJECT
100
AcDbCircle
 10
3.912389999999999
 20
21.372485
 30
0.0
 40
0.109
100
AcDbArc
 50
270.0
 51
90.0
  0
ARC
  5
2DC
330
1E
100
AcDbEntity
  8
OBJECT
100
AcDbCircle
 10
3.912389999999999
 20
21.997485
 30
0.0
 40
0.109
100
AcDbArc
 50
270.0
 51
90.0
  0
LINE
  5
2DD
330
1E
100
AcDbEntity
  8
OBJECT
100
AcDbLine
 10
3.51839
 20
22.106485
 30
0.0
 11
3.912389999999999
 21
22.106485
 31
0.0
  0
LINE
  5
2DE
330
1E
100
AcDbEntity
  8
OBJECT
100
AcDbLine
 10
3.51839
 20
21.888485
 30
0.0
 11
3.912389999999999
 21
21.888485
 31
0.0
  0
LINE
  5
2DF
330
1E
100
AcDbEntity
  8
OBJECT
100
AcDbLine
 10
3.51839
 20
22.60648499999999
 30
0.0
 11
3.912389999999999
 21
22.60648499999999
 31
0.0
  0
LINE
  5
2E0
330
1E
100
AcDbEntity
  8
OBJECT
100
AcDbLine
 10
3.51839
 20
22.388485
 30
0.0
 11
3.912389999999999
 21
22.388485
 31
0.0
  0
ARC
  5
2E1
330
1E
100
AcDbEntity
  8
OBJECT
100
AcDbCircle
 10
3.912389999999999
 20
22.497485
 30
0.0
 40
0.109
100
AcDbArc
 50
270.0
 51
90.0
  0
ARC
  5
2E2
330
1E
100
AcDbEntity
  8
OBJECT
100
AcDbCircle
 10
3.912389999999999
 20
23.122485
 30
0.0
 40
0.109
100
AcDbArc
 50
270.0
 51
90.0
  0
LINE
  5
2E3
330
1E
100
AcDbEntity
  8
OBJECT
100
AcDbLine
 10
3.16839
 20
21.490485
 30
0.0
 11
3.16839
 21
21.552485
 31
0.0
  0
LINE
  5
2E4
330
1E
100
AcDbEntity
  8
OBJECT
100
AcDbLine
 10
3.51839
 20
21.552485
 30
0.0
 11
3.16839
 21
21.552485
 31
0.0
  0
LINE
  5
2E5
330
1E
100
AcDbEntity
  8
OBJECT
100
AcDbLine
 10
3.51839
 20
21.490485
 30
0.0
 11
3.16839
 21
21.490485
 31
0.0
  0
LINE
  5
2E6
330
1E
100
AcDbEntity
  8
OBJECT
100
AcDbLine
 10
3.51839
 20
22.942485
 30
0.0
 11
3.16839
 21
22.942485
 31
0.0
  0
LINE
  5
2E7
330
1E
100
AcDbEntity
  8
OBJECT
100
AcDbLine
 10
3.51839
 20
23.00448499999999
 30
0.0
 11
3.16839
 21
23.00448499999999
 31
0.0
  0
LINE
  5
2E8
330
1E
100
AcDbEntity
  8
OBJECT
100
AcDbLine
 10
3.16839
 20
22.942485
 30
0.0
 11
3.16839
 21
23.00448499999999
 31
0.0
  0
LINE
  5
2E9
330
1E
100
AcDbEntity
  8
OBJECT
100
AcDbLine
 10
3.51839
 20
20.497485
 30
0.0
 11
3.51839
 21
23.997485
 31
0.0
  0
LINE
  5
2EA
330
1E
100
AcDbEntity
  8
OBJECT
100
AcDbLine
 10
3.580389999999999
 20
20.497485
 30
0.0
 11
3.580389999999999
 21
20.872485
 31
0.0
  0
LINE
  5
2EB
330
1E
100
AcDbEntity
  8
OBJECT
100
AcDbLine
 10
3.580389999999999
 20
23.997485
 30
0.0
 11
3.51839
 21
23.997485
 31
0.0
  0
LINE
  5
2EC
330
1E
100
AcDbEntity
  8
OBJECT
100
AcDbLine
 10
3.580389999999999
 20
20.497485
 30
0.0
 11
3.51839
 21
20.497485
 31
0.0
  0
LINE
  5
2ED
330
1E
100
AcDbEntity
  8
OBJECT
100
AcDbLine
 10
4.081389999999999
 20
21.059485
 30
0.0
 11
4.081389999999999
 21
23.435485
 31
0.0
  0
LINE
  5
2EE
330
1E
100
AcDbEntity
  8
OBJECT
100
AcDbLine
 10
3.51839
 20
23.622485
 30
0.0
 11
3.894389999999999
 21
23.622485
 31
0.0
  0
LINE
  5
2EF
330
1E
100
AcDbEntity
  8
OBJECT
100
AcDbLine
 10
3.51839
 20
20.872485
 30
0.0
 11
3.894389999999999
 21
20.872485
 31
0.0
  0
ARC
  5
2F0
330
1E
100
AcDbEntity
  8
OBJECT
100
AcDbCircle
 10
3.894389999999999
 20
23.435485
 30
0.0
 40
0.187
100
AcDbArc
 50
0.0
 51
90.0
  0
ARC
  5
2F1
330
1E
100
AcDbEntity
  8
OBJECT
100
AcDbCircle
 10
3.894389999999999
 20
21.059485
 30
0.0
 40
0.187
100
AcDbArc
 50
270.0
 51
0.0
  0
LINE
  5
2F2
330
1E
100
AcDbEntity
  8
HIDDEN
100
AcDbLine
 10
3.580389999999999
 20
20.872485
 30
0.0
 11
3.580389999999999
 21
21.263485
 31
0.0
  0
LINE
  5
2F3
330
1E
100
AcDbEntity
  8
OBJECT
100
AcDbLine
 10
3.580389999999999
 20
23.622485
 30
0.0
 11
3.580389999999999
 21
23.997485
 31
0.0
  0
LINE
  5
2F4
330
1E
100
AcDbEntity
  8
OBJECT
100
AcDbLine
 10
3.51839
 20
23.013485
 30
0.0
 11
3.912389999999999
 21
23.013485
 31
0.0
  0
LINE
  5
2F5
330
1E
100
AcDbEntity
  8
OBJECT
100
AcDbLine
 10
3.51839
 20
23.23148499999999
 30
0.0
 11
3.912389999999999
 21
23.23148499999999
 31
0.0
  0
LINE
  5
2F6
330
1E
100
AcDbEntity
  8
HIDDEN
100
AcDbLine
 10
3.580389999999999
 20
23.23148499999999
 30
0.0
 11
3.580389999999999
 21
23.622485
 31
0.0
  0
LINE
  5
2F7
330
1E
100
AcDbEntity
  8
OBJECT
100
AcDbLine
 10
3.580389999999999
 20
23.013485
 30
0.0
 11
3.580389999999999
 21
23.23148499999999
 31
0.0
  0
LINE
  5
2F8
330
1E
100
AcDbEntity
  8
HIDDEN
100
AcDbLine
 10
3.580389999999999
 20
22.60648499999999
 30
0.0
 11
3.580389999999999
 21
23.013485
 31
0.0
  0
LINE
  5
2F9
330
1E
100
AcDbEntity
  8
OBJECT
100
AcDbLine
 10
3.580389999999999
 20
22.388485
 30
0.0
 11
3.580389999999999
 21
22.60648499999999
 31
0.0
  0
LINE
  5
2FA
330
1E
100
AcDbEntity
  8
HIDDEN
100
AcDbLine
 10
3.580389999999999
 20
22.106485
 30
0.0
 11
3.580389999999999
 21
22.388485
 31
0.0
  0
LINE
  5
2FB
330
1E
100
AcDbEntity
  8
OBJECT
100
AcDbLine
 10
3.580389999999999
 20
21.888485
 30
0.0
 11
3.580389999999999
 21
22.106485
 31
0.0
  0
LINE
  5
2FC
330
1E
100
AcDbEntity
  8
HIDDEN
100
AcDbLine
 10
3.580389999999999
 20
21.481485
 30
0.0
 11
3.580389999999999
 21
21.888485
 31
0.0
  0
LINE
  5
2FD
330
1E
100
AcDbEntity
  8
OBJECT
100
AcDbLine
 10
3.580389999999999
 20
21.263485
 30
0.0
 11
3.580389999999999
 21
21.481485
 31
0.0
  0
LINE
  5
2FE
330
1E
100
AcDbEntity
  8
OBJECT
100
AcDbLine
 10
9.842541999999999
 20
23.23148499999999
 30
0.0
 11
9.675542
 21
23.23148499999999
 31
0.0
  0
LINE
  5
2FF
330
1E
100
AcDbEntity
  8
OBJECT
100
AcDbLine
 10
9.842541999999999
 20
23.013485
 30
0.0
 11
9.675542
 21
23.013485
 31
0.0
  0
LINE
  5
300
330
1E
100
AcDbEntity
  8
OBJECT
100
AcDbLine
 10
9.842541999999999
 20
22.388485
 30
0.0
 11
9.675542
 21
22.388485
 31
0.0
  0
LINE
  5
301
330
1E
100
AcDbEntity
  8
OBJECT
100
AcDbLine
 10
9.842541999999999
 20
22.60648499999999
 30
0.0
 11
9.675542
 21
22.60648499999999
 31
0.0
  0
ARC
  5
302
330
1E
100
AcDbEntity
  8
OBJECT
100
AcDbCircle
 10
9.842541999999999
 20
22.497485
 30
0.0
 40
0.109
100
AcDbArc
 50
270.0
 51
90.0
  0
ARC
  5
303
330
1E
100
AcDbEntity
  8
OBJECT
100
AcDbCircle
 10
9.842541999999999
 20
21.997485
 30
0.0
 40
0.109
100
AcDbArc
 50
270.0
 51
90.0
  0
LINE
  5
304
330
1E
100
AcDbEntity
  8
OBJECT
100
AcDbLine
 10
9.842541999999999
 20
21.888485
 30
0.0
 11
9.675542
 21
21.888485
 31
0.0
  0
LINE
  5
305
330
1E
100
AcDbEntity
  8
OBJECT
100
AcDbLine
 10
9.842541999999999
 20
22.106485
 30
0.0
 11
9.675542
 21
22.106485
 31
0.0
  0
LINE
  5
306
330
1E
100
AcDbEntity
  8
OBJECT
100
AcDbLine
 10
9.842541999999999
 20
21.481485
 30
0.0
 11
9.675542
 21
21.481485
 31
0.0
  0
LINE
  5
307
330
1E
100
AcDbEntity
  8
OBJECT
100
AcDbLine
 10
9.842541999999999
 20
21.263485
 30
0.0
 11
9.675542
 21
21.263485
 31
0.0
  0
ARC
  5
308
330
1E
100
AcDbEntity
  8
OBJECT
100
AcDbCircle
 10
9.842541999999999
 20
21.372485
 30
0.0
 40
0.109
100
AcDbArc
 50
270.0
 51
90.0
  0
LINE
  5
309
330
1E
100
AcDbEntity
  8
OBJECT
100
AcDbLine
 10
9.613542
 20
27.101443
 30
0.0
 11
9.613542
 21
26.592443
 31
0.0
  0
LINE
  5
30A
330
1E
100
AcDbEntity
  8
OBJECT
100
AcDbLine
 10
9.675542
 20
27.03944299999999
 30
0.0
 11
9.675542
 21
26.592443
 31
0.0
  0
LINE
  5
30B
330
1E
100
AcDbEntity
  8
OBJECT
100
AcDbLine
 10
9.675542
 20
26.592443
 30
0.0
 11
9.613542
 21
26.592443
 31
0.0
  0
LINE
  5
30C
330
1E
100
AcDbEntity
  8
OBJECT
100
AcDbLine
 10
9.675542
 20
26.718693
 30
0.0
 11
9.675542
 21
27.007693
 31
0.0
  0
LINE
  5
30D
330
1E
100
AcDbEntity
  8
OBJECT
100
AcDbLine
 10
16.890542
 20
27.03944299999999
 30
0.0
 11
9.675542
 21
27.03944299999999
 31
0.0
  0
LINE
  5
30E
330
1E
100
AcDbEntity
  8
OBJECT
100
AcDbLine
 10
16.890542
 20
27.101443
 30
0.0
 11
9.613542
 21
27.101443
 31
0.0
  0
LINE
  5
30F
330
1E
100
AcDbEntity
  8
OBJECT
100
AcDbLine
 10
16.890542
 20
27.101443
 30
0.0
 11
16.890542
 21
27.03944299999999
 31
0.0
  0
LINE
  5
310
330
1E
100
AcDbEntity
  8
OBJECT
100
AcDbLine
 10
15.625542
 20
27.45144299999999
 30
0.0
 11
14.515542
 21
27.45144299999999
 31
0.0
  0
ARC
  5
311
330
1E
100
AcDbEntity
  8
OBJECT
100
AcDbCircle
 10
14.515542
 20
27.076443
 30
0.0
 40
0.375
100
AcDbArc
 50
90.0
 51
176.1774459999999
  0
ARC
  5
312
330
1E
100
AcDbEntity
  8
OBJECT
100
AcDbCircle
 10
15.625542
 20
27.076443
 30
0.0
 40
0.375
100
AcDbArc
 50
3.822554
 51
90.0
  0
ARC
  5
313
330
1E
100
AcDbEntity
  8
OBJECT
100
AcDbCircle
 10
12.63554199999999
 20
27.076443
 30
0.0
 40
0.375
100
AcDbArc
 50
3.822554
 51
90.0
  0
ARC
  5
314
330
1E
100
AcDbEntity
  8
OBJECT
100
AcDbCircle
 10
11.52554199999999
 20
27.076443
 30
0.0
 40
0.375
100
AcDbArc
 50
90.0
 51
176.1774459999999
  0
LINE
  5
315
330
1E
100
AcDbEntity
  8
OBJECT
100
AcDbLine
 10
12.63554199999999
 20
27.45144299999999
 30
0.0
 11
11.52554199999999
 21
27.45144299999999
 31
0.0
  0
LINE
  5
316
330
1E
100
AcDbEntity
  8
OBJECT
100
AcDbLine
 10
13.00691999999999
 20
23.00448499999999
 30
0.0
 11
11.154165
 21
23.00448499999999
 31
0.0
  0
ARC
  5
317
330
1E
100
AcDbEntity
  8
OBJECT
100
AcDbCircle
 10
11.52554199999999
 20
22.952485
 30
0.0
 40
0.375
100
AcDbArc
 50
90.0
 51
172.0293009999999
  0
LINE
  5
318
330
1E
100
AcDbEntity
  8
OBJECT
100
AcDbLine
 10
12.63554199999999
 20
23.327485
 30
0.0
 11
11.52554199999999
 21
23.327485
 31
0.0
  0
ARC
  5
319
330
1E
100
AcDbEntity
  8
OBJECT
100
AcDbCircle
 10
12.63554199999999
 20
22.952485
 30
0.0
 40
0.375
100
AcDbArc
 50
7.970699
 51
90.0
  0
ARC
  5
31A
330
1E
100
AcDbEntity
  8
OBJECT
100
AcDbCircle
 10
15.625542
 20
22.952485
 30
0.0
 40
0.375
100
AcDbArc
 50
7.970699
 51
90.0
  0
LINE
  5
31B
330
1E
100
AcDbEntity
  8
OBJECT
100
AcDbLine
 10
15.625542
 20
23.327485
 30
0.0
 11
14.515542
 21
23.327485
 31
0.0
  0
ARC
  5
31C
330
1E
100
AcDbEntity
  8
OBJECT
100
AcDbCircle
 10
14.515542
 20
22.952485
 30
0.0
 40
0.375
100
AcDbArc
 50
90.0
 51
172.0293009999999
  0
LINE
  5
31D
330
1E
100
AcDbEntity
  8
OBJECT
100
AcDbLine
 10
15.99692
 20
23.00448499999999
 30
0.0
 11
14.14416499999999
 21
23.00448499999999
 31
0.0
  0
LINE
  5
31E
330
1E
100
AcDbEntity
  8
OBJECT
100
AcDbLine
 10
15.99692
 20
23.00448499999999
 30
0.0
 11
14.14416499999999
 21
23.00448499999999
 31
0.0
  0
LINE
  5
31F
330
1E
100
AcDbEntity
  8
OBJECT
100
AcDbLine
 10
15.99692
 20
21.490485
 30
0.0
 11
14.14416499999999
 21
21.490485
 31
0.0
  0
LINE
  5
320
330
1E
100
AcDbEntity
  8
OBJECT
100
AcDbLine
 10
15.99692
 20
21.490485
 30
0.0
 11
14.14416499999999
 21
21.490485
 31
0.0
  0
ARC
  5
321
330
1E
100
AcDbEntity
  8
OBJECT
100
AcDbCircle
 10
14.515542
 20
21.542485
 30
0.0
 40
0.375
100
AcDbArc
 50
187.970699
 51
270.0
  0
LINE
  5
322
330
1E
100
AcDbEntity
  8
OBJECT
100
AcDbLine
 10
15.625542
 20
21.16748499999999
 30
0.0
 11
14.515542
 21
21.16748499999999
 31
0.0
  0
ARC
  5
323
330
1E
100
AcDbEntity
  8
OBJECT
100
AcDbCircle
 10
15.625542
 20
21.542485
 30
0.0
 40
0.375
100
AcDbArc
 50
270.0
 51
352.0293009999999
  0
ARC
  5
324
330
1E
100
AcDbEntity
  8
OBJECT
100
AcDbCircle
 10
12.63554199999999
 20
21.542485
 30
0.0
 40
0.375
100
AcDbArc
 50
270.0
 51
352.0293009999999
  0
LINE
  5
325
330
1E
100
AcDbEntity
  8
OBJECT
100
AcDbLine
 10
12.63554199999999
 20
21.16748499999999
 30
0.0
 11
11.52554199999999
 21
21.16748499999999
 31
0.0
  0
ARC
  5
326
330
1E
100
AcDbEntity
  8
OBJECT
100
AcDbCircle
 10
11.52554199999999
 20
21.542485
 30
0.0
 40
0.375
100
AcDbArc
 50
187.970699
 51
270.0
  0
LINE
  5
327
330
1E
100
AcDbEntity
  8
OBJECT
100
AcDbLine
 10
13.00691999999999
 20
21.490485
 30
0.0
 11
11.154165
 21
21.490485
 31
0.0
  0
LINE
  5
328
330
1E
100
AcDbEntity
  8
OBJECT
100
AcDbLine
 10
13.00691999999999
 20
21.490485
 30
0.0
 11
11.154165
 21
21.490485
 31
0.0
  0
DIMENSION
  5
329
330
1E
100
AcDbEntity
  8
DIM
100
AcDbDimension
  2
*D45
 10
5.431213999999999
 20
21.997485
 30
0.0
 11
5.431213999999997
 21
22.247485
 31
0.0
 70
    32
 71
     5
 42
0.5
  3
23NSTDI
100
AcDbAlignedDimension
 13
4.02139
 23
22.497485
 33
0.0
 14
4.02139
 24
21.997485
 34
0.0
 50
90.0
100
AcDbRotatedDimension
  0
DIMENSION
  5
337
330
1E
100
AcDbEntity
  8
DIM
100
AcDbDimension
  2
*D46
 10
6.128224999999999
 20
21.372485
 30
0.0
 11
6.128224999999996
 21
21.684985
 31
0.0
 70
    32
 71
     5
 42
0.625
  3
23NSTDI
100
AcDbAlignedDimension
 13
4.02139
 23
21.997485
 33
0.0
 14
4.02139
 24
21.372485
 34
0.0
 50
90.0
100
AcDbRotatedDimension
  0
DIMENSION
  5
345
330
1E
100
AcDbEntity
  8
DIM
100
AcDbDimension
  2
*D47
 10
17.520711
 20
27.101443
 30
0.0
 11
17.52071099999999
 21
27.276443
 31
0.0
 70
    32
 71
     5
 42
0.3499999999999979
  3
23NSTDI
100
AcDbAlignedDimension
 13
15.625542
 23
27.45144299999999
 33
0.0
 14
16.890542
 24
27.101443
 34
0.0
 50
90.0
100
AcDbRotatedDimension
  0
DIMENSION
  5
353
330
1E
100
AcDbEntity
  8
DIM
100
AcDbDimension
  2
*D48
 10
4.792669
 20
23.122485
 30
0.0
 11
4.792668999999996
 21
22.809985
 31
0.0
 70
    32
 71
     5
 42
0.625
  3
23NSTDI
100
AcDbAlignedDimension
 13
4.02139
 23
22.497485
 33
0.0
 14
4.02139
 24
23.122485
 34
0.0
 50
90.0
100
AcDbRotatedDimension
  0
DIMENSION
  5
361
330
1E
100
AcDbEntity
  8
DIM
100
AcDbDimension
  2
*D49
 10
2.265929999999999
 20
22.942485
 30
0.0
 11
2.265929999999996
 21
22.247485
 31
0.0
 70
    32
 71
     5
 42
1.39
  3
23NSTD
100
AcDbAlignedDimension
 13
3.16839
 23
21.552485
 33
0.0
 14
3.16839
 24
22.942485
 34
0.0
 50
90.0
100
AcDbRotatedDimension
  0
DIMENSION
  5
36F
330
1E
100
AcDbEntity
  8
DIM
100
AcDbDimension
  2
*D50
 10
2.748909999999999
 20
23.997485
 30
0.0
 11
2.748909999999995
 21
23.469985
 31
0.0
 70
    32
 71
     5
 42
1.054999999999999
  3
23NSTDI
100
AcDbAlignedDimension
 13
3.16839
 23
22.942485
 33
0.0
 14
3.51839
 24
23.997485
 34
0.0
 50
90.0
100
AcDbRotatedDimension
  0
DIMENSION
  5
37D
330
1E
100
AcDbEntity
  8
DIM
100
AcDbDimension
  2
*D51
 10
4.081389999999999
 20
20.080425
 30
0.0
 11
5.063889999999999
 21
20.080425
 31
0.0
 70
    32
 71
     5
 42
0.0599999999999996
  3
23NSTD
100
AcDbAlignedDimension
 13
4.02139
 23
21.372485
 33
0.0
 14
4.081389999999999
 24
21.059485
 34
0.0
100
AcDbRotatedDimension
  0
DIMENSION
  5
38B
330
1E
100
AcDbEntity
  8
DIM
100
AcDbDimension
  2
*D52
 10
4.081389999999999
 20
19.622198
 30
0.0
 11
5.08889
 21
19.622198
 31
0.0
 70
    32
 71
     5
 42
0.5629999999999998
  3
23NSTD
100
AcDbAlignedDimension
 13
3.51839
 23
20.497485
 33
0.0
 14
4.081389999999999
 24
21.059485
 34
0.0
100
AcDbRotatedDimension
  0
DIMENSION
  5
399
330
1E
100
AcDbEntity
  8
DIM
100
AcDbDimension
  2
*D53
 10
17.604594
 20
23.997485
 30
0.0
 11
18.31159399999999
 21
24.573485
 31
0.0
 70
    32
 71
     5
 42
0.25
  3
23NSTD
100
AcDbAlignedDimension
 13
16.685542
 23
23.747485
 33
0.0
 14
16.703542
 24
23.997485
 34
0.0
 50
90.0
100
AcDbRotatedDimension
  0
DIMENSION
  5
3A7
330
1E
100
AcDbEntity
  8
DIM
100
AcDbDimension
  2
*D54
 10
18.36620299999999
 20
23.997485
 30
0.0
 11
18.36620299999999
 21
23.122485
 31
0.0
 70
    32
 71
     5
 42
1.75
  3
23NSTD
100
AcDbAlignedDimension
 13
16.710542
 23
22.247485
 33
0.0
 14
16.703542
 24
23.997485
 34
0.0
 50
90.0
100
AcDbRotatedDimension
  0
DIMENSION
  5
3B5
330
1E
100
AcDbEntity
  8
DIM
100
AcDbDimension
  2
*D55
 10
8.736691999999999
 20
20.497485
 30
0.0
 11
8.736691999999996
 21
22.247485
 31
0.0
 70
    32
 71
     5
 42
3.5
  3
23NSTD
100
AcDbAlignedDimension
 13
10.26354199999999
 23
23.997485
 33
0.0
 14
10.26354199999999
 24
20.497485
 34
0.0
 50
90.0
100
AcDbRotatedDimension
  0
DIMENSION
  5
3C3
330
1E
100
AcDbEntity
  8
DIM
100
AcDbDimension
  2
*D56
 10
18.44637399999999
 20
20.497485
 30
0.0
 11
17.73937399999999
 21
19.921485
 31
0.0
 70
    32
 71
     5
 42
0.25
  3
23NSTD
100
AcDbAlignedDimension
 13
16.685542
 23
20.747485
 33
0.0
 14
16.703542
 24
20.497485
 34
0.0
 50
90.0
100
AcDbRotatedDimension
  0
DIMENSION
  5
3D1
330
1E
100
AcDbEntity
  8
DIM
100
AcDbDimension
  2
*D57
 10
12.76054199999999
 20
19.884078
 30
0.0
 11
11.95054199999999
 21
19.884078
 31
0.0
 70
    32
 71
     5
 42
1.619999999999999
  3
23NSTDI
100
AcDbAlignedDimension
 13
11.14054199999999
 23
20.622485
 33
0.0
 14
12.76054199999999
 24
20.622485
 34
0.0
100
AcDbRotatedDimension
  0
DIMENSION
  5
3DF
330
1E
100
AcDbEntity
  8
DIM
100
AcDbDimension
  2
*D58
 10
14.380542
 20
19.42064699999999
 30
0.0
 11
12.760542
 21
19.42064699999999
 31
0.0
 70
    32
 71
     5
 42
3.240000000000001
  3
23NSTD
100
AcDbAlignedDimension
 13
11.14054199999999
 23
20.622485
 33
0.0
 14
14.380542
 24
20.622485
 34
0.0
100
AcDbRotatedDimension
  0
DIMENSION
  5
3ED
330
1E
100
AcDbEntity
  8
DIM
100
AcDbDimension
  2
*D59
 10
16.000542
 20
18.942736
 30
0.0
 11
13.570542
 21
18.942736
 31
0.0
 70
    32
 71
     5
 42
4.860000000000002
  3
23NSTD
100
AcDbAlignedDimension
 13
11.14054199999999
 23
20.622485
 33
0.0
 14
16.000542
 24
20.622485
 34
0.0
100
AcDbRotatedDimension
  0
DIMENSION
  5
3FB
330
1E
100
AcDbEntity
  8
DIM
100
AcDbDimension
  2
*D60
 10
9.613542
 20
18.942736
 30
0.0
 11
10.377042
 21
18.942736
 31
0.0
 70
    32
 71
     5
 42
1.526999999999999
  3
23NSTDI
100
AcDbAlignedDimension
 13
11.14054199999999
 23
20.622485
 33
0.0
 14
9.613542
 24
20.872485
 34
0.0
100
AcDbRotatedDimension
  0
TEXT
  5
409
330
1E
100
AcDbEntity
  8
TEXT
100
AcDbText
 10
1.075976
 20
29.168644
 30
0.0
 40
0.2
  1
MATERIAL:
 41
0.75
100
AcDbText
  0
TEXT
  5
40A
330
1E
100
AcDbEntity
  8
TEXT
100
AcDbText
 10
1.270530999999999
 20
28.83531099999999
 30
0.0
 40
0.2
  1
BRACKETS - 16 GA. STEEL
 41
0.75
100
AcDbText
  0
TEXT
  5
40B
330
1E
100
AcDbEntity
  8
TEXT
100
AcDbText
 10
1.075976
 20
28.168644
 30
0.0
 40
0.2
  1
FINISH:
 41
0.75
100
AcDbText
  0
TEXT
  5
40C
330
1E
100
AcDbEntity
  8
TEXT
100
AcDbText
 10
1.270530999999999
 20
27.83531099999999
 30
0.0
 40
0.2
  1
BRACKETS - SMOOTH BLACK
 41
0.75
100
AcDbText
  0
DIMENSION
  5
40D
330
1E
100
AcDbEntity
  8
DIM
100
AcDbDimension
  2
*D61
 10
16.890542
 20
25.008864
 30
0.0
 11
13.25204199999999
 21
25.008864
 31
0.0
 70
    32
 71
     5
 42
7.276999999999999
  3
23NSTD
100
AcDbAlignedDimension
 13
9.613542
 23
23.622485
 33
0.0
 14
16.890542
 24
23.747485
 34
0.0
100
AcDbRotatedDimension
  0
DIMENSION
  5
41B
330
1E
100
AcDbEntity
  8
DIM
100
AcDbDimension
  2
*D62
 10
6.966016999999999
 20
20.872485
 30
0.0
 11
6.966016999999997
 21
22.247485
 31
0.0
 70
    32
 71
     5
 42
2.75
  3
23NSTD
100
AcDbAlignedDimension
 13
3.894389999999999
 23
23.622485
 33
0.0
 14
3.894389999999999
 24
20.872485
 34
0.0
 50
90.0
100
AcDbRotatedDimension
  0
LINE
  5
429
330
1E
100
AcDbEntity
  8
DIM
100
AcDbLine
 10
3.73239
 20
23.122485
 30
0.0
 11
4.092389999999999
 21
23.122485
 31
0.0
  0
LINE
  5
42A
330
1E
100
AcDbEntity
  8
DIM
100
AcDbLine
 10
3.912389999999999
 20
22.942485
 30
0.0
 11
3.912389999999999
 21
23.302485
 31
0.0
  0
LINE
  5
42B
330
1E
100
AcDbEntity
  8
DIM
100
AcDbLine
 10
3.73239
 20
22.497485
 30
0.0
 11
4.092389999999999
 21
22.497485
 31
0.0
  0
LINE
  5
42C
330
1E
100
AcDbEntity
  8
DIM
100
AcDbLine
 10
3.912389999999999
 20
22.317485
 30
0.0
 11
3.912389999999999
 21
22.677485
 31
0.0
  0
LINE
  5
42D
330
1E
100
AcDbEntity
  8
DIM
100
AcDbLine
 10
3.73239
 20
21.997485
 30
0.0
 11
4.092389999999999
 21
21.997485
 31
0.0
  0
LINE
  5
42E
330
1E
100
AcDbEntity
  8
DIM
100
AcDbLine
 10
3.912389999999999
 20
21.817485
 30
0.0
 11
3.912389999999999
 21
22.177485
 31
0.0
  0
LINE
  5
42F
330
1E
100
AcDbEntity
  8
DIM
100
AcDbLine
 10
3.73239
 20
21.372485
 30
0.0
 11
4.092389999999999
 21
21.372485
 31
0.0
  0
LINE
  5
430
330
1E
100
AcDbEntity
  8
DIM
100
AcDbLine
 10
3.912389999999999
 20
21.192485
 30
0.0
 11
3.912389999999999
 21
21.552485
 31
0.0
  0
TEXT
  5
431
330
1E
100
AcDbEntity
  8
TEXT
100
AcDbText
 10
15.223272
 20
14.893771
 30
0.0
 40
0.312
  1
BAS-5108
 41
0.75
 72
     1
 11
16.061772
 21
14.893771
 31
0.0
100
AcDbText
  0
DIMENSION
  5
432
330
1E
100
AcDbEntity
  8
DIM
100
AcDbDimension
  2
*D63
 10
16.890542
 20
24.479798
 30
0.0
 11
15.20304199999999
 21
24.479798
 31
0.0
 70
    32
 71
     5
 42
3.374999999999998
  3
23NSTD
100
AcDbAlignedDimension
 13
13.515542
 23
22.34098499999999
 33
0.0
 14
16.890542
 24
23.81048499999999
 34
0.0
100
AcDbRotatedDimension
  0
DIMENSION
  5
440
330
1E
100
AcDbEntity
  8
DIM
100
AcDbDimension
  2
*D64
 10
2.881226999999999
 20
21.263485
 30
0.0
 11
2.186726999999996
 21
20.68748499999999
 31
0.0
 70
    32
 71
     5
 42
0.218
  3
23NSTD
100
AcDbAlignedDimension
 13
3.51839
 23
21.481485
 33
0.0
 14
3.51839
 24
21.263485
 34
0.0
 50
270.0
100
AcDbRotatedDimension
  0
SOLID
  5
44E
330
1E
100
AcDbEntity
  8
DIM
100
AcDbTrace
 10
16.149889
 20
21.868057
 30
0.0
 11
16.239428
 21
21.902681
 31
0.0
 12
16.09078799999999
 22
22.153985
 32
0.0
 13
16.09078799999999
 23
22.153985
 33
0.0
  0
LINE
  5
44F
330
1E
100
AcDbEntity
  8
DIM
100
AcDbLine
 10
16.19465899999999
 20
21.885369
 30
0.0
 11
17.675456
 21
18.055939
 31
0.0
  0
LINE
  5
450
330
1E
100
AcDbEntity
  8
DIM
100
AcDbLine
 10
17.675456
 20
18.055939
 30
0.0
 11
17.394471
 21
18.055939
 31
0.0
  0
TEXT
  5
451
330
1E
100
AcDbEntity
  8
DIM
100
AcDbText
 10
14.590194
 20
17.95057
 30
0.0
 40
0.2
  1
0.187 x 6.390 OBLONG
 41
0.75
100
AcDbText
  0
SOLID
  5
452
330
1E
100
AcDbEntity
  8
DIM
100
AcDbTrace
 10
10.908285
 20
24.163487
 30
0.0
 11
10.815192
 21
24.140041
 31
0.0
 12
10.93207699999999
 22
23.872485
 32
0.0
 13
10.93207699999999
 23
23.872485
 33
0.0
  0
LINE
  5
453
330
1E
100
AcDbEntity
  8
DIM
100
AcDbLine
 10
10.861739
 20
24.151764
 30
0.0
 11
10.44035299999999
 21
25.824893
 31
0.0
  0
LINE
  5
454
330
1E
100
AcDbEntity
  8
DIM
100
AcDbLine
 10
10.44035299999999
 20
25.824893
 30
0.0
 11
10.703776
 21
25.824893
 31
0.0
  0
TEXT
  5
455
330
1E
100
AcDbEntity
  8
DIM
100
AcDbText
 10
10.86182999999999
 20
25.719523
 30
0.0
 40
0.2
  1
0.250 x 1.370 OBLONG
 41
0.75
100
AcDbText
  0
TEXT
  5
456
330
1E
100
AcDbEntity
  8
TEXT
100
AcDbText
 10
2.986000000000001
 20
14.864
 30
0.0
 40
0.312
  1
SLIDE MOUNTING BRACKET KIT
 41
0.75
 72
     1
 11
5.872
 21
14.864
 31
0.0
100
AcDbText
  0
TEXT
  5
457
330
1E
100
AcDbEntity
  8
TEXT
100
AcDbText
 10
1.075976
 20
27.178178
 30
0.0
 40
0.2
  1
QTY. (4) #2387-MB MOUNTING BRACKETS
 41
0.75
100
AcDbText
  0
TEXT
  5
458
330
1E
100
AcDbEntity
  8
TEXT
100
AcDbText
 10
1.320046999999999
 20
26.844844
 30
0.0
 40
0.2
  1
AND NECESSARY HARDWARE.
 41
0.75
100
AcDbText
  0
LINE
  5
459
330
1E
100
AcDbEntity
  8
OBJECT
100
AcDbLine
 10
4.11139
 20
4.688723
 30
0.0
 11
4.11139
 21
7.126722999999999
 31
0.0
  0
DIMENSION
  5
45A
330
1E
100
AcDbEntity
  8
DIM
100
AcDbDimension
  2
*D65
 10
4.548554
 20
6.891722999999999
 30
0.0
 11
5.243053999999998
 21
7.467723000000001
 31
0.0
 70
    32
 71
     5
 42
0.218
  3
23NSTD
100
AcDbAlignedDimension
 13
4.05139
 23
6.673722999999999
 33
0.0
 14
4.05139
 24
6.891722999999999
 34
0.0
 50
90.0
100
AcDbRotatedDimension
  0
LINE
  5
468
330
1E
100
AcDbEntity
  8
OBJECT
100
AcDbLine
 10
3.37839
 20
4.532723
 30
0.0
 11
3.37839
 21
7.282722999999999
 31
0.0
  0
LINE
  5
469
330
1E
100
AcDbEntity
  8
OBJECT
100
AcDbLine
 10
4.05139
 20
5.141723
 30
0.0
 11
3.54939
 21
5.141723
 31
0.0
  0
LINE
  5
46A
330
1E
100
AcDbEntity
  8
OBJECT
100
AcDbLine
 10
4.05139
 20
4.923723
 30
0.0
 11
3.54939
 21
4.923723
 31
0.0
  0
LINE
  5
46B
330
1E
100
AcDbEntity
  8
OBJECT
100
AcDbLine
 10
3.37839
 20
4.532723
 30
0.0
 11
3.955389999999999
 21
4.532723
 31
0.0
  0
LINE
  5
46C
330
1E
100
AcDbEntity
  8
DIM
100
AcDbLine
 10
3.729389999999999
 20
5.032723
 30
0.0
 11
3.36939
 21
5.032723
 31
0.0
  0
ARC
  5
46D
330
1E
100
AcDbEntity
  8
OBJECT
100
AcDbCircle
 10
3.54939
 20
5.032723
 30
0.0
 40
0.109
100
AcDbArc
 50
90.0
 51
270.0
  0
LINE
  5
46E
330
1E
100
AcDbEntity
  8
DIM
100
AcDbLine
 10
3.54939
 20
4.852723
 30
0.0
 11
3.54939
 21
5.212723
 31
0.0
  0
LINE
  5
46F
330
1E
100
AcDbEntity
  8
DIM
100
AcDbLine
 10
3.54939
 20
6.602722999999999
 30
0.0
 11
3.54939
 21
6.962722999999999
 31
0.0
  0
LINE
  5
470
330
1E
100
AcDbEntity
  8
OBJECT
100
AcDbLine
 10
4.05139
 20
6.266723
 30
0.0
 11
3.54939
 21
6.266723
 31
0.0
  0
LINE
  5
471
330
1E
100
AcDbEntity
  8
OBJECT
100
AcDbLine
 10
4.05139
 20
6.048723
 30
0.0
 11
3.54939
 21
6.048723
 31
0.0
  0
LINE
  5
472
330
1E
100
AcDbEntity
  8
OBJECT
100
AcDbLine
 10
4.05139
 20
5.766723
 30
0.0
 11
3.54939
 21
5.766723
 31
0.0
  0
LINE
  5
473
330
1E
100
AcDbEntity
  8
OBJECT
100
AcDbLine
 10
4.05139
 20
5.548723
 30
0.0
 11
3.54939
 21
5.548723
 31
0.0
  0
LINE
  5
474
330
1E
100
AcDbEntity
  8
DIM
100
AcDbLine
 10
3.54939
 20
5.977723
 30
0.0
 11
3.54939
 21
6.337723
 31
0.0
  0
LINE
  5
475
330
1E
100
AcDbEntity
  8
DIM
100
AcDbLine
 10
3.729389999999999
 20
5.657723
 30
0.0
 11
3.36939
 21
5.657723
 31
0.0
  0
ARC
  5
476
330
1E
100
AcDbEntity
  8
OBJECT
100
AcDbCircle
 10
3.54939
 20
5.657723
 30
0.0
 40
0.109
100
AcDbArc
 50
90.0
 51
270.0
  0
LINE
  5
477
330
1E
100
AcDbEntity
  8
DIM
100
AcDbLine
 10
3.54939
 20
5.477723
 30
0.0
 11
3.54939
 21
5.837723
 31
0.0
  0
LINE
  5
478
330
1E
100
AcDbEntity
  8
DIM
100
AcDbLine
 10
3.729389999999999
 20
6.157723
 30
0.0
 11
3.36939
 21
6.157723
 31
0.0
  0
ARC
  5
479
330
1E
100
AcDbEntity
  8
OBJECT
100
AcDbCircle
 10
3.54939
 20
6.157723
 30
0.0
 40
0.109
100
AcDbArc
 50
90.0
 51
270.0
  0
LINE
  5
47A
330
1E
100
AcDbEntity
  8
OBJECT
100
AcDbLine
 10
3.37839
 20
7.282722999999999
 30
0.0
 11
3.955389999999999
 21
7.282722999999999
 31
0.0
  0
LINE
  5
47B
330
1E
100
AcDbEntity
  8
OBJECT
100
AcDbLine
 10
4.05139
 20
6.673722999999999
 30
0.0
 11
3.54939
 21
6.673722999999999
 31
0.0
  0
LINE
  5
47C
330
1E
100
AcDbEntity
  8
OBJECT
100
AcDbLine
 10
4.05139
 20
6.891722999999999
 30
0.0
 11
3.54939
 21
6.891722999999999
 31
0.0
  0
LINE
  5
47D
330
1E
100
AcDbEntity
  8
HIDDEN
100
AcDbLine
 10
3.44039
 20
4.532723
 30
0.0
 11
3.44039
 21
7.282722999999999
 31
0.0
  0
LINE
  5
47E
330
1E
100
AcDbEntity
  8
DIM
100
AcDbLine
 10
3.729389999999999
 20
6.782722999999999
 30
0.0
 11
3.36939
 21
6.782722999999999
 31
0.0
  0
ARC
  5
47F
330
1E
100
AcDbEntity
  8
OBJECT
100
AcDbCircle
 10
3.54939
 20
6.782722999999999
 30
0.0
 40
0.109
100
AcDbArc
 50
90.0
 51
270.0
  0
LINE
  5
480
330
1E
100
AcDbEntity
  8
OBJECT
100
AcDbLine
 10
6.525311
 20
4.532723
 30
0.0
 11
6.525311
 21
7.282722999999999
 31
0.0
  0
LINE
  5
481
330
1E
100
AcDbEntity
  8
OBJECT
100
AcDbLine
 10
6.463311
 20
4.532723
 30
0.0
 11
6.463311
 21
7.282722999999999
 31
0.0
  0
LINE
  5
482
330
1E
100
AcDbEntity
  8
OBJECT
100
AcDbLine
 10
6.463311
 20
7.282722999999999
 30
0.0
 11
6.841241
 21
7.282722999999999
 31
0.0
  0
ARC
  5
483
330
1E
100
AcDbEntity
  8
OBJECT
100
AcDbCircle
 10
3.955389999999999
 20
7.126722999999999
 30
0.0
 40
0.156
100
AcDbArc
 50
0.0
 51
90.0
  0
ARC
  5
484
330
1E
100
AcDbEntity
  8
OBJECT
100
AcDbCircle
 10
3.955389999999999
 20
4.688723
 30
0.0
 40
0.156
100
AcDbArc
 50
270.0
 51
0.0
  0
LINE
  5
485
330
1E
100
AcDbEntity
  8
OBJECT
100
AcDbLine
 10
4.05139
 20
6.891722999999999
 30
0.0
 11
4.05139
 21
6.673722999999999
 31
0.0
  0
LINE
  5
486
330
1E
100
AcDbEntity
  8
OBJECT
100
AcDbLine
 10
4.05139
 20
6.266723
 30
0.0
 11
4.05139
 21
6.048723
 31
0.0
  0
LINE
  5
487
330
1E
100
AcDbEntity
  8
OBJECT
100
AcDbLine
 10
4.05139
 20
5.766723
 30
0.0
 11
4.05139
 21
5.548723
 31
0.0
  0
LINE
  5
488
330
1E
100
AcDbEntity
  8
OBJECT
100
AcDbLine
 10
4.05139
 20
5.141723
 30
0.0
 11
4.05139
 21
4.923723
 31
0.0
  0
DIMENSION
  5
489
330
1E
100
AcDbEntity
  8
DIM
100
AcDbDimension
  2
*D66
 10
2.795484999999999
 20
6.157723
 30
0.0
 11
2.795484999999998
 21
6.470223
 31
0.0
 70
    32
 71
     5
 42
0.6249999999999992
  3
23NSTDI
100
AcDbAlignedDimension
 13
3.36939
 23
6.782722999999999
 33
0.0
 14
3.36939
 24
6.157723
 34
0.0
 50
90.0
100
AcDbRotatedDimension
  0
DIMENSION
  5
497
330
1E
100
AcDbEntity
  8
DIM
100
AcDbDimension
  2
*D67
 10
2.187484999999999
 20
5.657723
 30
0.0
 11
2.187484999999998
 21
5.907723000000001
 31
0.0
 70
    32
 71
     5
 42
0.5
  3
23NSTDI
100
AcDbAlignedDimension
 13
3.36939
 23
6.157723
 33
0.0
 14
3.36939
 24
5.657723
 34
0.0
 50
90.0
100
AcDbRotatedDimension
  0
DIMENSION
  5
4A5
330
1E
100
AcDbEntity
  8
DIM
100
AcDbDimension
  2
*D68
 10
1.579485
 20
5.032723000000001
 30
0.0
 11
1.579484999999999
 21
5.345223000000001
 31
0.0
 70
    32
 71
     5
 42
0.625
  3
23NSTDI
100
AcDbAlignedDimension
 13
3.36939
 23
5.657723
 33
0.0
 14
3.36939
 24
5.032723
 34
0.0
 50
90.0
100
AcDbRotatedDimension
  0
DIMENSION
  5
4B3
330
1E
100
AcDbEntity
  8
DIM
100
AcDbDimension
  2
*D69
 10
0.9459629999999998
 20
7.282723
 30
0.0
 11
0.9459629999999986
 21
5.907723
 31
0.0
 70
    32
 71
     5
 42
2.749999999999999
  3
23NSTD
100
AcDbAlignedDimension
 13
3.37839
 23
4.532723
 33
0.0
 14
3.37839
 24
7.282722999999999
 34
0.0
 50
90.0
100
AcDbRotatedDimension
  0
LINE
  5
4C1
330
1E
100
AcDbEntity
  8
OBJECT
100
AcDbLine
 10
9.510310999999999
 20
5.313723
 30
0.0
 11
9.510310999999999
 21
6.501723
 31
0.0
  0
LINE
  5
4C2
330
1E
100
AcDbEntity
  8
OBJECT
100
AcDbLine
 10
9.119310999999999
 20
6.610722999999999
 30
0.0
 11
7.588311
 21
6.610722999999999
 31
0.0
  0
LINE
  5
4C3
330
1E
100
AcDbEntity
  8
OBJECT
100
AcDbLine
 10
7.615311
 20
5.997723
 30
0.0
 11
9.325310999999999
 21
5.997723
 31
0.0
  0
LINE
  5
4C4
330
1E
100
AcDbEntity
  8
OBJECT
100
AcDbLine
 10
7.615311
 20
5.817722999999999
 30
0.0
 11
9.325310999999999
 21
5.817722999999999
 31
0.0
  0
ARC
  5
4C5
330
1E
100
AcDbEntity
  8
OBJECT
100
AcDbCircle
 10
7.615311
 20
5.907723
 30
0.0
 40
0.09
100
AcDbArc
 50
89.999981
 51
269.999981
  0
ARC
  5
4C6
330
1E
100
AcDbEntity
  8
OBJECT
100
AcDbCircle
 10
9.325310999999999
 20
5.907723
 30
0.0
 40
0.09
100
AcDbArc
 50
269.999981
 51
89.999981
  0
CIRCLE
  5
4C7
330
1E
100
AcDbEntity
  8
OBJECT
100
AcDbCircle
 10
8.135310999999999
 20
5.532723
 30
0.0
 40
0.0945
  0
CIRCLE
  5
4C8
330
1E
100
AcDbEntity
  8
OBJECT
100
AcDbCircle
 10
8.135310999999999
 20
6.282723
 30
0.0
 40
0.0945
  0
LINE
  5
4C9
330
1E
100
AcDbEntity
  8
OBJECT
100
AcDbLine
 10
6.525311
 20
9.516296
 30
0.0
 11
6.525311
 21
10.246296
 31
0.0
  0
LINE
  5
4CA
330
1E
100
AcDbEntity
  8
OBJECT
100
AcDbLine
 10
6.463311
 20
9.516296
 30
0.0
 11
6.463311
 21
10.306296
 31
0.0
  0
LINE
  5
4CB
330
1E
100
AcDbEntity
  8
OBJECT
100
AcDbLine
 10
9.510310999999999
 20
9.824296
 30
0.0
 11
9.510310999999999
 21
9.884296
 31
0.0
  0
LINE
  5
4CC
330
1E
100
AcDbEntity
  8
OBJECT
100
AcDbLine
 10
6.463311
 20
10.306296
 30
0.0
 11
6.775311
 21
10.306296
 31
0.0
  0
LINE
  5
4CD
330
1E
100
AcDbEntity
  8
OBJECT
100
AcDbLine
 10
9.510310999999999
 20
9.884296
 30
0.0
 11
7.229311
 21
9.884296
 31
0.0
  0
LINE
  5
4CE
330
1E
100
AcDbEntity
  8
OBJECT
100
AcDbLine
 10
6.463311
 20
9.516296
 30
0.0
 11
6.525311
 21
9.516296
 31
0.0
  0
LINE
  5
4CF
330
1E
100
AcDbEntity
  8
OBJECT
100
AcDbLine
 10
6.775311
 20
10.306296
 30
0.0
 11
7.229311
 21
9.884296
 31
0.0
  0
LINE
  5
4D0
330
1E
100
AcDbEntity
  8
OBJECT
100
AcDbLine
 10
6.525311
 20
10.246296
 30
0.0
 11
6.751732
 21
10.246296
 31
0.0
  0
LINE
  5
4D1
330
1E
100
AcDbEntity
  8
OBJECT
100
AcDbLine
 10
6.751732
 20
10.246296
 30
0.0
 11
7.205732000000001
 21
9.824296
 31
0.0
  0
LINE
  5
4D2
330
1E
100
AcDbEntity
  8
HIDDEN
100
AcDbLine
 10
9.510310999999999
 20
9.824296
 30
0.0
 11
7.205732000000001
 21
9.824296
 31
0.0
  0
LINE
  5
4D3
330
1E
100
AcDbEntity
  8
OBJECT
100
AcDbLine
 10
7.588311
 20
9.516296
 30
0.0
 11
9.119310999999999
 21
9.516296
 31
0.0
  0
ARC
  5
4D4
330
1E
100
AcDbEntity
  8
OBJECT
100
AcDbCircle
 10
10.04234599999999
 20
8.927291
 30
0.0
 40
1.094952
100
AcDbArc
 50
119.071287
 51
147.4573039999999
  0
ARC
  5
4D5
330
1E
100
AcDbEntity
  8
OBJECT
100
AcDbCircle
 10
10.116301
 20
8.65282
 30
0.0
 40
1.318930999999999
100
AcDbArc
 50
117.351965
 51
139.1047249999999
  0
ARC
  5
4D6
330
1E
100
AcDbEntity
  8
OBJECT
100
AcDbCircle
 10
6.825361
 20
9.131114999999999
 30
0.0
 40
0.8546689999999999
100
AcDbArc
 50
26.787279
 51
61.794191
  0
ARC
  5
4D7
330
1E
100
AcDbEntity
  8
OBJECT
100
AcDbCircle
 10
6.742822
 20
8.857688000000001
 30
0.0
 40
1.071736
100
AcDbArc
 50
37.917388
 51
64.41013199999999
  0
LINE
  5
4D8
330
1E
100
AcDbEntity
  8
OBJECT
100
AcDbLine
 10
7.096905999999999
 20
9.925451999999999
 30
0.0
 11
7.137755
 21
9.969399000000001
 31
0.0
  0
LINE
  5
4D9
330
1E
100
AcDbEntity
  8
OBJECT
100
AcDbLine
 10
7.188461999999999
 20
9.840348999999999
 30
0.0
 11
7.229311
 21
9.884296
 31
0.0
  0
LINE
  5
4DA
330
1E
100
AcDbEntity
  8
OBJECT
100
AcDbLine
 10
7.588311
 20
6.610722999999999
 30
0.0
 11
7.588311
 21
6.550723
 31
0.0
  0
LINE
  5
4DB
330
1E
100
AcDbEntity
  8
OBJECT
100
AcDbLine
 10
9.119310999999999
 20
6.610722999999999
 30
0.0
 11
9.119310999999999
 21
6.550723
 31
0.0
  0
LINE
  5
4DC
330
1E
100
AcDbEntity
  8
OBJECT
100
AcDbLine
 10
9.119310999999999
 20
6.550723
 30
0.0
 11
7.588311
 21
6.550723
 31
0.0
  0
LINE
  5
4DD
330
1E
100
AcDbEntity
  8
OBJECT
100
AcDbLine
 10
7.229311
 20
6.501723
 30
0.0
 11
7.096905999999999
 21
6.501723
 31
0.0
  0
LINE
  5
4DE
330
1E
100
AcDbEntity
  8
OBJECT
100
AcDbLine
 10
7.158763
 20
6.501723
 30
0.0
 11
6.992557999999999
 21
7.16466
 31
0.0
  0
ARC
  5
4DF
330
1E
100
AcDbEntity
  8
OBJECT
100
AcDbCircle
 10
6.841241
 20
7.126722999999999
 30
0.0
 40
0.156
100
AcDbArc
 50
14.074553
 51
90.0
  0
LINE
  5
4E0
330
1E
100
AcDbEntity
  8
OBJECT
100
AcDbLine
 10
7.096905999999999
 20
6.501723
 30
0.0
 11
6.934358999999999
 21
7.150069
 31
0.0
  0
ARC
  5
4E1
330
1E
100
AcDbEntity
  8
OBJECT
100
AcDbCircle
 10
6.543346999999999
 20
6.974603999999999
 30
0.0
 40
0.4285770000000001
100
AcDbArc
 50
24.167982
 51
45.96669799999999
  0
ARC
  5
4E2
330
1E
100
AcDbEntity
  8
OBJECT
100
AcDbCircle
 10
7.543255
 20
6.113421999999999
 30
0.0
 40
0.4993380000000001
100
AcDbArc
 50
84.82306800000001
 51
128.955733
  0
ARC
  5
4E3
330
1E
100
AcDbEntity
  8
OBJECT
100
AcDbCircle
 10
7.503505999999999
 20
5.832441999999999
 30
0.0
 40
0.72327
100
AcDbArc
 50
83.26640299999999
 51
112.278172
  0
ARC
  5
4E4
330
1E
100
AcDbEntity
  8
OBJECT
100
AcDbCircle
 10
9.166589999999999
 20
6.024529
 30
0.0
 40
0.588097
100
AcDbArc
 50
54.234892
 51
94.61110500000001
  0
ARC
  5
4E5
330
1E
100
AcDbEntity
  8
OBJECT
100
AcDbCircle
 10
9.242884
 20
5.952269
 30
0.0
 40
0.6110790000000001
100
AcDbArc
 50
64.047104
 51
101.666794
  0
ARC
  5
4E6
330
1E
100
AcDbEntity
  8
OBJECT
100
AcDbCircle
 10
7.503505999999999
 20
5.983004
 30
0.0
 40
0.72327
100
AcDbArc
 50
247.721828
 51
276.733597
  0
ARC
  5
4E7
330
1E
100
AcDbEntity
  8
OBJECT
100
AcDbCircle
 10
7.543255
 20
5.702024999999999
 30
0.0
 40
0.4993380000000001
100
AcDbArc
 50
231.044267
 51
275.1769319999999
  0
ARC
  5
4E8
330
1E
100
AcDbEntity
  8
OBJECT
100
AcDbCircle
 10
6.841241
 20
4.688723
 30
0.0
 40
0.156
100
AcDbArc
 50
270.0
 51
345.925447
  0
ARC
  5
4E9
330
1E
100
AcDbEntity
  8
OBJECT
100
AcDbCircle
 10
6.543346999999999
 20
4.840843
 30
0.0
 40
0.4285770000000001
100
AcDbArc
 50
314.0333019999999
 51
335.832018
  0
LINE
  5
4EA
330
1E
100
AcDbEntity
  8
OBJECT
100
AcDbLine
 10
7.158763
 20
5.313723
 30
0.0
 11
6.992557999999999
 21
4.650786
 31
0.0
  0
LINE
  5
4EB
330
1E
100
AcDbEntity
  8
OBJECT
100
AcDbLine
 10
7.096905999999999
 20
5.313723
 30
0.0
 11
6.934358999999999
 21
4.665376999999999
 31
0.0
  0
LINE
  5
4EC
330
1E
100
AcDbEntity
  8
OBJECT
100
AcDbLine
 10
7.229311
 20
5.313723
 30
0.0
 11
7.096905999999999
 21
5.313723
 31
0.0
  0
LINE
  5
4ED
330
1E
100
AcDbEntity
  8
OBJECT
100
AcDbLine
 10
6.463311
 20
4.532723
 30
0.0
 11
6.841241
 21
4.532723
 31
0.0
  0
LINE
  5
4EE
330
1E
100
AcDbEntity
  8
OBJECT
100
AcDbLine
 10
9.119310999999999
 20
5.204723
 30
0.0
 11
7.588311
 21
5.204723
 31
0.0
  0
LINE
  5
4EF
330
1E
100
AcDbEntity
  8
OBJECT
100
AcDbLine
 10
9.119310999999999
 20
5.264723
 30
0.0
 11
7.588311
 21
5.264723
 31
0.0
  0
LINE
  5
4F0
330
1E
100
AcDbEntity
  8
OBJECT
100
AcDbLine
 10
7.588311
 20
5.204723
 30
0.0
 11
7.588311
 21
5.264723
 31
0.0
  0
ARC
  5
4F1
330
1E
100
AcDbEntity
  8
OBJECT
100
AcDbCircle
 10
9.166589999999999
 20
5.790916999999999
 30
0.0
 40
0.588097
100
AcDbArc
 50
265.3888949999999
 51
305.7651079999999
  0
ARC
  5
4F2
330
1E
100
AcDbEntity
  8
OBJECT
100
AcDbCircle
 10
9.242884
 20
5.863176999999999
 30
0.0
 40
0.6110790000000001
100
AcDbArc
 50
258.333206
 51
295.952896
  0
LINE
  5
4F3
330
1E
100
AcDbEntity
  8
OBJECT
100
AcDbLine
 10
9.119310999999999
 20
5.204723
 30
0.0
 11
9.119310999999999
 21
5.264723
 31
0.0
  0
LINE
  5
4F4
330
1E
100
AcDbEntity
  8
OBJECT
100
AcDbLine
 10
6.751732
 20
7.282722999999999
 30
0.0
 11
6.751732
 21
4.532723
 31
0.0
  0
LINE
  5
4F5
330
1E
100
AcDbEntity
  8
OBJECT
100
AcDbLine
 10
7.188461999999999
 20
6.431899999999999
 30
0.0
 11
7.188461999999999
 21
5.370737999999999
 31
0.0
  0
LINE
  5
4F6
330
1E
100
AcDbEntity
  8
HIDDEN
100
AcDbLine
 10
4.11139
 20
6.610722999999999
 30
0.0
 11
4.04739
 21
6.610722999999999
 31
0.0
  0
LINE
  5
4F7
330
1E
100
AcDbEntity
  8
HIDDEN
100
AcDbLine
 10
4.11139
 20
6.550723
 30
0.0
 11
4.04739
 21
6.550723
 31
0.0
  0
LINE
  5
4F8
330
1E
100
AcDbEntity
  8
HIDDEN
100
AcDbLine
 10
4.11139
 20
5.264723
 30
0.0
 11
4.04739
 21
5.264723
 31
0.0
  0
LINE
  5
4F9
330
1E
100
AcDbEntity
  8
HIDDEN
100
AcDbLine
 10
4.11139
 20
5.204723
 30
0.0
 11
4.04739
 21
5.204723
 31
0.0
  0
LINE
  5
4FA
330
1E
100
AcDbEntity
  8
HIDDEN
100
AcDbLine
 10
3.80039
 20
5.451723
 30
0.0
 11
3.80039
 21
6.363723
 31
0.0
  0
LINE
  5
4FB
330
1E
100
AcDbEntity
  8
HIDDEN
100
AcDbLine
 10
3.86039
 20
5.451723
 30
0.0
 11
3.86039
 21
6.363723
 31
0.0
  0
ARC
  5
4FC
330
1E
100
AcDbEntity
  8
HIDDEN
100
AcDbCircle
 10
4.04739
 20
6.363723
 30
0.0
 40
0.187
100
AcDbArc
 50
90.0
 51
180.0
  0
ARC
  5
4FD
330
1E
100
AcDbEntity
  8
HIDDEN
100
AcDbCircle
 10
4.04739
 20
5.451723
 30
0.0
 40
0.187
100
AcDbArc
 50
180.0
 51
270.0
  0
ARC
  5
4FE
330
1E
100
AcDbEntity
  8
HIDDEN
100
AcDbCircle
 10
4.04739
 20
6.363723
 30
0.0
 40
0.247
100
AcDbArc
 50
90.0
 51
180.0
  0
ARC
  5
4FF
330
1E
100
AcDbEntity
  8
HIDDEN
100
AcDbCircle
 10
4.04739
 20
5.451723
 30
0.0
 40
0.247
100
AcDbArc
 50
180.0
 51
270.0
  0
ARC
  5
500
330
1E
100
AcDbEntity
  8
HIDDEN
100
AcDbCircle
 10
3.525014
 20
7.126722999999999
 30
0.0
 40
0.156
100
AcDbArc
 50
14.074553
 51
90.0
  0
ARC
  5
501
330
1E
100
AcDbEntity
  8
HIDDEN
100
AcDbCircle
 10
3.227120999999999
 20
6.974603999999999
 30
0.0
 40
0.4285770000000001
100
AcDbArc
 50
24.167982
 51
45.96669799999999
  0
LINE
  5
502
330
1E
100
AcDbEntity
  8
HIDDEN
100
AcDbLine
 10
3.842537
 20
6.501723
 30
0.0
 11
3.676330999999999
 21
7.16466
 31
0.0
  0
LINE
  5
503
330
1E
100
AcDbEntity
  8
HIDDEN
100
AcDbLine
 10
3.78068
 20
6.501723
 30
0.0
 11
3.618133
 21
7.150069
 31
0.0
  0
LINE
  5
504
330
1E
100
AcDbEntity
  8
HIDDEN
100
AcDbLine
 10
3.842537
 20
6.501723
 30
0.0
 11
3.78068
 21
6.501723
 31
0.0
  0
ARC
  5
505
330
1E
100
AcDbEntity
  8
HIDDEN
100
AcDbCircle
 10
3.525014
 20
4.688723
 30
0.0
 40
0.156
100
AcDbArc
 50
270.0
 51
345.925447
  0
ARC
  5
506
330
1E
100
AcDbEntity
  8
HIDDEN
100
AcDbCircle
 10
3.227120999999999
 20
4.840843
 30
0.0
 40
0.4285770000000001
100
AcDbArc
 50
314.0333019999999
 51
335.832018
  0
LINE
  5
507
330
1E
100
AcDbEntity
  8
HIDDEN
100
AcDbLine
 10
3.78068
 20
5.313723
 30
0.0
 11
3.618133
 21
4.665376999999999
 31
0.0
  0
LINE
  5
508
330
1E
100
AcDbEntity
  8
HIDDEN
100
AcDbLine
 10
3.842537
 20
5.313723
 30
0.0
 11
3.676330999999999
 21
4.650786
 31
0.0
  0
LINE
  5
509
330
1E
100
AcDbEntity
  8
HIDDEN
100
AcDbLine
 10
3.842537
 20
5.313723
 30
0.0
 11
3.78068
 21
5.313723
 31
0.0
  0
LINE
  5
50A
330
1E
100
AcDbEntity
  8
OBJECT
100
AcDbLine
 10
15.31183599999999
 20
4.532723
 30
0.0
 11
15.31183599999999
 21
7.282722999999999
 31
0.0
  0
LINE
  5
50B
330
1E
100
AcDbEntity
  8
OBJECT
100
AcDbLine
 10
15.31183599999999
 20
4.532723
 30
0.0
 11
16.061836
 21
4.532723
 31
0.0
  0
LINE
  5
50C
330
1E
100
AcDbEntity
  8
OBJECT
100
AcDbLine
 10
15.31183599999999
 20
7.282722999999999
 30
0.0
 11
16.061836
 21
7.282722999999999
 31
0.0
  0
LINE
  5
50D
330
1E
100
AcDbEntity
  8
OBJECT
100
AcDbLine
 10
16.061836
 20
4.532723
 30
0.0
 11
16.061836
 21
7.282722999999999
 31
0.0
  0
LINE
  5
50E
330
1E
100
AcDbEntity
  8
HIDDEN
100
AcDbLine
 10
15.99983599999999
 20
4.532723
 30
0.0
 11
15.99983599999999
 21
7.282722999999999
 31
0.0
  0
LINE
  5
50F
330
1E
100
AcDbEntity
  8
HIDDEN
100
AcDbLine
 10
17.309029
 20
4.532723
 30
0.0
 11
17.309029
 21
7.282722999999999
 31
0.0
  0
LINE
  5
510
330
1E
100
AcDbEntity
  8
OBJECT
100
AcDbLine
 10
17.247029
 20
4.532723
 30
0.0
 11
17.247029
 21
7.282722999999999
 31
0.0
  0
LINE
  5
511
330
1E
100
AcDbEntity
  8
OBJECT
100
AcDbLine
 10
17.935029
 20
4.532723
 30
0.0
 11
17.935029
 21
7.282722999999999
 31
0.0
  0
LINE
  5
512
330
1E
100
AcDbEntity
  8
OBJECT
100
AcDbLine
 10
17.935029
 20
4.532723
 30
0.0
 11
17.247029
 21
4.532723
 31
0.0
  0
LINE
  5
513
330
1E
100
AcDbEntity
  8
OBJECT
100
AcDbLine
 10
17.935029
 20
7.282722999999999
 30
0.0
 11
17.247029
 21
7.282722999999999
 31
0.0
  0
CIRCLE
  5
514
330
1E
100
AcDbEntity
  8
OBJECT
100
AcDbCircle
 10
15.56183599999999
 20
6.782722999999999
 30
0.0
 40
0.078
  0
CIRCLE
  5
515
330
1E
100
AcDbEntity
  8
OBJECT
100
AcDbCircle
 10
15.56183599999999
 20
6.782722999999999
 30
0.0
 40
0.156
  0
CIRCLE
  5
516
330
1E
100
AcDbEntity
  8
OBJECT
100
AcDbCircle
 10
15.56183599999999
 20
6.157723
 30
0.0
 40
0.156
  0
CIRCLE
  5
517
330
1E
100
AcDbEntity
  8
OBJECT
100
AcDbCircle
 10
15.56183599999999
 20
6.157723
 30
0.0
 40
0.078
  0
CIRCLE
  5
518
330
1E
100
AcDbEntity
  8
OBJECT
100
AcDbCircle
 10
15.56183599999999
 20
5.657723
 30
0.0
 40
0.156
  0
CIRCLE
  5
519
330
1E
100
AcDbEntity
  8
OBJECT
100
AcDbCircle
 10
15.56183599999999
 20
5.032723
 30
0.0
 40
0.156
  0
CIRCLE
  5
51A
330
1E
100
AcDbEntity
  8
OBJECT
100
AcDbCircle
 10
15.56183599999999
 20
5.657723
 30
0.0
 40
0.078
  0
CIRCLE
  5
51B
330
1E
100
AcDbEntity
  8
OBJECT
100
AcDbCircle
 10
15.56183599999999
 20
5.032723
 30
0.0
 40
0.078
  0
CIRCLE
  5
51C
330
1E
100
AcDbEntity
  8
OBJECT
100
AcDbCircle
 10
17.685029
 20
6.782722999999999
 30
0.0
 40
0.1405
  0
CIRCLE
  5
51D
330
1E
100
AcDbEntity
  8
OBJECT
100
AcDbCircle
 10
17.685029
 20
5.032723
 30
0.0
 40
0.1405
  0
LINE
  5
51E
330
1E
100
AcDbEntity
  8
OBJECT
100
AcDbLine
 10
15.31183599999999
 20
9.046262999999999
 30
0.0
 11
16.061836
 21
9.046262999999999
 31
0.0
  0
LINE
  5
51F
330
1E
100
AcDbEntity
  8
OBJECT
100
AcDbLine
 10
16.061836
 20
9.046262999999999
 30
0.0
 11
16.061836
 21
9.734263
 31
0.0
  0
LINE
  5
520
330
1E
100
AcDbEntity
  8
OBJECT
100
AcDbLine
 10
15.99983599999999
 20
9.108263
 30
0.0
 11
15.99983599999999
 21
9.734263
 31
0.0
  0
LINE
  5
521
330
1E
100
AcDbEntity
  8
OBJECT
100
AcDbLine
 10
15.31183599999999
 20
9.046262999999999
 30
0.0
 11
15.31183599999999
 21
9.108263
 31
0.0
  0
LINE
  5
522
330
1E
100
AcDbEntity
  8
OBJECT
100
AcDbLine
 10
15.99983599999999
 20
9.734263
 30
0.0
 11
16.061836
 21
9.734263
 31
0.0
  0
LINE
  5
523
330
1E
100
AcDbEntity
  8
OBJECT
100
AcDbLine
 10
15.31183599999999
 20
9.108263
 30
0.0
 11
15.99983599999999
 21
9.108263
 31
0.0
  0
TEXT
  5
524
330
1E
100
AcDbEntity
  8
TEXT
100
AcDbText
 10
1.075976
 20
12.8064
 30
0.0
 40
0.2
  1
FINISH:
 41
0.75
100
AcDbText
  0
TEXT
  5
525
330
1E
100
AcDbEntity
  8
TEXT
100
AcDbText
 10
1.075976
 20
13.8064
 30
0.0
 40
0.2
  1
MATERIAL:
 41
0.75
100
AcDbText
  0
TEXT
  5
526
330
1E
100
AcDbEntity
  8
TEXT
100
AcDbText
 10
1.075976
 20
11.482933
 30
0.0
 40
0.2
  1
QTY. (4) #5107-A "L" BRACKETS
 41
0.75
100
AcDbText
  0
TEXT
  5
527
330
1E
100
AcDbEntity
  8
TEXT
100
AcDbText
 10
1.320046999999999
 20
11.14959999999999
 30
0.0
 40
0.2
  1
AND NECESSARY HARDWARE.
 41
0.75
100
AcDbText
  0
TEXT
  5
528
330
1E
100
AcDbEntity
  8
TEXT
100
AcDbText
 10
1.352843
 20
12.473067
 30
0.0
 40
0.2
  1
BRACKETS - ZINC PLATED
 41
0.75
100
AcDbText
  0
TEXT
  5
529
330
1E
100
AcDbEntity
  8
TEXT
100
AcDbText
 10
1.352843
 20
13.473067
 30
0.0
 40
0.2
  1
BRACKETS - 16 GA. STEEL
 41
0.75
100
AcDbText
  0
TEXT
  5
52A
330
1E
100
AcDbEntity
  8
TEXT
100
AcDbText
 10
1.075976
 20
11.815933
 30
0.0
 40
0.2
  1
QTY. (4) #5103 MOUNTING BRACKETS
 41
0.75
100
AcDbText
  0
DIMENSION
  5
52B
330
1E
100
AcDbEntity
  8
DIM
100
AcDbDimension
  2
*D70
 10
10.076343
 20
10.306296
 30
0.0
 11
10.07634299999999
 21
10.095296
 31
0.0
 70
    32
 71
     5
 42
0.4220000000000006
  3
23NSTDI
100
AcDbAlignedDimension
 13
9.510310999999999
 23
9.884296
 33
0.0
 14
6.775311
 24
10.306296
 34
0.0
 50
90.0
100
AcDbRotatedDimension
  0
DIMENSION
  5
539
330
1E
100
AcDbEntity
  8
DIM
100
AcDbDimension
  2
*D71
 10
4.11139
 20
4.044107
 30
0.0
 11
5.09389
 21
4.044107
 31
0.0
 70
    32
 71
     5
 42
0.0599999999999996
  3
23NSTD
100
AcDbAlignedDimension
 13
4.05139
 23
4.923723
 33
0.0
 14
4.11139
 24
4.688723
 34
0.0
100
AcDbRotatedDimension
  0
DIMENSION
  5
547
330
1E
100
AcDbEntity
  8
DIM
100
AcDbDimension
  2
*D72
 10
3.37839
 20
3.464329
 30
0.0
 11
3.744889999999999
 21
3.464329
 31
0.0
 70
    32
 71
     5
 42
0.7330000000000001
  3
23NSTDI
100
AcDbAlignedDimension
 13
4.11139
 23
4.688723
 33
0.0
 14
3.37839
 24
4.532723
 34
0.0
100
AcDbRotatedDimension
  0
DIMENSION
  5
555
330
1E
100
AcDbEntity
  8
DIM
100
AcDbDimension
  2
*D73
 10
7.525311
 20
7.984103
 30
0.0
 11
6.994310999999999
 21
7.984103
 31
0.0
 70
    32
 71
     5
 42
1.062
  3
23NSTDI
100
AcDbAlignedDimension
 13
6.463311
 23
7.282722999999999
 33
0.0
 14
7.525311
 24
5.907723
 34
0.0
100
AcDbRotatedDimension
  0
DIMENSION
  5
563
330
1E
100
AcDbEntity
  8
DIM
100
AcDbDimension
  2
*D74
 10
9.415311
 20
7.984103
 30
0.0
 11
8.470311
 21
7.984103
 31
0.0
 70
    32
 71
     5
 42
1.89
  3
23NSTD
100
AcDbAlignedDimension
 13
7.525311
 23
5.907723
 33
0.0
 14
9.415311
 24
5.907723
 34
0.0
100
AcDbRotatedDimension
  0
DIMENSION
  5
571
330
1E
100
AcDbEntity
  8
DIM
100
AcDbDimension
  2
*D75
 10
9.510310999999999
 20
4.550321
 30
0.0
 11
8.822810999999999
 21
4.550321
 31
0.0
 70
    32
 71
     5
 42
1.375
  3
23NSTDI
100
AcDbAlignedDimension
 13
8.135310999999999
 23
5.532723
 33
0.0
 14
9.510310999999999
 24
5.313723
 34
0.0
100
AcDbRotatedDimension
  0
DIMENSION
  5
57F
330
1E
100
AcDbEntity
  8
DIM
100
AcDbDimension
  2
*D76
 10
11.52553099999999
 20
5.204722999999999
 30
0.0
 11
11.52553099999999
 21
5.907723
 31
0.0
 70
    32
 71
     5
 42
1.405999999999998
  3
23NSTD
100
AcDbAlignedDimension
 13
9.119310999999999
 23
6.610722999999999
 33
0.0
 14
9.119310999999999
 24
5.204723
 34
0.0
 50
90.0
100
AcDbRotatedDimension
  0
DIMENSION
  5
58D
330
1E
100
AcDbEntity
  8
DIM
100
AcDbDimension
  2
*D77
 10
10.087568
 20
5.907722999999999
 30
0.0
 11
10.08756799999999
 21
6.095223000000001
 31
0.0
 70
    32
 71
     5
 42
0.375
  3
23NSTDI
100
AcDbAlignedDimension
 13
8.135310999999999
 23
6.282723
 33
0.0
 14
9.325310999999999
 24
5.907723
 34
0.0
 50
90.0
100
AcDbRotatedDimension
  0
DIMENSION
  5
59B
330
1E
100
AcDbEntity
  8
DIM
100
AcDbDimension
  2
*D78
 10
10.807811
 20
5.532722999999999
 30
0.0
 11
10.807811
 21
5.720223000000001
 31
0.0
 70
    32
 71
     5
 42
0.375
  3
23NSTDI
100
AcDbAlignedDimension
 13
9.325310999999999
 23
5.907723
 33
0.0
 14
8.135310999999999
 24
5.532723
 34
0.0
 50
90.0
100
AcDbRotatedDimension
  0
DIMENSION
  5
5A9
330
1E
100
AcDbEntity
  8
DIM
100
AcDbDimension
  2
*D79
 10
6.0705
 20
5.817722999999999
 30
0.0
 11
5.388499999999998
 21
5.241723000000002
 31
0.0
 70
    32
 71
     5
 42
0.1800000000000006
  3
23NSTD
100
AcDbAlignedDimension
 13
7.615311
 23
5.997723
 33
0.0
 14
7.615311
 24
5.817722999999999
 34
0.0
 50
90.0
100
AcDbRotatedDimension
  0
LWPOLYLINE
  5
5B7
330
1E
100
AcDbEntity
  8
DIM
100
AcDbPolyline
 90
        4
 70
     0
 10
8.186875
 20
6.361914999999999
 40
0.0
 41
0.108
 10
8.409844999999998
 20
6.544201999999999
 40
0.0
 41
0.0
 10
9.692220999999999
 20
7.592597
 40
0.0
 41
0.0
 10
9.892221000000001
 20
7.592597
 40
0.0
 41
0.0
  0
TEXT
  5
5BD
330
1E
100
AcDbEntity
  8
DIM
100
AcDbText
 10
10.092221
 20
7.492596999999999
 30
0.0
 40
0.2
  1
0.189 DIA.
 41
0.75
100
AcDbText
  0
TEXT
  5
5BE
330
1E
100
AcDbEntity
  8
DIM
100
AcDbText
 10
10.092221
 20
7.159264
 30
0.0
 40
0.2
  1
(2) HOLES
 41
0.75
100
AcDbText
  0
DIMENSION
  5
5BF
330
1E
100
AcDbEntity
  8
DIM
100
AcDbDimension
  2
*D80
 10
16.061836
 20
8.576349
 30
0.0
 11
15.68683599999999
 21
8.576349
 31
0.0
 70
    32
 71
     5
 42
0.7500000000000018
  3
23NSTDI
100
AcDbAlignedDimension
 13
15.31183599999999
 23
9.046262999999999
 33
0.0
 14
16.061836
 24
9.046262999999999
 34
0.0
100
AcDbRotatedDimension
  0
DIMENSION
  5
5CD
330
1E
100
AcDbEntity
  8
DIM
100
AcDbDimension
  2
*D81
 10
17.03419
 20
9.734263
 30
0.0
 11
17.03418999999999
 21
9.390263000000002
 31
0.0
 70
    32
 71
     5
 42
0.6880000000000006
  3
23NSTDI
100
AcDbAlignedDimension
 13
16.061836
 23
9.046262999999999
 33
0.0
 14
16.061836
 24
9.734263
 34
0.0
 50
90.0
100
AcDbRotatedDimension
  0
DIMENSION
  5
5DB
330
1E
100
AcDbEntity
  8
DIM
100
AcDbDimension
  2
*D82
 10
18.56943099999999
 20
6.782722999999998
 30
0.0
 11
18.56943099999999
 21
5.907723000000003
 31
0.0
 70
    32
 71
     5
 42
1.749999999999999
  3
23NSTD
100
AcDbAlignedDimension
 13
17.685029
 23
5.032723
 33
0.0
 14
17.685029
 24
6.782722999999999
 34
0.0
 50
90.0
100
AcDbRotatedDimension
  0
DIMENSION
  5
5E9
330
1E
100
AcDbEntity
  8
DIM
100
AcDbDimension
  2
*D83
 10
18.56943099999999
 20
7.282722999999998
 30
0.0
 11
18.56943099999999
 21
7.032723000000002
 31
0.0
 70
    32
 71
     5
 42
0.5
  3
23NSTDI
100
AcDbAlignedDimension
 13
17.685029
 23
6.782722999999999
 33
0.0
 14
17.935029
 24
7.282722999999999
 34
0.0
 50
90.0
100
AcDbRotatedDimension
  0
DIMENSION
  5
5F7
330
1E
100
AcDbEntity
  8
DIM
100
AcDbDimension
  2
*D84
 10
13.512932
 20
5.032723000000001
 30
0.0
 11
13.51293199999999
 21
5.345223000000003
 31
0.0
 70
    32
 71
     5
 42
0.625
  3
23NSTDI
100
AcDbAlignedDimension
 13
15.56183599999999
 23
5.657723
 33
0.0
 14
15.56183599999999
 24
5.032723
 34
0.0
 50
90.0
100
AcDbRotatedDimension
  0
DIMENSION
  5
605
330
1E
100
AcDbEntity
  8
DIM
100
AcDbDimension
  2
*D85
 10
14.120932
 20
5.657723
 30
0.0
 11
14.12093199999999
 21
5.907723000000003
 31
0.0
 70
    32
 71
     5
 42
0.5
  3
23NSTDI
100
AcDbAlignedDimension
 13
15.56183599999999
 23
6.157723
 33
0.0
 14
15.56183599999999
 24
5.657723
 34
0.0
 50
90.0
100
AcDbRotatedDimension
  0
DIMENSION
  5
613
330
1E
100
AcDbEntity
  8
DIM
100
AcDbDimension
  2
*D86
 10
14.728932
 20
6.157723
 30
0.0
 11
14.72893199999999
 21
6.470223000000003
 31
0.0
 70
    32
 71
     5
 42
0.6249999999999992
  3
23NSTDI
100
AcDbAlignedDimension
 13
15.56183599999999
 23
6.782722999999999
 33
0.0
 14
15.56183599999999
 24
6.157723
 34
0.0
 50
90.0
100
AcDbRotatedDimension
  0
DIMENSION
  5
621
330
1E
100
AcDbEntity
  8
DIM
100
AcDbDimension
  2
*D87
 10
15.31183599999999
 20
7.726008
 30
0.0
 11
14.31683599999999
 21
7.726008
 31
0.0
 70
    32
 71
     5
 42
0.25
  3
23NSTD
100
AcDbAlignedDimension
 13
15.56183599999999
 23
6.782722999999999
 33
0.0
 14
15.31183599999999
 24
7.282722999999999
 34
0.0
100
AcDbRotatedDimension
  0
DIMENSION
  5
62F
330
1E
100
AcDbEntity
  8
DIM
100
AcDbDimension
  2
*D88
 10
17.935029
 20
4.143853
 30
0.0
 11
18.930029
 21
4.143853
 31
0.0
 70
    32
 71
     5
 42
0.25
  3
23NSTD
100
AcDbAlignedDimension
 13
17.685029
 23
5.032723
 33
0.0
 14
17.935029
 24
4.532723
 34
0.0
100
AcDbRotatedDimension
  0
DIMENSION
  5
63D
330
1E
100
AcDbEntity
  8
DIM
100
AcDbDimension
  2
*D89
 10
16.582384
 20
7.282722999999999
 30
0.0
 11
16.582384
 21
5.907723000000003
 31
0.0
 70
    32
 71
     5
 42
2.749999999999999
  3
23NSTD
100
AcDbAlignedDimension
 13
16.061836
 23
4.532723
 33
0.0
 14
16.061836
 24
7.282722999999999
 34
0.0
 50
270.0
100
AcDbRotatedDimension
  0
LWPOLYLINE
  5
64B
330
1E
100
AcDbEntity
  8
DIM
100
AcDbPolyline
 90
        4
 70
     0
 10
15.51551499999999
 20
4.883758999999999
 40
0.0
 41
0.108
 10
15.31573299999999
 20
4.676319
 40
0.0
 41
0.0
 10
14.638416
 20
3.973037
 40
0.0
 41
0.0
 10
14.438416
 20
3.973037
 40
0.0
 41
0.0
  0
TEXT
  5
651
330
1E
100
AcDbEntity
  8
DIM
100
AcDbText
 10
12.063416
 20
3.873037
 30
0.0
 40
0.2
  1
0.156 DIA. HOLE &
 41
0.75
 72
     2
 11
14.238416
 21
3.873037
 31
0.0
100
AcDbText
  0
TEXT
  5
652
330
1E
100
AcDbEntity
  8
DIM
100
AcDbText
 10
10.888416
 20
3.539703999999999
 30
0.0
 40
0.2
  1
C'SINK TO 0.312 DIA. x 82%%d
 41
0.75
 72
     2
 11
14.238416
 21
3.539703999999999
 31
0.0
100
AcDbText
  0
TEXT
  5
653
330
1E
100
AcDbEntity
  8
DIM
100
AcDbText
 10
12.888416
 20
3.206370999999999
 30
0.0
 40
0.2
  1
(4) PLACES
 41
0.75
 72
     2
 11
14.238416
 21
3.206370999999999
 31
0.0
100
AcDbText
  0
LWPOLYLINE
  5
654
330
1E
100
AcDbEntity
  8
DIM
100
AcDbPolyline
 90
        4
 70
     0
 10
17.715227
 20
6.919939999999999
 40
0.0
 41
0.108
 10
17.81887099999999
 20
7.188644
 40
0.0
 41
0.0
 10
18.33327099999999
 20
8.522254999999999
 40
0.0
 41
0.0
 10
18.53327099999999
 20
8.522254999999999
 40
0.0
 41
0.0
  0
TEXT
  5
65A
330
1E
100
AcDbEntity
  8
DIM
100
AcDbText
 10
18.733271
 20
8.422254999999999
 30
0.0
 40
0.2
  1
0.281 DIA.
 41
0.75
 72
     2
 11
19.85827099999999
 21
8.422254999999999
 31
0.0
100
AcDbText
  0
TEXT
  5
65B
330
1E
100
AcDbEntity
  8
DIM
100
AcDbText
 10
18.733271
 20
8.088922
 30
0.0
 40
0.2
  1
(2) HOLES
 41
0.75
 72
     2
 11
19.93327099999999
 21
8.088922
 31
0.0
100
AcDbText
  0
TEXT
  5
65C
330
1E
100
AcDbEntity
  8
TEXT
100
AcDbText
 10
16.135562
 20
2.892991999999999
 30
0.0
 40
0.312
  1
%%u5107-A
 41
0.75
 72
     1
 11
16.743962
 21
2.892991999999999
 31
0.0
100
AcDbText
  0
TEXT
  5
65D
330
1E
100
AcDbEntity
  8
TEXT
100
AcDbText
 10
5.900991
 20
2.892991999999999
 30
0.0
 40
0.312
  1
%%u5103
 41
0.75
 72
     1
 11
6.275390999999999
 21
2.892991999999999
 31
0.0
100
AcDbText
  0
LINE
  5
890
330
1E
100
AcDbEntity
  8
TITLE
100
AcDbLine
 10
16.49199999999997
 20
30.876
 30
0.0
 11
16.49199999999997
 21
30.04
 31
0.0
  0
TEXT
  5
891
330
1E
100
AcDbEntity
  8
TEXT
100
AcDbText
 10
16.94933333333333
 20
30.53682505794682
 30
0.0
 40
0.25
  1
REV.
 72
     1
 11
17.366
 21
30.53682505794682
 31
0.0
100
AcDbText
  0
LINE
  5
892
330
1E
100
AcDbEntity
  8
TITLE
100
AcDbLine
 10
16.616
 20
30.876
 30
0.0
 11
16.616
 21
30.04
 31
0.0
  0
TEXT
  5
893
330
1E
100
AcDbEntity
  8
TEXT
100
AcDbText
 10
16.90766666666667
 20
30.12015839128017
 30
0.0
 40
0.25
  1
DATE
 72
     1
 11
17.366
 21
30.12015839128017
 31
0.0
100
AcDbText
  0
LINE
  5
894
330
1E
100
AcDbEntity
  8
TITLE
100
AcDbLine
 10
18.116
 20
30.876
 30
0.0
 11
18.116
 21
30.04
 31
0.0
  0
TEXT
  5
898
330
1E
100
AcDbEntity
  8
TEXT
100
AcDbText
 10
18.35549999999999
 20
30.302
 30
0.0
 40
0.312
  1
3-27-08
 41
0.75
 72
     4
 11
19.11599999999999
 21
30.45799999999999
 31
0.0
100
AcDbText
  0
ENDSEC
  0
SECTION
  2
OBJECTS
  0
DICTIONARY
  5
C
330
0
100
AcDbDictionary
281
     1
  3
ACAD_GROUP
350
D
  3
ACAD_LAYOUT
350
19
  3
ACAD_MLINESTYLE
350
16
  3
ACAD_PLOTSETTINGS
350
18
  3
ACAD_PLOTSTYLENAME
350
E
  0
DICTIONARY
  5
D
102
{ACAD_REACTORS
330
C
102
}
330
C
100
AcDbDictionary
281
     1
  0
DICTIONARY
  5
19
102
{ACAD_REACTORS
330
C
102
}
330
C
100
AcDbDictionary
281
     1
  3
Layout1
350
1D
  3
Model
350
21
  0
DICTIONARY
  5
16
102
{ACAD_REACTORS
330
C
102
}
330
C
100
AcDbDictionary
281
     1
  3
Standard
350
17
  0
DICTIONARY
  5
18
102
{ACAD_REACTORS
330
C
102
}
330
C
100
AcDbDictionary
281
     1
  0
ACDBDICTIONARYWDFLT
  5
E
102
{ACAD_REACTORS
330
C
102
}
330
C
100
AcDbDictionary
281
     1
  3
Normal
350
F
100
AcDbDictionaryWithDefault
340
F
  0
LAYOUT
  5
1D
102
{ACAD_REACTORS
330
19
102
}
330
19
100
AcDbPlotSettings
  1

  2
C:\Program Files\ACAD2000\plotters\RICOH Aficio 1060 RPCS.pc3
  4

  6

 40
0.0
 41
0.0
 42
0.0
 43
0.0
 44
0.0
 45
0.0
 46
0.0
 47
0.0
 48
0.0
 49
0.0
140
0.0
141
0.0
142
1.0
143
1.0
 70
   688
 72
     0
 73
     0
 74
     5
  7

 75
    16
147
1.0
148
0.0
149
0.0
100
AcDbLayout
  1
Layout1
 70
     0
 71
     1
 10
0.0
 20
0.0
 11
12.0
 21
9.0
 12
0.0
 22
0.0
 32
0.0
 14
1.000000000000000E+20
 24
1.000000000000000E+20
 34
1.000000000000000E+20
 15
-1.000000000000000E+20
 25
-1.000000000000000E+20
 35
-1.000000000000000E+20
146
0.0
 13
0.0
 23
0.0
 33
0.0
 16
1.0
 26
0.0
 36
0.0
 17
0.0
 27
1.0
 37
0.0
 76
     0
330
1A
  0
LAYOUT
  5
21
102
{ACAD_REACTORS
330
19
102
}
330
19
100
AcDbPlotSettings
  1

  2
C:\Program Files\ACAD2000\plotters\RICOH Aficio 1060 RPCS.pc3
  4

  6

 40
0.0
 41
0.0
 42
0.0
 43
0.0
 44
0.0
 45
0.0
 46
0.0
 47
0.0
 48
0.0
 49
0.0
140
0.0
141
0.0
142
1.0
143
1.0
 70
  1712
 72
     0
 73
     0
 74
     0
  7

 75
     0
147
1.0
148
0.0
149
0.0
100
AcDbLayout
  1
Model
 70
     1
 71
     0
 10
0.0
 20
0.0
 11
12.0
 21
9.0
 12
0.0
 22
0.0
 32
0.0
 14
0.0
 24
0.0
 34
0.0
 15
0.0
 25
0.0
 35
0.0
146
0.0
 13
0.0
 23
0.0
 33
0.0
 16
1.0
 26
0.0
 36
0.0
 17
0.0
 27
1.0
 37
0.0
 76
     0
330
1E
  0
MLINESTYLE
  5
17
102
{ACAD_REACTORS
330
16
102
}
330
16
100
AcDbMlineStyle
  2
STANDARD
 70
     0
  3

 62
   256
 51
90.0
 52
90.0
 71
     2
 49
0.5
 62
   256
  6
BYLAYER
 49
-0.5
 62
   256
  6
BYLAYER
  0
ACDBPLACEHOLDER
  5
F
102
{ACAD_REACTORS
330
E
102
}
330
E
  0
ENDSEC
  0
EOF
