  0
SECTION
  2
HEADER
  9
$ACADVER
  1
AC1009
  9
$INSBASE
 10
0.0
 20
0.0
 30
0.0
  9
$EXTMIN
 10
0.0
 20
0.0
 30
0.0
  9
$EXTMAX
 10
10.12
 20
15.5
 30
0.0
  9
$LIMMIN
 10
0.0
 20
0.0
  9
$LIMMAX
 10
10.12
 20
15.5
  9
$ORTHOMODE
 70
     1
  9
$REGENMODE
 70
     1
  9
$FILLMODE
 70
     1
  9
$QTEXTMODE
 70
     0
  9
$MIRRTEXT
 70
     0
  9
$DRAGMODE
 70
     2
  9
$LTSCALE
 40
0.75
  9
$OSMODE
 70
     5
  9
$ATTMODE
 70
     1
  9
$TEXTSIZE
 40
0.125
  9
$TRACEWID
 40
0.05
  9
$TEXTSTYLE
  7
TXT
  9
$CLAYER
  8
DIM
  9
$CELTYPE
  6
BYLAYER
  9
$CECOLOR
 62
   256
  9
$DIMSCALE
 40
1.0
  9
$DIMASZ
 40
0.18
  9
$DIMEXO
 40
0.063
  9
$DIMDLI
 40
0.281
  9
$DIMRND
 40
0.0
  9
$DIMDLE
 40
0.0
  9
$DIMEXE
 40
0.093
  9
$DIMTP
 40
0.0
  9
$DIMTM
 40
0.0
  9
$DIMTXT
 40
0.125
  9
$DIMCEN
 40
0.09
  9
$DIMTSZ
 40
0.0
  9
$DIMTOL
 70
     0
  9
$DIMLIM
 70
     0
  9
$DIMTIH
 70
     1
  9
$DIMTOH
 70
     1
  9
$DIMSE1
 70
     0
  9
$DIMSE2
 70
     0
  9
$DIMTAD
 70
     0
  9
$DIMZIN
 70
     0
  9
$DIMBLK
  1

  9
$DIMASO
 70
     1
  9
$DIMSHO
 70
     1
  9
$DIMPOST
  1

  9
$DIMAPOST
  1

  9
$DIMALT
 70
     0
  9
$DIMALTD
 70
     2
  9
$DIMALTF
 40
25.4
  9
$DIMLFAC
 40
1.0
  9
$DIMTOFL
 70
     0
  9
$DIMTVP
 40
0.0
  9
$DIMTIX
 70
     0
  9
$DIMSOXD
 70
     0
  9
$DIMSAH
 70
     0
  9
$DIMBLK1
  1

  9
$DIMBLK2
  1

  9
$DIMSTYLE
  2
23NSTD
  9
$DIMCLRD
 70
     0
  9
$DIMCLRE
 70
     0
  9
$DIMCLRT
 70
     0
  9
$DIMTFAC
 40
1.0
  9
$DIMGAP
 40
0.09
  9
$LUNITS
 70
     2
  9
$LUPREC
 70
     3
  9
$SKETCHINC
 40
0.1
  9
$FILLETRAD
 40
0.0
  9
$AUNITS
 70
     0
  9
$AUPREC
 70
     0
  9
$MENU
  1
acad
  9
$ELEVATION
 40
0.0
  9
$PELEVATION
 40
0.0
  9
$THICKNESS
 40
0.0
  9
$LIMCHECK
 70
     0
  9
$BLIPMODE
 70
     0
  9
$CHAMFERA
 40
0.0
  9
$CHAMFERB
 40
0.0
  9
$SKPOLY
 70
     0
  9
$TDCREATE
 40
2449297.532631018
  9
$TDUPDATE
 40
2450316.634470138
  9
$TDINDWG
 40
0.0677457176
  9
$TDUSRTIMER
 40
0.0677457176
  9
$USRTIMER
 70
     1
  9
$ANGBASE
 50
0.0
  9
$ANGDIR
 70
     0
  9
$PDMODE
 70
     0
  9
$PDSIZE
 40
0.0
  9
$PLINEWID
 40
0.0
  9
$COORDS
 70
     0
  9
$SPLFRAME
 70
     0
  9
$SPLINETYPE
 70
     6
  9
$SPLINESEGS
 70
     8
  9
$ATTDIA
 70
     0
  9
$ATTREQ
 70
     1
  9
$HANDLING
 70
     0
  9
$HANDSEED
  5
0
  9
$SURFTAB1
 70
     6
  9
$SURFTAB2
 70
     6
  9
$SURFTYPE
 70
     6
  9
$SURFU
 70
     6
  9
$SURFV
 70
     6
  9
$UCSNAME
  2

  9
$UCSORG
 10
0.0
 20
0.0
 30
0.0
  9
$UCSXDIR
 10
1.0
 20
0.0
 30
0.0
  9
$UCSYDIR
 10
0.0
 20
1.0
 30
0.0
  9
$PUCSNAME
  2

  9
$PUCSORG
 10
0.0
 20
0.0
 30
0.0
  9
$PUCSXDIR
 10
1.0
 20
0.0
 30
0.0
  9
$PUCSYDIR
 10
0.0
 20
1.0
 30
0.0
  9
$USERI1
 70
     0
  9
$USERI2
 70
     0
  9
$USERI3
 70
     0
  9
$USERI4
 70
     0
  9
$USERI5
 70
     0
  9
$USERR1
 40
0.0
  9
$USERR2
 40
0.0
  9
$USERR3
 40
0.0
  9
$USERR4
 40
0.0
  9
$USERR5
 40
0.0
  9
$WORLDVIEW
 70
     1
  9
$SHADEDGE
 70
     3
  9
$SHADEDIF
 70
    70
  9
$TILEMODE
 70
     1
  9
$MAXACTVP
 70
    16
  9
$PINSBASE
 10
0.0
 20
0.0
 30
0.0
  9
$PLIMCHECK
 70
     0
  9
$PEXTMIN
 10
1.000000E+20
 20
1.000000E+20
 30
1.000000E+20
  9
$PEXTMAX
 10
-1.000000E+20
 20
-1.000000E+20
 30
-1.000000E+20
  9
$PLIMMIN
 10
0.0
 20
0.0
  9
$PLIMMAX
 10
12.0
 20
9.0
  9
$UNITMODE
 70
     0
  9
$VISRETAIN
 70
     0
  9
$PLINEGEN
 70
     0
  9
$PSLTSCALE
 70
     1
  9
$TREEDEPTH
 70
  3020
  9
$DWGCODEPAGE
  3
ascii
  0
ENDSEC
  0
SECTION
  2
TABLES
  0
TABLE
  2
VPORT
 70
     2
  0
VPORT
  2
*ACTIVE
 70
     0
 10
0.0
 20
0.0
 11
1.0
 21
1.0
 12
10.558131
 22
7.75
 13
0.0
 23
0.0
 14
1.0
 24
1.0
 15
0.0
 25
0.0
 16
0.0
 26
0.0
 36
1.0
 17
0.0
 27
0.0
 37
0.0
 40
15.5
 41
1.36234
 42
50.0
 43
0.0
 44
0.0
 50
0.0
 51
0.0
 71
     0
 72
   100
 73
     1
 74
     0
 75
     0
 76
     0
 77
     0
 78
     0
  0
ENDTAB
  0
TABLE
  2
LTYPE
 70
     5
  0
LTYPE
  2
CONTINUOUS
 70
    64
  3
Solid line
 72
    65
 73
     0
 40
0.0
  0
LTYPE
  2
HIDDEN
 70
     0
  3
_ _ _ _ _ _ _ _ _ _ _ _ _ _ _ _ _ _ _ _ _ _ _
 72
    65
 73
     2
 40
0.375
 49
0.25
 49
-0.125
  0
LTYPE
  2
PHANTOM
 70
    64
  3
_____ _ _ _____ _ _ _____ _ _ _____ _ _ ____
 72
    65
 73
     6
 40
2.5
 49
1.25
 49
-0.25
 49
0.25
 49
-0.25
 49
0.25
 49
-0.25
  0
LTYPE
  2
CENTER
 70
    64
  3
____ _ ____ _ ____ _ ____ _ ____ _ ____ _ ____
 72
    65
 73
     4
 40
2.0
 49
1.25
 49
-0.25
 49
0.25
 49
-0.25
  0
LTYPE
  2
HIDDEN2
 70
    64
  3
_ _ _ _ _ _ _ _ _ _ _ _ _ _ _ _ _ _ _ _ _ _ _ _
 72
    65
 73
     2
 40
0.1875
 49
0.125
 49
-0.0625
  0
ENDTAB
  0
TABLE
  2
LAYER
 70
     9
  0
LAYER
  2
0
 70
    64
 62
     7
  6
CONTINUOUS
  0
LAYER
  2
DEFPOINTS
 70
    64
 62
     7
  6
CONTINUOUS
  0
LAYER
  2
OBJECT
 70
    64
 62
     7
  6
CONTINUOUS
  0
LAYER
  2
DIM
 70
    64
 62
     7
  6
CONTINUOUS
  0
LAYER
  2
HIDDEN
 70
    64
 62
     7
  6
HIDDEN2
  0
LAYER
  2
BEND
 70
    64
 62
     7
  6
PHANTOM
  0
LAYER
  2
TEXT
 70
    64
 62
     7
  6
CONTINUOUS
  0
LAYER
  2
TITLE
 70
    64
 62
     7
  6
CONTINUOUS
  0
LAYER
  2
CENTER
 70
    64
 62
     7
  6
CENTER
  0
ENDTAB
  0
TABLE
  2
STYLE
 70
     2
  0
STYLE
  2
STANDARD
 70
    64
 40
0.0
 41
1.0
 50
0.0
 71
     0
 42
0.2
  3
txt
  4

  0
STYLE
  2
TXT
 70
    64
 40
0.0
 41
0.75
 50
0.0
 71
     0
 42
0.125
  3
TXT.shx
  4

  0
ENDTAB
  0
TABLE
  2
VIEW
 70
     0
  0
ENDTAB
  0
TABLE
  2
UCS
 70
     0
  0
ENDTAB
  0
TABLE
  2
APPID
 70
     1
  0
APPID
  2
ACAD
 70
    64
  0
ENDTAB
  0
TABLE
  2
DIMSTYLE
 70
     2
  0
DIMSTYLE
  2
23NSTD
 70
    64
  3

  4

  5

  6

  7

 40
1.0
 41
0.18
 42
0.063
 43
0.281
 44
0.093
 45
0.0
 46
0.0
 47
0.0
 48
0.0
140
0.125
141
0.09
142
0.0
143
25.4
144
1.0
145
0.0
146
1.0
147
0.09
 71
     0
 72
     0
 73
     1
 74
     1
 75
     0
 76
     0
 77
     0
 78
     0
170
     0
171
     2
172
     0
173
     0
174
     0
175
     0
176
     0
177
     0
178
     0
  0
DIMSTYLE
  2
23NSTDI
 70
    64
  3

  4

  5

  6

  7

 40
1.0
 41
0.18
 42
0.063
 43
0.281
 44
0.093
 45
0.0
 46
0.0
 47
0.0
 48
0.0
140
0.125
141
0.09
142
0.0
143
25.4
144
1.0
145
0.0
146
1.0
147
0.09
 71
     0
 72
     0
 73
     1
 74
     1
 75
     0
 76
     0
 77
     0
 78
     0
170
     0
171
     2
172
     0
173
     0
174
     1
175
     0
176
     0
177
     0
178
     0
  0
ENDTAB
  0
ENDSEC
  0
SECTION
  2
BLOCKS
  0
BLOCK
  8
0
  2
*D0
 70
    65
 10
0.0
 20
0.0
 30
0.0
  3
*D
  0
LINE
  8
0
  6
BYBLOCK
 62
     0
 10
1.947793
 20
9.113283
 30
0.0
 11
3.753659
 21
9.113283
 31
0.0
  0
LINE
  8
0
  6
BYBLOCK
 62
     0
 10
1.947793
 20
11.863283
 30
0.0
 11
3.753659
 21
11.863283
 31
0.0
  0
LINE
  8
0
  6
BYBLOCK
 62
     0
 10
3.660659
 20
9.293283
 30
0.0
 11
3.660659
 21
10.335783
 31
0.0
  0
LINE
  8
0
  6
BYBLOCK
 62
     0
 10
3.660659
 20
11.683283
 30
0.0
 11
3.660659
 21
10.640783
 31
0.0
  0
SOLID
  8
0
  6
BYBLOCK
 62
     0
 10
3.630659
 20
9.293283
 30
0.0
 11
3.690659
 21
9.293283
 31
0.0
 12
3.660659
 22
9.113283
 32
0.0
 13
3.660659
 23
9.113283
 33
0.0
  0
SOLID
  8
0
  6
BYBLOCK
 62
     0
 10
3.630659
 20
11.683283
 30
0.0
 11
3.690659
 21
11.683283
 31
0.0
 12
3.660659
 22
11.863283
 32
0.0
 13
3.660659
 23
11.863283
 33
0.0
  0
TEXT
  8
0
  6
BYBLOCK
 62
     0
 10
3.480972
 20
10.425783
 30
0.0
 40
0.125
  1
2.750
 41
0.75
  7
TXT
 72
     1
 11
3.660659
 21
10.488283
 31
0.0
 73
     2
  0
POINT
  8
DEFPOINTS
  6
BYBLOCK
 62
     0
 10
1.884793
 20
9.113283
 30
0.0
  0
POINT
  8
DEFPOINTS
  6
BYBLOCK
 62
     0
 10
1.884793
 20
11.863283
 30
0.0
  0
POINT
  8
DEFPOINTS
  6
BYBLOCK
 62
     0
 10
3.660659
 20
11.863283
 30
0.0
  0
ENDBLK
  8
0
  0
BLOCK
  8
0
  2
*D1
 70
    65
 10
0.0
 20
0.0
 30
0.0
  3
*D
  0
LINE
  8
0
  6
BYBLOCK
 62
     0
 10
1.384043
 20
9.050283
 30
0.0
 11
1.384043
 21
8.727233
 31
0.0
  0
LINE
  8
0
  6
BYBLOCK
 62
     0
 10
1.321043
 20
9.050283
 30
0.0
 11
1.321043
 21
8.727233
 31
0.0
  0
LINE
  8
0
  6
BYBLOCK
 62
     0
 10
1.564043
 20
8.820233
 30
0.0
 11
1.744043
 21
8.820233
 31
0.0
  0
LINE
  8
0
  6
BYBLOCK
 62
     0
 10
1.141043
 20
8.820233
 30
0.0
 11
0.961043
 21
8.820233
 31
0.0
  0
SOLID
  8
0
  6
BYBLOCK
 62
     0
 10
1.564043
 20
8.850233
 30
0.0
 11
1.564043
 21
8.790233
 31
0.0
 12
1.384043
 22
8.820233
 32
0.0
 13
1.384043
 23
8.820233
 33
0.0
  0
SOLID
  8
0
  6
BYBLOCK
 62
     0
 10
1.141043
 20
8.850233
 30
0.0
 11
1.141043
 21
8.790233
 31
0.0
 12
1.321043
 22
8.820233
 32
0.0
 13
1.321043
 23
8.820233
 33
0.0
  0
TEXT
  8
0
  6
BYBLOCK
 62
     0
 10
0.527293
 20
8.757733
 30
0.0
 40
0.125
  1
0.063
 41
0.75
  7
TXT
 72
     1
 11
0.699168
 21
8.820233
 31
0.0
 73
     2
  0
POINT
  8
DEFPOINTS
  6
BYBLOCK
 62
     0
 10
1.384043
 20
9.113283
 30
0.0
  0
POINT
  8
DEFPOINTS
  6
BYBLOCK
 62
     0
 10
1.321043
 20
9.113283
 30
0.0
  0
POINT
  8
DEFPOINTS
  6
BYBLOCK
 62
     0
 10
1.321043
 20
8.820233
 30
0.0
  0
ENDBLK
  8
0
  0
BLOCK
  8
0
  2
*D2
 70
    65
 10
0.0
 20
0.0
 30
0.0
  3
*D
  0
LINE
  8
0
  6
BYBLOCK
 62
     0
 10
8.070159
 20
9.733283
 30
0.0
 11
9.487455
 21
9.733283
 31
0.0
  0
LINE
  8
0
  6
BYBLOCK
 62
     0
 10
8.070159
 20
11.243283
 30
0.0
 11
9.487455
 21
11.243283
 31
0.0
  0
LINE
  8
0
  6
BYBLOCK
 62
     0
 10
9.394455
 20
9.913283
 30
0.0
 11
9.394455
 21
10.335783
 31
0.0
  0
LINE
  8
0
  6
BYBLOCK
 62
     0
 10
9.394455
 20
11.063283
 30
0.0
 11
9.394455
 21
10.640783
 31
0.0
  0
SOLID
  8
0
  6
BYBLOCK
 62
     0
 10
9.364455
 20
9.913283
 30
0.0
 11
9.424455
 21
9.913283
 31
0.0
 12
9.394455
 22
9.733283
 32
0.0
 13
9.394455
 23
9.733283
 33
0.0
  0
SOLID
  8
0
  6
BYBLOCK
 62
     0
 10
9.364455
 20
11.063283
 30
0.0
 11
9.424455
 21
11.063283
 31
0.0
 12
9.394455
 22
11.243283
 32
0.0
 13
9.394455
 23
11.243283
 33
0.0
  0
TEXT
  8
0
  6
BYBLOCK
 62
     0
 10
9.246018
 20
10.425783
 30
0.0
 40
0.125
  1
1.510
 41
0.75
  7
TXT
 72
     1
 11
9.394455
 21
10.488283
 31
0.0
 73
     2
  0
POINT
  8
DEFPOINTS
  6
BYBLOCK
 62
     0
 10
8.007159
 20
9.733283
 30
0.0
  0
POINT
  8
DEFPOINTS
  6
BYBLOCK
 62
     0
 10
8.007159
 20
11.243283
 30
0.0
  0
POINT
  8
DEFPOINTS
  6
BYBLOCK
 62
     0
 10
9.394455
 20
11.243283
 30
0.0
  0
ENDBLK
  8
0
  0
BLOCK
  8
0
  2
*D3
 70
    65
 10
0.0
 20
0.0
 30
0.0
  3
*D
  0
LINE
  8
0
  6
BYBLOCK
 62
     0
 10
7.580187
 20
10.488283
 30
0.0
 11
9.038948
 21
10.488283
 31
0.0
  0
LINE
  8
0
  6
BYBLOCK
 62
     0
 10
6.920187
 20
10.113283
 30
0.0
 11
9.038948
 21
10.113283
 31
0.0
  0
LINE
  8
0
  6
BYBLOCK
 62
     0
 10
8.945948
 20
10.668283
 30
0.0
 11
8.945948
 21
10.848283
 31
0.0
  0
LINE
  8
0
  6
BYBLOCK
 62
     0
 10
8.945948
 20
9.933283
 30
0.0
 11
8.945948
 21
9.753283
 31
0.0
  0
SOLID
  8
0
  6
BYBLOCK
 62
     0
 10
8.915948
 20
10.668283
 30
0.0
 11
8.975948
 21
10.668283
 31
0.0
 12
8.945948
 22
10.488283
 32
0.0
 13
8.945948
 23
10.488283
 33
0.0
  0
SOLID
  8
0
  6
BYBLOCK
 62
     0
 10
8.915948
 20
9.933283
 30
0.0
 11
8.975948
 21
9.933283
 31
0.0
 12
8.945948
 22
10.113283
 32
0.0
 13
8.945948
 23
10.113283
 33
0.0
  0
TEXT
  8
0
  6
BYBLOCK
 62
     0
 10
8.76626
 20
10.238283
 30
0.0
 40
0.125
  1
0.375
 41
0.75
  7
TXT
 72
     1
 11
8.945948
 21
10.300783
 31
0.0
 73
     2
  0
POINT
  8
DEFPOINTS
  6
BYBLOCK
 62
     0
 10
7.517187
 20
10.488283
 30
0.0
  0
POINT
  8
DEFPOINTS
  6
BYBLOCK
 62
     0
 10
6.857187
 20
10.113283
 30
0.0
  0
POINT
  8
DEFPOINTS
  6
BYBLOCK
 62
     0
 10
8.945948
 20
10.113283
 30
0.0
  0
ENDBLK
  8
0
  0
BLOCK
  8
0
  2
*D4
 70
    65
 10
0.0
 20
0.0
 30
0.0
  3
*D
  0
LINE
  8
0
  6
BYBLOCK
 62
     0
 10
7.580187
 20
10.488283
 30
0.0
 11
8.638195
 21
10.488283
 31
0.0
  0
LINE
  8
0
  6
BYBLOCK
 62
     0
 10
6.920187
 20
10.863283
 30
0.0
 11
8.638195
 21
10.863283
 31
0.0
  0
LINE
  8
0
  6
BYBLOCK
 62
     0
 10
8.545195
 20
10.308283
 30
0.0
 11
8.545195
 21
10.128283
 31
0.0
  0
LINE
  8
0
  6
BYBLOCK
 62
     0
 10
8.545195
 20
11.043283
 30
0.0
 11
8.545195
 21
11.223283
 31
0.0
  0
SOLID
  8
0
  6
BYBLOCK
 62
     0
 10
8.515195
 20
10.308283
 30
0.0
 11
8.575195
 21
10.308283
 31
0.0
 12
8.545195
 22
10.488283
 32
0.0
 13
8.545195
 23
10.488283
 33
0.0
  0
SOLID
  8
0
  6
BYBLOCK
 62
     0
 10
8.515195
 20
11.043283
 30
0.0
 11
8.575195
 21
11.043283
 31
0.0
 12
8.545195
 22
10.863283
 32
0.0
 13
8.545195
 23
10.863283
 33
0.0
  0
TEXT
  8
0
  6
BYBLOCK
 62
     0
 10
8.365508
 20
10.613283
 30
0.0
 40
0.125
  1
0.375
 41
0.75
  7
TXT
 72
     1
 11
8.545195
 21
10.675783
 31
0.0
 73
     2
  0
POINT
  8
DEFPOINTS
  6
BYBLOCK
 62
     0
 10
7.517187
 20
10.488283
 30
0.0
  0
POINT
  8
DEFPOINTS
  6
BYBLOCK
 62
     0
 10
6.857187
 20
10.863283
 30
0.0
  0
POINT
  8
DEFPOINTS
  6
BYBLOCK
 62
     0
 10
8.545195
 20
10.863283
 30
0.0
  0
ENDBLK
  8
0
  0
BLOCK
  8
0
  2
*D5
 70
    65
 10
0.0
 20
0.0
 30
0.0
  3
*D
  0
LINE
  8
0
  6
BYBLOCK
 62
     0
 10
1.258043
 20
11.254283
 30
0.0
 11
0.707632
 21
11.254283
 31
0.0
  0
LINE
  8
0
  6
BYBLOCK
 62
     0
 10
1.258043
 20
11.472283
 30
0.0
 11
0.707632
 21
11.472283
 31
0.0
  0
LINE
  8
0
  6
BYBLOCK
 62
     0
 10
0.800632
 20
11.074283
 30
0.0
 11
0.800632
 21
10.894283
 31
0.0
  0
LINE
  8
0
  6
BYBLOCK
 62
     0
 10
0.800632
 20
11.652283
 30
0.0
 11
0.800632
 21
11.832283
 31
0.0
  0
SOLID
  8
0
  6
BYBLOCK
 62
     0
 10
0.770632
 20
11.074283
 30
0.0
 11
0.830632
 21
11.074283
 31
0.0
 12
0.800632
 22
11.254283
 32
0.0
 13
0.800632
 23
11.254283
 33
0.0
  0
SOLID
  8
0
  6
BYBLOCK
 62
     0
 10
0.770632
 20
11.652283
 30
0.0
 11
0.830632
 21
11.652283
 31
0.0
 12
0.800632
 22
11.472283
 32
0.0
 13
0.800632
 23
11.472283
 33
0.0
  0
TEXT
  8
0
  6
BYBLOCK
 62
     0
 10
0.636569
 20
11.300783
 30
0.0
 40
0.125
  1
0.218
 41
0.75
  7
TXT
 72
     1
 11
0.800632
 21
11.363283
 31
0.0
 73
     2
  0
POINT
  8
DEFPOINTS
  6
BYBLOCK
 62
     0
 10
1.321043
 20
11.254283
 30
0.0
  0
POINT
  8
DEFPOINTS
  6
BYBLOCK
 62
     0
 10
1.321043
 20
11.472283
 30
0.0
  0
POINT
  8
DEFPOINTS
  6
BYBLOCK
 62
     0
 10
0.800632
 20
11.472283
 30
0.0
  0
ENDBLK
  8
0
  0
BLOCK
  8
0
  2
*D6
 70
    65
 10
0.0
 20
0.0
 30
0.0
  3
*D
  0
LINE
  8
0
  6
BYBLOCK
 62
     0
 10
1.321043
 20
9.050283
 30
0.0
 11
1.321043
 21
8.447902
 31
0.0
  0
LINE
  8
0
  6
BYBLOCK
 62
     0
 10
2.041043
 20
9.206533
 30
0.0
 11
2.041043
 21
8.447902
 31
0.0
  0
LINE
  8
0
  6
BYBLOCK
 62
     0
 10
1.141043
 20
8.540902
 30
0.0
 11
0.961043
 21
8.540902
 31
0.0
  0
LINE
  8
0
  6
BYBLOCK
 62
     0
 10
2.221043
 20
8.540902
 30
0.0
 11
2.401043
 21
8.540902
 31
0.0
  0
SOLID
  8
0
  6
BYBLOCK
 62
     0
 10
1.141043
 20
8.570902
 30
0.0
 11
1.141043
 21
8.510902
 31
0.0
 12
1.321043
 22
8.540902
 32
0.0
 13
1.321043
 23
8.540902
 33
0.0
  0
SOLID
  8
0
  6
BYBLOCK
 62
     0
 10
2.221043
 20
8.570902
 30
0.0
 11
2.221043
 21
8.510902
 31
0.0
 12
2.041043
 22
8.540902
 32
0.0
 13
2.041043
 23
8.540902
 33
0.0
  0
TEXT
  8
0
  6
BYBLOCK
 62
     0
 10
1.509168
 20
8.478402
 30
0.0
 40
0.125
  1
0.720
 41
0.75
  7
TXT
 72
     1
 11
1.681043
 21
8.540902
 31
0.0
 73
     2
  0
POINT
  8
DEFPOINTS
  6
BYBLOCK
 62
     0
 10
1.321043
 20
9.113283
 30
0.0
  0
POINT
  8
DEFPOINTS
  6
BYBLOCK
 62
     0
 10
2.041043
 20
9.269533
 30
0.0
  0
POINT
  8
DEFPOINTS
  6
BYBLOCK
 62
     0
 10
2.041043
 20
8.540902
 30
0.0
  0
ENDBLK
  8
0
  0
BLOCK
  8
0
  2
*D7
 70
    65
 10
0.0
 20
0.0
 30
0.0
  3
*D
  0
LINE
  8
0
  6
BYBLOCK
 62
     0
 10
2.044043
 20
10.238283
 30
0.0
 11
3.289664
 21
10.238283
 31
0.0
  0
LINE
  8
0
  6
BYBLOCK
 62
     0
 10
2.044043
 20
9.613283
 30
0.0
 11
3.289664
 21
9.613283
 31
0.0
  0
LINE
  8
0
  6
BYBLOCK
 62
     0
 10
3.196664
 20
10.418283
 30
0.0
 11
3.196664
 21
10.598283
 31
0.0
  0
LINE
  8
0
  6
BYBLOCK
 62
     0
 10
3.196664
 20
9.433283
 30
0.0
 11
3.196664
 21
9.253283
 31
0.0
  0
SOLID
  8
0
  6
BYBLOCK
 62
     0
 10
3.166664
 20
10.418283
 30
0.0
 11
3.226664
 21
10.418283
 31
0.0
 12
3.196664
 22
10.238283
 32
0.0
 13
3.196664
 23
10.238283
 33
0.0
  0
SOLID
  8
0
  6
BYBLOCK
 62
     0
 10
3.166664
 20
9.433283
 30
0.0
 11
3.226664
 21
9.433283
 31
0.0
 12
3.196664
 22
9.613283
 32
0.0
 13
3.196664
 23
9.613283
 33
0.0
  0
TEXT
  8
0
  6
BYBLOCK
 62
     0
 10
3.016976
 20
9.863283
 30
0.0
 40
0.125
  1
0.625
 41
0.75
  7
TXT
 72
     1
 11
3.196664
 21
9.925783
 31
0.0
 73
     2
  0
POINT
  8
DEFPOINTS
  6
BYBLOCK
 62
     0
 10
1.981043
 20
10.238283
 30
0.0
  0
POINT
  8
DEFPOINTS
  6
BYBLOCK
 62
     0
 10
1.981043
 20
9.613283
 30
0.0
  0
POINT
  8
DEFPOINTS
  6
BYBLOCK
 62
     0
 10
3.196664
 20
9.613283
 30
0.0
  0
ENDBLK
  8
0
  0
BLOCK
  8
0
  2
*D8
 70
    65
 10
0.0
 20
0.0
 30
0.0
  3
*D
  0
LINE
  8
0
  6
BYBLOCK
 62
     0
 10
2.044043
 20
10.738283
 30
0.0
 11
2.909562
 21
10.738283
 31
0.0
  0
LINE
  8
0
  6
BYBLOCK
 62
     0
 10
2.044043
 20
10.238283
 30
0.0
 11
2.909562
 21
10.238283
 31
0.0
  0
LINE
  8
0
  6
BYBLOCK
 62
     0
 10
2.816562
 20
10.918283
 30
0.0
 11
2.816562
 21
11.098283
 31
0.0
  0
LINE
  8
0
  6
BYBLOCK
 62
     0
 10
2.816562
 20
10.058283
 30
0.0
 11
2.816562
 21
9.878283
 31
0.0
  0
SOLID
  8
0
  6
BYBLOCK
 62
     0
 10
2.786562
 20
10.918283
 30
0.0
 11
2.846562
 21
10.918283
 31
0.0
 12
2.816562
 22
10.738283
 32
0.0
 13
2.816562
 23
10.738283
 33
0.0
  0
SOLID
  8
0
  6
BYBLOCK
 62
     0
 10
2.786562
 20
10.058283
 30
0.0
 11
2.846562
 21
10.058283
 31
0.0
 12
2.816562
 22
10.238283
 32
0.0
 13
2.816562
 23
10.238283
 33
0.0
  0
TEXT
  8
0
  6
BYBLOCK
 62
     0
 10
2.652499
 20
10.425783
 30
0.0
 40
0.125
  1
0.500
 41
0.75
  7
TXT
 72
     1
 11
2.816562
 21
10.488283
 31
0.0
 73
     2
  0
POINT
  8
DEFPOINTS
  6
BYBLOCK
 62
     0
 10
1.981043
 20
10.738283
 30
0.0
  0
POINT
  8
DEFPOINTS
  6
BYBLOCK
 62
     0
 10
1.981043
 20
10.238283
 30
0.0
  0
POINT
  8
DEFPOINTS
  6
BYBLOCK
 62
     0
 10
2.816562
 20
10.238283
 30
0.0
  0
ENDBLK
  8
0
  0
BLOCK
  8
0
  2
*D9
 70
    65
 10
0.0
 20
0.0
 30
0.0
  3
*D
  0
LINE
  8
0
  6
BYBLOCK
 62
     0
 10
2.044043
 20
11.363283
 30
0.0
 11
2.52946
 21
11.363283
 31
0.0
  0
LINE
  8
0
  6
BYBLOCK
 62
     0
 10
2.044043
 20
10.738283
 30
0.0
 11
2.52946
 21
10.738283
 31
0.0
  0
LINE
  8
0
  6
BYBLOCK
 62
     0
 10
2.43646
 20
11.543283
 30
0.0
 11
2.43646
 21
11.723283
 31
0.0
  0
LINE
  8
0
  6
BYBLOCK
 62
     0
 10
2.43646
 20
10.558283
 30
0.0
 11
2.43646
 21
10.378283
 31
0.0
  0
SOLID
  8
0
  6
BYBLOCK
 62
     0
 10
2.40646
 20
11.543283
 30
0.0
 11
2.46646
 21
11.543283
 31
0.0
 12
2.43646
 22
11.363283
 32
0.0
 13
2.43646
 23
11.363283
 33
0.0
  0
SOLID
  8
0
  6
BYBLOCK
 62
     0
 10
2.40646
 20
10.558283
 30
0.0
 11
2.46646
 21
10.558283
 31
0.0
 12
2.43646
 22
10.738283
 32
0.0
 13
2.43646
 23
10.738283
 33
0.0
  0
TEXT
  8
0
  6
BYBLOCK
 62
     0
 10
2.256772
 20
10.988283
 30
0.0
 40
0.125
  1
0.625
 41
0.75
  7
TXT
 72
     1
 11
2.43646
 21
11.050783
 31
0.0
 73
     2
  0
POINT
  8
DEFPOINTS
  6
BYBLOCK
 62
     0
 10
1.981043
 20
11.363283
 30
0.0
  0
POINT
  8
DEFPOINTS
  6
BYBLOCK
 62
     0
 10
1.981043
 20
10.738283
 30
0.0
  0
POINT
  8
DEFPOINTS
  6
BYBLOCK
 62
     0
 10
2.43646
 20
10.738283
 30
0.0
  0
ENDBLK
  8
0
  0
BLOCK
  8
0
  2
*D10
 70
    65
 10
0.0
 20
0.0
 30
0.0
  3
*D
  0
LINE
  8
0
  6
BYBLOCK
 62
     0
 10
7.607187
 20
10.551283
 30
0.0
 11
7.607187
 21
11.956283
 31
0.0
  0
LINE
  8
0
  6
BYBLOCK
 62
     0
 10
6.857187
 20
10.926283
 30
0.0
 11
6.857187
 21
11.956283
 31
0.0
  0
LINE
  8
0
  6
BYBLOCK
 62
     0
 10
7.787187
 20
11.863283
 30
0.0
 11
7.967187
 21
11.863283
 31
0.0
  0
LINE
  8
0
  6
BYBLOCK
 62
     0
 10
6.677187
 20
11.863283
 30
0.0
 11
6.497187
 21
11.863283
 31
0.0
  0
SOLID
  8
0
  6
BYBLOCK
 62
     0
 10
7.787187
 20
11.893283
 30
0.0
 11
7.787187
 21
11.833283
 31
0.0
 12
7.607187
 22
11.863283
 32
0.0
 13
7.607187
 23
11.863283
 33
0.0
  0
SOLID
  8
0
  6
BYBLOCK
 62
     0
 10
6.677187
 20
11.893283
 30
0.0
 11
6.677187
 21
11.833283
 31
0.0
 12
6.857187
 22
11.863283
 32
0.0
 13
6.857187
 23
11.863283
 33
0.0
  0
TEXT
  8
0
  6
BYBLOCK
 62
     0
 10
7.060312
 20
11.800783
 30
0.0
 40
0.125
  1
0.750
 41
0.75
  7
TXT
 72
     1
 11
7.232187
 21
11.863283
 31
0.0
 73
     2
  0
POINT
  8
DEFPOINTS
  6
BYBLOCK
 62
     0
 10
7.607187
 20
10.488283
 30
0.0
  0
POINT
  8
DEFPOINTS
  6
BYBLOCK
 62
     0
 10
6.857187
 20
10.863283
 30
0.0
  0
POINT
  8
DEFPOINTS
  6
BYBLOCK
 62
     0
 10
6.857187
 20
11.863283
 30
0.0
  0
ENDBLK
  8
0
  0
BLOCK
  8
0
  2
*D11
 70
    65
 10
0.0
 20
0.0
 30
0.0
  3
*D
  0
LINE
  8
0
  6
BYBLOCK
 62
     0
 10
5.807187
 20
10.551283
 30
0.0
 11
5.807187
 21
12.237283
 31
0.0
  0
LINE
  8
0
  6
BYBLOCK
 62
     0
 10
5.370187
 20
11.926283
 30
0.0
 11
5.370187
 21
12.237283
 31
0.0
  0
LINE
  8
0
  6
BYBLOCK
 62
     0
 10
5.987187
 20
12.144283
 30
0.0
 11
6.167187
 21
12.144283
 31
0.0
  0
LINE
  8
0
  6
BYBLOCK
 62
     0
 10
5.190187
 20
12.144283
 30
0.0
 11
5.010187
 21
12.144283
 31
0.0
  0
SOLID
  8
0
  6
BYBLOCK
 62
     0
 10
5.987187
 20
12.174283
 30
0.0
 11
5.987187
 21
12.114283
 31
0.0
 12
5.807187
 22
12.144283
 32
0.0
 13
5.807187
 23
12.144283
 33
0.0
  0
SOLID
  8
0
  6
BYBLOCK
 62
     0
 10
5.190187
 20
12.174283
 30
0.0
 11
5.190187
 21
12.114283
 31
0.0
 12
5.370187
 22
12.144283
 32
0.0
 13
5.370187
 23
12.144283
 33
0.0
  0
TEXT
  8
0
  6
BYBLOCK
 62
     0
 10
5.409
 20
12.081783
 30
0.0
 40
0.125
  1
0.437
 41
0.75
  7
TXT
 72
     1
 11
5.588687
 21
12.144283
 31
0.0
 73
     2
  0
POINT
  8
DEFPOINTS
  6
BYBLOCK
 62
     0
 10
5.807187
 20
10.488283
 30
0.0
  0
POINT
  8
DEFPOINTS
  6
BYBLOCK
 62
     0
 10
5.370187
 20
11.863283
 30
0.0
  0
POINT
  8
DEFPOINTS
  6
BYBLOCK
 62
     0
 10
5.370187
 20
12.144283
 30
0.0
  0
ENDBLK
  8
0
  0
BLOCK
  8
0
  2
*D12
 70
    65
 10
0.0
 20
0.0
 30
0.0
  3
*D
  0
LINE
  8
0
  6
BYBLOCK
 62
     0
 10
5.807187
 20
10.551283
 30
0.0
 11
5.807187
 21
12.237283
 31
0.0
  0
LINE
  8
0
  6
BYBLOCK
 62
     0
 10
7.607187
 20
10.551283
 30
0.0
 11
7.607187
 21
12.237283
 31
0.0
  0
LINE
  8
0
  6
BYBLOCK
 62
     0
 10
5.987187
 20
12.144283
 30
0.0
 11
6.460937
 21
12.144283
 31
0.0
  0
LINE
  8
0
  6
BYBLOCK
 62
     0
 10
7.427187
 20
12.144283
 30
0.0
 11
6.953437
 21
12.144283
 31
0.0
  0
SOLID
  8
0
  6
BYBLOCK
 62
     0
 10
5.987187
 20
12.174283
 30
0.0
 11
5.987187
 21
12.114283
 31
0.0
 12
5.807187
 22
12.144283
 32
0.0
 13
5.807187
 23
12.144283
 33
0.0
  0
SOLID
  8
0
  6
BYBLOCK
 62
     0
 10
7.427187
 20
12.174283
 30
0.0
 11
7.427187
 21
12.114283
 31
0.0
 12
7.607187
 22
12.144283
 32
0.0
 13
7.607187
 23
12.144283
 33
0.0
  0
TEXT
  8
0
  6
BYBLOCK
 62
     0
 10
6.550937
 20
12.081783
 30
0.0
 40
0.125
  1
1.800
 41
0.75
  7
TXT
 72
     1
 11
6.707187
 21
12.144283
 31
0.0
 73
     2
  0
POINT
  8
DEFPOINTS
  6
BYBLOCK
 62
     0
 10
5.807187
 20
10.488283
 30
0.0
  0
POINT
  8
DEFPOINTS
  6
BYBLOCK
 62
     0
 10
7.607187
 20
10.488283
 30
0.0
  0
POINT
  8
DEFPOINTS
  6
BYBLOCK
 62
     0
 10
7.607187
 20
12.144283
 30
0.0
  0
ENDBLK
  8
0
  0
BLOCK
  8
0
  2
*D13
 70
    65
 10
0.0
 20
0.0
 30
0.0
  3
*D
  0
LINE
  8
0
  6
BYBLOCK
 62
     0
 10
5.834187
 20
10.578283
 30
0.0
 11
4.872525
 21
10.578283
 31
0.0
  0
LINE
  8
0
  6
BYBLOCK
 62
     0
 10
5.834187
 20
10.398283
 30
0.0
 11
4.872525
 21
10.398283
 31
0.0
  0
LINE
  8
0
  6
BYBLOCK
 62
     0
 10
4.965525
 20
10.758283
 30
0.0
 11
4.965525
 21
10.938283
 31
0.0
  0
LINE
  8
0
  6
BYBLOCK
 62
     0
 10
4.965525
 20
10.218283
 30
0.0
 11
4.965525
 21
10.038283
 31
0.0
  0
LINE
  8
0
  6
BYBLOCK
 62
     0
 10
4.965525
 20
10.038283
 30
0.0
 11
4.785525
 21
10.038283
 31
0.0
  0
SOLID
  8
0
  6
BYBLOCK
 62
     0
 10
4.935525
 20
10.758283
 30
0.0
 11
4.995525
 21
10.758283
 31
0.0
 12
4.965525
 22
10.578283
 32
0.0
 13
4.965525
 23
10.578283
 33
0.0
  0
SOLID
  8
0
  6
BYBLOCK
 62
     0
 10
4.935525
 20
10.218283
 30
0.0
 11
4.995525
 21
10.218283
 31
0.0
 12
4.965525
 22
10.398283
 32
0.0
 13
4.965525
 23
10.398283
 33
0.0
  0
TEXT
  8
0
  6
BYBLOCK
 62
     0
 10
4.383025
 20
9.975783
 30
0.0
 40
0.125
  1
0.180
 41
0.75
  7
TXT
 72
     1
 11
4.539275
 21
10.038283
 31
0.0
 73
     2
  0
POINT
  8
DEFPOINTS
  6
BYBLOCK
 62
     0
 10
5.897187
 20
10.578283
 30
0.0
  0
POINT
  8
DEFPOINTS
  6
BYBLOCK
 62
     0
 10
5.897187
 20
10.398283
 30
0.0
  0
POINT
  8
DEFPOINTS
  6
BYBLOCK
 62
     0
 10
4.965525
 20
10.398283
 30
0.0
  0
ENDBLK
  8
0
  0
BLOCK
  8
0
  2
*D14
 70
    65
 10
0.0
 20
0.0
 30
0.0
  3
*D
  0
LINE
  8
0
  6
BYBLOCK
 62
     0
 10
3.752581
 20
5.241691
 30
0.0
 11
3.752581
 21
6.015828
 31
0.0
  0
LINE
  8
0
  6
BYBLOCK
 62
     0
 10
4.627581
 20
5.163566
 30
0.0
 11
4.627581
 21
6.015828
 31
0.0
  0
LINE
  8
0
  6
BYBLOCK
 62
     0
 10
3.572581
 20
5.922828
 30
0.0
 11
3.392581
 21
5.922828
 31
0.0
  0
LINE
  8
0
  6
BYBLOCK
 62
     0
 10
4.807581
 20
5.922828
 30
0.0
 11
4.987581
 21
5.922828
 31
0.0
  0
SOLID
  8
0
  6
BYBLOCK
 62
     0
 10
3.572581
 20
5.952828
 30
0.0
 11
3.572581
 21
5.892828
 31
0.0
 12
3.752581
 22
5.922828
 32
0.0
 13
3.752581
 23
5.922828
 33
0.0
  0
SOLID
  8
0
  6
BYBLOCK
 62
     0
 10
4.807581
 20
5.952828
 30
0.0
 11
4.807581
 21
5.892828
 31
0.0
 12
4.627581
 22
5.922828
 32
0.0
 13
4.627581
 23
5.922828
 33
0.0
  0
TEXT
  8
0
  6
BYBLOCK
 62
     0
 10
4.010393
 20
5.860328
 30
0.0
 40
0.125
  1
0.875
 41
0.75
  7
TXT
 72
     1
 11
4.190081
 21
5.922828
 31
0.0
 73
     2
  0
POINT
  8
DEFPOINTS
  6
BYBLOCK
 62
     0
 10
3.752581
 20
5.178691
 30
0.0
  0
POINT
  8
DEFPOINTS
  6
BYBLOCK
 62
     0
 10
4.627581
 20
5.100566
 30
0.0
  0
POINT
  8
DEFPOINTS
  6
BYBLOCK
 62
     0
 10
4.627581
 20
5.922828
 30
0.0
  0
ENDBLK
  8
0
  0
BLOCK
  8
0
  2
*D15
 70
    65
 10
0.0
 20
0.0
 30
0.0
  3
*D
  0
LINE
  8
0
  6
BYBLOCK
 62
     0
 10
3.314581
 20
5.420566
 30
0.0
 11
2.840187
 21
5.420566
 31
0.0
  0
LINE
  8
0
  6
BYBLOCK
 62
     0
 10
3.314581
 20
4.030566
 30
0.0
 11
2.840187
 21
4.030566
 31
0.0
  0
LINE
  8
0
  6
BYBLOCK
 62
     0
 10
2.933187
 20
5.240566
 30
0.0
 11
2.933187
 21
4.878066
 31
0.0
  0
LINE
  8
0
  6
BYBLOCK
 62
     0
 10
2.933187
 20
4.210566
 30
0.0
 11
2.933187
 21
4.573066
 31
0.0
  0
SOLID
  8
0
  6
BYBLOCK
 62
     0
 10
2.903187
 20
5.240566
 30
0.0
 11
2.963187
 21
5.240566
 31
0.0
 12
2.933187
 22
5.420566
 32
0.0
 13
2.933187
 23
5.420566
 33
0.0
  0
SOLID
  8
0
  6
BYBLOCK
 62
     0
 10
2.903187
 20
4.210566
 30
0.0
 11
2.963187
 21
4.210566
 31
0.0
 12
2.933187
 22
4.030566
 32
0.0
 13
2.933187
 23
4.030566
 33
0.0
  0
TEXT
  8
0
  6
BYBLOCK
 62
     0
 10
2.769124
 20
4.663066
 30
0.0
 40
0.125
  1
1.390
 41
0.75
  7
TXT
 72
     1
 11
2.933187
 21
4.725566
 31
0.0
 73
     2
  0
POINT
  8
DEFPOINTS
  6
BYBLOCK
 62
     0
 10
3.377581
 20
5.420566
 30
0.0
  0
POINT
  8
DEFPOINTS
  6
BYBLOCK
 62
     0
 10
3.377581
 20
4.030566
 30
0.0
  0
POINT
  8
DEFPOINTS
  6
BYBLOCK
 62
     0
 10
2.933187
 20
4.030566
 30
0.0
  0
ENDBLK
  8
0
  0
BLOCK
  8
0
  2
*D16
 70
    65
 10
0.0
 20
0.0
 30
0.0
  3
*D
  0
LINE
  8
0
  6
BYBLOCK
 62
     0
 10
3.752581
 20
4.209441
 30
0.0
 11
3.752581
 21
3.381289
 31
0.0
  0
LINE
  8
0
  6
BYBLOCK
 62
     0
 10
3.252581
 20
4.092566
 30
0.0
 11
3.252581
 21
3.381289
 31
0.0
  0
LINE
  8
0
  6
BYBLOCK
 62
     0
 10
3.932581
 20
3.474289
 30
0.0
 11
4.112581
 21
3.474289
 31
0.0
  0
LINE
  8
0
  6
BYBLOCK
 62
     0
 10
3.072581
 20
3.474289
 30
0.0
 11
2.892581
 21
3.474289
 31
0.0
  0
SOLID
  8
0
  6
BYBLOCK
 62
     0
 10
3.932581
 20
3.504289
 30
0.0
 11
3.932581
 21
3.444289
 31
0.0
 12
3.752581
 22
3.474289
 32
0.0
 13
3.752581
 23
3.474289
 33
0.0
  0
SOLID
  8
0
  6
BYBLOCK
 62
     0
 10
3.072581
 20
3.504289
 30
0.0
 11
3.072581
 21
3.444289
 31
0.0
 12
3.252581
 22
3.474289
 32
0.0
 13
3.252581
 23
3.474289
 33
0.0
  0
TEXT
  8
0
  6
BYBLOCK
 62
     0
 10
3.338518
 20
3.411789
 30
0.0
 40
0.125
  1
0.500
 41
0.75
  7
TXT
 72
     1
 11
3.502581
 21
3.474289
 31
0.0
 73
     2
  0
POINT
  8
DEFPOINTS
  6
BYBLOCK
 62
     0
 10
3.752581
 20
4.272441
 30
0.0
  0
POINT
  8
DEFPOINTS
  6
BYBLOCK
 62
     0
 10
3.252581
 20
4.155566
 30
0.0
  0
POINT
  8
DEFPOINTS
  6
BYBLOCK
 62
     0
 10
3.252581
 20
3.474289
 30
0.0
  0
ENDBLK
  8
0
  0
BLOCK
  8
0
  2
*D17
 70
    65
 10
0.0
 20
0.0
 30
0.0
  3
*D
  0
LINE
  8
0
  6
BYBLOCK
 62
     0
 10
2.230668
 20
4.788566
 30
0.0
 11
2.230668
 21
5.726202
 31
0.0
  0
LINE
  8
0
  6
BYBLOCK
 62
     0
 10
1.324418
 20
4.788566
 30
0.0
 11
1.324418
 21
5.726202
 31
0.0
  0
LINE
  8
0
  6
BYBLOCK
 62
     0
 10
2.410668
 20
5.633202
 30
0.0
 11
2.590668
 21
5.633202
 31
0.0
  0
LINE
  8
0
  6
BYBLOCK
 62
     0
 10
1.144418
 20
5.633202
 30
0.0
 11
0.964418
 21
5.633202
 31
0.0
  0
SOLID
  8
0
  6
BYBLOCK
 62
     0
 10
2.410668
 20
5.663202
 30
0.0
 11
2.410668
 21
5.603202
 31
0.0
 12
2.230668
 22
5.633202
 32
0.0
 13
2.230668
 23
5.633202
 33
0.0
  0
SOLID
  8
0
  6
BYBLOCK
 62
     0
 10
1.144418
 20
5.663202
 30
0.0
 11
1.144418
 21
5.603202
 31
0.0
 12
1.324418
 22
5.633202
 32
0.0
 13
1.324418
 23
5.633202
 33
0.0
  0
TEXT
  8
0
  6
BYBLOCK
 62
     0
 10
1.605668
 20
5.570702
 30
0.0
 40
0.125
  1
0.906
 41
0.75
  7
TXT
 72
     1
 11
1.777543
 21
5.633202
 31
0.0
 73
     2
  0
POINT
  8
DEFPOINTS
  6
BYBLOCK
 62
     0
 10
2.230668
 20
4.725566
 30
0.0
  0
POINT
  8
DEFPOINTS
  6
BYBLOCK
 62
     0
 10
1.324418
 20
4.725566
 30
0.0
  0
POINT
  8
DEFPOINTS
  6
BYBLOCK
 62
     0
 10
1.324418
 20
5.633202
 30
0.0
  0
ENDBLK
  8
0
  0
BLOCK
  8
0
  2
*D18
 70
    65
 10
0.0
 20
0.0
 30
0.0
  3
*D
  0
LINE
  8
0
  6
BYBLOCK
 62
     0
 10
4.408831
 20
5.315483
 30
0.0
 11
4.408831
 21
5.734828
 31
0.0
  0
LINE
  8
0
  6
BYBLOCK
 62
     0
 10
3.752581
 20
5.241691
 30
0.0
 11
3.752581
 21
5.734828
 31
0.0
  0
LINE
  8
0
  6
BYBLOCK
 62
     0
 10
4.588831
 20
5.641828
 30
0.0
 11
4.768831
 21
5.641828
 31
0.0
  0
LINE
  8
0
  6
BYBLOCK
 62
     0
 10
3.572581
 20
5.641828
 30
0.0
 11
3.392581
 21
5.641828
 31
0.0
  0
SOLID
  8
0
  6
BYBLOCK
 62
     0
 10
4.588831
 20
5.671828
 30
0.0
 11
4.588831
 21
5.611828
 31
0.0
 12
4.408831
 22
5.641828
 32
0.0
 13
4.408831
 23
5.641828
 33
0.0
  0
SOLID
  8
0
  6
BYBLOCK
 62
     0
 10
3.572581
 20
5.671828
 30
0.0
 11
3.572581
 21
5.611828
 31
0.0
 12
3.752581
 22
5.641828
 32
0.0
 13
3.752581
 23
5.641828
 33
0.0
  0
TEXT
  8
0
  6
BYBLOCK
 62
     0
 10
2.927581
 20
5.579328
 30
0.0
 40
0.125
  1
 MAX.
 41
0.75
  7
TXT
 72
     1
 11
3.115081
 21
5.641828
 31
0.0
 73
     2
  0
TEXT
  8
0
  6
BYBLOCK
 62
     0
 10
2.536956
 20
5.579328
 30
0.0
 40
0.125
  1
0.656
 41
0.75
  7
TXT
 72
     1
 11
2.716643
 21
5.641828
 31
0.0
 73
     2
  0
POINT
  8
DEFPOINTS
  6
BYBLOCK
 62
     0
 10
4.408831
 20
5.252483
 30
0.0
  0
POINT
  8
DEFPOINTS
  6
BYBLOCK
 62
     0
 10
3.752581
 20
5.178691
 30
0.0
  0
POINT
  8
DEFPOINTS
  6
BYBLOCK
 62
     0
 10
3.752581
 20
5.641828
 30
0.0
  0
ENDBLK
  8
0
  0
BLOCK
  8
0
  2
*D19
 70
    65
 10
0.0
 20
0.0
 30
0.0
  3
*D
  0
LINE
  8
0
  6
BYBLOCK
 62
     0
 10
4.085988
 20
4.029566
 30
0.0
 11
4.085988
 21
3.662289
 31
0.0
  0
LINE
  8
0
  6
BYBLOCK
 62
     0
 10
3.709699
 20
4.092566
 30
0.0
 11
3.709699
 21
3.662289
 31
0.0
  0
LINE
  8
0
  6
BYBLOCK
 62
     0
 10
4.265988
 20
3.755289
 30
0.0
 11
4.445988
 21
3.755289
 31
0.0
  0
LINE
  8
0
  6
BYBLOCK
 62
     0
 10
3.529699
 20
3.755289
 30
0.0
 11
3.349699
 21
3.755289
 31
0.0
  0
SOLID
  8
0
  6
BYBLOCK
 62
     0
 10
4.265988
 20
3.785289
 30
0.0
 11
4.265988
 21
3.725289
 31
0.0
 12
4.085988
 22
3.755289
 32
0.0
 13
4.085988
 23
3.755289
 33
0.0
  0
SOLID
  8
0
  6
BYBLOCK
 62
     0
 10
3.529699
 20
3.785289
 30
0.0
 11
3.529699
 21
3.725289
 31
0.0
 12
3.709699
 22
3.755289
 32
0.0
 13
3.709699
 23
3.755289
 33
0.0
  0
TEXT
  8
0
  6
BYBLOCK
 62
     0
 10
2.900324
 20
3.692789
 30
0.0
 40
0.125
  1
0.375
 41
0.75
  7
TXT
 72
     1
 11
3.080011
 21
3.755289
 31
0.0
 73
     2
  0
POINT
  8
DEFPOINTS
  6
BYBLOCK
 62
     0
 10
4.085988
 20
4.092566
 30
0.0
  0
POINT
  8
DEFPOINTS
  6
BYBLOCK
 62
     0
 10
3.709699
 20
4.155566
 30
0.0
  0
POINT
  8
DEFPOINTS
  6
BYBLOCK
 62
     0
 10
3.709699
 20
3.755289
 30
0.0
  0
ENDBLK
  8
0
  0
BLOCK
  8
0
  2
*D20
 70
    65
 10
0.0
 20
0.0
 30
0.0
  3
*D
  0
LINE
  8
0
  6
BYBLOCK
 62
     0
 10
7.25991
 20
6.225566
 30
0.0
 11
6.818495
 21
6.225566
 31
0.0
  0
LINE
  8
0
  6
BYBLOCK
 62
     0
 10
7.009439
 20
4.725566
 30
0.0
 11
6.818495
 21
4.725566
 31
0.0
  0
LINE
  8
0
  6
BYBLOCK
 62
     0
 10
6.911495
 20
6.045566
 30
0.0
 11
6.911495
 21
5.628066
 31
0.0
  0
LINE
  8
0
  6
BYBLOCK
 62
     0
 10
6.911495
 20
4.905566
 30
0.0
 11
6.911495
 21
5.323066
 31
0.0
  0
SOLID
  8
0
  6
BYBLOCK
 62
     0
 10
6.881495
 20
6.045566
 30
0.0
 11
6.941495
 21
6.045566
 31
0.0
 12
6.911495
 22
6.225566
 32
0.0
 13
6.911495
 23
6.225566
 33
0.0
  0
SOLID
  8
0
  6
BYBLOCK
 62
     0
 10
6.881495
 20
4.905566
 30
0.0
 11
6.941495
 21
4.905566
 31
0.0
 12
6.911495
 22
4.725566
 32
0.0
 13
6.911495
 23
4.725566
 33
0.0
  0
TEXT
  8
0
  6
BYBLOCK
 62
     0
 10
6.755245
 20
5.413066
 30
0.0
 40
0.125
  1
1.500
 41
0.75
  7
TXT
 72
     1
 11
6.911495
 21
5.475566
 31
0.0
 73
     2
  0
POINT
  8
DEFPOINTS
  6
BYBLOCK
 62
     0
 10
7.32291
 20
6.225566
 30
0.0
  0
POINT
  8
DEFPOINTS
  6
BYBLOCK
 62
     0
 10
7.072439
 20
4.725566
 30
0.0
  0
POINT
  8
DEFPOINTS
  6
BYBLOCK
 62
     0
 10
6.911495
 20
4.725566
 30
0.0
  0
ENDBLK
  8
0
  0
BLOCK
  8
0
  2
*D21
 70
    65
 10
0.0
 20
0.0
 30
0.0
  3
*D
  0
LINE
  8
0
  6
BYBLOCK
 62
     0
 10
7.32291
 20
6.288566
 30
0.0
 11
7.32291
 21
6.829546
 31
0.0
  0
LINE
  8
0
  6
BYBLOCK
 62
     0
 10
7.40791
 20
6.288566
 30
0.0
 11
7.40791
 21
6.829546
 31
0.0
  0
LINE
  8
0
  6
BYBLOCK
 62
     0
 10
7.14291
 20
6.736546
 30
0.0
 11
6.96291
 21
6.736546
 31
0.0
  0
LINE
  8
0
  6
BYBLOCK
 62
     0
 10
7.58791
 20
6.736546
 30
0.0
 11
7.76791
 21
6.736546
 31
0.0
  0
SOLID
  8
0
  6
BYBLOCK
 62
     0
 10
7.14291
 20
6.766546
 30
0.0
 11
7.14291
 21
6.706546
 31
0.0
 12
7.32291
 22
6.736546
 32
0.0
 13
7.32291
 23
6.736546
 33
0.0
  0
SOLID
  8
0
  6
BYBLOCK
 62
     0
 10
7.58791
 20
6.766546
 30
0.0
 11
7.58791
 21
6.706546
 31
0.0
 12
7.40791
 22
6.736546
 32
0.0
 13
7.40791
 23
6.736546
 33
0.0
  0
TEXT
  8
0
  6
BYBLOCK
 62
     0
 10
7.85791
 20
6.674046
 30
0.0
 40
0.125
  1
0.085
 41
0.75
  7
TXT
 72
     1
 11
8.029785
 21
6.736546
 31
0.0
 73
     2
  0
POINT
  8
DEFPOINTS
  6
BYBLOCK
 62
     0
 10
7.32291
 20
6.225566
 30
0.0
  0
POINT
  8
DEFPOINTS
  6
BYBLOCK
 62
     0
 10
7.40791
 20
6.225566
 30
0.0
  0
POINT
  8
DEFPOINTS
  6
BYBLOCK
 62
     0
 10
7.40791
 20
6.736546
 30
0.0
  0
ENDBLK
  8
0
  0
BLOCK
  8
0
  2
*D22
 70
    65
 10
0.0
 20
0.0
 30
0.0
  3
*D
  0
LINE
  8
0
  6
BYBLOCK
 62
     0
 10
7.32291
 20
6.288566
 30
0.0
 11
7.32291
 21
6.548546
 31
0.0
  0
LINE
  8
0
  6
BYBLOCK
 62
     0
 10
7.19791
 20
5.248943
 30
0.0
 11
7.19791
 21
6.548546
 31
0.0
  0
LINE
  8
0
  6
BYBLOCK
 62
     0
 10
7.50291
 20
6.455546
 30
0.0
 11
7.68291
 21
6.455546
 31
0.0
  0
LINE
  8
0
  6
BYBLOCK
 62
     0
 10
7.01791
 20
6.455546
 30
0.0
 11
6.83791
 21
6.455546
 31
0.0
  0
SOLID
  8
0
  6
BYBLOCK
 62
     0
 10
7.50291
 20
6.485546
 30
0.0
 11
7.50291
 21
6.425546
 31
0.0
 12
7.32291
 22
6.455546
 32
0.0
 13
7.32291
 23
6.455546
 33
0.0
  0
SOLID
  8
0
  6
BYBLOCK
 62
     0
 10
7.01791
 20
6.485546
 30
0.0
 11
7.01791
 21
6.425546
 31
0.0
 12
7.19791
 22
6.455546
 32
0.0
 13
7.19791
 23
6.455546
 33
0.0
  0
TEXT
  8
0
  6
BYBLOCK
 62
     0
 10
6.419785
 20
6.393046
 30
0.0
 40
0.125
  1
0.125
 41
0.75
  7
TXT
 72
     1
 11
6.583848
 21
6.455546
 31
0.0
 73
     2
  0
POINT
  8
DEFPOINTS
  6
BYBLOCK
 62
     0
 10
7.32291
 20
6.225566
 30
0.0
  0
POINT
  8
DEFPOINTS
  6
BYBLOCK
 62
     0
 10
7.19791
 20
5.185943
 30
0.0
  0
POINT
  8
DEFPOINTS
  6
BYBLOCK
 62
     0
 10
7.19791
 20
6.455546
 30
0.0
  0
ENDBLK
  8
0
  0
BLOCK
  8
0
  2
*D23
 70
    65
 10
0.0
 20
0.0
 30
0.0
  3
*D
  0
LINE
  8
0
  6
BYBLOCK
 62
     0
 10
7.001418
 20
1.972659
 30
0.0
 11
7.001418
 21
1.5069
 31
0.0
  0
LINE
  8
0
  6
BYBLOCK
 62
     0
 10
7.626418
 20
1.972659
 30
0.0
 11
7.626418
 21
1.5069
 31
0.0
  0
LINE
  8
0
  6
BYBLOCK
 62
     0
 10
6.821418
 20
1.5999
 30
0.0
 11
6.641418
 21
1.5999
 31
0.0
  0
LINE
  8
0
  6
BYBLOCK
 62
     0
 10
7.806418
 20
1.5999
 30
0.0
 11
7.986418
 21
1.5999
 31
0.0
  0
SOLID
  8
0
  6
BYBLOCK
 62
     0
 10
6.821418
 20
1.6299
 30
0.0
 11
6.821418
 21
1.5699
 31
0.0
 12
7.001418
 22
1.5999
 32
0.0
 13
7.001418
 23
1.5999
 33
0.0
  0
SOLID
  8
0
  6
BYBLOCK
 62
     0
 10
7.806418
 20
1.6299
 30
0.0
 11
7.806418
 21
1.5699
 31
0.0
 12
7.626418
 22
1.5999
 32
0.0
 13
7.626418
 23
1.5999
 33
0.0
  0
TEXT
  8
0
  6
BYBLOCK
 62
     0
 10
7.13423
 20
1.5374
 30
0.0
 40
0.125
  1
0.625
 41
0.75
  7
TXT
 72
     1
 11
7.313918
 21
1.5999
 31
0.0
 73
     2
  0
POINT
  8
DEFPOINTS
  6
BYBLOCK
 62
     0
 10
7.001418
 20
2.035659
 30
0.0
  0
POINT
  8
DEFPOINTS
  6
BYBLOCK
 62
     0
 10
7.626418
 20
2.035659
 30
0.0
  0
POINT
  8
DEFPOINTS
  6
BYBLOCK
 62
     0
 10
7.626418
 20
1.5999
 30
0.0
  0
ENDBLK
  8
0
  0
ENDSEC
  0
SECTION
  2
ENTITIES
  0
LINE
  8
OBJECT
 10
1.321043
 20
9.113283
 30
0.0
 11
1.884793
 21
9.113283
 31
0.0
  0
LINE
  8
OBJECT
 10
2.041043
 20
9.269533
 30
0.0
 11
2.041043
 21
11.707033
 31
0.0
  0
LINE
  8
OBJECT
 10
1.884793
 20
11.863283
 30
0.0
 11
1.321043
 21
11.863283
 31
0.0
  0
LINE
  8
OBJECT
 10
1.321043
 20
11.863283
 30
0.0
 11
1.321043
 21
9.113283
 31
0.0
  0
LINE
  8
OBJECT
 10
1.321043
 20
10.847283
 30
0.0
 11
1.981043
 21
10.847283
 31
0.0
  0
LINE
  8
OBJECT
 10
1.321043
 20
10.629283
 30
0.0
 11
1.981043
 21
10.629283
 31
0.0
  0
LINE
  8
OBJECT
 10
1.321043
 20
10.347283
 30
0.0
 11
1.981043
 21
10.347283
 31
0.0
  0
LINE
  8
OBJECT
 10
1.321043
 20
10.129283
 30
0.0
 11
1.981043
 21
10.129283
 31
0.0
  0
LINE
  8
OBJECT
 10
1.981043
 20
10.129283
 30
0.0
 11
1.981043
 21
10.347283
 31
0.0
  0
LINE
  8
OBJECT
 10
1.981043
 20
10.629283
 30
0.0
 11
1.981043
 21
10.847283
 31
0.0
  0
LINE
  8
OBJECT
 10
1.981043
 20
11.254283
 30
0.0
 11
1.981043
 21
11.472283
 31
0.0
  0
LINE
  8
OBJECT
 10
1.321043
 20
11.472283
 30
0.0
 11
1.981043
 21
11.472283
 31
0.0
  0
LINE
  8
OBJECT
 10
1.321043
 20
11.254283
 30
0.0
 11
1.981043
 21
11.254283
 31
0.0
  0
LINE
  8
OBJECT
 10
1.321043
 20
9.722283
 30
0.0
 11
1.981043
 21
9.722283
 31
0.0
  0
LINE
  8
OBJECT
 10
1.981043
 20
9.504283
 30
0.0
 11
1.981043
 21
9.722283
 31
0.0
  0
LINE
  8
OBJECT
 10
1.321043
 20
9.504283
 30
0.0
 11
1.981043
 21
9.504283
 31
0.0
  0
ARC
  8
OBJECT
 10
1.884793
 20
11.707033
 30
0.0
 40
0.15625
 50
0.0
 51
90.0
  0
ARC
  8
OBJECT
 10
1.884793
 20
9.269533
 30
0.0
 40
0.15625
 50
270.0
 51
0.0
  0
LINE
  8
HIDDEN
 10
1.384043
 20
11.863283
 30
0.0
 11
1.384043
 21
11.472283
 31
0.0
  0
LINE
  8
HIDDEN
 10
1.384043
 20
9.504283
 30
0.0
 11
1.384043
 21
9.113283
 31
0.0
  0
LINE
  8
OBJECT
 10
1.384043
 20
9.722283
 30
0.0
 11
1.384043
 21
9.504283
 31
0.0
  0
LINE
  8
HIDDEN
 10
1.384043
 20
11.254283
 30
0.0
 11
1.384043
 21
10.847283
 31
0.0
  0
LINE
  8
HIDDEN
 10
1.384043
 20
10.629283
 30
0.0
 11
1.384043
 21
10.347283
 31
0.0
  0
LINE
  8
HIDDEN
 10
1.384043
 20
10.129283
 30
0.0
 11
1.384043
 21
9.722283
 31
0.0
  0
LINE
  8
OBJECT
 10
1.384043
 20
10.347283
 30
0.0
 11
1.384043
 21
10.129283
 31
0.0
  0
LINE
  8
OBJECT
 10
1.384043
 20
10.847283
 30
0.0
 11
1.384043
 21
10.629283
 31
0.0
  0
LINE
  8
OBJECT
 10
1.384043
 20
11.472283
 30
0.0
 11
1.384043
 21
11.254283
 31
0.0
  0
LINE
  8
OBJECT
 10
5.54689
 20
11.863283
 30
0.0
 11
5.370187
 21
11.863283
 31
0.0
  0
LINE
  8
OBJECT
 10
5.370187
 20
11.863283
 30
0.0
 11
5.370187
 21
9.113283
 31
0.0
  0
LINE
  8
OBJECT
 10
5.433187
 20
11.863283
 30
0.0
 11
5.433187
 21
9.113283
 31
0.0
  0
LINE
  8
OBJECT
 10
8.250187
 20
11.082033
 30
0.0
 11
8.250187
 21
9.894533
 31
0.0
  0
LINE
  8
OBJECT
 10
6.243216
 20
11.243283
 30
0.0
 11
8.007159
 21
11.243283
 31
0.0
  0
LINE
  8
OBJECT
 10
6.243216
 20
9.733283
 30
0.0
 11
8.007159
 21
9.733283
 31
0.0
  0
LINE
  8
OBJECT
 10
5.875187
 20
11.082033
 30
0.0
 11
6.000187
 21
11.082033
 31
0.0
  0
LINE
  8
OBJECT
 10
5.875187
 20
9.894533
 30
0.0
 11
6.000187
 21
9.894533
 31
0.0
  0
LINE
  8
OBJECT
 10
5.370187
 20
14.012219
 30
0.0
 11
5.370187
 21
13.292219
 31
0.0
  0
LINE
  8
OBJECT
 10
5.370187
 20
14.012219
 30
0.0
 11
6.041806
 21
14.012219
 31
0.0
  0
LINE
  8
OBJECT
 10
5.433187
 20
13.949219
 30
0.0
 11
5.433187
 21
13.292219
 31
0.0
  0
LINE
  8
OBJECT
 10
5.433187
 20
13.949219
 30
0.0
 11
8.250187
 21
13.949219
 31
0.0
  0
LINE
  8
OBJECT
 10
8.250187
 20
14.012219
 30
0.0
 11
8.250187
 21
13.949219
 31
0.0
  0
LINE
  8
OBJECT
 10
5.370187
 20
13.292219
 30
0.0
 11
5.433187
 21
13.292219
 31
0.0
  0
LINE
  8
OBJECT
 10
6.000187
 20
14.012219
 30
0.0
 11
6.000187
 21
13.949219
 31
0.0
  0
LINE
  8
OBJECT
 10
5.875187
 20
14.012219
 30
0.0
 11
5.875187
 21
13.949219
 31
0.0
  0
LINE
  8
OBJECT
 10
1.024043
 20
11.243283
 30
0.0
 11
1.024043
 21
11.180283
 31
0.0
  0
LINE
  8
OBJECT
 10
1.024043
 20
11.243283
 30
0.0
 11
1.133543
 21
11.243283
 31
0.0
  0
LINE
  8
OBJECT
 10
1.024043
 20
9.733283
 30
0.0
 11
1.133543
 21
9.733283
 31
0.0
  0
LINE
  8
OBJECT
 10
1.024043
 20
9.796283
 30
0.0
 11
1.133543
 21
9.796283
 31
0.0
  0
LINE
  8
OBJECT
 10
1.024043
 20
11.180283
 30
0.0
 11
1.133543
 21
11.180283
 31
0.0
  0
ARC
  8
OBJECT
 10
1.133543
 20
9.983783
 30
0.0
 40
0.1875
 50
270.0
 51
0.0
  0
ARC
  8
OBJECT
 10
1.133543
 20
10.992783
 30
0.0
 40
0.1875
 50
0.0
 51
90.0
  0
ARC
  8
HIDDEN
 10
1.133543
 20
10.992783
 30
0.0
 40
0.2505
 50
0.0
 51
41.539132
  0
ARC
  8
OBJECT
 10
1.133543
 20
9.983783
 30
0.0
 40
0.2505
 50
270.0
 51
318.460868
  0
LINE
  8
OBJECT
 10
1.024043
 20
9.796283
 30
0.0
 11
1.024043
 21
9.733283
 31
0.0
  0
ARC
  8
HIDDEN
 10
1.133543
 20
9.983783
 30
0.0
 40
0.2505
 50
318.460868
 51
0.0
  0
ARC
  8
OBJECT
 10
1.133543
 20
10.992783
 30
0.0
 40
0.2505
 50
41.539132
 51
90.0
  0
LINE
  8
OBJECT
 10
8.250187
 20
11.082033
 30
0.0
 11
8.250187
 21
9.894533
 31
0.0
  0
LINE
  8
OBJECT
 10
6.328312
 20
14.309219
 30
0.0
 11
7.859562
 21
14.309219
 31
0.0
  0
ARC
  8
OBJECT
 10
6.020997
 20
14.121757
 30
0.0
 40
0.173788
 50
276.87719
 51
330.249795
  0
ARC
  8
OBJECT
 10
6.020997
 20
14.184757
 30
0.0
 40
0.173788
 50
276.87719
 51
323.658809
  0
LINE
  8
OBJECT
 10
6.328312
 20
14.309219
 30
0.0
 11
6.171879
 21
14.03552
 31
0.0
  0
LINE
  8
OBJECT
 10
6.328312
 20
14.309219
 30
0.0
 11
6.160983
 21
14.081771
 31
0.0
  0
LINE
  8
HIDDEN
 10
6.041806
 20
14.012219
 30
0.0
 11
8.250187
 21
14.012219
 31
0.0
  0
ARC
  8
OBJECT
 10
8.3123
 20
14.408544
 30
0.0
 40
0.463505
 50
192.37384
 51
262.298828
  0
ARC
  8
OBJECT
 10
8.293001
 20
14.473912
 30
0.0
 40
0.463674
 50
200.805176
 51
264.701916
  0
ARC
  8
OBJECT
 10
5.417437
 20
11.363283
 30
0.0
 40
0.109
 50
278.308061
 51
81.691939
  0
ARC
  8
OBJECT
 10
5.417437
 20
10.738283
 30
0.0
 40
0.109
 50
278.308061
 51
81.691939
  0
ARC
  8
OBJECT
 10
5.417437
 20
10.238283
 30
0.0
 40
0.109
 50
278.308061
 51
81.691939
  0
ARC
  8
OBJECT
 10
5.417437
 20
9.613283
 30
0.0
 40
0.109
 50
278.308061
 51
81.691939
  0
ARC
  8
OBJECT
 10
8.005059
 20
10.976353
 30
0.0
 40
0.266938
 50
23.321914
 51
89.54934
  0
ARC
  8
OBJECT
 10
8.005059
 20
10.000213
 30
0.0
 40
0.266938
 50
270.45066
 51
336.678086
  0
ARC
  8
OBJECT
 10
6.245315
 20
10.000213
 30
0.0
 40
0.266938
 50
203.321914
 51
269.54934
  0
ARC
  8
OBJECT
 10
6.245315
 20
10.976353
 30
0.0
 40
0.266938
 50
90.45066
 51
156.678086
  0
LINE
  8
HIDDEN
 10
6.073069
 20
9.796283
 30
0.0
 11
8.177305
 21
9.796283
 31
0.0
  0
LINE
  8
HIDDEN
 10
6.073069
 20
11.180283
 30
0.0
 11
8.177305
 21
11.180283
 31
0.0
  0
ARC
  8
OBJECT
 10
7.517187
 20
10.488283
 30
0.0
 40
0.09
 50
270.0
 51
90.0
  0
ARC
  8
OBJECT
 10
5.897187
 20
10.488283
 30
0.0
 40
0.09
 50
90.0
 51
270.0
  0
CIRCLE
  8
OBJECT
 10
6.857187
 20
10.863283
 30
0.0
 40
0.0945
  0
CIRCLE
  8
OBJECT
 10
6.857187
 20
10.113283
 30
0.0
 40
0.0945
  0
LINE
  8
OBJECT
 10
5.897187
 20
10.578283
 30
0.0
 11
7.517187
 21
10.578283
 31
0.0
  0
LINE
  8
OBJECT
 10
5.897187
 20
10.398283
 30
0.0
 11
7.517187
 21
10.398283
 31
0.0
  0
ARC
  8
OBJECT
 10
5.54689
 20
11.707033
 30
0.0
 40
0.15625
 50
14.924984
 51
90.0
  0
LINE
  8
OBJECT
 10
5.875187
 20
11.082033
 30
0.0
 11
5.697869
 21
11.747276
 31
0.0
  0
ARC
  8
OBJECT
 10
5.54689
 20
9.269533
 30
0.0
 40
0.15625
 50
270.0
 51
345.075016
  0
LINE
  8
OBJECT
 10
5.875187
 20
9.894533
 30
0.0
 11
5.697869
 21
9.22929
 31
0.0
  0
LINE
  8
OBJECT
 10
5.54689
 20
9.113283
 30
0.0
 11
5.370187
 21
9.113283
 31
0.0
  0
DIMENSION
  8
DIM
  2
*D0
 10
3.660659
 20
11.863283
 30
0.0
 11
3.660659
 21
10.488283
 31
0.0
 13
1.884793
 23
9.113283
 33
0.0
 14
1.884793
 24
11.863283
 34
0.0
 50
90.0
  3
23NSTD
  0
DIMENSION
  8
DIM
  2
*D9
 10
2.43646
 20
10.738283
 30
0.0
 11
2.43646
 21
11.050783
 31
0.0
 13
1.981043
 23
11.363283
 33
0.0
 14
1.981043
 24
10.738283
 34
0.0
 50
90.0
  3
23NSTDI
  0
DIMENSION
  8
DIM
  2
*D8
 10
2.816562
 20
10.238283
 30
0.0
 11
2.816562
 21
10.488283
 31
0.0
 13
1.981043
 23
10.738283
 33
0.0
 14
1.981043
 24
10.238283
 34
0.0
 50
90.0
  3
23NSTDI
  0
DIMENSION
  8
DIM
  2
*D7
 10
3.196664
 20
9.613283
 30
0.0
 11
3.196664
 21
9.925783
 31
0.0
 13
1.981043
 23
10.238283
 33
0.0
 14
1.981043
 24
9.613283
 34
0.0
 50
90.0
  3
23NSTDI
  0
DIMENSION
  8
DIM
  2
*D11
 10
5.370187
 20
12.144283
 30
0.0
 11
5.588687
 21
12.144283
 31
0.0
 13
5.807187
 23
10.488283
 33
0.0
 14
5.370187
 24
11.863283
 34
0.0
  3
23NSTDI
  0
DIMENSION
  8
DIM
  2
*D12
 10
7.607187
 20
12.144283
 30
0.0
 11
6.707187
 21
12.144283
 31
0.0
 13
5.807187
 23
10.488283
 33
0.0
 14
7.607187
 24
10.488283
 34
0.0
  3
23NSTD
  0
DIMENSION
  8
DIM
  2
*D13
 10
4.965525
 20
10.398283
 30
0.0
 11
4.539275
 21
10.038283
 31
0.0
 13
5.897187
 23
10.578283
 33
0.0
 14
5.897187
 24
10.398283
 34
0.0
 50
90.0
  3
23NSTD
  0
DIMENSION
  8
DIM
  2
*D10
 10
6.857187
 20
11.863283
 30
0.0
 11
7.232187
 21
11.863283
 31
0.0
 13
7.607187
 23
10.488283
 33
0.0
 14
6.857187
 24
10.863283
 34
0.0
  3
23NSTDI
  0
DIMENSION
  8
DIM
  2
*D2
 10
9.394455
 20
11.243283
 30
0.0
 11
9.394455
 21
10.488283
 31
0.0
 13
8.007159
 23
9.733283
 33
0.0
 14
8.007159
 24
11.243283
 34
0.0
 50
90.0
  3
23NSTD
  0
DIMENSION
  8
DIM
  2
*D4
 10
8.545195
 20
10.863283
 30
0.0
 11
8.545195
 21
10.675783
 31
0.0
 13
7.517187
 23
10.488283
 33
0.0
 14
6.857187
 24
10.863283
 34
0.0
 50
90.0
  3
23NSTDI
  0
DIMENSION
  8
DIM
  2
*D3
 10
8.945948
 20
10.113283
 30
0.0
 11
8.945948
 21
10.300783
 31
0.0
 13
7.517187
 23
10.488283
 33
0.0
 14
6.857187
 24
10.113283
 34
0.0
 50
90.0
  3
23NSTDI
  0
DIMENSION
  8
DIM
  2
*D5
 10
0.800632
 20
11.472283
 30
0.0
 11
0.800632
 21
11.363283
 31
0.0
 13
1.321043
 23
11.254283
 33
0.0
 14
1.321043
 24
11.472283
 34
0.0
 50
90.0
  3
23NSTDI
  0
DIMENSION
  8
DIM
  2
*D6
 10
2.041043
 20
8.540902
 30
0.0
 11
1.681043
 21
8.540902
 31
0.0
 13
1.321043
 23
9.113283
 33
0.0
 14
2.041043
 24
9.269533
 34
0.0
  3
23NSTDI
  0
DIMENSION
  8
DIM
  2
*D1
 10
1.321043
 20
8.820233
 30
0.0
 11
0.699168
 21
8.820233
 31
0.0
 13
1.384043
 23
9.113283
 33
0.0
 14
1.321043
 24
9.113283
 34
0.0
  3
23NSTD
  0
TEXT
  8
TEXT
 10
0.685668
 20
14.400414
 30
0.0
 40
0.125
  1
%%UMATERIAL:
 41
0.75
  7
TXT
  0
TEXT
  8
TEXT
 10
0.803764
 20
14.192081
 30
0.0
 40
0.125
  1
16 GA. STEEL
 41
0.75
  7
TXT
  0
TEXT
  8
TEXT
 10
0.685668
 20
13.850855
 30
0.0
 40
0.125
  1
%%UFINISH:
 41
0.75
  7
TXT
  0
TEXT
  8
TEXT
 10
0.803764
 20
13.642522
 30
0.0
 40
0.125
  1
ZINC PLATED
 41
0.75
  7
TXT
  0
TEXT
  8
TEXT
 10
0.685668
 20
13.094862
 30
0.0
 40
0.125
  1
QTY. (4) #5101 MOUNTING BRACKETS
 41
0.75
  7
TXT
  0
TEXT
  8
TEXT
 10
0.803764
 20
12.886529
 30
0.0
 40
0.125
  1
AND NECESSARY HARDWARE.
 41
0.75
  7
TXT
  0
TEXT
  8
TEXT
 10
0.265125
 20
15.060079
 30
0.0
 40
0.125
  1
NAME
 41
0.75
  7
TXT
 72
     1
 11
0.437
 21
15.060079
 31
0.0
  0
TEXT
  8
TEXT
 10
0.265125
 20
15.268413
 30
0.0
 40
0.125
  1
PART
 41
0.75
  7
TXT
 72
     1
 11
0.437
 21
15.268413
 31
0.0
  0
TEXT
  8
TEXT
 10
5.40325
 20
15.060079
 30
0.0
 40
0.125
  1
No.
 41
0.75
  7
TXT
 72
     1
 11
5.497
 21
15.060079
 31
0.0
  0
TEXT
  8
TEXT
 10
5.325125
 20
15.268413
 30
0.0
 40
0.125
  1
PART
 41
0.75
  7
TXT
 72
     1
 11
5.497
 21
15.268413
 31
0.0
  0
LINE
  8
TITLE
 10
5.872
 20
15.438
 30
0.0
 11
5.872
 21
15.02
 31
0.0
  0
LINE
  8
TITLE
 10
5.122
 20
15.438
 30
0.0
 11
5.122
 21
15.02
 31
0.0
  0
LINE
  8
TITLE
 10
5.06
 20
15.438
 30
0.0
 11
5.06
 21
15.02
 31
0.0
  0
LINE
  8
TITLE
 10
0.812
 20
15.02
 30
0.0
 11
0.812
 21
15.438
 31
0.0
  0
LINE
  8
TITLE
 10
0.062
 20
15.02
 30
0.0
 11
10.058
 21
15.02
 31
0.0
  0
LINE
  8
TITLE
 10
10.058
 20
0.062
 30
0.0
 11
0.062
 21
0.062
 31
0.0
  0
LINE
  8
TITLE
 10
10.058
 20
15.438
 30
0.0
 11
10.058
 21
8.1528
 31
0.0
  0
LINE
  8
TITLE
 10
0.062
 20
15.438
 30
0.0
 11
10.058
 21
15.438
 31
0.0
  0
LINE
  8
TITLE
 10
0.062
 20
0.062
 30
0.0
 11
0.062
 21
8.084419
 31
0.0
  0
LINE
  8
TITLE
 10
0.0
 20
0.0
 30
0.0
 11
0.0
 21
15.5
 31
0.0
  0
LINE
  8
TITLE
 10
10.12
 20
0.0
 30
0.0
 11
0.0
 21
0.0
 31
0.0
  0
LINE
  8
TITLE
 10
10.12
 20
15.5
 30
0.0
 11
10.12
 21
0.0
 31
0.0
  0
LINE
  8
TITLE
 10
0.0
 20
15.5
 30
0.0
 11
10.12
 21
15.5
 31
0.0
  0
TEXT
  8
TEXT
 10
1.7075
 20
15.151
 30
0.0
 40
0.156
  1
SLIDE MOUNTING BRACKET
 41
0.75
  7
TXT
 72
     4
 11
2.936
 21
15.229
 31
0.0
  0
TEXT
  8
TEXT
 10
7.54575
 20
15.151
 30
0.0
 40
0.156
  1
BAS-5107
 41
0.75
  7
TXT
 72
     4
 11
7.965
 21
15.229
 31
0.0
  0
LINE
  8
TITLE
 10
0.062
 20
7.666419
 30
0.0
 11
10.058
 21
7.666419
 31
0.0
  0
LINE
  8
TITLE
 10
5.06
 20
8.084419
 30
0.0
 11
5.06
 21
7.666419
 31
0.0
  0
LINE
  8
TITLE
 10
5.122
 20
8.084419
 30
0.0
 11
5.122
 21
7.666419
 31
0.0
  0
LINE
  8
TITLE
 10
5.872
 20
8.084419
 30
0.0
 11
5.872
 21
7.666419
 31
0.0
  0
TEXT
  8
TEXT
 10
5.40325
 20
7.706498
 30
0.0
 40
0.125
  1
No.
 41
0.75
  7
TXT
 72
     1
 11
5.497
 21
7.706498
 31
0.0
  0
TEXT
  8
TEXT
 10
5.325125
 20
7.914831
 30
0.0
 40
0.125
  1
PART
 41
0.75
  7
TXT
 72
     1
 11
5.497
 21
7.914831
 31
0.0
  0
LINE
  8
TITLE
 10
0.062
 20
8.084419
 30
0.0
 11
10.058
 21
8.084419
 31
0.0
  0
LINE
  8
TITLE
 10
0.812
 20
7.666419
 30
0.0
 11
0.812
 21
8.084419
 31
0.0
  0
TEXT
  8
TEXT
 10
0.265125
 20
7.706498
 30
0.0
 40
0.125
  1
NAME
 41
0.75
  7
TXT
 72
     1
 11
0.437
 21
7.706498
 31
0.0
  0
TEXT
  8
TEXT
 10
0.265125
 20
7.914831
 30
0.0
 40
0.125
  1
PART
 41
0.75
  7
TXT
 72
     1
 11
0.437
 21
7.914831
 31
0.0
  0
LINE
  8
TITLE
 10
0.062
 20
8.1528
 30
0.0
 11
10.058
 21
8.1528
 31
0.0
  0
LINE
  8
TITLE
 10
10.058
 20
8.084419
 30
0.0
 11
10.058
 21
0.062
 31
0.0
  0
LINE
  8
TITLE
 10
0.062
 20
8.1528
 30
0.0
 11
0.062
 21
15.438
 31
0.0
  0
POLYLINE
  8
DIM
 66
     1
 10
0.0
 20
0.0
 30
0.0
 41
0.0675
  0
VERTEX
  8
DIM
 10
6.91687
 20
10.040015
 30
0.0
  0
VERTEX
  8
DIM
 10
7.04761
 20
9.916294
 30
0.0
 41
0.0
  0
VERTEX
  8
DIM
 10
7.664467
 20
9.332551
 30
0.0
 41
0.0
  0
VERTEX
  8
DIM
 10
7.844467
 20
9.332551
 30
0.0
 41
0.0
  0
SEQEND
  8
DIM
  0
TEXT
  8
DIM
 10
7.934467
 20
9.270051
 30
0.0
 40
0.125
  1
0.189 DIA.
 41
0.75
  7
TXT
 11
7.934467
 21
9.332551
 31
0.0
 73
     2
  0
TEXT
  8
DIM
 10
7.934467
 20
9.061717
 30
0.0
 40
0.125
  1
(2) HOLES
 41
0.75
  7
TXT
 11
7.934467
 21
9.124217
 31
0.0
 73
     2
  0
TEXT
  8
DIM
 10
5.070607
 20
5.12956
 30
0.0
 40
0.125
  1

  0
TEXT
  8
DIM
 10
5.014631
 20
5.968419
 30
0.0
 40
0.125
  1

  0
LINE
  8
OBJECT
 10
4.209699
 20
4.350566
 30
0.0
 11
4.865949
 21
4.350566
 31
0.0
  0
LINE
  8
OBJECT
 10
5.084699
 20
4.350566
 30
0.0
 11
5.084699
 21
5.100566
 31
0.0
  0
LINE
  8
OBJECT
 10
5.084699
 20
5.100566
 30
0.0
 11
4.965949
 21
5.100566
 31
0.0
  0
LINE
  8
OBJECT
 10
4.209699
 20
5.178691
 30
0.0
 11
4.209699
 21
4.272441
 31
0.0
  0
LINE
  8
OBJECT
 10
3.984699
 20
5.043066
 30
0.0
 11
3.984699
 21
4.408066
 31
0.0
  0
ARC
  8
OBJECT
 10
4.245697
 20
4.864522
 30
0.0
 40
0.316225
 50
96.536591
 51
145.624686
  0
ARC
  8
OBJECT
 10
4.245697
 20
4.58661
 30
0.0
 40
0.316225
 50
214.375314
 51
263.463409
  0
LINE
  8
OBJECT
 10
5.209699
 20
4.900566
 30
0.0
 11
5.134699
 21
4.900566
 31
0.0
  0
LINE
  8
OBJECT
 10
5.209699
 20
4.550566
 30
0.0
 11
5.134699
 21
4.550566
 31
0.0
  0
LINE
  8
OBJECT
 10
5.134699
 20
5.040566
 30
0.0
 11
5.134699
 21
4.350566
 31
0.0
  0
LINE
  8
OBJECT
 10
5.134699
 20
5.040566
 30
0.0
 11
5.084699
 21
5.040566
 31
0.0
  0
LINE
  8
OBJECT
 10
5.084699
 20
4.900566
 30
0.0
 11
4.965949
 21
4.900566
 31
0.0
  0
LINE
  8
OBJECT
 10
5.084699
 20
4.550566
 30
0.0
 11
4.965949
 21
4.550566
 31
0.0
  0
LINE
  8
OBJECT
 10
4.985818
 20
5.074127
 30
0.0
 11
4.985818
 21
4.923515
 31
0.0
  0
LINE
  8
OBJECT
 10
5.032656
 20
5.044127
 30
0.0
 11
5.032656
 21
4.953515
 31
0.0
  0
LINE
  8
OBJECT
 10
4.844979
 20
5.044127
 30
0.0
 11
4.844979
 21
4.953515
 31
0.0
  0
LINE
  8
OBJECT
 10
4.750979
 20
5.044127
 30
0.0
 11
4.750979
 21
4.953515
 31
0.0
  0
LINE
  8
OBJECT
 10
4.656979
 20
5.044127
 30
0.0
 11
4.656979
 21
4.953515
 31
0.0
  0
LINE
  8
OBJECT
 10
4.562979
 20
5.044127
 30
0.0
 11
4.562979
 21
4.953515
 31
0.0
  0
LINE
  8
OBJECT
 10
4.468979
 20
5.044127
 30
0.0
 11
4.468979
 21
4.953515
 31
0.0
  0
LINE
  8
OBJECT
 10
4.374979
 20
5.044127
 30
0.0
 11
4.374979
 21
4.953515
 31
0.0
  0
LINE
  8
OBJECT
 10
4.797818
 20
5.074127
 30
0.0
 11
4.797818
 21
4.923515
 31
0.0
  0
LINE
  8
OBJECT
 10
4.703818
 20
5.074127
 30
0.0
 11
4.703818
 21
4.923515
 31
0.0
  0
LINE
  8
OBJECT
 10
4.609818
 20
5.074127
 30
0.0
 11
4.609818
 21
4.923515
 31
0.0
  0
LINE
  8
OBJECT
 10
4.515818
 20
5.074127
 30
0.0
 11
4.515818
 21
4.923515
 31
0.0
  0
LINE
  8
OBJECT
 10
4.421818
 20
5.074127
 30
0.0
 11
4.421818
 21
4.923515
 31
0.0
  0
LINE
  8
OBJECT
 10
4.326725
 20
5.074127
 30
0.0
 11
4.326725
 21
4.923515
 31
0.0
  0
LINE
  8
OBJECT
 10
4.326725
 20
4.377005
 30
0.0
 11
4.326725
 21
4.527617
 31
0.0
  0
LINE
  8
OBJECT
 10
4.656979
 20
4.407005
 30
0.0
 11
4.656979
 21
4.497617
 31
0.0
  0
LINE
  8
OBJECT
 10
4.562979
 20
4.407005
 30
0.0
 11
4.562979
 21
4.497617
 31
0.0
  0
LINE
  8
OBJECT
 10
4.468979
 20
4.407005
 30
0.0
 11
4.468979
 21
4.497617
 31
0.0
  0
LINE
  8
OBJECT
 10
4.374979
 20
4.407005
 30
0.0
 11
4.374979
 21
4.497617
 31
0.0
  0
LINE
  8
OBJECT
 10
4.703818
 20
4.377005
 30
0.0
 11
4.703818
 21
4.527617
 31
0.0
  0
LINE
  8
OBJECT
 10
4.609818
 20
4.377005
 30
0.0
 11
4.609818
 21
4.527617
 31
0.0
  0
LINE
  8
OBJECT
 10
4.515818
 20
4.377005
 30
0.0
 11
4.515818
 21
4.527617
 31
0.0
  0
LINE
  8
OBJECT
 10
4.421818
 20
4.377005
 30
0.0
 11
4.421818
 21
4.527617
 31
0.0
  0
LINE
  8
OBJECT
 10
5.032656
 20
4.407005
 30
0.0
 11
5.032656
 21
4.497617
 31
0.0
  0
LINE
  8
OBJECT
 10
4.985818
 20
4.377005
 30
0.0
 11
4.985818
 21
4.527617
 31
0.0
  0
LINE
  8
OBJECT
 10
4.844979
 20
4.407005
 30
0.0
 11
4.844979
 21
4.497617
 31
0.0
  0
LINE
  8
OBJECT
 10
4.797818
 20
4.377005
 30
0.0
 11
4.797818
 21
4.527617
 31
0.0
  0
LINE
  8
OBJECT
 10
4.750979
 20
4.407005
 30
0.0
 11
4.750979
 21
4.497617
 31
0.0
  0
ARC
  8
OBJECT
 10
1.777543
 20
4.725566
 30
0.0
 40
0.3175
 50
107.032457
 51
252.967543
  0
ARC
  8
OBJECT
 10
1.777543
 20
4.725566
 30
0.0
 40
0.453125
 50
101.84363
 51
258.15637
  0
DIMENSION
  8
DIM
  2
*D17
 10
1.324418
 20
5.633202
 30
0.0
 11
1.777543
 21
5.633202
 31
0.0
 13
2.230668
 23
4.725566
 33
0.0
 14
1.324418
 24
4.725566
 34
0.0
  3
23NSTDI
  0
DIMENSION
  8
DIM
  2
*D14
 10
5.084699
 20
5.922828
 30
0.0
 11
4.190081
 21
5.922828
 31
0.0
 12
0.457118
 22
0.0
 32
0.0
  1
<>
 13
4.209699
 23
5.178691
 33
0.0
 14
5.084699
 24
5.100566
 34
0.0
  3
23NSTDI
  0
LINE
  8
OBJECT
 10
4.865949
 20
5.252483
 30
0.0
 11
4.865949
 21
4.198649
 31
0.0
  0
LINE
  8
OBJECT
 10
4.934763
 20
5.252483
 30
0.0
 11
4.865949
 21
5.252483
 31
0.0
  0
LINE
  8
OBJECT
 10
4.934763
 20
4.198649
 30
0.0
 11
4.865949
 21
4.198649
 31
0.0
  0
LINE
  8
OBJECT
 10
4.965949
 20
5.120754
 30
0.0
 11
4.965949
 21
4.330379
 31
0.0
  0
LINE
  8
OBJECT
 10
4.934763
 20
4.462108
 30
0.0
 11
4.865949
 21
4.462108
 31
0.0
  0
LINE
  8
OBJECT
 10
4.934763
 20
4.989025
 30
0.0
 11
4.865949
 21
4.989025
 31
0.0
  0
LINE
  8
OBJECT
 10
4.865949
 20
5.100566
 30
0.0
 11
4.209699
 21
5.100566
 31
0.0
  0
LINE
  8
OBJECT
 10
4.865949
 20
4.900566
 30
0.0
 11
4.209699
 21
4.900566
 31
0.0
  0
LINE
  8
OBJECT
 10
4.965949
 20
4.350566
 30
0.0
 11
5.134699
 21
4.350566
 31
0.0
  0
LINE
  8
OBJECT
 10
4.865949
 20
4.550566
 30
0.0
 11
4.209699
 21
4.550566
 31
0.0
  0
ARC
  8
OBJECT
 10
3.837497
 20
4.725566
 30
0.0
 40
1.128452
 50
346.498614
 51
13.501386
  0
LINE
  8
OBJECT
 10
4.965949
 20
4.462108
 30
0.0
 11
4.965949
 21
4.330379
 31
0.0
  0
ARC
  8
OBJECT
 10
4.672141
 20
4.330379
 30
0.0
 40
0.293808
 50
333.362003
 51
26.637997
  0
ARC
  8
OBJECT
 10
4.672141
 20
5.120754
 30
0.0
 40
0.293808
 50
333.362003
 51
26.637997
  0
LINE
  8
OBJECT
 10
4.280979
 20
4.407005
 30
0.0
 11
4.280979
 21
4.497617
 31
0.0
  0
LINE
  8
OBJECT
 10
4.232725
 20
4.377005
 30
0.0
 11
4.232725
 21
4.527617
 31
0.0
  0
LINE
  8
OBJECT
 10
4.232725
 20
5.074127
 30
0.0
 11
4.232725
 21
4.923515
 31
0.0
  0
LINE
  8
OBJECT
 10
4.280979
 20
5.044127
 30
0.0
 11
4.280979
 21
4.953515
 31
0.0
  0
POLYLINE
  8
OBJECT
 66
     1
 10
0.0
 20
0.0
 30
0.0
 70
     1
  0
VERTEX
  8
OBJECT
 10
7.28291
 20
4.413066
 30
0.0
  0
VERTEX
  8
OBJECT
 10
7.19791
 20
4.413066
 30
0.0
  0
VERTEX
  8
OBJECT
 10
7.19791
 20
5.185943
 30
0.0
 42
-0.131652
  0
VERTEX
  8
OBJECT
 10
7.202097
 20
5.201568
 30
0.0
  0
VERTEX
  8
OBJECT
 10
7.318723
 20
5.403571
 30
0.0
 42
0.131652
  0
VERTEX
  8
OBJECT
 10
7.32291
 20
5.419196
 30
0.0
  0
VERTEX
  8
OBJECT
 10
7.32291
 20
6.225566
 30
0.0
  0
VERTEX
  8
OBJECT
 10
7.40791
 20
6.225566
 30
0.0
  0
VERTEX
  8
OBJECT
 10
7.40791
 20
5.419196
 30
0.0
 42
-0.131652
  0
VERTEX
  8
OBJECT
 10
7.403723
 20
5.403571
 30
0.0
  0
VERTEX
  8
OBJECT
 10
7.287097
 20
5.201568
 30
0.0
 42
0.131652
  0
VERTEX
  8
OBJECT
 10
7.28291
 20
5.185943
 30
0.0
  0
SEQEND
  8
OBJECT
  0
POLYLINE
  8
OBJECT
 66
     1
 10
0.0
 20
0.0
 30
0.0
 70
     1
  0
VERTEX
  8
OBJECT
 10
7.626418
 20
2.035659
 30
0.0
 42
-0.536675
  0
VERTEX
  8
OBJECT
 10
7.001418
 20
2.035659
 30
0.0
  0
VERTEX
  8
OBJECT
 10
7.001418
 20
3.512737
 30
0.0
 42
-0.536675
  0
VERTEX
  8
OBJECT
 10
7.626418
 20
3.512737
 30
0.0
  0
SEQEND
  8
OBJECT
  0
LINE
  8
OBJECT
 10
7.626418
 20
2.649198
 30
0.0
 11
7.001418
 21
2.649198
 31
0.0
  0
LINE
  8
OBJECT
 10
7.626418
 20
2.86599
 30
0.0
 11
7.001418
 21
2.86599
 31
0.0
  0
POLYLINE
  8
OBJECT
 66
     1
 10
0.0
 20
0.0
 30
0.0
 70
     1
  0
VERTEX
  8
OBJECT
 10
7.493605
 20
2.03201
 30
0.0
 42
-0.414214
  0
VERTEX
  8
OBJECT
 10
7.462355
 20
2.00076
 30
0.0
  0
VERTEX
  8
OBJECT
 10
7.16548
 20
2.00076
 30
0.0
 42
-0.414214
  0
VERTEX
  8
OBJECT
 10
7.13423
 20
2.03201
 30
0.0
  0
VERTEX
  8
OBJECT
 10
7.13423
 20
2.328885
 30
0.0
 42
-0.414214
  0
VERTEX
  8
OBJECT
 10
7.16548
 20
2.360135
 30
0.0
  0
VERTEX
  8
OBJECT
 10
7.462355
 20
2.360135
 30
0.0
 42
-0.414214
  0
VERTEX
  8
OBJECT
 10
7.493605
 20
2.328885
 30
0.0
  0
SEQEND
  8
OBJECT
  0
LINE
  8
CENTER
 10
7.313918
 20
2.090448
 30
0.0
 11
7.313918
 21
2.270448
 31
0.0
  0
LINE
  8
CENTER
 10
7.403918
 20
2.180448
 30
0.0
 11
7.223918
 21
2.180448
 31
0.0
  0
POLYLINE
  8
OBJECT
 66
     1
 10
0.0
 20
0.0
 30
0.0
 70
     1
  0
VERTEX
  8
OBJECT
 10
3.984699
 20
5.041245
 30
0.0
  0
VERTEX
  8
OBJECT
 10
4.082873
 20
5.339162
 30
0.0
 42
0.510839
  0
VERTEX
  8
OBJECT
 10
4.023988
 20
5.420566
 30
0.0
  0
VERTEX
  8
OBJECT
 10
3.834699
 20
5.420566
 30
0.0
 42
0.414214
  0
VERTEX
  8
OBJECT
 10
3.709699
 20
5.295566
 30
0.0
  0
VERTEX
  8
OBJECT
 10
3.709699
 20
4.155566
 30
0.0
 42
0.414214
  0
VERTEX
  8
OBJECT
 10
3.834699
 20
4.030566
 30
0.0
  0
VERTEX
  8
OBJECT
 10
4.023988
 20
4.030566
 30
0.0
 42
0.510839
  0
VERTEX
  8
OBJECT
 10
4.082873
 20
4.111971
 30
0.0
  0
VERTEX
  8
OBJECT
 10
3.984699
 20
4.409888
 30
0.0
 42
-0.395972
  0
SEQEND
  8
OBJECT
  0
LINE
  8
OBJECT
 10
1.684543
 20
4.030566
 30
0.0
 11
1.684543
 21
5.420566
 31
0.0
  0
LINE
  8
OBJECT
 10
1.870543
 20
4.030566
 30
0.0
 11
1.870543
 21
5.420566
 31
0.0
  0
LINE
  8
OBJECT
 10
1.684543
 20
5.420566
 30
0.0
 11
1.870543
 21
5.420566
 31
0.0
  0
LINE
  8
OBJECT
 10
1.684543
 20
4.030566
 30
0.0
 11
1.870543
 21
4.030566
 31
0.0
  0
POLYLINE
  8
OBJECT
 66
     1
 10
0.0
 20
0.0
 30
0.0
  0
VERTEX
  8
OBJECT
 10
1.684543
 20
5.19879
 30
0.0
  0
VERTEX
  8
OBJECT
 10
1.32122
 20
4.989025
 30
0.0
  0
VERTEX
  8
OBJECT
 10
1.32122
 20
4.462108
 30
0.0
  0
SEQEND
  8
OBJECT
  0
ARC
  8
OBJECT
 10
1.777543
 20
4.725566
 30
0.0
 40
0.3175
 50
287.032457
 51
72.967543
  0
ARC
  8
OBJECT
 10
1.777543
 20
4.725566
 30
0.0
 40
0.453125
 50
281.84363
 51
78.15637
  0
POLYLINE
  8
OBJECT
 66
     1
 10
0.0
 20
0.0
 30
0.0
  0
VERTEX
  8
OBJECT
 10
1.32122
 20
4.462108
 30
0.0
  0
VERTEX
  8
OBJECT
 10
1.684543
 20
4.252343
 30
0.0
  0
SEQEND
  8
OBJECT
  0
POLYLINE
  8
OBJECT
 66
     1
 10
0.0
 20
0.0
 30
0.0
  0
VERTEX
  8
OBJECT
 10
1.870543
 20
4.252343
 30
0.0
  0
VERTEX
  8
OBJECT
 10
2.233866
 20
4.462108
 30
0.0
  0
VERTEX
  8
OBJECT
 10
2.233866
 20
4.989025
 30
0.0
  0
VERTEX
  8
OBJECT
 10
1.870543
 20
5.19879
 30
0.0
  0
SEQEND
  8
OBJECT
  0
DIMENSION
  8
DIM
  2
*D18
 10
4.209699
 20
5.641828
 30
0.0
 11
2.919768
 21
5.641828
 31
0.0
 12
0.457118
 22
0.0
 32
0.0
  1
<> MAX.
 13
4.865949
 23
5.252483
 33
0.0
 14
4.209699
 24
5.178691
 34
0.0
  3
23NSTD
  0
LINE
  8
CENTER
 10
3.834699
 20
4.725566
 30
0.0
 11
9.14736
 21
4.725566
 31
0.0
  0
LINE
  8
OBJECT
 10
8.937333
 20
4.491566
 30
0.0
 11
8.905333
 21
4.491566
 31
0.0
  0
LINE
  8
OBJECT
 10
8.937333
 20
4.959566
 30
0.0
 11
8.905333
 21
4.959566
 31
0.0
  0
LINE
  8
OBJECT
 10
8.242451
 20
4.413066
 30
0.0
 11
8.242451
 21
5.038066
 31
0.0
  0
LINE
  8
OBJECT
 10
8.273451
 20
4.413066
 30
0.0
 11
8.273451
 21
5.038066
 31
0.0
  0
LINE
  8
OBJECT
 10
8.273451
 20
4.413066
 30
0.0
 11
8.242451
 21
4.413066
 31
0.0
  0
LINE
  8
OBJECT
 10
8.273451
 20
5.038066
 30
0.0
 11
8.242451
 21
5.038066
 31
0.0
  0
ARC
  8
OBJECT
 10
8.937333
 20
4.866566
 30
0.0
 40
0.093
 50
0.0
 51
90.0
  0
LINE
  8
OBJECT
 10
9.030333
 20
4.584566
 30
0.0
 11
9.030333
 21
4.694566
 31
0.0
  0
ARC
  8
OBJECT
 10
8.937333
 20
4.584566
 30
0.0
 40
0.093
 50
270.0
 51
0.0
  0
LINE
  8
OBJECT
 10
9.030333
 20
4.694566
 30
0.0
 11
8.968333
 21
4.694566
 31
0.0
  0
LINE
  8
OBJECT
 10
9.030333
 20
4.756566
 30
0.0
 11
8.968333
 21
4.756566
 31
0.0
  0
LINE
  8
OBJECT
 10
8.968333
 20
4.694566
 30
0.0
 11
8.968333
 21
4.756566
 31
0.0
  0
LINE
  8
OBJECT
 10
9.030333
 20
4.756566
 30
0.0
 11
9.030333
 21
4.866566
 31
0.0
  0
LINE
  8
OBJECT
 10
8.655333
 20
4.850566
 30
0.0
 11
8.905333
 21
4.850566
 31
0.0
  0
LINE
  8
OBJECT
 10
8.655333
 20
4.600566
 30
0.0
 11
8.905333
 21
4.600566
 31
0.0
  0
LINE
  8
OBJECT
 10
8.655333
 20
4.600566
 30
0.0
 11
8.655333
 21
4.850566
 31
0.0
  0
LINE
  8
OBJECT
 10
8.624333
 20
4.631566
 30
0.0
 11
8.624333
 21
4.819566
 31
0.0
  0
LINE
  8
OBJECT
 10
8.655333
 20
4.850566
 30
0.0
 11
8.624333
 21
4.819566
 31
0.0
  0
LINE
  8
OBJECT
 10
8.655333
 20
4.600566
 30
0.0
 11
8.624333
 21
4.631566
 31
0.0
  0
LINE
  8
OBJECT
 10
8.905333
 20
4.959566
 30
0.0
 11
8.905333
 21
4.491566
 31
0.0
  0
LINE
  8
OBJECT
 10
8.717333
 20
4.600566
 30
0.0
 11
8.717333
 21
4.850566
 31
0.0
  0
LINE
  8
OBJECT
 10
8.779333
 20
4.600566
 30
0.0
 11
8.779333
 21
4.850566
 31
0.0
  0
LINE
  8
OBJECT
 10
8.841333
 20
4.600566
 30
0.0
 11
8.841333
 21
4.850566
 31
0.0
  0
LINE
  8
OBJECT
 10
8.686333
 20
4.662566
 30
0.0
 11
8.686333
 21
4.788566
 31
0.0
  0
LINE
  8
OBJECT
 10
8.748333
 20
4.662566
 30
0.0
 11
8.748333
 21
4.788566
 31
0.0
  0
LINE
  8
OBJECT
 10
8.810333
 20
4.662566
 30
0.0
 11
8.810333
 21
4.788566
 31
0.0
  0
LINE
  8
OBJECT
 10
8.872333
 20
4.662566
 30
0.0
 11
8.872333
 21
4.788566
 31
0.0
  0
LINE
  8
OBJECT
 10
5.209699
 20
4.900566
 30
0.0
 11
5.209699
 21
4.550566
 31
0.0
  0
TEXT
  8
TEXT
 10
1.0445
 20
7.797419
 30
0.0
 40
0.156
  1
NON-LOCKING LATCH HANDLE ASSEMBLY
 41
0.75
  7
TXT
 72
     4
 11
2.936
 21
7.875419
 31
0.0
  0
TEXT
  8
TEXT
 10
7.575
 20
7.797419
 30
0.0
 40
0.156
  1
LH-9358
 41
0.75
  7
TXT
 72
     4
 11
7.965
 21
7.875419
 31
0.0
  0
DIMENSION
  8
DIM
  2
*D15
 10
3.390305
 20
4.030566
 30
0.0
 11
2.933187
 21
4.725566
 31
0.0
 12
0.457118
 22
0.0
 32
0.0
 13
3.834699
 23
5.420566
 33
0.0
 14
3.834699
 24
4.030566
 34
0.0
 50
90.0
  3
23NSTD
  0
DIMENSION
  8
DIM
  2
*D19
 10
3.709699
 20
3.755289
 30
0.0
 11
3.080011
 21
3.755289
 31
0.0
  1
0.375
 13
4.085988
 23
4.092566
 33
0.0
 14
3.709699
 24
4.155566
 34
0.0
  3
23NSTD
  0
DIMENSION
  8
DIM
  2
*D16
 10
3.709699
 20
3.474289
 30
0.0
 11
3.502581
 21
3.474289
 31
0.0
 12
0.457118
 22
0.0
 32
0.0
 13
4.209699
 23
4.272441
 33
0.0
 14
3.709699
 24
4.155566
 34
0.0
  3
23NSTDI
  0
POLYLINE
  8
DIM
 66
     1
 10
0.0
 20
0.0
 30
0.0
 41
0.0675
  0
VERTEX
  8
DIM
 10
4.421818
 20
4.377005
 30
0.0
  0
VERTEX
  8
DIM
 10
4.515885
 20
4.223541
 30
0.0
 41
0.0
  0
VERTEX
  8
DIM
 10
4.749752
 20
3.842005
 30
0.0
 41
0.0
  0
VERTEX
  8
DIM
 10
4.929752
 20
3.842005
 30
0.0
 41
0.0
  0
SEQEND
  8
DIM
  0
TEXT
  8
DIM
 10
5.019752
 20
3.779505
 30
0.0
 40
0.125
  1
3/4-24 THREAD
 41
0.75
  7
TXT
 11
5.019752
 21
3.842005
 31
0.0
 73
     2
  0
DIMENSION
  8
DIM
  2
*D20
 10
6.911495
 20
4.725566
 30
0.0
 11
6.911495
 21
5.475566
 31
0.0
 13
7.32291
 23
6.225566
 33
0.0
 14
7.072439
 24
4.725566
 34
0.0
 50
90.0
  3
23NSTD
  0
DIMENSION
  8
DIM
  2
*D22
 10
7.19791
 20
6.455546
 30
0.0
 11
6.583848
 21
6.455546
 31
0.0
 13
7.32291
 23
6.225566
 33
0.0
 14
7.19791
 24
5.185943
 34
0.0
  3
23NSTD
  0
DIMENSION
  8
DIM
  2
*D21
 10
7.40791
 20
6.736546
 30
0.0
 11
8.029785
 21
6.736546
 31
0.0
 13
7.32291
 23
6.225566
 33
0.0
 14
7.40791
 24
6.225566
 34
0.0
  3
23NSTD
  0
DIMENSION
  8
DIM
  2
*D23
 10
7.626418
 20
1.5999
 30
0.0
 11
7.313918
 21
1.5999
 31
0.0
 13
7.001418
 23
2.035659
 33
0.0
 14
7.626418
 24
2.035659
 34
0.0
  3
23NSTDI
  0
TEXT
  8
TEXT
 10
1.52532
 20
0.971164
 30
0.0
 40
0.125
  1
& ALL AMERICAN RACK FRONT & REAR DOORS.
 41
0.75
  7
TXT
  0
TEXT
  8
TEXT
 10
0.685668
 20
1.179498
 30
0.0
 40
0.125
  1
USED ON: SERIES 60, SERIES 2000, ECONOMIZER REAR DOORS
 41
0.75
  7
TXT
  0
TEXT
  8
TEXT
 10
0.685668
 20
1.935491
 30
0.0
 40
0.125
  1
%%UFINISH:%%u (STRIKER)
 41
0.75
  7
TXT
  0
TEXT
  8
TEXT
 10
0.803764
 20
2.276717
 30
0.0
 40
0.125
  1
0.085 x 0.625 STEEL BAR STOCK
 41
0.75
  7
TXT
  0
TEXT
  8
TEXT
 10
0.685668
 20
2.48505
 30
0.0
 40
0.125
  1
%%UMATERIAL:%%u (STRIKER)
 41
0.75
  7
TXT
  0
TEXT
  8
TEXT
 10
0.803764
 20
1.727158
 30
0.0
 40
0.125
  1
ZINC PLATED
 41
0.75
  7
TXT
  0
ENDSEC
  0
EOF
