  0
SECTION
  2
HEADER
  9
$ACADVER
  1
AC1009
  9
$DWGCODEPAGE
  3
ansi_1252
  9
$INSBASE
 10
0.0
 20
0.0
 30
0.0
  9
$EXTMIN
 10
0.0
 20
0.0
 30
0.0
  9
$EXTMAX
 10
68.0
 20
44.0
 30
0.0
  9
$LIMMIN
 10
0.0
 20
0.0
  9
$LIMMAX
 10
68.0
 20
44.0
  9
$ORTHOMODE
 70
     0
  9
$REGENMODE
 70
     1
  9
$FILLMODE
 70
     1
  9
$QTEXTMODE
 70
     0
  9
$MIRRTEXT
 70
     1
  9
$DRAGMODE
 70
     2
  9
$LTSCALE
 40
4.0
  9
$OSMODE
 70
    37
  9
$ATTMODE
 70
     1
  9
$TEXTSIZE
 40
0.5
  9
$TRACEWID
 40
0.05
  9
$TEXTSTYLE
  7
STANDARD
  9
$CLAYER
  8
0
  9
$CELTYPE
  6
BYLAYER
  9
$CECOLOR
 62
   256
  9
$DIMSCALE
 40
1.0
  9
$DIMASZ
 40
0.52
  9
$DIMEXO
 40
0.2
  9
$DIMDLI
 40
0.38
  9
$DIMRND
 40
0.0
  9
$DIMDLE
 40
0.0
  9
$DIMEXE
 40
0.5
  9
$DIMTP
 40
0.0
  9
$DIMTM
 40
0.0
  9
$DIMTXT
 40
0.5
  9
$DIMCEN
 40
0.09
  9
$DIMTSZ
 40
0.0
  9
$DIMTOL
 70
     0
  9
$DIMLIM
 70
     0
  9
$DIMTIH
 70
     1
  9
$DIMTOH
 70
     1
  9
$DIMSE1
 70
     0
  9
$DIMSE2
 70
     0
  9
$DIMTAD
 70
     1
  9
$DIMZIN
 70
     0
  9
$DIMBLK
  1

  9
$DIMASO
 70
     1
  9
$DIMSHO
 70
     1
  9
$DIMPOST
  1

  9
$DIMAPOST
  1

  9
$DIMALT
 70
     0
  9
$DIMALTD
 70
     2
  9
$DIMALTF
 40
25.4
  9
$DIMLFAC
 40
1.0
  9
$DIMTOFL
 70
     0
  9
$DIMTVP
 40
0.0
  9
$DIMTIX
 70
     0
  9
$DIMSOXD
 70
     0
  9
$DIMSAH
 70
     0
  9
$DIMBLK1
  1

  9
$DIMBLK2
  1

  9
$DIMSTYLE
  2
STANDARD
  9
$DIMCLRD
 70
     0
  9
$DIMCLRE
 70
     0
  9
$DIMCLRT
 70
     0
  9
$DIMTFAC
 40
1.0
  9
$DIMGAP
 40
0.24
  9
$LUNITS
 70
     2
  9
$LUPREC
 70
     2
  9
$SKETCHINC
 40
0.1
  9
$FILLETRAD
 40
0.5
  9
$AUNITS
 70
     0
  9
$AUPREC
 70
     2
  9
$MENU
  1
.
  9
$ELEVATION
 40
0.0
  9
$PELEVATION
 40
0.0
  9
$THICKNESS
 40
0.0
  9
$LIMCHECK
 70
     0
  9
$CHAMFERA
 40
0.5
  9
$CHAMFERB
 40
0.5
  9
$SKPOLY
 70
     0
  9
$TDCREATE
 40
2456499.432757569
  9
$TDUPDATE
 40
2456499.432757581
  9
$TDINDWG
 40
0.0000000116
  9
$TDUSRTIMER
 40
0.0000000116
  9
$USRTIMER
 70
     1
  9
$ANGBASE
 50
0.0
  9
$ANGDIR
 70
     0
  9
$PDMODE
 70
     0
  9
$PDSIZE
 40
-1.0
  9
$PLINEWID
 40
0.0
  9
$COORDS
 70
     1
  9
$SPLFRAME
 70
     0
  9
$SPLINETYPE
 70
     6
  9
$SPLINESEGS
 70
     8
  9
$ATTDIA
 70
     0
  9
$ATTREQ
 70
     1
  9
$HANDLING
 70
     1
  9
$HANDSEED
  5
A82
  9
$SURFTAB1
 70
     6
  9
$SURFTAB2
 70
     6
  9
$SURFTYPE
 70
     6
  9
$SURFU
 70
     6
  9
$SURFV
 70
     6
  9
$UCSNAME
  2

  9
$UCSORG
 10
0.0
 20
0.0
 30
0.0
  9
$UCSXDIR
 10
1.0
 20
0.0
 30
0.0
  9
$UCSYDIR
 10
0.0
 20
1.0
 30
0.0
  9
$PUCSNAME
  2

  9
$PUCSORG
 10
0.0
 20
0.0
 30
0.0
  9
$PUCSXDIR
 10
1.0
 20
0.0
 30
0.0
  9
$PUCSYDIR
 10
0.0
 20
1.0
 30
0.0
  9
$USERI1
 70
     0
  9
$USERI2
 70
     0
  9
$USERI3
 70
     0
  9
$USERI4
 70
     0
  9
$USERI5
 70
     0
  9
$USERR1
 40
0.0
  9
$USERR2
 40
0.0
  9
$USERR3
 40
0.0
  9
$USERR4
 40
0.0
  9
$USERR5
 40
0.0
  9
$WORLDVIEW
 70
     1
  9
$SHADEDGE
 70
     3
  9
$SHADEDIF
 70
    70
  9
$TILEMODE
 70
     1
  9
$MAXACTVP
 70
    64
  9
$PLIMCHECK
 70
     0
  9
$PEXTMIN
 10
1.0000000000E+20
 20
1.0000000000E+20
 30
1.0000000000E+20
  9
$PEXTMAX
 10
-1.0000000000E+20
 20
-1.0000000000E+20
 30
-1.0000000000E+20
  9
$PLIMMIN
 10
0.0
 20
0.0
  9
$PLIMMAX
 10
12.0
 20
9.0
  9
$UNITMODE
 70
     0
  9
$VISRETAIN
 70
     1
  9
$PLINEGEN
 70
     0
  9
$PSLTSCALE
 70
     1
  0
ENDSEC
  0
SECTION
  2
TABLES
  0
TABLE
  2
VPORT
 70
     1
  0
VPORT
  2
*ACTIVE
 70
     0
 10
0.0
 20
0.0
 11
1.0
 21
1.0
 12
34.0
 22
22.0
 13
0.0
 23
0.0
 14
0.5
 24
0.5
 15
0.5
 25
0.5
 16
0.0
 26
0.0
 36
1.0
 17
0.0
 27
0.0
 37
0.0
 40
44.0
 41
1.5454545455
 42
50.0
 43
0.0
 44
0.0
 50
0.0
 51
0.0
 71
     0
 72
  2000
 73
     1
 74
     3
 75
     0
 76
     0
 77
     0
 78
     0
  0
ENDTAB
  0
TABLE
  2
LTYPE
 70
     6
  0
LTYPE
  2
CONTINUOUS
 70
     0
  3
Solid line
 72
    65
 73
     0
 40
0.0
  0
LTYPE
  2
HIDDEN
 70
     0
  3
Hidden __ __ __ __ __ __ __ __ __ __ __ __ __ __
 72
    65
 73
     2
 40
0.075
 49
0.05
 49
-0.025
  0
LTYPE
  2
PHANTOM
 70
     0
  3
Phantom ______  __  __  ______  __  __  ______
 72
    65
 73
     6
 40
0.5
 49
0.25
 49
-0.05
 49
0.05
 49
-0.05
 49
0.05
 49
-0.05
  0
LTYPE
  2
CENTER
 70
     0
  3
Center ____ _ ____ _ ____ _ ____ _ ____ _ ____
 72
    65
 73
     4
 40
0.4
 49
0.25
 49
-0.05
 49
0.05
 49
-0.05
  0
LTYPE
  2
CENTERX2
 70
     0
  3
Center (2x) ________  __  ________  __  _____
 72
    65
 73
     4
 40
0.8
 49
0.5
 49
-0.1
 49
0.1
 49
-0.1
  0
LTYPE
  2
DOT2
 70
     0
  3
Dot (.5x) ........................................
 72
    65
 73
     2
 40
0.025
 49
0.0
 49
-0.025
  0
ENDTAB
  0
TABLE
  2
LAYER
 70
     1
  0
LAYER
  2
0
 70
     0
 62
     7
  6
CONTINUOUS
  0
ENDTAB
  0
TABLE
  2
STYLE
 70
     1
  0
STYLE
  2
STANDARD
 70
     0
 40
0.0
 41
1.0
 50
0.0
 71
     0
 42
0.2
  3
txt
  4

  0
ENDTAB
  0
TABLE
  2
VIEW
 70
     0
  0
ENDTAB
  0
TABLE
  2
UCS
 70
     0
  0
ENDTAB
  0
TABLE
  2
APPID
 70
     1
  0
APPID
  2
ACAD
 70
     0
  0
ENDTAB
  0
TABLE
  2
DIMSTYLE
 70
     7
  0
DIMSTYLE
  2
STANDARD
 70
     0
  3

  4

  5

  6

  7

 40
1.0
 41
0.18
 42
0.0625
 43
0.38
 44
0.18
 45
0.0
 46
0.0
 47
0.0
 48
0.0
140
0.18
141
0.09
142
0.0
143
25.4
144
1.0
145
0.0
146
1.0
147
0.09
 71
     0
 72
     0
 73
     1
 74
     1
 75
     0
 76
     0
 77
     0
 78
     0
170
     0
171
     2
172
     0
173
     0
174
     0
175
     0
176
     0
177
     0
178
     0
  0
DIMSTYLE
  2
SLDDIMSTYLE0
 70
     0
  3

  4

  5

  6

  7

 40
1.0
 41
0.52
 42
0.0625
 43
0.38
 44
0.0
 45
0.000000001
 46
0.0
 47
0.0
 48
0.0
140
0.5
141
0.09
142
0.0
143
25.4
144
1.0
145
0.0
146
1.0
147
0.125
 71
     0
 72
     0
 73
     1
 74
     1
 75
     0
 76
     0
 77
     0
 78
    12
170
     1
171
     2
172
     0
173
     1
174
     0
175
     0
176
     0
177
     0
178
     0
  0
DIMSTYLE
  2
SLDDIMSTYLE1
 70
     0
  3

  4

  5

  6

  7

 40
1.0
 41
0.52
 42
0.0625
 43
0.38
 44
0.0
 45
0.000000001
 46
0.0
 47
0.0
 48
0.0
140
0.5
141
0.0
142
0.0
143
25.4
144
1.0
145
0.0
146
1.0
147
0.125
 71
     0
 72
     0
 73
     1
 74
     1
 75
     0
 76
     0
 77
     0
 78
    12
170
     1
171
     2
172
     0
173
     1
174
     0
175
     0
176
     0
177
     0
178
     0
  0
DIMSTYLE
  2
SLDDIMSTYLE2
 70
     0
  3

  4

  5

  6

  7

 40
1.0
 41
0.52
 42
0.0625
 43
0.38
 44
0.0
 45
0.000000001
 46
0.0
 47
0.0
 48
0.0
140
0.5
141
0.09
142
0.0
143
25.4
144
1.0
145
0.0
146
1.0
147
0.125
 71
     0
 72
     0
 73
     1
 74
     1
 75
     0
 76
     0
 77
     0
 78
     4
170
     1
171
     2
172
     0
173
     1
174
     0
175
     0
176
     0
177
     0
178
     0
  0
DIMSTYLE
  2
SLDDIMSTYLE3
 70
     0
  3

  4

  5

  6

  7

 40
1.0
 41
0.52
 42
0.0625
 43
0.38
 44
0.0
 45
0.000000001
 46
0.0
 47
0.0
 48
0.0
140
0.5
141
0.09
142
0.0
143
25.4
144
1.0
145
0.0
146
1.0
147
0.125
 71
     0
 72
     0
 73
     1
 74
     1
 75
     0
 76
     0
 77
     0
 78
    12
170
     1
171
     2
172
     1
173
     1
174
     0
175
     0
176
     0
177
     0
178
     0
  0
DIMSTYLE
  2
SLDDIMSTYLE4
 70
     0
  3

  4

  5

  6

  7

 40
1.0
 41
0.52
 42
0.0625
 43
0.38
 44
0.0
 45
0.000000001
 46
0.0
 47
0.0
 48
0.0
140
0.5
141
0.09
142
0.0
143
25.4
144
1.0
145
0.0
146
1.0
147
0.125
 71
     0
 72
     0
 73
     1
 74
     1
 75
     0
 76
     0
 77
     0
 78
     4
170
     1
171
     2
172
     1
173
     1
174
     0
175
     0
176
     0
177
     0
178
     0
  0
DIMSTYLE
  2
SLDDIMSTYLE5
 70
     0
  3

  4

  5

  6

  7

 40
1.0
 41
0.52
 42
0.0625
 43
0.38
 44
0.0
 45
0.000000001
 46
0.0
 47
0.0
 48
0.0
140
0.5
141
0.0
142
0.0
143
25.4
144
1.0
145
0.0
146
1.0
147
0.125
 71
     0
 72
     0
 73
     1
 74
     1
 75
     0
 76
     0
 77
     0
 78
    12
170
     1
171
     2
172
     0
173
     1
174
     0
175
     0
176
     0
177
     0
178
     0
  0
ENDTAB
  0
ENDSEC
  0
SECTION
  2
BLOCKS
  0
BLOCK
  8
0
  2
$MODEL_SPACE
 70
     0
 10
0.0
 20
0.0
 30
0.0
  3
$MODEL_SPACE
  1

  0
ENDBLK
  5
21
  8
0
  0
BLOCK
 67
     1
  8
0
  2
$PAPER_SPACE
 70
     0
 10
0.0
 20
0.0
 30
0.0
  3
$PAPER_SPACE
  1

  0
ENDBLK
  5
1D
 67
     1
  8
0
  0
BLOCK
  8
0
  2
SW_NOTE_0
 70
     0
 10
0.0
 20
0.0
 30
0.0
  3
SW_NOTE_0
  1

  0
TEXT
  5
77
  8
0
  6
CONTINUOUS
 62
     0
 10
0.0
 20
0.176630031
 30
0.0
 40
0.5
  1
MATERIAL:  16 GA. [1.5mm] STEEL
 41
0.6435483871
 11
0.0
 21
0.0
 31
0.0
 73
     1
  0
TEXT
  5
78
  8
0
  6
CONTINUOUS
 62
     0
 10
0.0
 20
-1.1383305652
 30
0.0
 40
0.5
  1
FINISH:  BLACK TEXTURE
 41
0.6522727273
 11
0.0
 21
-1.3149605961
 31
0.0
 73
     1
  0
ENDBLK
  5
76
  8
0
  0
BLOCK
  8
0
  2
SW_NOTE_1
 70
     0
 10
0.0
 20
0.0
 30
0.0
  3
SW_NOTE_1
  1

  0
TEXT
  5
80
  8
0
  6
CONTINUOUS
 62
     0
 10
0.0
 20
0.176630031
 30
0.0
 40
0.5
  1
PART
 41
0.7
 11
0.0
 21
0.0
 31
0.0
 73
     1
  0
TEXT
  5
81
  8
0
  6
CONTINUOUS
 62
     0
 10
-0.1864149199
 20
-0.4808502671
 30
0.0
 40
0.5
  1
NAME
 41
0.7
 11
-0.1864149199
 21
-0.6574802981
 31
0.0
 73
     1
  0
ENDBLK
  5
7F
  8
0
  0
BLOCK
  8
0
  2
SW_NOTE_2
 70
     0
 10
0.0
 20
0.0
 30
0.0
  3
SW_NOTE_2
  1

  0
TEXT
  5
86
  8
0
  6
CONTINUOUS
 62
     0
 10
0.0
 20
0.176630031
 30
0.0
 40
0.5
  1
PART
 41
0.7
 11
0.0
 21
0.0
 31
0.0
 73
     1
  0
TEXT
  5
87
  8
0
  6
CONTINUOUS
 62
     0
 10
0.2335069525
 20
-0.4808502671
 30
0.0
 40
0.5
  1
No.
 41
0.7
 11
0.2335069525
 21
-0.6574802981
 31
0.0
 73
     1
  0
ENDBLK
  5
85
  8
0
  0
BLOCK
  8
0
  2
SW_NOTE_3
 70
     0
 10
0.0
 20
0.0
 30
0.0
  3
SW_NOTE_3
  1

  0
TEXT
  5
8C
  8
0
  6
CONTINUOUS
 62
     0
 10
0.0
 20
0.176630031
 30
0.0
 40
0.5
  1
REVISION
 41
0.7
 11
0.0
 21
0.0
 31
0.0
 73
     1
  0
TEXT
  5
8D
  8
0
  6
CONTINUOUS
 62
     0
 10
0.6249131943
 20
-0.4808502671
 30
0.0
 40
0.5
  1
DATE
 41
0.7
 11
0.6249131943
 21
-0.6574802981
 31
0.0
 73
     1
  0
ENDBLK
  5
8B
  8
0
  0
BLOCK
  8
0
  2
*D5
 70
     1
 10
0.0
 20
0.0
 30
0.0
  3
*D5
  1

  0
SOLID
  5
290
  8
0
  6
CONTINUOUS
 62
     7
 10
12.0145707657
 20
22.0675175091
 30
0.0
 11
12.5345707657
 21
21.9875175091
 31
0.0
 12
12.5345707657
 22
22.1475175091
 32
0.0
 13
12.5345707657
 23
22.1475175091
 33
0.0
  0
SOLID
  5
291
  8
0
  6
CONTINUOUS
 62
     7
 10
31.2545707657
 20
22.0675175091
 30
0.0
 11
30.7345707657
 21
22.1475175091
 31
0.0
 12
30.7345707657
 22
21.9875175091
 32
0.0
 13
30.7345707657
 23
21.9875175091
 33
0.0
  0
LINE
  5
292
  8
0
  6
CONTINUOUS
 62
     7
 10
20.6763676687
 20
22.0636980598
 30
0.0
 11
20.5748051636
 21
22.0636980598
 31
0.0
  0
LINE
  5
293
  8
0
  6
CONTINUOUS
 62
     7
 10
20.5748051636
 20
22.0636980598
 30
0.0
 11
20.5748051636
 21
21.269948036
 31
0.0
  0
LINE
  5
294
  8
0
  6
CONTINUOUS
 62
     7
 10
20.5748051636
 20
21.269948036
 30
0.0
 11
20.6763676687
 21
21.269948036
 31
0.0
  0
LINE
  5
295
  8
0
  6
CONTINUOUS
 62
     7
 10
22.5927738993
 20
22.0636980598
 30
0.0
 11
22.6943364044
 21
22.0636980598
 31
0.0
  0
LINE
  5
296
  8
0
  6
CONTINUOUS
 62
     7
 10
22.6943364044
 20
22.0636980598
 30
0.0
 11
22.6943364044
 21
21.269948036
 31
0.0
  0
LINE
  5
297
  8
0
  6
CONTINUOUS
 62
     7
 10
22.6943364044
 20
21.269948036
 30
0.0
 11
22.5927738993
 21
21.269948036
 31
0.0
  0
LINE
  5
298
  8
0
  6
CONTINUOUS
 62
     7
 10
12.0145707657
 20
18.5989559165
 30
0.0
 11
12.0145707657
 21
22.5675175091
 31
0.0
  0
LINE
  5
299
  8
0
  6
CONTINUOUS
 62
     7
 10
31.2545707657
 20
18.5989559165
 30
0.0
 11
31.2545707657
 21
22.5675175091
 31
0.0
  0
LINE
  5
29A
  8
0
  6
CONTINUOUS
 62
     7
 10
12.0145707657
 20
22.0675175091
 30
0.0
 11
20.2125145423
 21
22.0675175091
 31
0.0
  0
LINE
  5
29B
  8
0
  6
CONTINUOUS
 62
     7
 10
31.2545707657
 20
22.0675175091
 30
0.0
 11
23.056626989
 21
22.0675175091
 31
0.0
  0
TEXT
  5
29C
  8
0
  6
CONTINUOUS
 62
     7
 10
20.313911062
 20
22.3495295218
 30
-2.5860629921
 40
0.5
  1
 
 41
0.7
 11
20.313911062
 21
22.1728994908
 31
-2.5860629921
 73
     1
  0
TEXT
  5
29D
  8
0
  6
CONTINUOUS
 62
     7
 10
20.6001958448
 20
22.3418905959
 30
-2.5860629921
 40
0.5
  1
19.24
 41
0.7
 11
20.6001958448
 21
22.1652605649
 31
-2.5860629921
 73
     1
  0
TEXT
  5
29E
  8
0
  6
CONTINUOUS
 62
     7
 10
20.8033208
 20
21.4465780394
 30
-2.5860629921
 40
0.5
  1
488.7
 41
0.7
 11
20.8033208
 21
21.2699480085
 31
-2.5860629921
 73
     1
  0
TEXT
  5
29F
  8
0
  6
CONTINUOUS
 62
     7
 10
22.7705082832
 20
22.3495295218
 30
-2.5860629921
 40
0.5
  1
 
 41
0.7
 11
22.7705082832
 21
22.1728994908
 31
-2.5860629921
 73
     1
  0
ENDBLK
  5
28F
  8
0
  0
BLOCK
  8
0
  2
*D6
 70
     1
 10
0.0
 20
0.0
 30
0.0
  3
*D6
  1

  0
SOLID
  5
2A5
  8
0
  6
CONTINUOUS
 62
     7
 10
30.8485767142
 20
11.5228726599
 30
0.0
 11
30.5473413599
 21
11.0915291062
 31
0.0
 12
30.6909237162
 22
11.0209308981
 32
0.0
 13
30.6909237162
 23
11.0209308981
 33
0.0
  0
LINE
  5
2A6
  8
0
  6
CONTINUOUS
 62
     7
 10
25.4229185536
 20
9.2738123146
 30
0.0
 11
25.3213560485
 21
9.2738123146
 31
0.0
  0
LINE
  5
2A7
  8
0
  6
CONTINUOUS
 62
     7
 10
25.3213560485
 20
9.2738123146
 30
0.0
 11
25.3213560485
 21
8.4800622908
 31
0.0
  0
LINE
  5
2A8
  8
0
  6
CONTINUOUS
 62
     7
 10
25.3213560485
 20
8.4800622908
 30
0.0
 11
25.4229185536
 21
8.4800622908
 31
0.0
  0
LINE
  5
2A9
  8
0
  6
CONTINUOUS
 62
     7
 10
26.9698804121
 20
9.2738123146
 30
0.0
 11
27.0714429172
 21
9.2738123146
 31
0.0
  0
LINE
  5
2AA
  8
0
  6
CONTINUOUS
 62
     7
 10
27.0714429172
 20
9.2738123146
 30
0.0
 11
27.0714429172
 21
8.4800622908
 31
0.0
  0
LINE
  5
2AB
  8
0
  6
CONTINUOUS
 62
     7
 10
27.0714429172
 20
8.4800622908
 30
0.0
 11
26.9698804121
 21
8.4800622908
 31
0.0
  0
LINE
  5
2AC
  8
0
  6
CONTINUOUS
 62
     7
 10
30.8485767142
 20
11.5228726599
 30
0.0
 11
29.7446111013
 21
9.2776317638
 31
0.0
  0
LINE
  5
2AD
  8
0
  6
CONTINUOUS
 62
     7
 10
29.7446111013
 20
9.2776317638
 30
0.0
 11
29.2446111013
 21
9.2776317638
 31
0.0
  0
TEXT
  5
2AE
  8
0
  6
CONTINUOUS
 62
     7
 10
24.9697155252
 20
9.5520048507
 30
-2.5860629921
 40
0.5
  1
%%c
 41
0.7
 11
24.9697155252
 21
9.3753748197
 31
-2.5860629921
 73
     1
  0
TEXT
  5
2AF
  8
0
  6
CONTINUOUS
 62
     7
 10
25.7237780076
 20
9.5520048507
 30
-2.5860629921
 40
0.5
  1
.281
 41
0.7
 11
25.7237780076
 21
9.3753748197
 31
-2.5860629921
 73
     1
  0
TEXT
  5
2B0
  8
0
  6
CONTINUOUS
 62
     7
 10
25.5498716849
 20
8.6566922942
 30
-2.5860629921
 40
0.5
  1
7.14
 41
0.7
 11
25.5498716849
 21
8.4800622633
 31
-2.5860629921
 73
     1
  0
TEXT
  5
2B1
  8
0
  6
CONTINUOUS
 62
     7
 10
27.4230834771
 20
9.5596437766
 30
-2.5860629921
 40
0.5
  1
 (24X)
 41
0.7
 11
27.4230834771
 21
9.3830137456
 31
-2.5860629921
 73
     1
  0
ENDBLK
  5
2A4
  8
0
  0
BLOCK
  8
0
  2
*D7
 70
     1
 10
0.0
 20
0.0
 30
0.0
  3
*D7
  1

  0
SOLID
  5
2B7
  8
0
  6
CONTINUOUS
 62
     7
 10
10.4397676161
 20
18.3989559165
 30
0.0
 11
10.3597676161
 21
17.8789559165
 31
0.0
 12
10.5197676161
 22
17.8789559165
 32
0.0
 13
10.5197676161
 23
17.8789559165
 33
0.0
  0
SOLID
  5
2B8
  8
0
  6
CONTINUOUS
 62
     7
 10
10.4397676161
 20
11.3989559165
 30
0.0
 11
10.5197676161
 21
11.9189559165
 31
0.0
 12
10.3597676161
 22
11.9189559165
 32
0.0
 13
10.3597676161
 23
11.9189559165
 33
0.0
  0
LINE
  5
2B9
  8
0
  6
CONTINUOUS
 62
     7
 10
9.481564519
 20
14.8951364673
 30
0.0
 11
9.380002014
 21
14.8951364673
 31
0.0
  0
LINE
  5
2BA
  8
0
  6
CONTINUOUS
 62
     7
 10
9.380002014
 20
14.8951364673
 30
0.0
 11
9.380002014
 21
14.1013864434
 31
0.0
  0
LINE
  5
2BB
  8
0
  6
CONTINUOUS
 62
     7
 10
9.380002014
 20
14.1013864434
 30
0.0
 11
9.481564519
 21
14.1013864434
 31
0.0
  0
LINE
  5
2BC
  8
0
  6
CONTINUOUS
 62
     7
 10
11.3979707497
 20
14.8951364673
 30
0.0
 11
11.4995332548
 21
14.8951364673
 31
0.0
  0
LINE
  5
2BD
  8
0
  6
CONTINUOUS
 62
     7
 10
11.4995332548
 20
14.8951364673
 30
0.0
 11
11.4995332548
 21
14.1013864434
 31
0.0
  0
LINE
  5
2BE
  8
0
  6
CONTINUOUS
 62
     7
 10
11.4995332548
 20
14.1013864434
 30
0.0
 11
11.3979707497
 21
14.1013864434
 31
0.0
  0
LINE
  5
2BF
  8
0
  6
CONTINUOUS
 62
     7
 10
11.8745707657
 20
18.3989559165
 30
0.0
 11
9.9397676161
 21
18.3989559165
 31
0.0
  0
LINE
  5
2C0
  8
0
  6
CONTINUOUS
 62
     7
 10
11.9945707657
 20
11.3989559165
 30
0.0
 11
9.9397676161
 21
11.3989559165
 31
0.0
  0
LINE
  5
2C1
  8
0
  6
CONTINUOUS
 62
     7
 10
10.4397676161
 20
18.3989559165
 30
0.0
 11
10.4397676161
 21
15.7980879496
 31
0.0
  0
LINE
  5
2C2
  8
0
  6
CONTINUOUS
 62
     7
 10
10.4397676161
 20
11.3989559165
 30
0.0
 11
10.4397676161
 21
13.9998238833
 31
0.0
  0
TEXT
  5
2C3
  8
0
  6
CONTINUOUS
 62
     7
 10
9.1191079124
 20
15.1809679292
 30
-2.5860629921
 40
0.5
  1
 
 41
0.7
 11
9.1191079124
 21
15.0043378983
 31
-2.5860629921
 73
     1
  0
TEXT
  5
2C4
  8
0
  6
CONTINUOUS
 62
     7
 10
9.5901148813
 20
15.1733290033
 30
-2.5860629921
 40
0.5
  1
7.00
 41
0.7
 11
9.5901148813
 21
14.9966989723
 31
-2.5860629921
 73
     1
  0
TEXT
  5
2C5
  8
0
  6
CONTINUOUS
 62
     7
 10
9.6085176504
 20
14.2780164469
 30
-2.5860629921
 40
0.5
  1
177.8
 41
0.7
 11
9.6085176504
 21
14.1013864159
 31
-2.5860629921
 73
     1
  0
TEXT
  5
2C6
  8
0
  6
CONTINUOUS
 62
     7
 10
11.5757051336
 20
15.1809679292
 30
-2.5860629921
 40
0.5
  1
 
 41
0.7
 11
11.5757051336
 21
15.0043378983
 31
-2.5860629921
 73
     1
  0
ENDBLK
  5
2B6
  8
0
  0
BLOCK
  8
0
  2
*D8
 70
     1
 10
0.0
 20
0.0
 30
0.0
  3
*D8
  1

  0
SOLID
  5
2CB
  8
0
  6
CONTINUOUS
 62
     7
 10
12.5985707657
 20
19.9737590661
 30
0.0
 11
13.1185707657
 21
19.8937590661
 31
0.0
 12
13.1185707657
 22
20.0537590661
 32
0.0
 13
13.1185707657
 23
20.0537590661
 33
0.0
  0
SOLID
  5
2CC
  8
0
  6
CONTINUOUS
 62
     7
 10
30.9105707657
 20
19.9737590661
 30
0.0
 11
30.3905707657
 21
20.0537590661
 31
0.0
 12
30.3905707657
 22
19.8937590661
 32
0.0
 13
30.3905707657
 23
19.8937590661
 33
0.0
  0
LINE
  5
2CD
  8
0
  6
CONTINUOUS
 62
     7
 10
20.7963676687
 20
19.9699396169
 30
0.0
 11
20.6948051636
 21
19.9699396169
 31
0.0
  0
LINE
  5
2CE
  8
0
  6
CONTINUOUS
 62
     7
 10
20.6948051636
 20
19.9699396169
 30
0.0
 11
20.6948051636
 21
19.176189593
 31
0.0
  0
LINE
  5
2CF
  8
0
  6
CONTINUOUS
 62
     7
 10
20.6948051636
 20
19.176189593
 30
0.0
 11
20.7963676687
 21
19.176189593
 31
0.0
  0
LINE
  5
2D0
  8
0
  6
CONTINUOUS
 62
     7
 10
22.7127738993
 20
19.9699396169
 30
0.0
 11
22.8143364044
 21
19.9699396169
 31
0.0
  0
LINE
  5
2D1
  8
0
  6
CONTINUOUS
 62
     7
 10
22.8143364044
 20
19.9699396169
 30
0.0
 11
22.8143364044
 21
19.176189593
 31
0.0
  0
LINE
  5
2D2
  8
0
  6
CONTINUOUS
 62
     7
 10
22.8143364044
 20
19.176189593
 30
0.0
 11
22.7127738993
 21
19.176189593
 31
0.0
  0
LINE
  5
2D3
  8
0
  6
CONTINUOUS
 62
     7
 10
12.5985707657
 20
18.3489559165
 30
0.0
 11
12.5985707657
 21
20.4737590661
 31
0.0
  0
LINE
  5
2D4
  8
0
  6
CONTINUOUS
 62
     7
 10
30.9105707657
 20
18.3489559165
 30
0.0
 11
30.9105707657
 21
20.4737590661
 31
0.0
  0
LINE
  5
2D5
  8
0
  6
CONTINUOUS
 62
     7
 10
12.5985707657
 20
19.9737590661
 30
0.0
 11
20.3325145423
 21
19.9737590661
 31
0.0
  0
LINE
  5
2D6
  8
0
  6
CONTINUOUS
 62
     7
 10
30.9105707657
 20
19.9737590661
 30
0.0
 11
23.176626989
 21
19.9737590661
 31
0.0
  0
TEXT
  5
2D7
  8
0
  6
CONTINUOUS
 62
     7
 10
20.433911062
 20
20.2557710788
 30
-2.5860629921
 40
0.5
  1
 
 41
0.7
 11
20.433911062
 21
20.0791410479
 31
-2.5860629921
 73
     1
  0
TEXT
  5
2D8
  8
0
  6
CONTINUOUS
 62
     7
 10
20.7201958448
 20
20.2481321529
 30
-2.5860629921
 40
0.5
  1
18.31
 41
0.7
 11
20.7201958448
 21
20.0715021219
 31
-2.5860629921
 73
     1
  0
TEXT
  5
2D9
  8
0
  6
CONTINUOUS
 62
     7
 10
20.9233208
 20
19.3528195965
 30
-2.5860629921
 40
0.5
  1
465.1
 41
0.7
 11
20.9233208
 21
19.1761895655
 31
-2.5860629921
 73
     1
  0
TEXT
  5
2DA
  8
0
  6
CONTINUOUS
 62
     7
 10
22.8905082832
 20
20.2557710788
 30
-2.5860629921
 40
0.5
  1
 
 41
0.7
 11
22.8905082832
 21
20.0791410479
 31
-2.5860629921
 73
     1
  0
ENDBLK
  5
2CA
  8
0
  0
BLOCK
  8
0
  2
*D9
 70
     1
 10
0.0
 20
0.0
 30
0.0
  3
*D9
  1

  0
SOLID
  5
2E0
  8
0
  6
CONTINUOUS
 62
     7
 10
30.9105707657
 20
19.9737590661
 30
0.0
 11
30.3905707657
 21
20.0537590661
 31
0.0
 12
30.3905707657
 22
19.8937590661
 32
0.0
 13
30.3905707657
 23
19.8937590661
 33
0.0
  0
SOLID
  5
2E1
  8
0
  6
CONTINUOUS
 62
     7
 10
31.2545707657
 20
19.9737590661
 30
0.0
 11
31.7745707657
 21
19.8937590661
 31
0.0
 12
31.7745707657
 22
20.0537590661
 32
0.0
 13
31.7745707657
 23
20.0537590661
 33
0.0
  0
LINE
  5
2E2
  8
0
  6
CONTINUOUS
 62
     7
 10
32.8998027257
 20
19.9699396169
 30
0.0
 11
32.7982402207
 21
19.9699396169
 31
0.0
  0
LINE
  5
2E3
  8
0
  6
CONTINUOUS
 62
     7
 10
32.7982402207
 20
19.9699396169
 30
0.0
 11
32.7982402207
 21
19.176189593
 31
0.0
  0
LINE
  5
2E4
  8
0
  6
CONTINUOUS
 62
     7
 10
32.7982402207
 20
19.176189593
 30
0.0
 11
32.8998027257
 21
19.176189593
 31
0.0
  0
LINE
  5
2E5
  8
0
  6
CONTINUOUS
 62
     7
 10
34.0773200654
 20
19.9699396169
 30
0.0
 11
34.1788825705
 21
19.9699396169
 31
0.0
  0
LINE
  5
2E6
  8
0
  6
CONTINUOUS
 62
     7
 10
34.1788825705
 20
19.9699396169
 30
0.0
 11
34.1788825705
 21
19.176189593
 31
0.0
  0
LINE
  5
2E7
  8
0
  6
CONTINUOUS
 62
     7
 10
34.1788825705
 20
19.176189593
 30
0.0
 11
34.0773200654
 21
19.176189593
 31
0.0
  0
LINE
  5
2E8
  8
0
  6
CONTINUOUS
 62
     7
 10
30.9105707657
 20
18.3489559165
 30
0.0
 11
30.9105707657
 21
20.4737590661
 31
0.0
  0
LINE
  5
2E9
  8
0
  6
CONTINUOUS
 62
     7
 10
31.2545707657
 20
18.5989559165
 30
0.0
 11
31.2545707657
 21
20.4737590661
 31
0.0
  0
LINE
  5
2EA
  8
0
  6
CONTINUOUS
 62
     7
 10
30.9105707657
 20
19.9737590661
 30
0.0
 11
29.9105707657
 21
19.9737590661
 31
0.0
  0
LINE
  5
2EB
  8
0
  6
CONTINUOUS
 62
     7
 10
31.2545707657
 20
19.9737590661
 30
0.0
 11
32.4359495994
 21
19.9737590661
 31
0.0
  0
TEXT
  5
2EC
  8
0
  6
CONTINUOUS
 62
     7
 10
32.5373461191
 20
20.2557710788
 30
-2.5860629921
 40
0.5
  1
 
 41
0.7
 11
32.5373461191
 21
20.0791410479
 31
-2.5860629921
 73
     1
  0
TEXT
  5
2ED
  8
0
  6
CONTINUOUS
 62
     7
 10
32.8236308286
 20
20.2481321529
 30
-2.5860629921
 40
0.5
  1
.34
 41
0.7
 11
32.8236308286
 21
20.0715021219
 31
-2.5860629921
 73
     1
  0
TEXT
  5
2EE
  8
0
  6
CONTINUOUS
 62
     7
 10
33.0267558571
 20
19.3528195965
 30
-2.5860629921
 40
0.5
  1
8.7
 41
0.7
 11
33.0267558571
 21
19.1761895655
 31
-2.5860629921
 73
     1
  0
TEXT
  5
2EF
  8
0
  6
CONTINUOUS
 62
     7
 10
34.2550544493
 20
20.2557710788
 30
-2.5860629921
 40
0.5
  1
 
 41
0.7
 11
34.2550544493
 21
20.0791410479
 31
-2.5860629921
 73
     1
  0
ENDBLK
  5
2DF
  8
0
  0
BLOCK
  8
0
  2
*D10
 70
     1
 10
0.0
 20
0.0
 30
0.0
  3
*D10
  1

  0
SOLID
  5
2F4
  8
0
  6
CONTINUOUS
 62
     7
 10
32.8293739153
 20
18.1489559165
 30
0.0
 11
32.7493739153
 21
17.6289559165
 31
0.0
 12
32.9093739153
 22
17.6289559165
 32
0.0
 13
32.9093739153
 23
17.6289559165
 33
0.0
  0
SOLID
  5
2F5
  8
0
  6
CONTINUOUS
 62
     7
 10
32.8293739153
 20
11.6489559165
 30
0.0
 11
32.9093739153
 21
12.1689559165
 31
0.0
 12
32.7493739153
 22
12.1689559165
 32
0.0
 13
32.7493739153
 23
12.1689559165
 33
0.0
  0
LINE
  5
2F6
  8
0
  6
CONTINUOUS
 62
     7
 10
37.5710201057
 20
8.081701404
 30
0.0
 11
37.4694576006
 21
8.081701404
 31
0.0
  0
LINE
  5
2F7
  8
0
  6
CONTINUOUS
 62
     7
 10
37.4694576006
 20
8.081701404
 30
0.0
 11
37.4694576006
 21
7.2879513802
 31
0.0
  0
LINE
  5
2F8
  8
0
  6
CONTINUOUS
 62
     7
 10
37.4694576006
 20
7.2879513802
 30
0.0
 11
37.5710201057
 21
7.2879513802
 31
0.0
  0
LINE
  5
2F9
  8
0
  6
CONTINUOUS
 62
     7
 10
39.4874263364
 20
8.081701404
 30
0.0
 11
39.5889888414
 21
8.081701404
 31
0.0
  0
LINE
  5
2FA
  8
0
  6
CONTINUOUS
 62
     7
 10
39.5889888414
 20
8.081701404
 30
0.0
 11
39.5889888414
 21
7.2879513802
 31
0.0
  0
LINE
  5
2FB
  8
0
  6
CONTINUOUS
 62
     7
 10
39.5889888414
 20
7.2879513802
 30
0.0
 11
39.4874263364
 21
7.2879513802
 31
0.0
  0
LINE
  5
2FC
  8
0
  6
CONTINUOUS
 62
     7
 10
31.1105707657
 20
18.1489559165
 30
0.0
 11
33.3293739153
 21
18.1489559165
 31
0.0
  0
LINE
  5
2FD
  8
0
  6
CONTINUOUS
 62
     7
 10
31.1105707657
 20
11.6489559165
 30
0.0
 11
33.3293739153
 21
11.6489559165
 31
0.0
  0
LINE
  5
2FE
  8
0
  6
CONTINUOUS
 62
     7
 10
33.3293739153
 20
8.8792708771
 30
0.0
 11
32.8293739153
 21
8.8792708771
 31
0.0
  0
LINE
  5
2FF
  8
0
  6
CONTINUOUS
 62
     7
 10
32.8293739153
 20
8.8792708771
 30
0.0
 11
32.8293739153
 21
11.6489559165
 31
0.0
  0
LINE
  5
300
  8
0
  6
CONTINUOUS
 62
     7
 10
32.8293739153
 20
18.1489559165
 30
0.0
 11
32.8293739153
 21
11.6489559165
 31
0.0
  0
TEXT
  5
301
  8
0
  6
CONTINUOUS
 62
     7
 10
34.1347784044
 20
9.9550329137
 30
-2.5860629921
 40
0.5
  1
HOLES ON E.I.A.
 41
0.6533333333
 11
34.1347784044
 21
9.7784028828
 31
-2.5860629921
 73
     1
  0
TEXT
  5
302
  8
0
  6
CONTINUOUS
 62
     7
 10
34.9274868869
 20
9.1612828898
 30
-2.5860629921
 40
0.5
  1
UNIVERSAL
 41
0.7
 11
34.9274868869
 21
8.9846528589
 31
-2.5860629921
 73
     1
  0
TEXT
  5
303
  8
0
  6
CONTINUOUS
 62
     7
 10
33.6335634744
 20
8.367532866
 30
-2.5860629921
 40
0.5
  1
SPACING = 
 41
0.63
 11
33.6335634744
 21
8.190902835
 31
-2.5860629921
 73
     1
  0
TEXT
  5
304
  8
0
  6
CONTINUOUS
 62
     7
 10
37.6795704679
 20
8.3598939401
 30
-2.5860629921
 40
0.5
  1
6.50
 41
0.7
 11
37.6795704679
 21
8.1832639091
 31
-2.5860629921
 73
     1
  0
TEXT
  5
305
  8
0
  6
CONTINUOUS
 62
     7
 10
37.697973237
 20
7.4645813836
 30
-2.5860629921
 40
0.5
  1
165.1
 41
0.7
 11
37.697973237
 21
7.2879513527
 31
-2.5860629921
 73
     1
  0
ENDBLK
  5
2F3
  8
0
  0
BLOCK
  8
0
  2
*D11
 70
     1
 10
0.0
 20
0.0
 30
0.0
  3
*D11
  1

  0
SOLID
  5
32F
  8
0
  6
CONTINUOUS
 62
     7
 10
12.2545707657
 20
33.2456384164
 30
0.0
 11
12.7745707657
 21
33.1656384164
 31
0.0
 12
12.7745707657
 22
33.3256384164
 32
0.0
 13
12.7745707657
 23
33.3256384164
 33
0.0
  0
SOLID
  5
330
  8
0
  6
CONTINUOUS
 62
     7
 10
31.2545707657
 20
33.2456384164
 30
0.0
 11
30.7345707657
 21
33.3256384164
 31
0.0
 12
30.7345707657
 22
33.1656384164
 32
0.0
 13
30.7345707657
 23
33.1656384164
 33
0.0
  0
LINE
  5
331
  8
0
  6
CONTINUOUS
 62
     7
 10
20.7963676687
 20
33.2418189672
 30
0.0
 11
20.6948051636
 21
33.2418189672
 31
0.0
  0
LINE
  5
332
  8
0
  6
CONTINUOUS
 62
     7
 10
20.6948051636
 20
33.2418189672
 30
0.0
 11
20.6948051636
 21
32.4480689434
 31
0.0
  0
LINE
  5
333
  8
0
  6
CONTINUOUS
 62
     7
 10
20.6948051636
 20
32.4480689434
 30
0.0
 11
20.7963676687
 21
32.4480689434
 31
0.0
  0
LINE
  5
334
  8
0
  6
CONTINUOUS
 62
     7
 10
22.7127738993
 20
33.2418189672
 30
0.0
 11
22.8143364044
 21
33.2418189672
 31
0.0
  0
LINE
  5
335
  8
0
  6
CONTINUOUS
 62
     7
 10
22.8143364044
 20
33.2418189672
 30
0.0
 11
22.8143364044
 21
32.4480689434
 31
0.0
  0
LINE
  5
336
  8
0
  6
CONTINUOUS
 62
     7
 10
22.8143364044
 20
32.4480689434
 30
0.0
 11
22.7127738993
 21
32.4480689434
 31
0.0
  0
LINE
  5
337
  8
0
  6
CONTINUOUS
 62
     7
 10
12.2545707657
 20
31.4493352668
 30
0.0
 11
12.2545707657
 21
33.7456384164
 31
0.0
  0
LINE
  5
338
  8
0
  6
CONTINUOUS
 62
     7
 10
31.2545707657
 20
31.7938352668
 30
0.0
 11
31.2545707657
 21
33.7456384164
 31
0.0
  0
LINE
  5
339
  8
0
  6
CONTINUOUS
 62
     7
 10
12.2545707657
 20
33.2456384164
 30
0.0
 11
20.3325145423
 21
33.2456384164
 31
0.0
  0
LINE
  5
33A
  8
0
  6
CONTINUOUS
 62
     7
 10
31.2545707657
 20
33.2456384164
 30
0.0
 11
23.176626989
 21
33.2456384164
 31
0.0
  0
TEXT
  5
33B
  8
0
  6
CONTINUOUS
 62
     7
 10
20.433911062
 20
33.5276504292
 30
-1.7460629921
 40
0.5
  1
 
 41
0.7
 11
20.433911062
 21
33.3510203982
 31
-1.7460629921
 73
     1
  0
TEXT
  5
33C
  8
0
  6
CONTINUOUS
 62
     7
 10
20.7201958448
 20
33.5200115033
 30
-1.7460629921
 40
0.5
  1
19.00
 41
0.7
 11
20.7201958448
 21
33.3433814723
 31
-1.7460629921
 73
     1
  0
TEXT
  5
33D
  8
0
  6
CONTINUOUS
 62
     7
 10
20.9233208
 20
32.6246989468
 30
-1.7460629921
 40
0.5
  1
482.6
 41
0.7
 11
20.9233208
 21
32.4480689159
 31
-1.7460629921
 73
     1
  0
TEXT
  5
33E
  8
0
  6
CONTINUOUS
 62
     7
 10
22.8905082832
 20
33.5276504292
 30
-1.7460629921
 40
0.5
  1
 
 41
0.7
 11
22.8905082832
 21
33.3510203982
 31
-1.7460629921
 73
     1
  0
ENDBLK
  5
32E
  8
0
  0
BLOCK
  8
0
  2
*D12
 70
     1
 10
0.0
 20
0.0
 30
0.0
  3
*D12
  1

  0
SOLID
  5
343
  8
0
  6
CONTINUOUS
 62
     7
 10
12.8485707657
 20
25.402049502
 30
0.0
 11
13.3685707657
 21
25.322049502
 31
0.0
 12
13.3685707657
 22
25.482049502
 32
0.0
 13
13.3685707657
 23
25.482049502
 33
0.0
  0
SOLID
  5
344
  8
0
  6
CONTINUOUS
 62
     7
 10
30.6605707657
 20
25.402049502
 30
0.0
 11
30.1405707657
 21
25.482049502
 31
0.0
 12
30.1405707657
 22
25.322049502
 32
0.0
 13
30.1405707657
 23
25.322049502
 33
0.0
  0
LINE
  5
345
  8
0
  6
CONTINUOUS
 62
     7
 10
20.7963676687
 20
25.3982300528
 30
0.0
 11
20.6948051636
 21
25.3982300528
 31
0.0
  0
LINE
  5
346
  8
0
  6
CONTINUOUS
 62
     7
 10
20.6948051636
 20
25.3982300528
 30
0.0
 11
20.6948051636
 21
24.6044800289
 31
0.0
  0
LINE
  5
347
  8
0
  6
CONTINUOUS
 62
     7
 10
20.6948051636
 20
24.6044800289
 30
0.0
 11
20.7963676687
 21
24.6044800289
 31
0.0
  0
LINE
  5
348
  8
0
  6
CONTINUOUS
 62
     7
 10
22.7127738993
 20
25.3982300528
 30
0.0
 11
22.8143364044
 21
25.3982300528
 31
0.0
  0
LINE
  5
349
  8
0
  6
CONTINUOUS
 62
     7
 10
22.8143364044
 20
25.3982300528
 30
0.0
 11
22.8143364044
 21
24.6044800289
 31
0.0
  0
LINE
  5
34A
  8
0
  6
CONTINUOUS
 62
     7
 10
22.8143364044
 20
24.6044800289
 30
0.0
 11
22.7127738993
 21
24.6044800289
 31
0.0
  0
LINE
  5
34B
  8
0
  6
CONTINUOUS
 62
     7
 10
12.8485707657
 20
26.4708352668
 30
0.0
 11
12.8485707657
 21
24.902049502
 31
0.0
  0
LINE
  5
34C
  8
0
  6
CONTINUOUS
 62
     7
 10
30.6605707657
 20
26.4708352668
 30
0.0
 11
30.6605707657
 21
24.902049502
 31
0.0
  0
LINE
  5
34D
  8
0
  6
CONTINUOUS
 62
     7
 10
12.8485707657
 20
25.402049502
 30
0.0
 11
20.3325145423
 21
25.402049502
 31
0.0
  0
LINE
  5
34E
  8
0
  6
CONTINUOUS
 62
     7
 10
30.6605707657
 20
25.402049502
 30
0.0
 11
23.176626989
 21
25.402049502
 31
0.0
  0
TEXT
  5
34F
  8
0
  6
CONTINUOUS
 62
     7
 10
20.433911062
 20
25.6840615148
 30
-1.7460629921
 40
0.5
  1
 
 41
0.7
 11
20.433911062
 21
25.5074314838
 31
-1.7460629921
 73
     1
  0
TEXT
  5
350
  8
0
  6
CONTINUOUS
 62
     7
 10
20.7201958448
 20
25.6764225888
 30
-1.7460629921
 40
0.5
  1
17.81
 41
0.7
 11
20.7201958448
 21
25.4997925579
 31
-1.7460629921
 73
     1
  0
TEXT
  5
351
  8
0
  6
CONTINUOUS
 62
     7
 10
20.9233208
 20
24.7811100324
 30
-1.7460629921
 40
0.5
  1
452.4
 41
0.7
 11
20.9233208
 21
24.6044800014
 31
-1.7460629921
 73
     1
  0
TEXT
  5
352
  8
0
  6
CONTINUOUS
 62
     7
 10
22.8905082832
 20
25.6840615148
 30
-1.7460629921
 40
0.5
  1
 
 41
0.7
 11
22.8905082832
 21
25.5074314838
 31
-1.7460629921
 73
     1
  0
ENDBLK
  5
342
  8
0
  0
BLOCK
  8
0
  2
*D13
 70
     1
 10
0.0
 20
0.0
 30
0.0
  3
*D13
  1

  0
SOLID
  5
357
  8
0
  6
CONTINUOUS
 62
     7
 10
30.6605707657
 20
25.402049502
 30
0.0
 11
30.1405707657
 21
25.482049502
 31
0.0
 12
30.1405707657
 22
25.322049502
 32
0.0
 13
30.1405707657
 23
25.322049502
 33
0.0
  0
SOLID
  5
358
  8
0
  6
CONTINUOUS
 62
     7
 10
31.2545707657
 20
25.402049502
 30
0.0
 11
31.7745707657
 21
25.322049502
 31
0.0
 12
31.7745707657
 22
25.482049502
 32
0.0
 13
31.7745707657
 23
25.482049502
 33
0.0
  0
LINE
  5
359
  8
0
  6
CONTINUOUS
 62
     7
 10
33.0007748941
 20
25.3982300528
 30
0.0
 11
32.899212389
 21
25.3982300528
 31
0.0
  0
LINE
  5
35A
  8
0
  6
CONTINUOUS
 62
     7
 10
32.899212389
 20
25.3982300528
 30
0.0
 11
32.899212389
 21
24.6044800289
 31
0.0
  0
LINE
  5
35B
  8
0
  6
CONTINUOUS
 62
     7
 10
32.899212389
 20
24.6044800289
 30
0.0
 11
33.0007748941
 21
24.6044800289
 31
0.0
  0
LINE
  5
35C
  8
0
  6
CONTINUOUS
 62
     7
 10
34.5477367526
 20
25.3982300528
 30
0.0
 11
34.6492992577
 21
25.3982300528
 31
0.0
  0
LINE
  5
35D
  8
0
  6
CONTINUOUS
 62
     7
 10
34.6492992577
 20
25.3982300528
 30
0.0
 11
34.6492992577
 21
24.6044800289
 31
0.0
  0
LINE
  5
35E
  8
0
  6
CONTINUOUS
 62
     7
 10
34.6492992577
 20
24.6044800289
 30
0.0
 11
34.5477367526
 21
24.6044800289
 31
0.0
  0
LINE
  5
35F
  8
0
  6
CONTINUOUS
 62
     7
 10
30.6605707657
 20
26.4708352668
 30
0.0
 11
30.6605707657
 21
24.902049502
 31
0.0
  0
LINE
  5
360
  8
0
  6
CONTINUOUS
 62
     7
 10
31.2545707657
 20
26.5478352668
 30
0.0
 11
31.2545707657
 21
24.902049502
 31
0.0
  0
LINE
  5
361
  8
0
  6
CONTINUOUS
 62
     7
 10
30.6605707657
 20
25.402049502
 30
0.0
 11
29.6605707657
 21
25.402049502
 31
0.0
  0
LINE
  5
362
  8
0
  6
CONTINUOUS
 62
     7
 10
31.2545707657
 20
25.402049502
 30
0.0
 11
32.5369217678
 21
25.402049502
 31
0.0
  0
TEXT
  5
363
  8
0
  6
CONTINUOUS
 62
     7
 10
32.6383182875
 20
25.6840615148
 30
-1.7460629921
 40
0.5
  1
 
 41
0.7
 11
32.6383182875
 21
25.5074314838
 31
-1.7460629921
 73
     1
  0
TEXT
  5
364
  8
0
  6
CONTINUOUS
 62
     7
 10
33.1093252564
 20
25.6764225888
 30
-1.7460629921
 40
0.5
  1
.59
 41
0.7
 11
33.1093252564
 21
25.4997925579
 31
-1.7460629921
 73
     1
  0
TEXT
  5
365
  8
0
  6
CONTINUOUS
 62
     7
 10
33.1277280254
 20
24.7811100324
 30
-1.7460629921
 40
0.5
  1
15.1
 41
0.7
 11
33.1277280254
 21
24.6044800014
 31
-1.7460629921
 73
     1
  0
TEXT
  5
366
  8
0
  6
CONTINUOUS
 62
     7
 10
34.7254711365
 20
25.6840615148
 30
-1.7460629921
 40
0.5
  1
 
 41
0.7
 11
34.7254711365
 21
25.5074314838
 31
-1.7460629921
 73
     1
  0
ENDBLK
  5
356
  8
0
  0
BLOCK
  8
0
  2
*D14
 70
     1
 10
0.0
 20
0.0
 30
0.0
  3
*D14
  1

  0
SOLID
  5
3F4
  8
0
  6
CONTINUOUS
 62
     7
 10
3.2168213457
 20
19.8118218571
 30
0.0
 11
3.7368213457
 21
19.7318218571
 31
0.0
 12
3.7368213457
 22
19.8918218571
 32
0.0
 13
3.7368213457
 23
19.8918218571
 33
0.0
  0
SOLID
  5
3F5
  8
0
  6
CONTINUOUS
 62
     7
 10
8.3968213457
 20
19.8118218571
 30
0.0
 11
7.8768213457
 21
19.8918218571
 31
0.0
 12
7.8768213457
 22
19.7318218571
 32
0.0
 13
7.8768213457
 23
19.7318218571
 33
0.0
  0
LINE
  5
3F6
  8
0
  6
CONTINUOUS
 62
     7
 10
4.8486182487
 20
19.8080024079
 30
0.0
 11
4.7470557436
 21
19.8080024079
 31
0.0
  0
LINE
  5
3F7
  8
0
  6
CONTINUOUS
 62
     7
 10
4.7470557436
 20
19.8080024079
 30
0.0
 11
4.7470557436
 21
19.014252384
 31
0.0
  0
LINE
  5
3F8
  8
0
  6
CONTINUOUS
 62
     7
 10
4.7470557436
 20
19.014252384
 30
0.0
 11
4.8486182487
 21
19.014252384
 31
0.0
  0
LINE
  5
3F9
  8
0
  6
CONTINUOUS
 62
     7
 10
6.7650244794
 20
19.8080024079
 30
0.0
 11
6.8665869845
 21
19.8080024079
 31
0.0
  0
LINE
  5
3FA
  8
0
  6
CONTINUOUS
 62
     7
 10
6.8665869845
 20
19.8080024079
 30
0.0
 11
6.8665869845
 21
19.014252384
 31
0.0
  0
LINE
  5
3FB
  8
0
  6
CONTINUOUS
 62
     7
 10
6.8665869845
 20
19.014252384
 30
0.0
 11
6.7650244794
 21
19.014252384
 31
0.0
  0
LINE
  5
3FC
  8
0
  6
CONTINUOUS
 62
     7
 10
3.2168213457
 20
18.5989559165
 30
0.0
 11
3.2168213457
 21
20.3118218571
 31
0.0
  0
LINE
  5
3FD
  8
0
  6
CONTINUOUS
 62
     7
 10
8.3968213457
 20
18.5989559165
 30
0.0
 11
8.3968213457
 21
20.3118218571
 31
0.0
  0
LINE
  5
3FE
  8
0
  6
CONTINUOUS
 62
     7
 10
3.2168213457
 20
19.8118218571
 30
0.0
 11
4.3847651224
 21
19.8118218571
 31
0.0
  0
LINE
  5
3FF
  8
0
  6
CONTINUOUS
 62
     7
 10
8.3968213457
 20
19.8118218571
 30
0.0
 11
7.2288775691
 21
19.8118218571
 31
0.0
  0
TEXT
  5
400
  8
0
  6
CONTINUOUS
 62
     7
 10
4.4861616421
 20
20.0938338699
 30
-0.1160629921
 40
0.5
  1
 
 41
0.7
 11
4.4861616421
 21
19.9172038389
 31
-0.1160629921
 73
     1
  0
TEXT
  5
401
  8
0
  6
CONTINUOUS
 62
     7
 10
4.957168611
 20
20.0861949439
 30
-0.1160629921
 40
0.5
  1
5.18
 41
0.7
 11
4.957168611
 21
19.909564913
 31
-0.1160629921
 73
     1
  0
TEXT
  5
402
  8
0
  6
CONTINUOUS
 62
     7
 10
4.97557138
 20
19.1908823875
 30
-0.1160629921
 40
0.5
  1
131.6
 41
0.7
 11
4.97557138
 21
19.0142523565
 31
-0.1160629921
 73
     1
  0
TEXT
  5
403
  8
0
  6
CONTINUOUS
 62
     7
 10
6.9427588633
 20
20.0938338699
 30
-0.1160629921
 40
0.5
  1
 
 41
0.7
 11
6.9427588633
 21
19.9172038389
 31
-0.1160629921
 73
     1
  0
ENDBLK
  5
3F3
  8
0
  0
BLOCK
  8
0
  2
*D15
 70
     1
 10
0.0
 20
0.0
 30
0.0
  3
*D15
  1

  0
SOLID
  5
420
  8
0
  6
CONTINUOUS
 62
     7
 10
41.5200941956
 20
16.8989559165
 30
0.0
 11
41.4400941956
 21
16.3789559165
 31
0.0
 12
41.6000941956
 22
16.3789559165
 32
0.0
 13
41.6000941956
 23
16.3789559165
 33
0.0
  0
SOLID
  5
421
  8
0
  6
CONTINUOUS
 62
     7
 10
41.5200941956
 20
12.8989559165
 30
0.0
 11
41.6000941956
 21
13.4189559165
 31
0.0
 12
41.4400941956
 22
13.4189559165
 32
0.0
 13
41.4400941956
 23
13.4189559165
 33
0.0
  0
LINE
  5
422
  8
0
  6
CONTINUOUS
 62
     7
 10
40.5618910986
 20
14.8951364673
 30
0.0
 11
40.4603285935
 21
14.8951364673
 31
0.0
  0
LINE
  5
423
  8
0
  6
CONTINUOUS
 62
     7
 10
40.4603285935
 20
14.8951364673
 30
0.0
 11
40.4603285935
 21
14.1013864434
 31
0.0
  0
LINE
  5
424
  8
0
  6
CONTINUOUS
 62
     7
 10
40.4603285935
 20
14.1013864434
 30
0.0
 11
40.5618910986
 21
14.1013864434
 31
0.0
  0
LINE
  5
425
  8
0
  6
CONTINUOUS
 62
     7
 10
42.4782973293
 20
14.8951364673
 30
0.0
 11
42.5798598344
 21
14.8951364673
 31
0.0
  0
LINE
  5
426
  8
0
  6
CONTINUOUS
 62
     7
 10
42.5798598344
 20
14.8951364673
 30
0.0
 11
42.5798598344
 21
14.1013864434
 31
0.0
  0
LINE
  5
427
  8
0
  6
CONTINUOUS
 62
     7
 10
42.5798598344
 20
14.1013864434
 30
0.0
 11
42.4782973293
 21
14.1013864434
 31
0.0
  0
LINE
  5
428
  8
0
  6
CONTINUOUS
 62
     7
 10
40.104956965
 20
16.8989559165
 30
0.0
 11
42.0200941956
 21
16.8989559165
 31
0.0
  0
LINE
  5
429
  8
0
  6
CONTINUOUS
 62
     7
 10
40.104956965
 20
12.8989559165
 30
0.0
 11
42.0200941956
 21
12.8989559165
 31
0.0
  0
LINE
  5
42A
  8
0
  6
CONTINUOUS
 62
     7
 10
41.5200941956
 20
16.8989559165
 30
0.0
 11
41.5200941956
 21
15.7980879496
 31
0.0
  0
LINE
  5
42B
  8
0
  6
CONTINUOUS
 62
     7
 10
41.5200941956
 20
12.8989559165
 30
0.0
 11
41.5200941956
 21
13.9998238833
 31
0.0
  0
TEXT
  5
42C
  8
0
  6
CONTINUOUS
 62
     7
 10
40.199434492
 20
15.1809679292
 30
0.1239370079
 40
0.5
  1
 
 41
0.7
 11
40.199434492
 21
15.0043378983
 31
0.1239370079
 73
     1
  0
TEXT
  5
42D
  8
0
  6
CONTINUOUS
 62
     7
 10
40.6704414609
 20
15.1733290033
 30
0.1239370079
 40
0.5
  1
4.00
 41
0.7
 11
40.6704414609
 21
14.9966989723
 31
0.1239370079
 73
     1
  0
TEXT
  5
42E
  8
0
  6
CONTINUOUS
 62
     7
 10
40.68884423
 20
14.2780164469
 30
0.1239370079
 40
0.5
  1
101.6
 41
0.7
 11
40.68884423
 21
14.1013864159
 31
0.1239370079
 73
     1
  0
TEXT
  5
42F
  8
0
  6
CONTINUOUS
 62
     7
 10
42.6560317132
 20
15.1809679292
 30
0.1239370079
 40
0.5
  1
 
 41
0.7
 11
42.6560317132
 21
15.0043378983
 31
0.1239370079
 73
     1
  0
ENDBLK
  5
41F
  8
0
  0
BLOCK
  8
0
  2
*D16
 70
     1
 10
0.0
 20
0.0
 30
0.0
  3
*D16
  1

  0
SOLID
  5
434
  8
0
  6
CONTINUOUS
 62
     7
 10
34.945291046
 20
19.9737590661
 30
0.0
 11
35.465291046
 21
19.8937590661
 31
0.0
 12
35.465291046
 22
20.0537590661
 32
0.0
 13
35.465291046
 23
20.0537590661
 33
0.0
  0
SOLID
  5
435
  8
0
  6
CONTINUOUS
 62
     7
 10
39.945291046
 20
19.9737590661
 30
0.0
 11
39.425291046
 21
20.0537590661
 31
0.0
 12
39.425291046
 22
19.8937590661
 32
0.0
 13
39.425291046
 23
19.8937590661
 33
0.0
  0
LINE
  5
436
  8
0
  6
CONTINUOUS
 62
     7
 10
36.7641713015
 20
19.9699396169
 30
0.0
 11
36.6626087964
 21
19.9699396169
 31
0.0
  0
LINE
  5
437
  8
0
  6
CONTINUOUS
 62
     7
 10
36.6626087964
 20
19.9699396169
 30
0.0
 11
36.6626087964
 21
19.176189593
 31
0.0
  0
LINE
  5
438
  8
0
  6
CONTINUOUS
 62
     7
 10
36.6626087964
 20
19.176189593
 30
0.0
 11
36.7641713015
 21
19.176189593
 31
0.0
  0
LINE
  5
439
  8
0
  6
CONTINUOUS
 62
     7
 10
38.1264109006
 20
19.9699396169
 30
0.0
 11
38.2279734057
 21
19.9699396169
 31
0.0
  0
LINE
  5
43A
  8
0
  6
CONTINUOUS
 62
     7
 10
38.2279734057
 20
19.9699396169
 30
0.0
 11
38.2279734057
 21
19.176189593
 31
0.0
  0
LINE
  5
43B
  8
0
  6
CONTINUOUS
 62
     7
 10
38.2279734057
 20
19.176189593
 30
0.0
 11
38.1264109006
 21
19.176189593
 31
0.0
  0
LINE
  5
43C
  8
0
  6
CONTINUOUS
 62
     7
 10
34.945291046
 20
18.5989559165
 30
0.0
 11
34.945291046
 21
20.4737590661
 31
0.0
  0
LINE
  5
43D
  8
0
  6
CONTINUOUS
 62
     7
 10
39.945291046
 20
18.5989559165
 30
0.0
 11
39.945291046
 21
20.4737590661
 31
0.0
  0
LINE
  5
43E
  8
0
  6
CONTINUOUS
 62
     7
 10
34.945291046
 20
19.9737590661
 30
0.0
 11
36.3003181751
 21
19.9737590661
 31
0.0
  0
LINE
  5
43F
  8
0
  6
CONTINUOUS
 62
     7
 10
39.945291046
 20
19.9737590661
 30
0.0
 11
38.5902639169
 21
19.9737590661
 31
0.0
  0
TEXT
  5
440
  8
0
  6
CONTINUOUS
 62
     7
 10
36.4017146948
 20
20.2557710788
 30
0.1239370079
 40
0.5
  1
 
 41
0.7
 11
36.4017146948
 21
20.0791410479
 31
0.1239370079
 73
     1
  0
TEXT
  5
441
  8
0
  6
CONTINUOUS
 62
     7
 10
36.5956383113
 20
20.2481321529
 30
0.1239370079
 40
0.5
  1
5.00
 41
0.7
 11
36.5956383113
 21
20.0715021219
 31
0.1239370079
 73
     1
  0
TEXT
  5
442
  8
0
  6
CONTINUOUS
 62
     7
 10
36.8911244328
 20
19.3528195965
 30
0.1239370079
 40
0.5
  1
127
 41
0.7
 11
36.8911244328
 21
19.1761895655
 31
0.1239370079
 73
     1
  0
TEXT
  5
443
  8
0
  6
CONTINUOUS
 62
     7
 10
38.3041452111
 20
20.2557710788
 30
0.1239370079
 40
0.5
  1
 
 41
0.7
 11
38.3041452111
 21
20.0791410479
 31
0.1239370079
 73
     1
  0
ENDBLK
  5
433
  8
0
  0
BLOCK
  8
0
  2
SW_CENTERMARKSYMBOL_0
 70
     0
 10
0.0
 20
0.0
 30
0.0
  3
SW_CENTERMARKSYMBOL_0
  1

  0
LINE
  5
447
  8
0
  6
CONTINUOUS
 62
     0
 10
0.0
 20
0.0
 30
0.0
 11
0.0
 21
0.1
 31
0.0
  0
LINE
  5
448
  8
0
  6
CONTINUOUS
 62
     0
 10
0.0
 20
0.0
 30
0.0
 11
-0.1
 21
0.0
 31
0.0
  0
LINE
  5
449
  8
0
  6
CONTINUOUS
 62
     0
 10
0.0
 20
0.0
 30
0.0
 11
0.0
 21
-0.1
 31
0.0
  0
LINE
  5
44A
  8
0
  6
CONTINUOUS
 62
     0
 10
0.0
 20
0.0
 30
0.0
 11
0.1
 21
0.0
 31
0.0
  0
LINE
  5
44B
  8
0
  6
CONTINUOUS
 62
     0
 10
0.0
 20
0.2
 30
0.0
 11
0.0
 21
0.2405
 31
0.0
  0
LINE
  5
44C
  8
0
  6
CONTINUOUS
 62
     0
 10
-0.2
 20
0.0
 30
0.0
 11
-0.2405
 21
0.0
 31
0.0
  0
LINE
  5
44D
  8
0
  6
CONTINUOUS
 62
     0
 10
0.0
 20
-0.2
 30
0.0
 11
0.0
 21
-0.2405
 31
0.0
  0
LINE
  5
44E
  8
0
  6
CONTINUOUS
 62
     0
 10
0.2
 20
0.0
 30
0.0
 11
0.2405
 21
0.0
 31
0.0
  0
ENDBLK
  5
446
  8
0
  0
BLOCK
  8
0
  2
SW_CENTERMARKSYMBOL_1
 70
     0
 10
0.0
 20
0.0
 30
0.0
  3
SW_CENTERMARKSYMBOL_1
  1

  0
LINE
  5
453
  8
0
  6
CONTINUOUS
 62
     0
 10
0.0
 20
0.0
 30
0.0
 11
0.0
 21
0.1
 31
0.0
  0
LINE
  5
454
  8
0
  6
CONTINUOUS
 62
     0
 10
0.0
 20
0.0
 30
0.0
 11
-0.1
 21
0.0
 31
0.0
  0
LINE
  5
455
  8
0
  6
CONTINUOUS
 62
     0
 10
0.0
 20
0.0
 30
0.0
 11
0.0
 21
-0.1
 31
0.0
  0
LINE
  5
456
  8
0
  6
CONTINUOUS
 62
     0
 10
0.0
 20
0.0
 30
0.0
 11
0.1
 21
0.0
 31
0.0
  0
LINE
  5
457
  8
0
  6
CONTINUOUS
 62
     0
 10
0.0
 20
0.2
 30
0.0
 11
0.0
 21
0.2405
 31
0.0
  0
LINE
  5
458
  8
0
  6
CONTINUOUS
 62
     0
 10
-0.2
 20
0.0
 30
0.0
 11
-0.2405
 21
0.0
 31
0.0
  0
LINE
  5
459
  8
0
  6
CONTINUOUS
 62
     0
 10
0.0
 20
-0.2
 30
0.0
 11
0.0
 21
-0.2405
 31
0.0
  0
LINE
  5
45A
  8
0
  6
CONTINUOUS
 62
     0
 10
0.2
 20
0.0
 30
0.0
 11
0.2405
 21
0.0
 31
0.0
  0
ENDBLK
  5
452
  8
0
  0
BLOCK
  8
0
  2
*D19
 70
     1
 10
0.0
 20
0.0
 30
0.0
  3
*D19
  1

  0
SOLID
  5
4FF
  8
0
  6
CONTINUOUS
 62
     7
 10
60.8475998622
 20
14.8989559165
 30
0.0
 11
60.7675998622
 21
14.3789559165
 31
0.0
 12
60.9275998622
 22
14.3789559165
 32
0.0
 13
60.9275998622
 23
14.3789559165
 33
0.0
  0
SOLID
  5
500
  8
0
  6
CONTINUOUS
 62
     7
 10
60.8475998622
 20
11.3989559165
 30
0.0
 11
60.9275998622
 21
11.9189559165
 31
0.0
 12
60.7675998622
 22
11.9189559165
 32
0.0
 13
60.7675998622
 23
11.9189559165
 33
0.0
  0
LINE
  5
501
  8
0
  6
CONTINUOUS
 62
     7
 10
60.0741189513
 20
13.1451364673
 30
0.0
 11
59.9725564462
 21
13.1451364673
 31
0.0
  0
LINE
  5
502
  8
0
  6
CONTINUOUS
 62
     7
 10
59.9725564462
 20
13.1451364673
 30
0.0
 11
59.9725564462
 21
12.3513864434
 31
0.0
  0
LINE
  5
503
  8
0
  6
CONTINUOUS
 62
     7
 10
59.9725564462
 20
12.3513864434
 30
0.0
 11
60.0741189513
 21
12.3513864434
 31
0.0
  0
LINE
  5
504
  8
0
  6
CONTINUOUS
 62
     7
 10
61.6210808098
 20
13.1451364673
 30
0.0
 11
61.7226433149
 21
13.1451364673
 31
0.0
  0
LINE
  5
505
  8
0
  6
CONTINUOUS
 62
     7
 10
61.7226433149
 20
13.1451364673
 30
0.0
 11
61.7226433149
 21
12.3513864434
 31
0.0
  0
LINE
  5
506
  8
0
  6
CONTINUOUS
 62
     7
 10
61.7226433149
 20
12.3513864434
 30
0.0
 11
61.6210808098
 21
12.3513864434
 31
0.0
  0
LINE
  5
507
  8
0
  6
CONTINUOUS
 62
     7
 10
58.8217347108
 20
14.8989559165
 30
0.0
 11
61.3475998622
 21
14.8989559165
 31
0.0
  0
LINE
  5
508
  8
0
  6
CONTINUOUS
 62
     7
 10
60.8475998622
 20
14.8989559165
 30
0.0
 11
60.8475998622
 21
14.0480879496
 31
0.0
  0
LINE
  5
509
  8
0
  6
CONTINUOUS
 62
     7
 10
60.8475998622
 20
11.3989559165
 30
0.0
 11
60.8475998622
 21
12.2498238833
 31
0.0
  0
TEXT
  5
50A
  8
0
  6
CONTINUOUS
 62
     7
 10
59.7116623447
 20
13.4309679292
 30
2.5939370079
 40
0.5
  1
 
 41
0.7
 11
59.7116623447
 21
13.2543378983
 31
2.5939370079
 73
     1
  0
TEXT
  5
50B
  8
0
  6
CONTINUOUS
 62
     7
 10
59.9979471275
 20
13.4233290033
 30
2.5939370079
 40
0.5
  1
3.50
 41
0.7
 11
59.9979471275
 21
13.2466989723
 31
2.5939370079
 73
     1
  0
TEXT
  5
50C
  8
0
  6
CONTINUOUS
 62
     7
 10
60.2010720826
 20
12.5280164469
 30
2.5939370079
 40
0.5
  1
88.9
 41
0.7
 11
60.2010720826
 21
12.3513864159
 31
2.5939370079
 73
     1
  0
TEXT
  5
50D
  8
0
  6
CONTINUOUS
 62
     7
 10
61.7988151937
 20
13.4309679292
 30
2.5939370079
 40
0.5
  1
 
 41
0.7
 11
61.7988151937
 21
13.2543378983
 31
2.5939370079
 73
     1
  0
ENDBLK
  5
4FE
  8
0
  0
BLOCK
  8
0
  2
*D20
 70
     1
 10
0.0
 20
0.0
 30
0.0
  3
*D20
  1

  0
SOLID
  5
513
  8
0
  6
CONTINUOUS
 62
     7
 10
52.6217347108
 20
9.8241527669
 30
0.0
 11
52.1017347108
 21
9.9041527669
 31
0.0
 12
52.1017347108
 22
9.7441527669
 32
0.0
 13
52.1017347108
 23
9.7441527669
 33
0.0
  0
SOLID
  5
514
  8
0
  6
CONTINUOUS
 62
     7
 10
55.6217347108
 20
9.8241527669
 30
0.0
 11
56.1417347108
 21
9.7441527669
 31
0.0
 12
56.1417347108
 22
9.9041527669
 32
0.0
 13
56.1417347108
 23
9.9041527669
 33
0.0
  0
LINE
  5
515
  8
0
  6
CONTINUOUS
 62
     7
 10
53.3482537999
 20
9.8203333177
 30
0.0
 11
53.2466912948
 21
9.8203333177
 31
0.0
  0
LINE
  5
516
  8
0
  6
CONTINUOUS
 62
     7
 10
53.2466912948
 20
9.8203333177
 30
0.0
 11
53.2466912948
 21
9.0265832938
 31
0.0
  0
LINE
  5
517
  8
0
  6
CONTINUOUS
 62
     7
 10
53.2466912948
 20
9.0265832938
 30
0.0
 11
53.3482537999
 21
9.0265832938
 31
0.0
  0
LINE
  5
518
  8
0
  6
CONTINUOUS
 62
     7
 10
54.8952156584
 20
9.8203333177
 30
0.0
 11
54.9967781635
 21
9.8203333177
 31
0.0
  0
LINE
  5
519
  8
0
  6
CONTINUOUS
 62
     7
 10
54.9967781635
 20
9.8203333177
 30
0.0
 11
54.9967781635
 21
9.0265832938
 31
0.0
  0
LINE
  5
51A
  8
0
  6
CONTINUOUS
 62
     7
 10
54.9967781635
 20
9.0265832938
 30
0.0
 11
54.8952156584
 21
9.0265832938
 31
0.0
  0
LINE
  5
51B
  8
0
  6
CONTINUOUS
 62
     7
 10
52.6217347108
 20
14.6989559165
 30
0.0
 11
52.6217347108
 21
9.3241527669
 31
0.0
  0
LINE
  5
51C
  8
0
  6
CONTINUOUS
 62
     7
 10
55.6217347108
 20
14.6989559165
 30
0.0
 11
55.6217347108
 21
9.3241527669
 31
0.0
  0
LINE
  5
51D
  8
0
  6
CONTINUOUS
 62
     7
 10
52.6217347108
 20
9.8241527669
 30
0.0
 11
51.6217347108
 21
9.8241527669
 31
0.0
  0
LINE
  5
51E
  8
0
  6
CONTINUOUS
 62
     7
 10
55.6217347108
 20
9.8241527669
 30
0.0
 11
56.6217347108
 21
9.8241527669
 31
0.0
  0
TEXT
  5
51F
  8
0
  6
CONTINUOUS
 62
     7
 10
52.9857971932
 20
10.1061647796
 30
2.5939370079
 40
0.5
  1
 
 41
0.7
 11
52.9857971932
 21
9.9295347487
 31
2.5939370079
 73
     1
  0
TEXT
  5
520
  8
0
  6
CONTINUOUS
 62
     7
 10
53.2720819761
 20
10.0985258537
 30
2.5939370079
 40
0.5
  1
3.00
 41
0.7
 11
53.2720819761
 21
9.9218958227
 31
2.5939370079
 73
     1
  0
TEXT
  5
521
  8
0
  6
CONTINUOUS
 62
     7
 10
53.4752069312
 20
9.2032132973
 30
2.5939370079
 40
0.5
  1
76.2
 41
0.7
 11
53.4752069312
 21
9.0265832663
 31
2.5939370079
 73
     1
  0
TEXT
  5
522
  8
0
  6
CONTINUOUS
 62
     7
 10
55.0729500423
 20
10.1061647796
 30
2.5939370079
 40
0.5
  1
 
 41
0.7
 11
55.0729500423
 21
9.9295347487
 31
2.5939370079
 73
     1
  0
ENDBLK
  5
512
  8
0
  0
BLOCK
  8
0
  2
*D21
 70
     1
 10
0.0
 20
0.0
 30
0.0
  3
*D21
  1

  0
SOLID
  5
527
  8
0
  6
CONTINUOUS
 62
     7
 10
55.6217347108
 20
8.5774961271
 30
0.0
 11
55.1017347108
 21
8.6574961271
 31
0.0
 12
55.1017347108
 22
8.4974961271
 32
0.0
 13
55.1017347108
 23
8.4974961271
 33
0.0
  0
SOLID
  5
528
  8
0
  6
CONTINUOUS
 62
     7
 10
58.6217347108
 20
8.5774961271
 30
0.0
 11
59.1417347108
 21
8.4974961271
 31
0.0
 12
59.1417347108
 22
8.6574961271
 32
0.0
 13
59.1417347108
 23
8.6574961271
 33
0.0
  0
LINE
  5
529
  8
0
  6
CONTINUOUS
 62
     7
 10
56.3482537999
 20
8.5736766779
 30
0.0
 11
56.2466912948
 21
8.5736766779
 31
0.0
  0
LINE
  5
52A
  8
0
  6
CONTINUOUS
 62
     7
 10
56.2466912948
 20
8.5736766779
 30
0.0
 11
56.2466912948
 21
7.779926654
 31
0.0
  0
LINE
  5
52B
  8
0
  6
CONTINUOUS
 62
     7
 10
56.2466912948
 20
7.779926654
 30
0.0
 11
56.3482537999
 21
7.779926654
 31
0.0
  0
LINE
  5
52C
  8
0
  6
CONTINUOUS
 62
     7
 10
57.8952156584
 20
8.5736766779
 30
0.0
 11
57.9967781635
 21
8.5736766779
 31
0.0
  0
LINE
  5
52D
  8
0
  6
CONTINUOUS
 62
     7
 10
57.9967781635
 20
8.5736766779
 30
0.0
 11
57.9967781635
 21
7.779926654
 31
0.0
  0
LINE
  5
52E
  8
0
  6
CONTINUOUS
 62
     7
 10
57.9967781635
 20
7.779926654
 30
0.0
 11
57.8952156584
 21
7.779926654
 31
0.0
  0
LINE
  5
52F
  8
0
  6
CONTINUOUS
 62
     7
 10
55.6217347108
 20
14.6989559165
 30
0.0
 11
55.6217347108
 21
8.0774961271
 31
0.0
  0
LINE
  5
530
  8
0
  6
CONTINUOUS
 62
     7
 10
58.6217347108
 20
14.6989559165
 30
0.0
 11
58.6217347108
 21
8.0774961271
 31
0.0
  0
LINE
  5
531
  8
0
  6
CONTINUOUS
 62
     7
 10
55.6217347108
 20
8.5774961271
 30
0.0
 11
54.6217347108
 21
8.5774961271
 31
0.0
  0
LINE
  5
532
  8
0
  6
CONTINUOUS
 62
     7
 10
58.6217347108
 20
8.5774961271
 30
0.0
 11
59.6217347108
 21
8.5774961271
 31
0.0
  0
TEXT
  5
533
  8
0
  6
CONTINUOUS
 62
     7
 10
55.9857971932
 20
8.8595081399
 30
2.5939370079
 40
0.5
  1
 
 41
0.7
 11
55.9857971932
 21
8.6828781089
 31
2.5939370079
 73
     1
  0
TEXT
  5
534
  8
0
  6
CONTINUOUS
 62
     7
 10
56.2720819761
 20
8.8518692139
 30
2.5939370079
 40
0.5
  1
3.00
 41
0.7
 11
56.2720819761
 21
8.675239183
 31
2.5939370079
 73
     1
  0
TEXT
  5
535
  8
0
  6
CONTINUOUS
 62
     7
 10
56.4752069312
 20
7.9565566575
 30
2.5939370079
 40
0.5
  1
76.2
 41
0.7
 11
56.4752069312
 21
7.7799266265
 31
2.5939370079
 73
     1
  0
TEXT
  5
536
  8
0
  6
CONTINUOUS
 62
     7
 10
58.0729500423
 20
8.8595081399
 30
2.5939370079
 40
0.5
  1
 
 41
0.7
 11
58.0729500423
 21
8.6828781089
 31
2.5939370079
 73
     1
  0
ENDBLK
  5
526
  8
0
  0
BLOCK
  8
0
  2
*D22
 70
     1
 10
0.0
 20
0.0
 30
0.0
  3
*D22
  1

  0
SOLID
  5
53B
  8
0
  6
CONTINUOUS
 62
     7
 10
47.6217347108
 20
20.2347050728
 30
0.0
 11
48.1417347108
 21
20.1547050728
 31
0.0
 12
48.1417347108
 22
20.3147050728
 32
0.0
 13
48.1417347108
 23
20.3147050728
 33
0.0
  0
SOLID
  5
53C
  8
0
  6
CONTINUOUS
 62
     7
 10
63.6217347108
 20
20.2347050728
 30
0.0
 11
63.1017347108
 21
20.3147050728
 31
0.0
 12
63.1017347108
 22
20.1547050728
 32
0.0
 13
63.1017347108
 23
20.1547050728
 33
0.0
  0
LINE
  5
53D
  8
0
  6
CONTINUOUS
 62
     7
 10
54.6635316138
 20
20.2308856236
 30
0.0
 11
54.5619691087
 21
20.2308856236
 31
0.0
  0
LINE
  5
53E
  8
0
  6
CONTINUOUS
 62
     7
 10
54.5619691087
 20
20.2308856236
 30
0.0
 11
54.5619691087
 21
19.4371355997
 31
0.0
  0
LINE
  5
53F
  8
0
  6
CONTINUOUS
 62
     7
 10
54.5619691087
 20
19.4371355997
 30
0.0
 11
54.6635316138
 21
19.4371355997
 31
0.0
  0
LINE
  5
540
  8
0
  6
CONTINUOUS
 62
     7
 10
56.5799378445
 20
20.2308856236
 30
0.0
 11
56.6815003495
 21
20.2308856236
 31
0.0
  0
LINE
  5
541
  8
0
  6
CONTINUOUS
 62
     7
 10
56.6815003495
 20
20.2308856236
 30
0.0
 11
56.6815003495
 21
19.4371355997
 31
0.0
  0
LINE
  5
542
  8
0
  6
CONTINUOUS
 62
     7
 10
56.6815003495
 20
19.4371355997
 30
0.0
 11
56.5799378445
 21
19.4371355997
 31
0.0
  0
LINE
  5
543
  8
0
  6
CONTINUOUS
 62
     7
 10
47.6217347108
 20
18.2064559165
 30
0.0
 11
47.6217347108
 21
20.7347050728
 31
0.0
  0
LINE
  5
544
  8
0
  6
CONTINUOUS
 62
     7
 10
63.6217347108
 20
18.2064559165
 30
0.0
 11
63.6217347108
 21
20.7347050728
 31
0.0
  0
LINE
  5
545
  8
0
  6
CONTINUOUS
 62
     7
 10
47.6217347108
 20
20.2347050728
 30
0.0
 11
54.1996784875
 21
20.2347050728
 31
0.0
  0
LINE
  5
546
  8
0
  6
CONTINUOUS
 62
     7
 10
63.6217347108
 20
20.2347050728
 30
0.0
 11
57.0437909341
 21
20.2347050728
 31
0.0
  0
TEXT
  5
547
  8
0
  6
CONTINUOUS
 62
     7
 10
54.3010750072
 20
20.5167170855
 30
2.5939370079
 40
0.5
  1
 
 41
0.7
 11
54.3010750072
 21
20.3400870546
 31
2.5939370079
 73
     1
  0
TEXT
  5
548
  8
0
  6
CONTINUOUS
 62
     7
 10
54.58735979
 20
20.5090781596
 30
2.5939370079
 40
0.5
  1
16.00
 41
0.7
 11
54.58735979
 21
20.3324481287
 31
2.5939370079
 73
     1
  0
TEXT
  5
549
  8
0
  6
CONTINUOUS
 62
     7
 10
54.7904847451
 20
19.6137656032
 30
2.5939370079
 40
0.5
  1
406.4
 41
0.7
 11
54.7904847451
 21
19.4371355722
 31
2.5939370079
 73
     1
  0
TEXT
  5
54A
  8
0
  6
CONTINUOUS
 62
     7
 10
56.7576722284
 20
20.5167170855
 30
2.5939370079
 40
0.5
  1
 
 41
0.7
 11
56.7576722284
 21
20.3400870546
 31
2.5939370079
 73
     1
  0
ENDBLK
  5
53A
  8
0
  0
BLOCK
  8
0
  2
*D23
 70
     1
 10
0.0
 20
0.0
 30
0.0
  3
*D23
  1

  0
SOLID
  5
54F
  8
0
  6
CONTINUOUS
 62
     7
 10
44.5469315612
 20
17.6489559165
 30
0.0
 11
44.4669315612
 21
17.1289559165
 31
0.0
 12
44.6269315612
 22
17.1289559165
 32
0.0
 13
44.6269315612
 23
17.1289559165
 33
0.0
  0
SOLID
  5
550
  8
0
  6
CONTINUOUS
 62
     7
 10
44.5469315612
 20
12.1489559165
 30
0.0
 11
44.6269315612
 21
12.6689559165
 31
0.0
 12
44.4669315612
 22
12.6689559165
 32
0.0
 13
44.4669315612
 23
12.6689559165
 33
0.0
  0
LINE
  5
551
  8
0
  6
CONTINUOUS
 62
     7
 10
43.5887284642
 20
14.8951364673
 30
0.0
 11
43.4871659591
 21
14.8951364673
 31
0.0
  0
LINE
  5
552
  8
0
  6
CONTINUOUS
 62
     7
 10
43.4871659591
 20
14.8951364673
 30
0.0
 11
43.4871659591
 21
14.1013864434
 31
0.0
  0
LINE
  5
553
  8
0
  6
CONTINUOUS
 62
     7
 10
43.4871659591
 20
14.1013864434
 30
0.0
 11
43.5887284642
 21
14.1013864434
 31
0.0
  0
LINE
  5
554
  8
0
  6
CONTINUOUS
 62
     7
 10
45.5051346949
 20
14.8951364673
 30
0.0
 11
45.6066971999
 21
14.8951364673
 31
0.0
  0
LINE
  5
555
  8
0
  6
CONTINUOUS
 62
     7
 10
45.6066971999
 20
14.8951364673
 30
0.0
 11
45.6066971999
 21
14.1013864434
 31
0.0
  0
LINE
  5
556
  8
0
  6
CONTINUOUS
 62
     7
 10
45.6066971999
 20
14.1013864434
 30
0.0
 11
45.5051346949
 21
14.1013864434
 31
0.0
  0
LINE
  5
557
  8
0
  6
CONTINUOUS
 62
     7
 10
47.0642347108
 20
17.6489559165
 30
0.0
 11
44.0469315612
 21
17.6489559165
 31
0.0
  0
LINE
  5
558
  8
0
  6
CONTINUOUS
 62
     7
 10
47.4217347108
 20
12.1489559165
 30
0.0
 11
44.0469315612
 21
12.1489559165
 31
0.0
  0
LINE
  5
559
  8
0
  6
CONTINUOUS
 62
     7
 10
44.5469315612
 20
17.6489559165
 30
0.0
 11
44.5469315612
 21
15.7980879496
 31
0.0
  0
LINE
  5
55A
  8
0
  6
CONTINUOUS
 62
     7
 10
44.5469315612
 20
12.1489559165
 30
0.0
 11
44.5469315612
 21
13.9998238833
 31
0.0
  0
TEXT
  5
55B
  8
0
  6
CONTINUOUS
 62
     7
 10
43.2262718576
 20
15.1809679292
 30
2.5939370079
 40
0.5
  1
 
 41
0.7
 11
43.2262718576
 21
15.0043378983
 31
2.5939370079
 73
     1
  0
TEXT
  5
55C
  8
0
  6
CONTINUOUS
 62
     7
 10
43.6972788265
 20
15.1733290033
 30
2.5939370079
 40
0.5
  1
5.50
 41
0.7
 11
43.6972788265
 21
14.9966989723
 31
2.5939370079
 73
     1
  0
TEXT
  5
55D
  8
0
  6
CONTINUOUS
 62
     7
 10
43.7156815955
 20
14.2780164469
 30
2.5939370079
 40
0.5
  1
139.7
 41
0.7
 11
43.7156815955
 21
14.1013864159
 31
2.5939370079
 73
     1
  0
TEXT
  5
55E
  8
0
  6
CONTINUOUS
 62
     7
 10
45.6828690787
 20
15.1809679292
 30
2.5939370079
 40
0.5
  1
 
 41
0.7
 11
45.6828690787
 21
15.0043378983
 31
2.5939370079
 73
     1
  0
ENDBLK
  5
54E
  8
0
  0
BLOCK
  8
0
  2
*D24
 70
     1
 10
0.0
 20
0.0
 30
0.0
  3
*D24
  1

  0
SOLID
  5
564
  8
0
  6
CONTINUOUS
 62
     7
 10
52.4186876131
 20
14.3829693603
 30
0.0
 11
52.1538302365
 21
13.928381008
 31
0.0
 12
52.30271725
 22
13.869792125
 32
0.0
 13
52.30271725
 23
13.869792125
 33
0.0
  0
LINE
  5
565
  8
0
  6
CONTINUOUS
 62
     7
 10
42.4169323372
 20
9.8203333177
 30
0.0
 11
42.3153698321
 21
9.8203333177
 31
0.0
  0
LINE
  5
566
  8
0
  6
CONTINUOUS
 62
     7
 10
42.3153698321
 20
9.8203333177
 30
0.0
 11
42.3153698321
 21
9.0265832938
 31
0.0
  0
LINE
  5
567
  8
0
  6
CONTINUOUS
 62
     7
 10
42.3153698321
 20
9.0265832938
 30
0.0
 11
42.4169323372
 21
9.0265832938
 31
0.0
  0
LINE
  5
568
  8
0
  6
CONTINUOUS
 62
     7
 10
44.3333385679
 20
9.8203333177
 30
0.0
 11
44.434901073
 21
9.8203333177
 31
0.0
  0
LINE
  5
569
  8
0
  6
CONTINUOUS
 62
     7
 10
44.434901073
 20
9.8203333177
 30
0.0
 11
44.434901073
 21
9.0265832938
 31
0.0
  0
LINE
  5
56A
  8
0
  6
CONTINUOUS
 62
     7
 10
44.434901073
 20
9.0265832938
 30
0.0
 11
44.3333385679
 21
9.0265832938
 31
0.0
  0
LINE
  5
56B
  8
0
  6
CONTINUOUS
 62
     7
 10
52.4186876131
 20
14.3829693603
 30
0.0
 11
50.6247368456
 21
9.8241527669
 31
0.0
  0
LINE
  5
56C
  8
0
  6
CONTINUOUS
 62
     7
 10
50.6247368456
 20
9.8241527669
 30
0.0
 11
50.1247368456
 21
9.8241527669
 31
0.0
  0
TEXT
  5
56D
  8
0
  6
CONTINUOUS
 62
     7
 10
41.9637293089
 20
10.0985258537
 30
2.5939370079
 40
0.5
  1
%%c
 41
0.7
 11
41.9637293089
 21
9.9218958227
 31
2.5939370079
 73
     1
  0
TEXT
  5
56E
  8
0
  6
CONTINUOUS
 62
     7
 10
42.7177917913
 20
10.0985258537
 30
2.5939370079
 40
0.5
  1
1.109
 41
0.7
 11
42.7177917913
 21
9.9218958227
 31
2.5939370079
 73
     1
  0
TEXT
  5
56F
  8
0
  6
CONTINUOUS
 62
     7
 10
42.5438854686
 20
9.2032132973
 30
2.5939370079
 40
0.5
  1
28.17
 41
0.7
 11
42.5438854686
 21
9.0265832663
 31
2.5939370079
 73
     1
  0
TEXT
  5
570
  8
0
  6
CONTINUOUS
 62
     7
 10
44.7865416329
 20
10.1061647796
 30
2.5939370079
 40
0.5
  1
 KNOCKOUT (3X)
 41
0.65
 11
44.7865416329
 21
9.9295347487
 31
2.5939370079
 73
     1
  0
ENDBLK
  5
563
  8
0
  0
BLOCK
  8
0
  2
SW_NOTE_4
 70
     0
 10
0.0
 20
0.0
 30
0.0
  3
SW_NOTE_4
  1

  0
TEXT
  5
574
  8
0
  6
CONTINUOUS
 62
     0
 10
-0.7757864468
 20
4.7375323752
 30
0.0
 40
0.5
  1
MOUNTING HOLE FOR
 41
0.6588235294
 11
-0.7757864468
 21
4.5609023442
 31
0.0
 73
     1
  0
TEXT
  5
575
  8
0
  6
CONTINUOUS
 62
     0
 10
-0.7757864468
 20
4.0800520771
 30
0.0
 40
0.5
  1
1/4-20 BOLT (4) PLACES
 41
0.6522727273
 11
-0.7757864468
 21
3.9034220462
 31
0.0
 73
     1
  0
POLYLINE
  5
576
  8
0
  6
CONTINUOUS
 62
     0
 66
     1
 10
0.0
 20
0.0
 30
0.0
  0
VERTEX
  5
A7E
  8
0
  6
CONTINUOUS
 62
     0
 10
-0.8545896068
 20
4.9631087398
 30
0.0
  0
VERTEX
  5
A7F
  8
0
  6
CONTINUOUS
 62
     0
 10
-1.8545896068
 20
4.9631087398
 30
0.0
  0
VERTEX
  5
A80
  8
0
  6
CONTINUOUS
 62
     0
 10
0.0
 20
0.0
 30
0.0
  0
SEQEND
  5
A81
  8
0
  6
CONTINUOUS
 62
     0
  0
SOLID
  5
577
  8
0
  6
CONTINUOUS
 62
     0
 10
0.0
 20
0.0
 30
0.0
 11
-0.1070792931
 21
0.5151058386
 31
0.0
 12
-0.2569571502
 22
0.459100232
 32
0.0
 13
-0.2569571502
 23
0.459100232
 33
0.0
  0
ENDBLK
  5
573
  8
0
  0
BLOCK
  8
0
  2
SW_CENTERMARKSYMBOL_2
 70
     0
 10
0.0
 20
0.0
 30
0.0
  3
SW_CENTERMARKSYMBOL_2
  1

  0
LINE
  5
57C
  8
0
  6
CONTINUOUS
 62
     0
 10
0.0
 20
0.0
 30
0.0
 11
0.0
 21
0.1
 31
0.0
  0
LINE
  5
57D
  8
0
  6
CONTINUOUS
 62
     0
 10
0.0
 20
0.0
 30
0.0
 11
-0.1
 21
0.0
 31
0.0
  0
LINE
  5
57E
  8
0
  6
CONTINUOUS
 62
     0
 10
0.0
 20
0.0
 30
0.0
 11
0.0
 21
-0.1
 31
0.0
  0
LINE
  5
57F
  8
0
  6
CONTINUOUS
 62
     0
 10
0.0
 20
0.0
 30
0.0
 11
0.1
 21
0.0
 31
0.0
  0
LINE
  5
580
  8
0
  6
CONTINUOUS
 62
     0
 10
0.0
 20
0.2
 30
0.0
 11
0.0
 21
0.3575
 31
0.0
  0
LINE
  5
581
  8
0
  6
CONTINUOUS
 62
     0
 10
-0.2
 20
0.0
 30
0.0
 11
-0.3575
 21
0.0
 31
0.0
  0
LINE
  5
582
  8
0
  6
CONTINUOUS
 62
     0
 10
0.0
 20
-0.2
 30
0.0
 11
0.0
 21
-0.3575
 31
0.0
  0
LINE
  5
583
  8
0
  6
CONTINUOUS
 62
     0
 10
0.2
 20
0.0
 30
0.0
 11
0.3575
 21
0.0
 31
0.0
  0
ENDBLK
  5
57B
  8
0
  0
BLOCK
  8
0
  2
SW_CENTERMARKSYMBOL_3
 70
     0
 10
0.0
 20
0.0
 30
0.0
  3
SW_CENTERMARKSYMBOL_3
  1

  0
LINE
  5
588
  8
0
  6
CONTINUOUS
 62
     0
 10
0.0
 20
0.0
 30
0.0
 11
0.0
 21
0.1
 31
0.0
  0
LINE
  5
589
  8
0
  6
CONTINUOUS
 62
     0
 10
0.0
 20
0.0
 30
0.0
 11
-0.1
 21
0.0
 31
0.0
  0
LINE
  5
58A
  8
0
  6
CONTINUOUS
 62
     0
 10
0.0
 20
0.0
 30
0.0
 11
0.0
 21
-0.1
 31
0.0
  0
LINE
  5
58B
  8
0
  6
CONTINUOUS
 62
     0
 10
0.0
 20
0.0
 30
0.0
 11
0.1
 21
0.0
 31
0.0
  0
LINE
  5
58C
  8
0
  6
CONTINUOUS
 62
     0
 10
0.0
 20
0.2
 30
0.0
 11
0.0
 21
0.3575
 31
0.0
  0
LINE
  5
58D
  8
0
  6
CONTINUOUS
 62
     0
 10
-0.2
 20
0.0
 30
0.0
 11
-0.3575
 21
0.0
 31
0.0
  0
LINE
  5
58E
  8
0
  6
CONTINUOUS
 62
     0
 10
0.0
 20
-0.2
 30
0.0
 11
0.0
 21
-0.3575
 31
0.0
  0
LINE
  5
58F
  8
0
  6
CONTINUOUS
 62
     0
 10
0.2
 20
0.0
 30
0.0
 11
0.3575
 21
0.0
 31
0.0
  0
ENDBLK
  5
587
  8
0
  0
BLOCK
  8
0
  2
SW_CENTERMARKSYMBOL_4
 70
     0
 10
0.0
 20
0.0
 30
0.0
  3
SW_CENTERMARKSYMBOL_4
  1

  0
LINE
  5
594
  8
0
  6
CONTINUOUS
 62
     0
 10
0.0
 20
0.0
 30
0.0
 11
0.0
 21
0.1
 31
0.0
  0
LINE
  5
595
  8
0
  6
CONTINUOUS
 62
     0
 10
0.0
 20
0.0
 30
0.0
 11
-0.1
 21
0.0
 31
0.0
  0
LINE
  5
596
  8
0
  6
CONTINUOUS
 62
     0
 10
0.0
 20
0.0
 30
0.0
 11
0.0
 21
-0.1
 31
0.0
  0
LINE
  5
597
  8
0
  6
CONTINUOUS
 62
     0
 10
0.0
 20
0.0
 30
0.0
 11
0.1
 21
0.0
 31
0.0
  0
LINE
  5
598
  8
0
  6
CONTINUOUS
 62
     0
 10
0.0
 20
0.2
 30
0.0
 11
0.0
 21
0.3575
 31
0.0
  0
LINE
  5
599
  8
0
  6
CONTINUOUS
 62
     0
 10
-0.2
 20
0.0
 30
0.0
 11
-0.3575
 21
0.0
 31
0.0
  0
LINE
  5
59A
  8
0
  6
CONTINUOUS
 62
     0
 10
0.0
 20
-0.2
 30
0.0
 11
0.0
 21
-0.3575
 31
0.0
  0
LINE
  5
59B
  8
0
  6
CONTINUOUS
 62
     0
 10
0.2
 20
0.0
 30
0.0
 11
0.3575
 21
0.0
 31
0.0
  0
ENDBLK
  5
593
  8
0
  0
BLOCK
  8
0
  2
SW_CENTERMARKSYMBOL_5
 70
     0
 10
0.0
 20
0.0
 30
0.0
  3
SW_CENTERMARKSYMBOL_5
  1

  0
LINE
  5
5A0
  8
0
  6
CONTINUOUS
 62
     0
 10
0.0
 20
0.0
 30
0.0
 11
0.0
 21
0.1
 31
0.0
  0
LINE
  5
5A1
  8
0
  6
CONTINUOUS
 62
     0
 10
0.0
 20
0.0
 30
0.0
 11
-0.1
 21
0.0
 31
0.0
  0
LINE
  5
5A2
  8
0
  6
CONTINUOUS
 62
     0
 10
0.0
 20
0.0
 30
0.0
 11
0.0
 21
-0.1
 31
0.0
  0
LINE
  5
5A3
  8
0
  6
CONTINUOUS
 62
     0
 10
0.0
 20
0.0
 30
0.0
 11
0.1
 21
0.0
 31
0.0
  0
LINE
  5
5A4
  8
0
  6
CONTINUOUS
 62
     0
 10
0.0
 20
0.2
 30
0.0
 11
0.0
 21
0.3575
 31
0.0
  0
LINE
  5
5A5
  8
0
  6
CONTINUOUS
 62
     0
 10
-0.2
 20
0.0
 30
0.0
 11
-0.3575
 21
0.0
 31
0.0
  0
LINE
  5
5A6
  8
0
  6
CONTINUOUS
 62
     0
 10
0.0
 20
-0.2
 30
0.0
 11
0.0
 21
-0.3575
 31
0.0
  0
LINE
  5
5A7
  8
0
  6
CONTINUOUS
 62
     0
 10
0.2
 20
0.0
 30
0.0
 11
0.3575
 21
0.0
 31
0.0
  0
ENDBLK
  5
59F
  8
0
  0
ENDSEC
  0
SECTION
  2
ENTITIES
  0
LINE
  5
44
  8
0
  6
CONTINUOUS
 62
     7
 10
1.2530064185
 20
42.8202926829
 30
0.0
 11
66.7570064185
 21
42.8202926829
 31
0.0
  0
LINE
  5
45
  8
0
  6
CONTINUOUS
 62
     7
 10
66.7570064185
 20
1.3162926829
 30
0.0
 11
66.7570064185
 21
42.8202926829
 31
0.0
  0
LINE
  5
46
  8
0
  6
CONTINUOUS
 62
     7
 10
66.7570064185
 20
1.3162926829
 30
0.0
 11
1.2530064185
 21
1.3162926829
 31
0.0
  0
LINE
  5
47
  8
0
  6
CONTINUOUS
 62
     7
 10
1.2530064185
 20
42.8202926829
 30
0.0
 11
1.2530064185
 21
1.3162926829
 31
0.0
  0
LINE
  5
48
  8
0
  6
CONTINUOUS
 62
     7
 10
1.0050064185
 20
43.0682926829
 30
0.0
 11
67.0050064185
 21
43.0682926829
 31
0.0
  0
LINE
  5
49
  8
0
  6
CONTINUOUS
 62
     7
 10
67.0050064185
 20
1.0682926829
 30
0.0
 11
1.0050064185
 21
1.0682926829
 31
0.0
  0
LINE
  5
4A
  8
0
  6
CONTINUOUS
 62
     7
 10
1.0050064185
 20
43.0682926829
 30
0.0
 11
1.0050064185
 21
1.0682926829
 31
0.0
  0
LINE
  5
4B
  8
0
  6
CONTINUOUS
 62
     7
 10
67.0050064185
 20
1.0682926829
 30
0.0
 11
67.0050064185
 21
43.0682926829
 31
0.0
  0
LINE
  5
4C
  8
0
  6
CONTINUOUS
 62
     7
 10
1.2530064185
 20
41.1962926829
 30
0.0
 11
66.7570064185
 21
41.1962926829
 31
0.0
  0
LINE
  5
4D
  8
0
  6
CONTINUOUS
 62
     7
 10
7.3748768828
 20
42.8202926829
 30
0.0
 11
7.3748768828
 21
41.1962926829
 31
0.0
  0
LINE
  5
4E
  8
0
  6
CONTINUOUS
 62
     7
 10
4.4433275349
 20
42.8202926829
 30
0.0
 11
4.4433275349
 21
41.1962926829
 31
0.0
  0
LINE
  5
4F
  8
0
  6
CONTINUOUS
 62
     7
 10
61.7570064185
 20
41.1962926829
 30
0.0
 11
61.7570064185
 21
42.8202926829
 31
0.0
  0
LINE
  5
50
  8
0
  6
CONTINUOUS
 62
     7
 10
58.7570064185
 20
41.1962926829
 30
0.0
 11
58.7570064185
 21
42.8202926829
 31
0.0
  0
LINE
  5
51
  8
0
  6
CONTINUOUS
 62
     7
 10
58.5090064185
 20
41.1962926829
 30
0.0
 11
58.5090064185
 21
42.8202926829
 31
0.0
  0
LINE
  5
52
  8
0
  6
CONTINUOUS
 62
     7
 10
1.7907116687
 20
41.5046404632
 30
0.0
 11
1.7907116687
 21
42.5667794796
 31
0.0
  0
LINE
  5
53
  8
0
  6
CONTINUOUS
 62
     7
 10
2.5303325773
 20
41.5710241517
 30
0.0
 11
2.5303325773
 21
42.5667794796
 31
0.0
  0
LINE
  5
54
  8
0
  6
CONTINUOUS
 62
     7
 10
2.8169356793
 20
41.6779358117
 30
0.0
 11
2.8169356793
 21
42.5667794796
 31
0.0
  0
LINE
  5
55
  8
0
  6
CONTINUOUS
 62
     7
 10
2.7244830658
 20
41.6779358117
 30
0.0
 11
2.7244830658
 21
42.5667794796
 31
0.0
  0
LINE
  5
56
  8
0
  6
CONTINUOUS
 62
     7
 10
3.228328486
 20
41.5046404632
 30
0.0
 11
3.228328486
 21
42.5667794796
 31
0.0
  0
LINE
  5
57
  8
0
  6
CONTINUOUS
 62
     7
 10
3.0110861678
 20
41.5710241517
 30
0.0
 11
3.0110861678
 21
42.5667794796
 31
0.0
  0
LINE
  5
58
  8
0
  6
CONTINUOUS
 62
     7
 10
2.5967162658
 20
41.5046404632
 30
0.0
 11
2.9447024793
 21
41.5046404632
 31
0.0
  0
LINE
  5
59
  8
0
  6
CONTINUOUS
 62
     7
 10
1.7907116687
 20
41.5046404632
 30
0.0
 11
2.1327863389
 21
41.5046404632
 31
0.0
  0
LINE
  5
5A
  8
0
  6
CONTINUOUS
 62
     7
 10
2.1327863389
 20
42.009156496
 30
0.0
 11
1.8415606062
 21
42.009156496
 31
0.0
  0
LINE
  5
5B
  8
0
  6
CONTINUOUS
 62
     7
 10
2.1327863389
 20
42.0622634468
 30
0.0
 11
1.8415606062
 21
42.0622634468
 31
0.0
  0
LINE
  5
5C
  8
0
  6
CONTINUOUS
 62
     7
 10
1.8415606062
 20
42.0622634468
 30
0.0
 11
1.8415606062
 21
42.0357099714
 31
0.0
  0
LINE
  5
5D
  8
0
  6
CONTINUOUS
 62
     7
 10
1.8415606062
 20
42.009156496
 30
0.0
 11
1.8415606062
 21
42.0357099714
 31
0.0
  0
LINE
  5
5E
  8
0
  6
CONTINUOUS
 62
     7
 10
3.228328486
 20
41.5046404632
 30
0.0
 11
3.3604465743
 21
41.5046404632
 31
0.0
  0
LINE
  5
5F
  8
0
  6
CONTINUOUS
 62
     7
 10
3.73219523
 20
41.876389119
 30
0.0
 11
3.73219523
 21
42.1950308239
 31
0.0
  0
LINE
  5
60
  8
0
  6
CONTINUOUS
 62
     7
 10
3.5368417188
 20
42.009156496
 30
0.0
 11
3.5368417188
 21
42.0622634468
 31
0.0
  0
LINE
  5
61
  8
0
  6
CONTINUOUS
 62
     7
 10
3.3716513608
 20
42.009156496
 30
0.0
 11
3.3716513608
 21
42.0622634468
 31
0.0
  0
LINE
  5
62
  8
0
  6
CONTINUOUS
 62
     7
 10
3.5368417188
 20
42.009156496
 30
0.0
 11
3.3716513608
 21
42.009156496
 31
0.0
  0
LINE
  5
63
  8
0
  6
CONTINUOUS
 62
     7
 10
3.5368417188
 20
42.0622634468
 30
0.0
 11
3.3716513608
 21
42.0622634468
 31
0.0
  0
LINE
  5
64
  8
0
  6
CONTINUOUS
 62
     7
 10
2.8169356793
 20
42.5667794796
 30
0.0
 11
3.0110861678
 21
42.5667794796
 31
0.0
  0
LINE
  5
65
  8
0
  6
CONTINUOUS
 62
     7
 10
1.7907116687
 20
42.5667794796
 30
0.0
 11
2.1327863389
 21
42.5667794796
 31
0.0
  0
LINE
  5
66
  8
0
  6
CONTINUOUS
 62
     7
 10
2.5303325773
 20
42.5667794796
 30
0.0
 11
2.7244830658
 21
42.5667794796
 31
0.0
  0
LINE
  5
67
  8
0
  6
CONTINUOUS
 62
     7
 10
3.228328486
 20
42.5667794796
 30
0.0
 11
3.3604465743
 21
42.5667794796
 31
0.0
  0
LINE
  5
68
  8
0
  6
CONTINUOUS
 62
     7
 10
4.2004001041
 20
42.8202926829
 30
0.0
 11
4.2004001041
 21
41.1962926829
 31
0.0
  0
LINE
  5
69
  8
0
  6
CONTINUOUS
 62
     7
 10
33.5327815077
 20
41.1962926829
 30
0.0
 11
33.5327815077
 21
42.8202926829
 31
0.0
  0
LINE
  5
6A
  8
0
  6
CONTINUOUS
 62
     7
 10
33.7807815077
 20
41.1962926829
 30
0.0
 11
33.7807815077
 21
42.8202926829
 31
0.0
  0
LINE
  5
6B
  8
0
  6
CONTINUOUS
 62
     7
 10
36.7807815077
 20
41.1962926829
 30
0.0
 11
36.7807815077
 21
42.8202926829
 31
0.0
  0
ARC
  5
6C
  8
0
  6
CONTINUOUS
 62
     7
 10
2.1327863389
 20
42.3145214632
 30
0.0
 40
0.2522580163943147
 50
270.0
 51
90.0
  0
ARC
  5
6D
  8
0
  6
CONTINUOUS
 62
     7
 10
3.3604465743
 20
42.1950308239
 30
0.0
 40
0.3717486557389833
 50
0.0
 51
90.0
  0
ARC
  5
6E
  8
0
  6
CONTINUOUS
 62
     7
 10
2.1327863389
 20
41.7568984796
 30
0.0
 40
0.2522580163943147
 50
270.0
 51
90.0
  0
ARC
  5
6F
  8
0
  6
CONTINUOUS
 62
     7
 10
2.5967162658
 20
41.5710241517
 30
0.0
 40
0.0663836885248372
 50
180.0
 51
270.0
  0
ARC
  5
70
  8
0
  6
CONTINUOUS
 62
     7
 10
2.7638287285
 20
41.6779358117
 30
0.0
 40
0.0531069508198489
 50
277.4442840975
 51
0.0
  0
ARC
  5
71
  8
0
  6
CONTINUOUS
 62
     7
 10
2.7775900166
 20
41.6779358117
 30
0.0
 40
0.0531069508198928
 50
180.0
 51
262.5557159021
  0
ARC
  5
72
  8
0
  6
CONTINUOUS
 62
     7
 10
3.3604465743
 20
41.876389119
 30
0.0
 40
0.3717486557389833
 50
270.0
 51
0.0
  0
ARC
  5
73
  8
0
  6
CONTINUOUS
 62
     7
 10
2.9447024793
 20
41.5710241517
 30
0.0
 40
0.066383688524823
 50
270.0
 51
0.0
  0
INSERT
  5
79
  8
0
  6
CONTINUOUS
 62
     7
  2
SW_NOTE_0
 10
5.4698780095
 20
5.9573065653
 30
0.0
  0
TEXT
  5
7A
  8
0
  6
CONTINUOUS
 62
     7
 10
62.8717882846
 20
41.735409618
 30
0.0
 40
0.75
  1
7-3-13
 41
0.7
 11
62.8717882846
 21
41.4704645716
 31
0.0
 73
     1
  0
TEXT
  5
7B
  8
0
  6
CONTINUOUS
 62
     7
 10
12.3142542899
 20
41.7462669656
 30
0.0
 40
0.75
  1
HINGED WALL MOUNT BRACKET
 41
0.658
 11
12.3142542899
 21
41.4813219192
 31
0.0
 73
     1
  0
TEXT
  5
7C
  8
0
  6
CONTINUOUS
 62
     7
 10
44.4160804264
 20
41.7462669656
 30
0.0
 40
0.75
  1
HWB-1792
 41
0.7
 11
44.4160804264
 21
41.4813219192
 31
0.0
 73
     1
  0
INSERT
  5
82
  8
0
  6
CONTINUOUS
 62
     7
  2
SW_NOTE_1
 10
5.0737364985
 20
42.0245529426
 30
0.0
  0
INSERT
  5
88
  8
0
  6
CONTINUOUS
 62
     7
  2
SW_NOTE_2
 10
34.5753860919
 20
41.9951514141
 30
0.0
  0
INSERT
  5
8E
  8
0
  6
CONTINUOUS
 62
     7
  2
SW_NOTE_3
 10
58.8345545097
 20
42.013534109
 30
0.0
  0
LINE
  5
8F
  8
0
  6
CONTINUOUS
 62
     7
 10
44.1853516314
 20
37.3865364405
 30
0.0
 11
44.1853516314
 21
36.986431405
 31
0.0
  0
LINE
  5
90
  8
0
  6
CONTINUOUS
 62
     7
 10
44.1853516314
 20
36.5699956984
 30
0.0
 11
44.1853516314
 21
36.1698906629
 31
0.0
  0
LINE
  5
91
  8
0
  6
CONTINUOUS
 62
     7
 10
44.1853516314
 20
35.7534549562
 30
0.0
 11
44.1853516314
 21
35.3533499207
 31
0.0
  0
LINE
  5
92
  8
0
  6
CONTINUOUS
 62
     7
 10
44.1853516314
 20
34.9369142141
 30
0.0
 11
44.1853516314
 21
34.5368091786
 31
0.0
  0
LINE
  5
93
  8
0
  6
CONTINUOUS
 62
     7
 10
44.1853516314
 20
34.120373472
 30
0.0
 11
44.1853516314
 21
33.7202683167
 31
0.0
  0
LINE
  5
94
  8
0
  6
CONTINUOUS
 62
     7
 10
44.1853516314
 20
33.3038324903
 30
0.0
 11
44.1853516314
 21
32.9037275746
 31
0.0
  0
LINE
  5
95
  8
0
  6
CONTINUOUS
 62
     7
 10
44.1853516314
 20
32.4872917182
 30
0.0
 11
44.1853516314
 21
32.0835122997
 31
0.0
  0
LINE
  5
96
  8
0
  6
CONTINUOUS
 62
     7
 10
44.1853516314
 20
37.7992979737
 30
0.0
 11
44.1853516314
 21
37.3955187647
 31
0.0
  0
LINE
  5
97
  8
0
  6
CONTINUOUS
 62
     7
 10
44.1853516314
 20
36.9790825791
 30
0.0
 11
44.1853516314
 21
36.5789775435
 31
0.0
  0
LINE
  5
98
  8
0
  6
CONTINUOUS
 62
     7
 10
44.1853516314
 20
36.1625418369
 30
0.0
 11
44.1853516314
 21
35.7624370409
 31
0.0
  0
LINE
  5
99
  8
0
  6
CONTINUOUS
 62
     7
 10
44.1853516314
 20
35.3460010948
 30
0.0
 11
44.1853516314
 21
34.9458960593
 31
0.0
  0
LINE
  5
9A
  8
0
  6
CONTINUOUS
 62
     7
 10
44.1853516314
 20
34.5294603526
 30
0.0
 11
44.1853516314
 21
34.1293553171
 31
0.0
  0
LINE
  5
9B
  8
0
  6
CONTINUOUS
 62
     7
 10
44.1853516314
 20
33.7129194907
 30
0.0
 11
44.1853516314
 21
33.3128144552
 31
0.0
  0
LINE
  5
9C
  8
0
  6
CONTINUOUS
 62
     7
 10
44.1853516314
 20
32.8963786887
 30
0.0
 11
44.1853516314
 21
32.4962736832
 31
0.0
  0
LINE
  5
9D
  8
0
  6
CONTINUOUS
 62
     7
 10
61.3712992226
 20
30.949861929
 30
0.0
 11
61.3712992226
 21
32.0599490116
 31
0.0
  0
LINE
  5
9E
  8
0
  6
CONTINUOUS
 62
     7
 10
61.3712992226
 20
27.6836984814
 30
0.0
 11
61.3712992226
 21
30.7204138679
 31
0.0
  0
LINE
  5
9F
  8
0
  6
CONTINUOUS
 62
     7
 10
61.3712992226
 20
26.3441633376
 30
0.0
 11
61.3712992226
 21
27.45425054
 31
0.0
  0
LINE
  5
A0
  8
0
  6
CONTINUOUS
 62
     7
 10
56.4859315466
 20
32.3102979693
 30
0.0
 11
56.4435051375
 21
32.2858057247
 31
0.0
  0
LINE
  5
A1
  8
0
  6
CONTINUOUS
 62
     7
 10
56.9979602042
 20
31.3253574315
 30
0.0
 11
57.0403866133
 21
31.3498496761
 31
0.0
  0
LINE
  5
A2
  8
0
  6
CONTINUOUS
 62
     7
 10
54.3646112286
 20
33.5349101222
 30
0.0
 11
54.3221848196
 21
33.5104178776
 31
0.0
  0
LINE
  5
A3
  8
0
  6
CONTINUOUS
 62
     7
 10
54.8766397826
 20
32.5499696443
 30
0.0
 11
54.9190661917
 21
32.5744618889
 31
0.0
  0
LINE
  5
A4
  8
0
  6
CONTINUOUS
 62
     7
 10
52.243290807
 20
34.759522335
 30
0.0
 11
52.2008643979
 21
34.7350300904
 31
0.0
  0
LINE
  5
A5
  8
0
  6
CONTINUOUS
 62
     7
 10
52.7553194647
 20
33.7745817972
 30
0.0
 11
52.7977458738
 21
33.7990740418
 31
0.0
  0
LINE
  5
A6
  8
0
  6
CONTINUOUS
 62
     7
 10
45.0089230373
 20
38.1074921114
 30
0.0
 11
44.4835426588
 21
37.8041964746
 31
0.0
  0
LINE
  5
A7
  8
0
  6
CONTINUOUS
 62
     7
 10
44.441116214
 20
32.0639185354
 30
0.0
 11
44.3902043974
 21
32.0345277693
 31
0.0
  0
LINE
  5
A8
  8
0
  6
CONTINUOUS
 62
     7
 10
44.3902043974
 20
32.0345277693
 30
0.0
 11
44.3902043974
 21
32.4383071878
 31
0.0
  0
LINE
  5
A9
  8
0
  6
CONTINUOUS
 62
     7
 10
44.3902043974
 20
32.4383071878
 30
0.0
 11
44.4404105862
 21
32.4672906037
 31
0.0
  0
LINE
  5
AA
  8
0
  6
CONTINUOUS
 62
     7
 10
44.441116214
 20
32.8841338103
 30
0.0
 11
44.3902043974
 21
32.8547430441
 31
0.0
  0
LINE
  5
AB
  8
0
  6
CONTINUOUS
 62
     7
 10
44.3902043974
 20
32.8547430441
 30
0.0
 11
44.3902043974
 21
33.2548479599
 31
0.0
  0
LINE
  5
AC
  8
0
  6
CONTINUOUS
 62
     7
 10
44.3902043974
 20
33.2548479599
 30
0.0
 11
44.4404105862
 21
33.2838313757
 31
0.0
  0
LINE
  5
AD
  8
0
  6
CONTINUOUS
 62
     7
 10
44.441116214
 20
33.7006745524
 30
0.0
 11
44.3902043974
 21
33.6712837863
 31
0.0
  0
LINE
  5
AE
  8
0
  6
CONTINUOUS
 62
     7
 10
44.3902043974
 20
33.6712837863
 30
0.0
 11
44.3902043974
 21
34.0713889415
 31
0.0
  0
LINE
  5
AF
  8
0
  6
CONTINUOUS
 62
     7
 10
44.3902043974
 20
34.0713889415
 30
0.0
 11
44.4404105862
 21
34.1003723574
 31
0.0
  0
LINE
  5
B0
  8
0
  6
CONTINUOUS
 62
     7
 10
44.441116214
 20
34.5172154143
 30
0.0
 11
44.3902043974
 21
34.4878246482
 31
0.0
  0
LINE
  5
B1
  8
0
  6
CONTINUOUS
 62
     7
 10
44.3902043974
 20
34.4878246482
 30
0.0
 11
44.3902043974
 21
34.8879296837
 31
0.0
  0
LINE
  5
B2
  8
0
  6
CONTINUOUS
 62
     7
 10
44.3902043974
 20
34.8879296837
 30
0.0
 11
44.4404105862
 21
34.9169130995
 31
0.0
  0
LINE
  5
B3
  8
0
  6
CONTINUOUS
 62
     7
 10
44.441116214
 20
35.3337561565
 30
0.0
 11
44.3902043974
 21
35.3043653903
 31
0.0
  0
LINE
  5
B4
  8
0
  6
CONTINUOUS
 62
     7
 10
44.3902043974
 20
35.3043653903
 30
0.0
 11
44.3902043974
 21
35.7044704258
 31
0.0
  0
LINE
  5
B5
  8
0
  6
CONTINUOUS
 62
     7
 10
44.3902043974
 20
35.7044704258
 30
0.0
 11
44.4404105862
 21
35.7334538417
 31
0.0
  0
LINE
  5
B6
  8
0
  6
CONTINUOUS
 62
     7
 10
44.441116214
 20
36.1502968986
 30
0.0
 11
44.3902043974
 21
36.1209061325
 31
0.0
  0
LINE
  5
B7
  8
0
  6
CONTINUOUS
 62
     7
 10
44.3902043974
 20
36.1209061325
 30
0.0
 11
44.3902043974
 21
36.521011168
 31
0.0
  0
LINE
  5
B8
  8
0
  6
CONTINUOUS
 62
     7
 10
44.3902043974
 20
36.521011168
 30
0.0
 11
44.4404105862
 21
36.5499945838
 31
0.0
  0
LINE
  5
B9
  8
0
  6
CONTINUOUS
 62
     7
 10
44.441116214
 20
36.9668376407
 30
0.0
 11
44.3902043974
 21
36.9374468746
 31
0.0
  0
LINE
  5
BA
  8
0
  6
CONTINUOUS
 62
     7
 10
44.3902043974
 20
36.9374468746
 30
0.0
 11
44.3902043974
 21
37.3375519101
 31
0.0
  0
LINE
  5
BB
  8
0
  6
CONTINUOUS
 62
     7
 10
44.3902043974
 20
37.3375519101
 30
0.0
 11
44.4404105862
 21
37.366535326
 31
0.0
  0
LINE
  5
BC
  8
0
  6
CONTINUOUS
 62
     7
 10
44.4835426588
 20
37.7943997965
 30
0.0
 11
44.4835426588
 21
37.8041964746
 31
0.0
  0
LINE
  5
BD
  8
0
  6
CONTINUOUS
 62
     7
 10
44.9664965926
 20
38.1319843766
 30
0.0
 11
44.441116214
 21
37.8286887398
 31
0.0
  0
LINE
  5
BE
  8
0
  6
CONTINUOUS
 62
     7
 10
45.0089230373
 20
38.1074921114
 30
0.0
 11
44.9664965926
 21
38.1319843766
 31
0.0
  0
LINE
  5
BF
  8
0
  6
CONTINUOUS
 62
     7
 10
44.4835426588
 20
37.8041964746
 30
0.0
 11
44.441116214
 21
37.8286887398
 31
0.0
  0
LINE
  5
C0
  8
0
  6
CONTINUOUS
 62
     7
 10
44.441116214
 20
37.8188920617
 30
0.0
 11
44.441116214
 21
37.8286887398
 31
0.0
  0
POLYLINE
  5
C1
  8
0
  6
CONTINUOUS
 62
     7
 66
     1
 10
0.0
 20
0.0
 30
0.0
  0
VERTEX
  5
5A9
  8
0
  6
CONTINUOUS
 62
     7
 10
44.3902043974
 20
37.3375519101
 30
0.0
  0
VERTEX
  5
5AA
  8
0
  6
CONTINUOUS
 62
     7
 10
44.3560658649
 20
37.32375253
 30
0.0
  0
VERTEX
  5
5AB
  8
0
  6
CONTINUOUS
 62
     7
 10
44.3158106466
 20
37.3175256505
 30
0.0
  0
VERTEX
  5
5AC
  8
0
  6
CONTINUOUS
 62
     7
 10
44.2742935119
 20
37.3196225106
 30
0.0
  0
VERTEX
  5
5AD
  8
0
  6
CONTINUOUS
 62
     7
 10
44.2365227175
 20
37.3297899833
 30
0.0
  0
VERTEX
  5
5AE
  8
0
  6
CONTINUOUS
 62
     7
 10
44.2070535249
 20
37.3468021861
 30
0.0
  0
VERTEX
  5
5AF
  8
0
  6
CONTINUOUS
 62
     7
 10
44.1894406224
 20
37.368607041
 30
0.0
  0
VERTEX
  5
5B0
  8
0
  6
CONTINUOUS
 62
     7
 10
44.1856042636
 20
37.3910273517
 30
0.0
  0
SEQEND
  5
5B1
  8
0
  6
CONTINUOUS
 62
     7
  0
POLYLINE
  5
C2
  8
0
  6
CONTINUOUS
 62
     7
 66
     1
 10
0.0
 20
0.0
 30
0.0
  0
VERTEX
  5
5B2
  8
0
  6
CONTINUOUS
 62
     7
 10
44.1853516314
 20
36.986431405
 30
0.0
  0
VERTEX
  5
5B3
  8
0
  6
CONTINUOUS
 62
     7
 10
44.1894406224
 20
36.9685020055
 30
0.0
  0
VERTEX
  5
5B4
  8
0
  6
CONTINUOUS
 62
     7
 10
44.2070535249
 20
36.9466971506
 30
0.0
  0
VERTEX
  5
5B5
  8
0
  6
CONTINUOUS
 62
     7
 10
44.2365227175
 20
36.9296849478
 30
0.0
  0
VERTEX
  5
5B6
  8
0
  6
CONTINUOUS
 62
     7
 10
44.2742935119
 20
36.9195174751
 30
0.0
  0
VERTEX
  5
5B7
  8
0
  6
CONTINUOUS
 62
     7
 10
44.3158106466
 20
36.917420615
 30
0.0
  0
VERTEX
  5
5B8
  8
0
  6
CONTINUOUS
 62
     7
 10
44.3560658649
 20
36.9236474945
 30
0.0
  0
VERTEX
  5
5B9
  8
0
  6
CONTINUOUS
 62
     7
 10
44.3902043974
 20
36.9374468746
 30
0.0
  0
SEQEND
  5
5BA
  8
0
  6
CONTINUOUS
 62
     7
  0
POLYLINE
  5
C3
  8
0
  6
CONTINUOUS
 62
     7
 66
     1
 10
0.0
 20
0.0
 30
0.0
  0
VERTEX
  5
5BB
  8
0
  6
CONTINUOUS
 62
     7
 10
44.1853516314
 20
36.1698906629
 30
0.0
  0
VERTEX
  5
5BC
  8
0
  6
CONTINUOUS
 62
     7
 10
44.1894406224
 20
36.1519612634
 30
0.0
  0
VERTEX
  5
5BD
  8
0
  6
CONTINUOUS
 62
     7
 10
44.2070535249
 20
36.1301564085
 30
0.0
  0
VERTEX
  5
5BE
  8
0
  6
CONTINUOUS
 62
     7
 10
44.2365227175
 20
36.1131442057
 30
0.0
  0
VERTEX
  5
5BF
  8
0
  6
CONTINUOUS
 62
     7
 10
44.2742935119
 20
36.102976733
 30
0.0
  0
VERTEX
  5
5C0
  8
0
  6
CONTINUOUS
 62
     7
 10
44.3158106466
 20
36.1008798728
 30
0.0
  0
VERTEX
  5
5C1
  8
0
  6
CONTINUOUS
 62
     7
 10
44.3560658649
 20
36.1071067524
 30
0.0
  0
VERTEX
  5
5C2
  8
0
  6
CONTINUOUS
 62
     7
 10
44.3902043974
 20
36.1209061325
 30
0.0
  0
SEQEND
  5
5C3
  8
0
  6
CONTINUOUS
 62
     7
  0
POLYLINE
  5
C4
  8
0
  6
CONTINUOUS
 62
     7
 66
     1
 10
0.0
 20
0.0
 30
0.0
  0
VERTEX
  5
5C4
  8
0
  6
CONTINUOUS
 62
     7
 10
44.3902043974
 20
36.521011168
 30
0.0
  0
VERTEX
  5
5C5
  8
0
  6
CONTINUOUS
 62
     7
 10
44.3560658649
 20
36.5072117879
 30
0.0
  0
VERTEX
  5
5C6
  8
0
  6
CONTINUOUS
 62
     7
 10
44.3158106466
 20
36.5009849083
 30
0.0
  0
VERTEX
  5
5C7
  8
0
  6
CONTINUOUS
 62
     7
 10
44.2742935119
 20
36.5030817685
 30
0.0
  0
VERTEX
  5
5C8
  8
0
  6
CONTINUOUS
 62
     7
 10
44.2365227175
 20
36.5132492412
 30
0.0
  0
VERTEX
  5
5C9
  8
0
  6
CONTINUOUS
 62
     7
 10
44.2070535249
 20
36.530261444
 30
0.0
  0
VERTEX
  5
5CA
  8
0
  6
CONTINUOUS
 62
     7
 10
44.1894406224
 20
36.5520662989
 30
0.0
  0
VERTEX
  5
5CB
  8
0
  6
CONTINUOUS
 62
     7
 10
44.1856042636
 20
36.5744866096
 30
0.0
  0
SEQEND
  5
5CC
  8
0
  6
CONTINUOUS
 62
     7
  0
POLYLINE
  5
C5
  8
0
  6
CONTINUOUS
 62
     7
 66
     1
 10
0.0
 20
0.0
 30
0.0
  0
VERTEX
  5
5CD
  8
0
  6
CONTINUOUS
 62
     7
 10
44.3902043974
 20
35.7044704258
 30
0.0
  0
VERTEX
  5
5CE
  8
0
  6
CONTINUOUS
 62
     7
 10
44.3560658649
 20
35.6906710457
 30
0.0
  0
VERTEX
  5
5CF
  8
0
  6
CONTINUOUS
 62
     7
 10
44.3158106466
 20
35.6844441662
 30
0.0
  0
VERTEX
  5
5D0
  8
0
  6
CONTINUOUS
 62
     7
 10
44.2742935119
 20
35.6865410263
 30
0.0
  0
VERTEX
  5
5D1
  8
0
  6
CONTINUOUS
 62
     7
 10
44.2365227175
 20
35.696708499
 30
0.0
  0
VERTEX
  5
5D2
  8
0
  6
CONTINUOUS
 62
     7
 10
44.2070535249
 20
35.7137207018
 30
0.0
  0
VERTEX
  5
5D3
  8
0
  6
CONTINUOUS
 62
     7
 10
44.1894406224
 20
35.7355255567
 30
0.0
  0
VERTEX
  5
5D4
  8
0
  6
CONTINUOUS
 62
     7
 10
44.1856042636
 20
35.7579463464
 30
0.0
  0
SEQEND
  5
5D5
  8
0
  6
CONTINUOUS
 62
     7
  0
POLYLINE
  5
C6
  8
0
  6
CONTINUOUS
 62
     7
 66
     1
 10
0.0
 20
0.0
 30
0.0
  0
VERTEX
  5
5D6
  8
0
  6
CONTINUOUS
 62
     7
 10
44.1853516314
 20
35.3533499207
 30
0.0
  0
VERTEX
  5
5D7
  8
0
  6
CONTINUOUS
 62
     7
 10
44.1894406224
 20
35.3354205212
 30
0.0
  0
VERTEX
  5
5D8
  8
0
  6
CONTINUOUS
 62
     7
 10
44.2070535249
 20
35.3136156663
 30
0.0
  0
VERTEX
  5
5D9
  8
0
  6
CONTINUOUS
 62
     7
 10
44.2365227175
 20
35.2966034635
 30
0.0
  0
VERTEX
  5
5DA
  8
0
  6
CONTINUOUS
 62
     7
 10
44.2742935119
 20
35.2864359908
 30
0.0
  0
VERTEX
  5
5DB
  8
0
  6
CONTINUOUS
 62
     7
 10
44.3158106466
 20
35.2843391307
 30
0.0
  0
VERTEX
  5
5DC
  8
0
  6
CONTINUOUS
 62
     7
 10
44.3560658649
 20
35.2905660102
 30
0.0
  0
VERTEX
  5
5DD
  8
0
  6
CONTINUOUS
 62
     7
 10
44.3902043974
 20
35.3043653903
 30
0.0
  0
SEQEND
  5
5DE
  8
0
  6
CONTINUOUS
 62
     7
  0
POLYLINE
  5
C7
  8
0
  6
CONTINUOUS
 62
     7
 66
     1
 10
0.0
 20
0.0
 30
0.0
  0
VERTEX
  5
5DF
  8
0
  6
CONTINUOUS
 62
     7
 10
44.3902043974
 20
34.8879296837
 30
0.0
  0
VERTEX
  5
5E0
  8
0
  6
CONTINUOUS
 62
     7
 10
44.3560658649
 20
34.8741303036
 30
0.0
  0
VERTEX
  5
5E1
  8
0
  6
CONTINUOUS
 62
     7
 10
44.3158106466
 20
34.867903424
 30
0.0
  0
VERTEX
  5
5E2
  8
0
  6
CONTINUOUS
 62
     7
 10
44.2742935119
 20
34.8700002842
 30
0.0
  0
VERTEX
  5
5E3
  8
0
  6
CONTINUOUS
 62
     7
 10
44.2365227175
 20
34.8801677569
 30
0.0
  0
VERTEX
  5
5E4
  8
0
  6
CONTINUOUS
 62
     7
 10
44.2070535249
 20
34.8971799597
 30
0.0
  0
VERTEX
  5
5E5
  8
0
  6
CONTINUOUS
 62
     7
 10
44.1894406224
 20
34.9189848146
 30
0.0
  0
VERTEX
  5
5E6
  8
0
  6
CONTINUOUS
 62
     7
 10
44.1856042636
 20
34.9414051253
 30
0.0
  0
SEQEND
  5
5E7
  8
0
  6
CONTINUOUS
 62
     7
  0
POLYLINE
  5
C8
  8
0
  6
CONTINUOUS
 62
     7
 66
     1
 10
0.0
 20
0.0
 30
0.0
  0
VERTEX
  5
5E8
  8
0
  6
CONTINUOUS
 62
     7
 10
44.1853516314
 20
34.5368091786
 30
0.0
  0
VERTEX
  5
5E9
  8
0
  6
CONTINUOUS
 62
     7
 10
44.1894406224
 20
34.5188797791
 30
0.0
  0
VERTEX
  5
5EA
  8
0
  6
CONTINUOUS
 62
     7
 10
44.2070535249
 20
34.4970749242
 30
0.0
  0
VERTEX
  5
5EB
  8
0
  6
CONTINUOUS
 62
     7
 10
44.2365227175
 20
34.4800627214
 30
0.0
  0
VERTEX
  5
5EC
  8
0
  6
CONTINUOUS
 62
     7
 10
44.2742935119
 20
34.4698952487
 30
0.0
  0
VERTEX
  5
5ED
  8
0
  6
CONTINUOUS
 62
     7
 10
44.3158106466
 20
34.4677983885
 30
0.0
  0
VERTEX
  5
5EE
  8
0
  6
CONTINUOUS
 62
     7
 10
44.3560658649
 20
34.4740252681
 30
0.0
  0
VERTEX
  5
5EF
  8
0
  6
CONTINUOUS
 62
     7
 10
44.3902043974
 20
34.4878246482
 30
0.0
  0
SEQEND
  5
5F0
  8
0
  6
CONTINUOUS
 62
     7
  0
POLYLINE
  5
C9
  8
0
  6
CONTINUOUS
 62
     7
 66
     1
 10
0.0
 20
0.0
 30
0.0
  0
VERTEX
  5
5F1
  8
0
  6
CONTINUOUS
 62
     7
 10
44.1853516314
 20
33.7202683167
 30
0.0
  0
VERTEX
  5
5F2
  8
0
  6
CONTINUOUS
 62
     7
 10
44.1894406224
 20
33.7023389172
 30
0.0
  0
VERTEX
  5
5F3
  8
0
  6
CONTINUOUS
 62
     7
 10
44.2070535249
 20
33.6805340623
 30
0.0
  0
VERTEX
  5
5F4
  8
0
  6
CONTINUOUS
 62
     7
 10
44.2365227175
 20
33.6635218595
 30
0.0
  0
VERTEX
  5
5F5
  8
0
  6
CONTINUOUS
 62
     7
 10
44.2742935119
 20
33.6533543868
 30
0.0
  0
VERTEX
  5
5F6
  8
0
  6
CONTINUOUS
 62
     7
 10
44.3158106466
 20
33.6512575266
 30
0.0
  0
VERTEX
  5
5F7
  8
0
  6
CONTINUOUS
 62
     7
 10
44.3560658649
 20
33.6574844062
 30
0.0
  0
VERTEX
  5
5F8
  8
0
  6
CONTINUOUS
 62
     7
 10
44.3902043974
 20
33.6712837863
 30
0.0
  0
SEQEND
  5
5F9
  8
0
  6
CONTINUOUS
 62
     7
  0
POLYLINE
  5
CA
  8
0
  6
CONTINUOUS
 62
     7
 66
     1
 10
0.0
 20
0.0
 30
0.0
  0
VERTEX
  5
5FA
  8
0
  6
CONTINUOUS
 62
     7
 10
44.3902043974
 20
34.0713889415
 30
0.0
  0
VERTEX
  5
5FB
  8
0
  6
CONTINUOUS
 62
     7
 10
44.3560658649
 20
34.0575895615
 30
0.0
  0
VERTEX
  5
5FC
  8
0
  6
CONTINUOUS
 62
     7
 10
44.3158106466
 20
34.0513626819
 30
0.0
  0
VERTEX
  5
5FD
  8
0
  6
CONTINUOUS
 62
     7
 10
44.2742935119
 20
34.053459542
 30
0.0
  0
VERTEX
  5
5FE
  8
0
  6
CONTINUOUS
 62
     7
 10
44.2365227175
 20
34.0636270148
 30
0.0
  0
VERTEX
  5
5FF
  8
0
  6
CONTINUOUS
 62
     7
 10
44.2070535249
 20
34.0806392175
 30
0.0
  0
VERTEX
  5
600
  8
0
  6
CONTINUOUS
 62
     7
 10
44.1894406224
 20
34.1024440725
 30
0.0
  0
VERTEX
  5
601
  8
0
  6
CONTINUOUS
 62
     7
 10
44.1856042636
 20
34.1248643831
 30
0.0
  0
SEQEND
  5
602
  8
0
  6
CONTINUOUS
 62
     7
  0
POLYLINE
  5
CB
  8
0
  6
CONTINUOUS
 62
     7
 66
     1
 10
0.0
 20
0.0
 30
0.0
  0
VERTEX
  5
603
  8
0
  6
CONTINUOUS
 62
     7
 10
44.1853516314
 20
32.9037275746
 30
0.0
  0
VERTEX
  5
604
  8
0
  6
CONTINUOUS
 62
     7
 10
44.1894406224
 20
32.8857981751
 30
0.0
  0
VERTEX
  5
605
  8
0
  6
CONTINUOUS
 62
     7
 10
44.2070535249
 20
32.8639933201
 30
0.0
  0
VERTEX
  5
606
  8
0
  6
CONTINUOUS
 62
     7
 10
44.2365227175
 20
32.8469811174
 30
0.0
  0
VERTEX
  5
607
  8
0
  6
CONTINUOUS
 62
     7
 10
44.2742935119
 20
32.8368136446
 30
0.0
  0
VERTEX
  5
608
  8
0
  6
CONTINUOUS
 62
     7
 10
44.3158106466
 20
32.8347167845
 30
0.0
  0
VERTEX
  5
609
  8
0
  6
CONTINUOUS
 62
     7
 10
44.3560658649
 20
32.8409436641
 30
0.0
  0
VERTEX
  5
60A
  8
0
  6
CONTINUOUS
 62
     7
 10
44.3902043974
 20
32.8547430441
 30
0.0
  0
SEQEND
  5
60B
  8
0
  6
CONTINUOUS
 62
     7
  0
POLYLINE
  5
CC
  8
0
  6
CONTINUOUS
 62
     7
 66
     1
 10
0.0
 20
0.0
 30
0.0
  0
VERTEX
  5
60C
  8
0
  6
CONTINUOUS
 62
     7
 10
44.3902043974
 20
33.2548479599
 30
0.0
  0
VERTEX
  5
60D
  8
0
  6
CONTINUOUS
 62
     7
 10
44.3560658649
 20
33.2410485798
 30
0.0
  0
VERTEX
  5
60E
  8
0
  6
CONTINUOUS
 62
     7
 10
44.3158106466
 20
33.2348217002
 30
0.0
  0
VERTEX
  5
60F
  8
0
  6
CONTINUOUS
 62
     7
 10
44.2742935119
 20
33.2369185604
 30
0.0
  0
VERTEX
  5
610
  8
0
  6
CONTINUOUS
 62
     7
 10
44.2365227175
 20
33.2470860331
 30
0.0
  0
VERTEX
  5
611
  8
0
  6
CONTINUOUS
 62
     7
 10
44.2070535249
 20
33.2640982359
 30
0.0
  0
VERTEX
  5
612
  8
0
  6
CONTINUOUS
 62
     7
 10
44.1894406224
 20
33.2859030908
 30
0.0
  0
VERTEX
  5
613
  8
0
  6
CONTINUOUS
 62
     7
 10
44.1856042636
 20
33.3083234015
 30
0.0
  0
SEQEND
  5
614
  8
0
  6
CONTINUOUS
 62
     7
  0
POLYLINE
  5
CD
  8
0
  6
CONTINUOUS
 62
     7
 66
     1
 10
0.0
 20
0.0
 30
0.0
  0
VERTEX
  5
615
  8
0
  6
CONTINUOUS
 62
     7
 10
44.3902043974
 20
32.0345277693
 30
0.0
  0
VERTEX
  5
616
  8
0
  6
CONTINUOUS
 62
     7
 10
44.3560658649
 20
32.0207283892
 30
0.0
  0
VERTEX
  5
617
  8
0
  6
CONTINUOUS
 62
     7
 10
44.3158106466
 20
32.0145015096
 30
0.0
  0
VERTEX
  5
618
  8
0
  6
CONTINUOUS
 62
     7
 10
44.2742935119
 20
32.0165983698
 30
0.0
  0
VERTEX
  5
619
  8
0
  6
CONTINUOUS
 62
     7
 10
44.2365227175
 20
32.0267658425
 30
0.0
  0
VERTEX
  5
61A
  8
0
  6
CONTINUOUS
 62
     7
 10
44.2070535249
 20
32.0437780453
 30
0.0
  0
VERTEX
  5
61B
  8
0
  6
CONTINUOUS
 62
     7
 10
44.1894406224
 20
32.0655829002
 30
0.0
  0
VERTEX
  5
61C
  8
0
  6
CONTINUOUS
 62
     7
 10
44.1853516314
 20
32.0835122997
 30
0.0
  0
SEQEND
  5
61D
  8
0
  6
CONTINUOUS
 62
     7
  0
POLYLINE
  5
CE
  8
0
  6
CONTINUOUS
 62
     7
 66
     1
 10
0.0
 20
0.0
 30
0.0
  0
VERTEX
  5
61E
  8
0
  6
CONTINUOUS
 62
     7
 10
44.3902043974
 20
32.4383071878
 30
0.0
  0
VERTEX
  5
61F
  8
0
  6
CONTINUOUS
 62
     7
 10
44.3560658649
 20
32.4245078077
 30
0.0
  0
VERTEX
  5
620
  8
0
  6
CONTINUOUS
 62
     7
 10
44.3158106466
 20
32.4182809282
 30
0.0
  0
VERTEX
  5
621
  8
0
  6
CONTINUOUS
 62
     7
 10
44.2742935119
 20
32.4203777883
 30
0.0
  0
VERTEX
  5
622
  8
0
  6
CONTINUOUS
 62
     7
 10
44.2365227175
 20
32.430545261
 30
0.0
  0
VERTEX
  5
623
  8
0
  6
CONTINUOUS
 62
     7
 10
44.2070535249
 20
32.4475574638
 30
0.0
  0
VERTEX
  5
624
  8
0
  6
CONTINUOUS
 62
     7
 10
44.1894406224
 20
32.4693623187
 30
0.0
  0
VERTEX
  5
625
  8
0
  6
CONTINUOUS
 62
     7
 10
44.1856042636
 20
32.4917826294
 30
0.0
  0
SEQEND
  5
626
  8
0
  6
CONTINUOUS
 62
     7
  0
LINE
  5
CF
  8
0
  6
CONTINUOUS
 62
     7
 10
44.8526523961
 20
37.5323324266
 30
0.0
 11
44.8950788408
 21
37.5568246918
 31
0.0
  0
LINE
  5
D0
  8
0
  6
CONTINUOUS
 62
     7
 10
44.8526523961
 20
37.5323324266
 30
0.0
 11
44.4212628083
 21
37.7813683347
 31
0.0
  0
POLYLINE
  5
D1
  8
0
  6
CONTINUOUS
 62
     7
 66
     1
 10
0.0
 20
0.0
 30
0.0
  0
VERTEX
  5
627
  8
0
  6
CONTINUOUS
 62
     7
 10
44.4212628083
 20
37.7813683347
 30
0.0
  0
VERTEX
  5
628
  8
0
  6
CONTINUOUS
 62
     7
 10
44.4036503206
 20
37.7595637193
 30
0.0
  0
VERTEX
  5
629
  8
0
  6
CONTINUOUS
 62
     7
 10
44.374181128
 20
37.7425515165
 30
0.0
  0
VERTEX
  5
62A
  8
0
  6
CONTINUOUS
 62
     7
 10
44.3364099188
 20
37.7323838043
 30
0.0
  0
VERTEX
  5
62B
  8
0
  6
CONTINUOUS
 62
     7
 10
44.2948931989
 20
37.7302871836
 30
0.0
  0
VERTEX
  5
62C
  8
0
  6
CONTINUOUS
 62
     7
 10
44.2546375658
 20
37.7365138237
 30
0.0
  0
VERTEX
  5
62D
  8
0
  6
CONTINUOUS
 62
     7
 10
44.2204990333
 20
37.7503136827
 30
0.0
  0
VERTEX
  5
62E
  8
0
  6
CONTINUOUS
 62
     7
 10
44.196594801
 20
37.7700211986
 30
0.0
  0
VERTEX
  5
62F
  8
0
  6
CONTINUOUS
 62
     7
 10
44.1858083605
 20
37.7932605204
 30
0.0
  0
VERTEX
  5
630
  8
0
  6
CONTINUOUS
 62
     7
 10
44.1894406224
 20
37.8172273732
 30
0.0
  0
VERTEX
  5
631
  8
0
  6
CONTINUOUS
 62
     7
 10
44.2070535249
 20
37.8390322281
 30
0.0
  0
VERTEX
  5
632
  8
0
  6
CONTINUOUS
 62
     7
 10
44.2365227175
 20
37.8560444309
 30
0.0
  0
VERTEX
  5
633
  8
0
  6
CONTINUOUS
 62
     7
 10
44.2742935119
 20
37.8662119036
 30
0.0
  0
VERTEX
  5
634
  8
0
  6
CONTINUOUS
 62
     7
 10
44.3158102318
 20
37.8683090032
 30
0.0
  0
VERTEX
  5
635
  8
0
  6
CONTINUOUS
 62
     7
 10
44.3560658649
 20
37.8620818842
 30
0.0
  0
VERTEX
  5
636
  8
0
  6
CONTINUOUS
 62
     7
 10
44.3902043974
 20
37.8482825041
 30
0.0
  0
SEQEND
  5
637
  8
0
  6
CONTINUOUS
 62
     7
  0
LINE
  5
D2
  8
0
  6
CONTINUOUS
 62
     7
 10
44.8950788408
 20
37.5568246918
 30
0.0
 11
44.3902043974
 21
37.8482825041
 31
0.0
  0
POLYLINE
  5
D3
  8
0
  6
CONTINUOUS
 62
     7
 66
     1
 10
0.0
 20
0.0
 30
0.0
  0
VERTEX
  5
638
  8
0
  6
CONTINUOUS
 62
     7
 10
44.2629250632
 20
37.7748057085
 30
0.0
  0
VERTEX
  5
639
  8
0
  6
CONTINUOUS
 62
     7
 10
44.2499192759
 20
37.7860429247
 30
0.0
  0
VERTEX
  5
63A
  8
0
  6
CONTINUOUS
 62
     7
 10
44.2453519845
 20
37.7992979737
 30
0.0
  0
VERTEX
  5
63B
  8
0
  6
CONTINUOUS
 62
     7
 10
44.2499192759
 20
37.8125530227
 30
0.0
  0
VERTEX
  5
63C
  8
0
  6
CONTINUOUS
 62
     7
 10
44.2629250632
 20
37.8237902389
 30
0.0
  0
VERTEX
  5
63D
  8
0
  6
CONTINUOUS
 62
     7
 10
44.2823910166
 20
37.8312985596
 30
0.0
  0
VERTEX
  5
63E
  8
0
  6
CONTINUOUS
 62
     7
 10
44.3053519228
 20
37.8339352008
 30
0.0
  0
VERTEX
  5
63F
  8
0
  6
CONTINUOUS
 62
     7
 10
44.3283128289
 20
37.8312985596
 30
0.0
  0
VERTEX
  5
640
  8
0
  6
CONTINUOUS
 62
     7
 10
44.3477779527
 20
37.8237902389
 30
0.0
  0
VERTEX
  5
641
  8
0
  6
CONTINUOUS
 62
     7
 10
44.3607845697
 20
37.8125530227
 30
0.0
  0
VERTEX
  5
642
  8
0
  6
CONTINUOUS
 62
     7
 10
44.365351861
 20
37.7992979737
 30
0.0
  0
VERTEX
  5
643
  8
0
  6
CONTINUOUS
 62
     7
 10
44.3607845697
 20
37.7860429247
 30
0.0
  0
VERTEX
  5
644
  8
0
  6
CONTINUOUS
 62
     7
 10
44.3477779527
 20
37.7748057085
 30
0.0
  0
VERTEX
  5
645
  8
0
  6
CONTINUOUS
 62
     7
 10
44.3283128289
 20
37.7672973878
 30
0.0
  0
VERTEX
  5
646
  8
0
  6
CONTINUOUS
 62
     7
 10
44.3053519228
 20
37.7646607466
 30
0.0
  0
VERTEX
  5
647
  8
0
  6
CONTINUOUS
 62
     7
 10
44.2823910166
 20
37.7672973878
 30
0.0
  0
VERTEX
  5
648
  8
0
  6
CONTINUOUS
 62
     7
 10
44.2629250632
 20
37.7748057085
 30
0.0
  0
SEQEND
  5
649
  8
0
  6
CONTINUOUS
 62
     7
  0
POLYLINE
  5
D4
  8
0
  6
CONTINUOUS
 62
     7
 66
     1
 10
0.0
 20
0.0
 30
0.0
  0
VERTEX
  5
64A
  8
0
  6
CONTINUOUS
 62
     7
 10
44.6758758196
 20
32.7477948779
 30
0.0
  0
VERTEX
  5
64B
  8
0
  6
CONTINUOUS
 62
     7
 10
44.643617302
 20
32.760201288
 30
0.0
  0
VERTEX
  5
64C
  8
0
  6
CONTINUOUS
 62
     7
 10
44.6148545669
 20
32.7588310733
 30
0.0
  0
VERTEX
  5
64D
  8
0
  6
CONTINUOUS
 62
     7
 10
44.5927042409
 20
32.7438329061
 30
0.0
  0
VERTEX
  5
64E
  8
0
  6
CONTINUOUS
 62
     7
 10
44.5795669521
 20
32.7168318876
 30
0.0
  0
VERTEX
  5
64F
  8
0
  6
CONTINUOUS
 62
     7
 10
44.576866401
 20
32.6807540171
 30
0.0
  0
VERTEX
  5
650
  8
0
  6
CONTINUOUS
 62
     7
 10
44.5848950438
 20
32.63950888
 30
0.0
  0
VERTEX
  5
651
  8
0
  6
CONTINUOUS
 62
     7
 10
44.6027825646
 20
32.5975662996
 30
0.0
  0
VERTEX
  5
652
  8
0
  6
CONTINUOUS
 62
     7
 10
44.628590872
 20
32.559471207
 30
0.0
  0
VERTEX
  5
653
  8
0
  6
CONTINUOUS
 62
     7
 10
44.659523589
 20
32.5293515756
 30
0.0
  0
VERTEX
  5
654
  8
0
  6
CONTINUOUS
 62
     7
 10
44.6922280501
 20
32.5104716921
 30
0.0
  0
VERTEX
  5
655
  8
0
  6
CONTINUOUS
 62
     7
 10
44.7231603523
 20
32.5048774081
 30
0.0
  0
VERTEX
  5
656
  8
0
  6
CONTINUOUS
 62
     7
 10
44.7489686597
 20
32.5131748631
 30
0.0
  0
VERTEX
  5
657
  8
0
  6
CONTINUOUS
 62
     7
 10
44.7668561805
 20
32.5344649517
 30
0.0
  0
VERTEX
  5
658
  8
0
  6
CONTINUOUS
 62
     7
 10
44.7748848233
 20
32.5664404152
 30
0.0
  0
VERTEX
  5
659
  8
0
  6
CONTINUOUS
 62
     7
 10
44.7721842722
 20
32.6056362755
 30
0.0
  0
VERTEX
  5
65A
  8
0
  6
CONTINUOUS
 62
     7
 10
44.7590469834
 20
32.6478052849
 30
0.0
  0
VERTEX
  5
65B
  8
0
  6
CONTINUOUS
 62
     7
 10
44.7368966574
 20
32.6883776741
 30
0.0
  0
VERTEX
  5
65C
  8
0
  6
CONTINUOUS
 62
     7
 10
44.7081339223
 20
32.7229566359
 30
0.0
  0
VERTEX
  5
65D
  8
0
  6
CONTINUOUS
 62
     7
 10
44.6758758196
 20
32.7477948779
 30
0.0
  0
SEQEND
  5
65E
  8
0
  6
CONTINUOUS
 62
     7
  0
POLYLINE
  5
D5
  8
0
  6
CONTINUOUS
 62
     7
 66
     1
 10
0.0
 20
0.0
 30
0.0
  0
VERTEX
  5
65F
  8
0
  6
CONTINUOUS
 62
     7
 10
44.6758758196
 20
34.1767413563
 30
0.0
  0
VERTEX
  5
660
  8
0
  6
CONTINUOUS
 62
     7
 10
44.643617302
 20
34.1891476466
 30
0.0
  0
VERTEX
  5
661
  8
0
  6
CONTINUOUS
 62
     7
 10
44.6148545669
 20
34.1877775516
 30
0.0
  0
VERTEX
  5
662
  8
0
  6
CONTINUOUS
 62
     7
 10
44.5927042409
 20
34.1727793845
 30
0.0
  0
VERTEX
  5
663
  8
0
  6
CONTINUOUS
 62
     7
 10
44.5795669521
 20
34.1457782462
 30
0.0
  0
VERTEX
  5
664
  8
0
  6
CONTINUOUS
 62
     7
 10
44.576866401
 20
34.1097004356
 30
0.0
  0
VERTEX
  5
665
  8
0
  6
CONTINUOUS
 62
     7
 10
44.5848950438
 20
34.0684553584
 30
0.0
  0
VERTEX
  5
666
  8
0
  6
CONTINUOUS
 62
     7
 10
44.6027825646
 20
34.0265127779
 30
0.0
  0
VERTEX
  5
667
  8
0
  6
CONTINUOUS
 62
     7
 10
44.628590872
 20
33.9884175656
 30
0.0
  0
VERTEX
  5
668
  8
0
  6
CONTINUOUS
 62
     7
 10
44.659523589
 20
33.9582979941
 30
0.0
  0
VERTEX
  5
669
  8
0
  6
CONTINUOUS
 62
     7
 10
44.6922280501
 20
33.9394181106
 30
0.0
  0
VERTEX
  5
66A
  8
0
  6
CONTINUOUS
 62
     7
 10
44.7231603523
 20
33.9338237667
 30
0.0
  0
VERTEX
  5
66B
  8
0
  6
CONTINUOUS
 62
     7
 10
44.7489686597
 20
33.9421213415
 30
0.0
  0
VERTEX
  5
66C
  8
0
  6
CONTINUOUS
 62
     7
 10
44.7668561805
 20
33.9634114301
 30
0.0
  0
VERTEX
  5
66D
  8
0
  6
CONTINUOUS
 62
     7
 10
44.7748848233
 20
33.9953868337
 30
0.0
  0
VERTEX
  5
66E
  8
0
  6
CONTINUOUS
 62
     7
 10
44.7721842722
 20
34.0345826341
 30
0.0
  0
VERTEX
  5
66F
  8
0
  6
CONTINUOUS
 62
     7
 10
44.7590469834
 20
34.0767517633
 30
0.0
  0
VERTEX
  5
670
  8
0
  6
CONTINUOUS
 62
     7
 10
44.7368966574
 20
34.1173241525
 30
0.0
  0
VERTEX
  5
671
  8
0
  6
CONTINUOUS
 62
     7
 10
44.7081339223
 20
34.1519029946
 30
0.0
  0
VERTEX
  5
672
  8
0
  6
CONTINUOUS
 62
     7
 10
44.6758758196
 20
34.1767413563
 30
0.0
  0
SEQEND
  5
673
  8
0
  6
CONTINUOUS
 62
     7
  0
POLYLINE
  5
D6
  8
0
  6
CONTINUOUS
 62
     7
 66
     1
 10
0.0
 20
0.0
 30
0.0
  0
VERTEX
  5
674
  8
0
  6
CONTINUOUS
 62
     7
 10
44.6758758196
 20
33.2581328417
 30
0.0
  0
VERTEX
  5
675
  8
0
  6
CONTINUOUS
 62
     7
 10
44.643617302
 20
33.2705392519
 30
0.0
  0
VERTEX
  5
676
  8
0
  6
CONTINUOUS
 62
     7
 10
44.6148545669
 20
33.2691690371
 30
0.0
  0
VERTEX
  5
677
  8
0
  6
CONTINUOUS
 62
     7
 10
44.5927042409
 20
33.25417087
 30
0.0
  0
VERTEX
  5
678
  8
0
  6
CONTINUOUS
 62
     7
 10
44.5795669521
 20
33.2271699712
 30
0.0
  0
VERTEX
  5
679
  8
0
  6
CONTINUOUS
 62
     7
 10
44.576866401
 20
33.1910920409
 30
0.0
  0
VERTEX
  5
67A
  8
0
  6
CONTINUOUS
 62
     7
 10
44.5848950438
 20
33.1498468438
 30
0.0
  0
VERTEX
  5
67B
  8
0
  6
CONTINUOUS
 62
     7
 10
44.6027825646
 20
33.1079042634
 30
0.0
  0
VERTEX
  5
67C
  8
0
  6
CONTINUOUS
 62
     7
 10
44.628590872
 20
33.0698091708
 30
0.0
  0
VERTEX
  5
67D
  8
0
  6
CONTINUOUS
 62
     7
 10
44.659523589
 20
33.0396895993
 30
0.0
  0
VERTEX
  5
67E
  8
0
  6
CONTINUOUS
 62
     7
 10
44.6922280501
 20
33.0208097158
 30
0.0
  0
VERTEX
  5
67F
  8
0
  6
CONTINUOUS
 62
     7
 10
44.7231603523
 20
33.0152153719
 30
0.0
  0
VERTEX
  5
680
  8
0
  6
CONTINUOUS
 62
     7
 10
44.7489686597
 20
33.023512827
 30
0.0
  0
VERTEX
  5
681
  8
0
  6
CONTINUOUS
 62
     7
 10
44.7668561805
 20
33.0448029156
 30
0.0
  0
VERTEX
  5
682
  8
0
  6
CONTINUOUS
 62
     7
 10
44.7748848233
 20
33.0767784389
 30
0.0
  0
VERTEX
  5
683
  8
0
  6
CONTINUOUS
 62
     7
 10
44.7721842722
 20
33.1159743591
 30
0.0
  0
VERTEX
  5
684
  8
0
  6
CONTINUOUS
 62
     7
 10
44.7590469834
 20
33.1581432487
 30
0.0
  0
VERTEX
  5
685
  8
0
  6
CONTINUOUS
 62
     7
 10
44.7368966574
 20
33.1987156379
 30
0.0
  0
VERTEX
  5
686
  8
0
  6
CONTINUOUS
 62
     7
 10
44.7081339223
 20
33.2332945998
 30
0.0
  0
VERTEX
  5
687
  8
0
  6
CONTINUOUS
 62
     7
 10
44.6758758196
 20
33.2581328417
 30
0.0
  0
SEQEND
  5
688
  8
0
  6
CONTINUOUS
 62
     7
  0
POLYLINE
  5
D7
  8
0
  6
CONTINUOUS
 62
     7
 66
     1
 10
0.0
 20
0.0
 30
0.0
  0
VERTEX
  5
689
  8
0
  6
CONTINUOUS
 62
     7
 10
44.6758758196
 20
34.6870792602
 30
0.0
  0
VERTEX
  5
68A
  8
0
  6
CONTINUOUS
 62
     7
 10
44.643617302
 20
34.6994857901
 30
0.0
  0
VERTEX
  5
68B
  8
0
  6
CONTINUOUS
 62
     7
 10
44.6148545669
 20
34.6981154556
 30
0.0
  0
VERTEX
  5
68C
  8
0
  6
CONTINUOUS
 62
     7
 10
44.5927042409
 20
34.6831172885
 30
0.0
  0
VERTEX
  5
68D
  8
0
  6
CONTINUOUS
 62
     7
 10
44.5795669521
 20
34.6561163897
 30
0.0
  0
VERTEX
  5
68E
  8
0
  6
CONTINUOUS
 62
     7
 10
44.576866401
 20
34.6200383396
 30
0.0
  0
VERTEX
  5
68F
  8
0
  6
CONTINUOUS
 62
     7
 10
44.5848950438
 20
34.5787932623
 30
0.0
  0
VERTEX
  5
690
  8
0
  6
CONTINUOUS
 62
     7
 10
44.6027825646
 20
34.5368506819
 30
0.0
  0
VERTEX
  5
691
  8
0
  6
CONTINUOUS
 62
     7
 10
44.628590872
 20
34.4987557091
 30
0.0
  0
VERTEX
  5
692
  8
0
  6
CONTINUOUS
 62
     7
 10
44.659523589
 20
34.4686358981
 30
0.0
  0
VERTEX
  5
693
  8
0
  6
CONTINUOUS
 62
     7
 10
44.6922280501
 20
34.4497560146
 30
0.0
  0
VERTEX
  5
694
  8
0
  6
CONTINUOUS
 62
     7
 10
44.7231603523
 20
34.4441619102
 30
0.0
  0
VERTEX
  5
695
  8
0
  6
CONTINUOUS
 62
     7
 10
44.7489686597
 20
34.4524592455
 30
0.0
  0
VERTEX
  5
696
  8
0
  6
CONTINUOUS
 62
     7
 10
44.7668561805
 20
34.4737493341
 30
0.0
  0
VERTEX
  5
697
  8
0
  6
CONTINUOUS
 62
     7
 10
44.7748848233
 20
34.5057247377
 30
0.0
  0
VERTEX
  5
698
  8
0
  6
CONTINUOUS
 62
     7
 10
44.7721842722
 20
34.5449207776
 30
0.0
  0
VERTEX
  5
699
  8
0
  6
CONTINUOUS
 62
     7
 10
44.7590469834
 20
34.5870896672
 30
0.0
  0
VERTEX
  5
69A
  8
0
  6
CONTINUOUS
 62
     7
 10
44.7368966574
 20
34.6276620564
 30
0.0
  0
VERTEX
  5
69B
  8
0
  6
CONTINUOUS
 62
     7
 10
44.7081339223
 20
34.662241138
 30
0.0
  0
VERTEX
  5
69C
  8
0
  6
CONTINUOUS
 62
     7
 10
44.6758758196
 20
34.6870792602
 30
0.0
  0
SEQEND
  5
69D
  8
0
  6
CONTINUOUS
 62
     7
  0
POLYLINE
  5
D8
  8
0
  6
CONTINUOUS
 62
     7
 66
     1
 10
0.0
 20
0.0
 30
0.0
  0
VERTEX
  5
69E
  8
0
  6
CONTINUOUS
 62
     7
 10
44.6758758196
 20
32.2374568841
 30
0.0
  0
VERTEX
  5
69F
  8
0
  6
CONTINUOUS
 62
     7
 10
44.643617302
 20
32.2498632643
 30
0.0
  0
VERTEX
  5
6A0
  8
0
  6
CONTINUOUS
 62
     7
 10
44.6148545669
 20
32.2484930495
 30
0.0
  0
VERTEX
  5
6A1
  8
0
  6
CONTINUOUS
 62
     7
 10
44.5927042409
 20
32.2334949124
 30
0.0
  0
VERTEX
  5
6A2
  8
0
  6
CONTINUOUS
 62
     7
 10
44.5795669521
 20
32.2064938938
 30
0.0
  0
VERTEX
  5
6A3
  8
0
  6
CONTINUOUS
 62
     7
 10
44.576866401
 20
32.1704159934
 30
0.0
  0
VERTEX
  5
6A4
  8
0
  6
CONTINUOUS
 62
     7
 10
44.5848950438
 20
32.1291708862
 30
0.0
  0
VERTEX
  5
6A5
  8
0
  6
CONTINUOUS
 62
     7
 10
44.6027825646
 20
32.0872283058
 30
0.0
  0
VERTEX
  5
6A6
  8
0
  6
CONTINUOUS
 62
     7
 10
44.628590872
 20
32.0491331908
 30
0.0
  0
VERTEX
  5
6A7
  8
0
  6
CONTINUOUS
 62
     7
 10
44.659523589
 20
32.0190135444
 30
0.0
  0
VERTEX
  5
6A8
  8
0
  6
CONTINUOUS
 62
     7
 10
44.6922280501
 20
32.0001336609
 30
0.0
  0
VERTEX
  5
6A9
  8
0
  6
CONTINUOUS
 62
     7
 10
44.7231603523
 20
31.9945393918
 30
0.0
  0
VERTEX
  5
6AA
  8
0
  6
CONTINUOUS
 62
     7
 10
44.7489686597
 20
32.0028368694
 30
0.0
  0
VERTEX
  5
6AB
  8
0
  6
CONTINUOUS
 62
     7
 10
44.7668561805
 20
32.024126958
 30
0.0
  0
VERTEX
  5
6AC
  8
0
  6
CONTINUOUS
 62
     7
 10
44.7748848233
 20
32.0561023915
 30
0.0
  0
VERTEX
  5
6AD
  8
0
  6
CONTINUOUS
 62
     7
 10
44.7721842722
 20
32.0952982817
 30
0.0
  0
VERTEX
  5
6AE
  8
0
  6
CONTINUOUS
 62
     7
 10
44.7590469834
 20
32.1374672911
 30
0.0
  0
VERTEX
  5
6AF
  8
0
  6
CONTINUOUS
 62
     7
 10
44.7368966574
 20
32.1780396504
 30
0.0
  0
VERTEX
  5
6B0
  8
0
  6
CONTINUOUS
 62
     7
 10
44.7081339223
 20
32.2126186122
 30
0.0
  0
VERTEX
  5
6B1
  8
0
  6
CONTINUOUS
 62
     7
 10
44.6758758196
 20
32.2374568841
 30
0.0
  0
SEQEND
  5
6B2
  8
0
  6
CONTINUOUS
 62
     7
  0
POLYLINE
  5
D9
  8
0
  6
CONTINUOUS
 62
     7
 66
     1
 10
0.0
 20
0.0
 30
0.0
  0
VERTEX
  5
6B3
  8
0
  6
CONTINUOUS
 62
     7
 10
44.6758758196
 20
33.6664033326
 30
0.0
  0
VERTEX
  5
6B4
  8
0
  6
CONTINUOUS
 62
     7
 10
44.643617302
 20
33.6788097427
 30
0.0
  0
VERTEX
  5
6B5
  8
0
  6
CONTINUOUS
 62
     7
 10
44.6148545669
 20
33.6774395279
 30
0.0
  0
VERTEX
  5
6B6
  8
0
  6
CONTINUOUS
 62
     7
 10
44.5927042409
 20
33.6624413608
 30
0.0
  0
VERTEX
  5
6B7
  8
0
  6
CONTINUOUS
 62
     7
 10
44.5795669521
 20
33.6354403422
 30
0.0
  0
VERTEX
  5
6B8
  8
0
  6
CONTINUOUS
 62
     7
 10
44.576866401
 20
33.5993624119
 30
0.0
  0
VERTEX
  5
6B9
  8
0
  6
CONTINUOUS
 62
     7
 10
44.5848950438
 20
33.5581173347
 30
0.0
  0
VERTEX
  5
6BA
  8
0
  6
CONTINUOUS
 62
     7
 10
44.6027825646
 20
33.5161747542
 30
0.0
  0
VERTEX
  5
6BB
  8
0
  6
CONTINUOUS
 62
     7
 10
44.628590872
 20
33.4780796617
 30
0.0
  0
VERTEX
  5
6BC
  8
0
  6
CONTINUOUS
 62
     7
 10
44.659523589
 20
33.4479599704
 30
0.0
  0
VERTEX
  5
6BD
  8
0
  6
CONTINUOUS
 62
     7
 10
44.6922280501
 20
33.4290800869
 30
0.0
  0
VERTEX
  5
6BE
  8
0
  6
CONTINUOUS
 62
     7
 10
44.7231603523
 20
33.4234858627
 30
0.0
  0
VERTEX
  5
6BF
  8
0
  6
CONTINUOUS
 62
     7
 10
44.7489686597
 20
33.4317833178
 30
0.0
  0
VERTEX
  5
6C0
  8
0
  6
CONTINUOUS
 62
     7
 10
44.7668561805
 20
33.4530734064
 30
0.0
  0
VERTEX
  5
6C1
  8
0
  6
CONTINUOUS
 62
     7
 10
44.7748848233
 20
33.48504881
 30
0.0
  0
VERTEX
  5
6C2
  8
0
  6
CONTINUOUS
 62
     7
 10
44.7721842722
 20
33.5242447302
 30
0.0
  0
VERTEX
  5
6C3
  8
0
  6
CONTINUOUS
 62
     7
 10
44.7590469834
 20
33.5664137396
 30
0.0
  0
VERTEX
  5
6C4
  8
0
  6
CONTINUOUS
 62
     7
 10
44.7368966574
 20
33.6069861287
 30
0.0
  0
VERTEX
  5
6C5
  8
0
  6
CONTINUOUS
 62
     7
 10
44.7081339223
 20
33.6415650906
 30
0.0
  0
VERTEX
  5
6C6
  8
0
  6
CONTINUOUS
 62
     7
 10
44.6758758196
 20
33.6664033326
 30
0.0
  0
SEQEND
  5
6C7
  8
0
  6
CONTINUOUS
 62
     7
  0
LINE
  5
DA
  8
0
  6
CONTINUOUS
 62
     7
 10
44.4212628083
 20
32.8726725257
 30
0.0
 11
44.4212628083
 21
32.4783440442
 31
0.0
  0
LINE
  5
DB
  8
0
  6
CONTINUOUS
 62
     7
 10
44.441116214
 20
32.8669879226
 30
0.0
 11
44.4262660872
 21
32.8755607183
 31
0.0
  0
LINE
  5
DC
  8
0
  6
CONTINUOUS
 62
     7
 10
44.441116214
 20
33.2834236891
 30
0.0
 11
44.441116214
 21
32.8669879226
 31
0.0
  0
LINE
  5
DD
  8
0
  6
CONTINUOUS
 62
     7
 10
44.4212628083
 20
33.2948848163
 30
0.0
 11
44.441116214
 21
33.2834236891
 31
0.0
  0
LINE
  5
DE
  8
0
  6
CONTINUOUS
 62
     7
 10
44.4212628083
 20
33.6892133277
 30
0.0
 11
44.4212628083
 21
33.2948848163
 31
0.0
  0
LINE
  5
DF
  8
0
  6
CONTINUOUS
 62
     7
 10
44.441116214
 20
33.6835287246
 30
0.0
 11
44.4262660872
 21
33.6921015203
 31
0.0
  0
LINE
  5
E0
  8
0
  6
CONTINUOUS
 62
     7
 10
44.441116214
 20
34.099964551
 30
0.0
 11
44.441116214
 21
33.6835287246
 31
0.0
  0
LINE
  5
E1
  8
0
  6
CONTINUOUS
 62
     7
 10
44.4212628083
 20
34.1114256782
 30
0.0
 11
44.441116214
 21
34.099964551
 31
0.0
  0
LINE
  5
E2
  8
0
  6
CONTINUOUS
 62
     7
 10
44.4212628083
 20
34.5057540699
 30
0.0
 11
44.4212628083
 21
34.1114256782
 31
0.0
  0
LINE
  5
E3
  8
0
  6
CONTINUOUS
 62
     7
 10
44.441116214
 20
34.5000695865
 30
0.0
 11
44.4262660872
 21
34.5086423822
 31
0.0
  0
LINE
  5
E4
  8
0
  6
CONTINUOUS
 62
     7
 10
44.441116214
 20
34.9165052931
 30
0.0
 11
44.441116214
 21
34.5000695865
 31
0.0
  0
LINE
  5
E5
  8
0
  6
CONTINUOUS
 62
     7
 10
44.4212628083
 20
34.9279664203
 30
0.0
 11
44.441116214
 21
34.9165052931
 31
0.0
  0
LINE
  5
E6
  8
0
  6
CONTINUOUS
 62
     7
 10
44.4212628083
 20
35.3222950515
 30
0.0
 11
44.4212628083
 21
34.9279664203
 31
0.0
  0
LINE
  5
E7
  8
0
  6
CONTINUOUS
 62
     7
 10
44.441116214
 20
35.3166103286
 30
0.0
 11
44.4262660872
 21
35.3251831244
 31
0.0
  0
LINE
  5
E8
  8
0
  6
CONTINUOUS
 62
     7
 10
44.441116214
 20
35.7330462748
 30
0.0
 11
44.441116214
 21
35.3166103286
 31
0.0
  0
LINE
  5
E9
  8
0
  6
CONTINUOUS
 62
     7
 10
44.4212628083
 20
35.744507402
 30
0.0
 11
44.441116214
 21
35.7330462748
 31
0.0
  0
LINE
  5
EA
  8
0
  6
CONTINUOUS
 62
     7
 10
44.4212628083
 20
36.1388360332
 30
0.0
 11
44.4212628083
 21
35.744507402
 31
0.0
  0
LINE
  5
EB
  8
0
  6
CONTINUOUS
 62
     7
 10
44.441116214
 20
36.1331510708
 30
0.0
 11
44.4262660872
 21
36.1417238665
 31
0.0
  0
LINE
  5
EC
  8
0
  6
CONTINUOUS
 62
     7
 10
44.441116214
 20
36.5495867774
 30
0.0
 11
44.441116214
 21
36.1331510708
 31
0.0
  0
LINE
  5
ED
  8
0
  6
CONTINUOUS
 62
     7
 10
44.4212628083
 20
36.5610479046
 30
0.0
 11
44.441116214
 21
36.5495867774
 31
0.0
  0
LINE
  5
EE
  8
0
  6
CONTINUOUS
 62
     7
 10
44.4212628083
 20
36.9553767753
 30
0.0
 11
44.4212628083
 21
36.5610479046
 31
0.0
  0
LINE
  5
EF
  8
0
  6
CONTINUOUS
 62
     7
 10
44.441116214
 20
36.9496918129
 30
0.0
 11
44.4262660872
 21
36.9582646086
 31
0.0
  0
LINE
  5
F0
  8
0
  6
CONTINUOUS
 62
     7
 10
44.441116214
 20
37.3661279986
 30
0.0
 11
44.441116214
 21
36.9496918129
 31
0.0
  0
LINE
  5
F1
  8
0
  6
CONTINUOUS
 62
     7
 10
44.4212628083
 20
37.3775891257
 30
0.0
 11
44.441116214
 21
37.3661279986
 31
0.0
  0
LINE
  5
F2
  8
0
  6
CONTINUOUS
 62
     7
 10
44.4212628083
 20
37.7813683347
 30
0.0
 11
44.4212628083
 21
37.3775891257
 31
0.0
  0
LINE
  5
F3
  8
0
  6
CONTINUOUS
 62
     7
 10
44.8526523961
 20
31.8165467526
 30
0.0
 11
44.8526523961
 21
37.5323324266
 31
0.0
  0
LINE
  5
F4
  8
0
  6
CONTINUOUS
 62
     7
 10
44.8526523961
 20
31.8165467526
 30
0.0
 11
44.441116214
 21
32.0541215335
 31
0.0
  0
LINE
  5
F5
  8
0
  6
CONTINUOUS
 62
     7
 10
44.441116214
 20
32.466882917
 30
0.0
 11
44.441116214
 21
32.0541215335
 31
0.0
  0
LINE
  5
F6
  8
0
  6
CONTINUOUS
 62
     7
 10
44.4212628083
 20
32.4783440442
 30
0.0
 11
44.441116214
 21
32.466882917
 31
0.0
  0
POLYLINE
  5
F7
  8
0
  6
CONTINUOUS
 62
     7
 66
     1
 10
0.0
 20
0.0
 30
0.0
  0
VERTEX
  5
6C8
  8
0
  6
CONTINUOUS
 62
     7
 10
44.6758758196
 20
37.5449720972
 30
0.0
  0
VERTEX
  5
6C9
  8
0
  6
CONTINUOUS
 62
     7
 10
44.643617302
 20
37.5573786271
 30
0.0
  0
VERTEX
  5
6CA
  8
0
  6
CONTINUOUS
 62
     7
 10
44.6148545669
 20
37.5560082926
 30
0.0
  0
VERTEX
  5
6CB
  8
0
  6
CONTINUOUS
 62
     7
 10
44.5927042409
 20
37.5410101255
 30
0.0
  0
VERTEX
  5
6CC
  8
0
  6
CONTINUOUS
 62
     7
 10
44.5795669521
 20
37.5140089871
 30
0.0
  0
VERTEX
  5
6CD
  8
0
  6
CONTINUOUS
 62
     7
 10
44.576866401
 20
37.4779314161
 30
0.0
  0
VERTEX
  5
6CE
  8
0
  6
CONTINUOUS
 62
     7
 10
44.5848950438
 20
37.4366860993
 30
0.0
  0
VERTEX
  5
6CF
  8
0
  6
CONTINUOUS
 62
     7
 10
44.6027825646
 20
37.3947437584
 30
0.0
  0
VERTEX
  5
6D0
  8
0
  6
CONTINUOUS
 62
     7
 10
44.628590872
 20
37.3566483066
 30
0.0
  0
VERTEX
  5
6D1
  8
0
  6
CONTINUOUS
 62
     7
 10
44.659523589
 20
37.3265289746
 30
0.0
  0
VERTEX
  5
6D2
  8
0
  6
CONTINUOUS
 62
     7
 10
44.6922280501
 20
37.3076490911
 30
0.0
  0
VERTEX
  5
6D3
  8
0
  6
CONTINUOUS
 62
     7
 10
44.7231603523
 20
37.3020545076
 30
0.0
  0
VERTEX
  5
6D4
  8
0
  6
CONTINUOUS
 62
     7
 10
44.7489686597
 20
37.310352322
 30
0.0
  0
VERTEX
  5
6D5
  8
0
  6
CONTINUOUS
 62
     7
 10
44.7668561805
 20
37.3316421711
 30
0.0
  0
VERTEX
  5
6D6
  8
0
  6
CONTINUOUS
 62
     7
 10
44.7748848233
 20
37.3636178142
 30
0.0
  0
VERTEX
  5
6D7
  8
0
  6
CONTINUOUS
 62
     7
 10
44.7721842722
 20
37.4028133751
 30
0.0
  0
VERTEX
  5
6D8
  8
0
  6
CONTINUOUS
 62
     7
 10
44.7590469834
 20
37.4449825042
 30
0.0
  0
VERTEX
  5
6D9
  8
0
  6
CONTINUOUS
 62
     7
 10
44.7368966574
 20
37.4855548934
 30
0.0
  0
VERTEX
  5
6DA
  8
0
  6
CONTINUOUS
 62
     7
 10
44.7081339223
 20
37.520133975
 30
0.0
  0
VERTEX
  5
6DB
  8
0
  6
CONTINUOUS
 62
     7
 10
44.6758758196
 20
37.5449720972
 30
0.0
  0
SEQEND
  5
6DC
  8
0
  6
CONTINUOUS
 62
     7
  0
POLYLINE
  5
F8
  8
0
  6
CONTINUOUS
 62
     7
 66
     1
 10
0.0
 20
0.0
 30
0.0
  0
VERTEX
  5
6DD
  8
0
  6
CONTINUOUS
 62
     7
 10
44.6758758196
 20
37.0346341933
 30
0.0
  0
VERTEX
  5
6DE
  8
0
  6
CONTINUOUS
 62
     7
 10
44.643617302
 20
37.0470407232
 30
0.0
  0
VERTEX
  5
6DF
  8
0
  6
CONTINUOUS
 62
     7
 10
44.6148545669
 20
37.0456703886
 30
0.0
  0
VERTEX
  5
6E0
  8
0
  6
CONTINUOUS
 62
     7
 10
44.5927042409
 20
37.0306722215
 30
0.0
  0
VERTEX
  5
6E1
  8
0
  6
CONTINUOUS
 62
     7
 10
44.5795669521
 20
37.0036710832
 30
0.0
  0
VERTEX
  5
6E2
  8
0
  6
CONTINUOUS
 62
     7
 10
44.576866401
 20
36.9675930331
 30
0.0
  0
VERTEX
  5
6E3
  8
0
  6
CONTINUOUS
 62
     7
 10
44.5848950438
 20
36.9263481954
 30
0.0
  0
VERTEX
  5
6E4
  8
0
  6
CONTINUOUS
 62
     7
 10
44.6027825646
 20
36.8844053754
 30
0.0
  0
VERTEX
  5
6E5
  8
0
  6
CONTINUOUS
 62
     7
 10
44.628590872
 20
36.8463104026
 30
0.0
  0
VERTEX
  5
6E6
  8
0
  6
CONTINUOUS
 62
     7
 10
44.659523589
 20
36.8161905916
 30
0.0
  0
VERTEX
  5
6E7
  8
0
  6
CONTINUOUS
 62
     7
 10
44.6922280501
 20
36.7973107081
 30
0.0
  0
VERTEX
  5
6E8
  8
0
  6
CONTINUOUS
 62
     7
 10
44.7231603523
 20
36.7917166037
 30
0.0
  0
VERTEX
  5
6E9
  8
0
  6
CONTINUOUS
 62
     7
 10
44.7489686597
 20
36.800013939
 30
0.0
  0
VERTEX
  5
6EA
  8
0
  6
CONTINUOUS
 62
     7
 10
44.7668561805
 20
36.8213042671
 30
0.0
  0
VERTEX
  5
6EB
  8
0
  6
CONTINUOUS
 62
     7
 10
44.7748848233
 20
36.8532794312
 30
0.0
  0
VERTEX
  5
6EC
  8
0
  6
CONTINUOUS
 62
     7
 10
44.7721842722
 20
36.8924754711
 30
0.0
  0
VERTEX
  5
6ED
  8
0
  6
CONTINUOUS
 62
     7
 10
44.7590469834
 20
36.9346446003
 30
0.0
  0
VERTEX
  5
6EE
  8
0
  6
CONTINUOUS
 62
     7
 10
44.7368966574
 20
36.9752169895
 30
0.0
  0
VERTEX
  5
6EF
  8
0
  6
CONTINUOUS
 62
     7
 10
44.7081339223
 20
37.0097960711
 30
0.0
  0
VERTEX
  5
6F0
  8
0
  6
CONTINUOUS
 62
     7
 10
44.6758758196
 20
37.0346341933
 30
0.0
  0
SEQEND
  5
6F1
  8
0
  6
CONTINUOUS
 62
     7
  0
POLYLINE
  5
F9
  8
0
  6
CONTINUOUS
 62
     7
 66
     1
 10
0.0
 20
0.0
 30
0.0
  0
VERTEX
  5
6F2
  8
0
  6
CONTINUOUS
 62
     7
 10
44.6758758196
 20
36.5242962893
 30
0.0
  0
VERTEX
  5
6F3
  8
0
  6
CONTINUOUS
 62
     7
 10
44.643617302
 20
36.5367023402
 30
0.0
  0
VERTEX
  5
6F4
  8
0
  6
CONTINUOUS
 62
     7
 10
44.6148545669
 20
36.5353324847
 30
0.0
  0
VERTEX
  5
6F5
  8
0
  6
CONTINUOUS
 62
     7
 10
44.5927042409
 20
36.5203343176
 30
0.0
  0
VERTEX
  5
6F6
  8
0
  6
CONTINUOUS
 62
     7
 10
44.5795669521
 20
36.4933331792
 30
0.0
  0
VERTEX
  5
6F7
  8
0
  6
CONTINUOUS
 62
     7
 10
44.576866401
 20
36.4572551292
 30
0.0
  0
VERTEX
  5
6F8
  8
0
  6
CONTINUOUS
 62
     7
 10
44.5848950438
 20
36.4160102914
 30
0.0
  0
VERTEX
  5
6F9
  8
0
  6
CONTINUOUS
 62
     7
 10
44.6027825646
 20
36.3740674715
 30
0.0
  0
VERTEX
  5
6FA
  8
0
  6
CONTINUOUS
 62
     7
 10
44.628590872
 20
36.3359724987
 30
0.0
  0
VERTEX
  5
6FB
  8
0
  6
CONTINUOUS
 62
     7
 10
44.659523589
 20
36.3058526876
 30
0.0
  0
VERTEX
  5
6FC
  8
0
  6
CONTINUOUS
 62
     7
 10
44.6922280501
 20
36.2869728041
 30
0.0
  0
VERTEX
  5
6FD
  8
0
  6
CONTINUOUS
 62
     7
 10
44.7231603523
 20
36.2813786997
 30
0.0
  0
VERTEX
  5
6FE
  8
0
  6
CONTINUOUS
 62
     7
 10
44.7489686597
 20
36.2896760351
 30
0.0
  0
VERTEX
  5
6FF
  8
0
  6
CONTINUOUS
 62
     7
 10
44.7668561805
 20
36.3109663632
 30
0.0
  0
VERTEX
  5
700
  8
0
  6
CONTINUOUS
 62
     7
 10
44.7748848233
 20
36.3429415273
 30
0.0
  0
VERTEX
  5
701
  8
0
  6
CONTINUOUS
 62
     7
 10
44.7721842722
 20
36.3821375672
 30
0.0
  0
VERTEX
  5
702
  8
0
  6
CONTINUOUS
 62
     7
 10
44.7590469834
 20
36.4243066963
 30
0.0
  0
VERTEX
  5
703
  8
0
  6
CONTINUOUS
 62
     7
 10
44.7368966574
 20
36.4648790855
 30
0.0
  0
VERTEX
  5
704
  8
0
  6
CONTINUOUS
 62
     7
 10
44.7081339223
 20
36.4994576881
 30
0.0
  0
VERTEX
  5
705
  8
0
  6
CONTINUOUS
 62
     7
 10
44.6758758196
 20
36.5242962893
 30
0.0
  0
SEQEND
  5
706
  8
0
  6
CONTINUOUS
 62
     7
  0
POLYLINE
  5
FA
  8
0
  6
CONTINUOUS
 62
     7
 66
     1
 10
0.0
 20
0.0
 30
0.0
  0
VERTEX
  5
707
  8
0
  6
CONTINUOUS
 62
     7
 10
44.6758758196
 20
35.0953496313
 30
0.0
  0
VERTEX
  5
708
  8
0
  6
CONTINUOUS
 62
     7
 10
44.643617302
 20
35.1077561612
 30
0.0
  0
VERTEX
  5
709
  8
0
  6
CONTINUOUS
 62
     7
 10
44.6148545669
 20
35.1063858267
 30
0.0
  0
VERTEX
  5
70A
  8
0
  6
CONTINUOUS
 62
     7
 10
44.5927042409
 20
35.0913876595
 30
0.0
  0
VERTEX
  5
70B
  8
0
  6
CONTINUOUS
 62
     7
 10
44.5795669521
 20
35.0643867607
 30
0.0
  0
VERTEX
  5
70C
  8
0
  6
CONTINUOUS
 62
     7
 10
44.576866401
 20
35.0283089502
 30
0.0
  0
VERTEX
  5
70D
  8
0
  6
CONTINUOUS
 62
     7
 10
44.5848950438
 20
34.9870636334
 30
0.0
  0
VERTEX
  5
70E
  8
0
  6
CONTINUOUS
 62
     7
 10
44.6027825646
 20
34.945121053
 30
0.0
  0
VERTEX
  5
70F
  8
0
  6
CONTINUOUS
 62
     7
 10
44.628590872
 20
34.9070260802
 30
0.0
  0
VERTEX
  5
710
  8
0
  6
CONTINUOUS
 62
     7
 10
44.659523589
 20
34.8769062691
 30
0.0
  0
VERTEX
  5
711
  8
0
  6
CONTINUOUS
 62
     7
 10
44.6922280501
 20
34.8580263856
 30
0.0
  0
VERTEX
  5
712
  8
0
  6
CONTINUOUS
 62
     7
 10
44.7231603523
 20
34.8524322812
 30
0.0
  0
VERTEX
  5
713
  8
0
  6
CONTINUOUS
 62
     7
 10
44.7489686597
 20
34.8607296166
 30
0.0
  0
VERTEX
  5
714
  8
0
  6
CONTINUOUS
 62
     7
 10
44.7668561805
 20
34.8820197051
 30
0.0
  0
VERTEX
  5
715
  8
0
  6
CONTINUOUS
 62
     7
 10
44.7748848233
 20
34.9139953483
 30
0.0
  0
VERTEX
  5
716
  8
0
  6
CONTINUOUS
 62
     7
 10
44.7721842722
 20
34.9531911487
 30
0.0
  0
VERTEX
  5
717
  8
0
  6
CONTINUOUS
 62
     7
 10
44.7590469834
 20
34.9953600383
 30
0.0
  0
VERTEX
  5
718
  8
0
  6
CONTINUOUS
 62
     7
 10
44.7368966574
 20
35.0359324275
 30
0.0
  0
VERTEX
  5
719
  8
0
  6
CONTINUOUS
 62
     7
 10
44.7081339223
 20
35.0705115091
 30
0.0
  0
VERTEX
  5
71A
  8
0
  6
CONTINUOUS
 62
     7
 10
44.6758758196
 20
35.0953496313
 30
0.0
  0
SEQEND
  5
71B
  8
0
  6
CONTINUOUS
 62
     7
  0
POLYLINE
  5
FB
  8
0
  6
CONTINUOUS
 62
     7
 66
     1
 10
0.0
 20
0.0
 30
0.0
  0
VERTEX
  5
71C
  8
0
  6
CONTINUOUS
 62
     7
 10
44.6758758196
 20
36.1160256787
 30
0.0
  0
VERTEX
  5
71D
  8
0
  6
CONTINUOUS
 62
     7
 10
44.643617302
 20
36.1284322086
 30
0.0
  0
VERTEX
  5
71E
  8
0
  6
CONTINUOUS
 62
     7
 10
44.6148545669
 20
36.1270618741
 30
0.0
  0
VERTEX
  5
71F
  8
0
  6
CONTINUOUS
 62
     7
 10
44.5927042409
 20
36.112063707
 30
0.0
  0
VERTEX
  5
720
  8
0
  6
CONTINUOUS
 62
     7
 10
44.5795669521
 20
36.0850625686
 30
0.0
  0
VERTEX
  5
721
  8
0
  6
CONTINUOUS
 62
     7
 10
44.576866401
 20
36.0489849976
 30
0.0
  0
VERTEX
  5
722
  8
0
  6
CONTINUOUS
 62
     7
 10
44.5848950438
 20
36.0077396808
 30
0.0
  0
VERTEX
  5
723
  8
0
  6
CONTINUOUS
 62
     7
 10
44.6027825646
 20
35.9657971004
 30
0.0
  0
VERTEX
  5
724
  8
0
  6
CONTINUOUS
 62
     7
 10
44.628590872
 20
35.9277021276
 30
0.0
  0
VERTEX
  5
725
  8
0
  6
CONTINUOUS
 62
     7
 10
44.659523589
 20
35.8975823166
 30
0.0
  0
VERTEX
  5
726
  8
0
  6
CONTINUOUS
 62
     7
 10
44.6922280501
 20
35.8787024331
 30
0.0
  0
VERTEX
  5
727
  8
0
  6
CONTINUOUS
 62
     7
 10
44.7231603523
 20
35.8731083287
 30
0.0
  0
VERTEX
  5
728
  8
0
  6
CONTINUOUS
 62
     7
 10
44.7489686597
 20
35.881405664
 30
0.0
  0
VERTEX
  5
729
  8
0
  6
CONTINUOUS
 62
     7
 10
44.7668561805
 20
35.9026957526
 30
0.0
  0
VERTEX
  5
72A
  8
0
  6
CONTINUOUS
 62
     7
 10
44.7748848233
 20
35.9346713957
 30
0.0
  0
VERTEX
  5
72B
  8
0
  6
CONTINUOUS
 62
     7
 10
44.7721842722
 20
35.9738669566
 30
0.0
  0
VERTEX
  5
72C
  8
0
  6
CONTINUOUS
 62
     7
 10
44.7590469834
 20
36.0160360857
 30
0.0
  0
VERTEX
  5
72D
  8
0
  6
CONTINUOUS
 62
     7
 10
44.7368966574
 20
36.0566084749
 30
0.0
  0
VERTEX
  5
72E
  8
0
  6
CONTINUOUS
 62
     7
 10
44.7081339223
 20
36.0911875565
 30
0.0
  0
VERTEX
  5
72F
  8
0
  6
CONTINUOUS
 62
     7
 10
44.6758758196
 20
36.1160256787
 30
0.0
  0
SEQEND
  5
730
  8
0
  6
CONTINUOUS
 62
     7
  0
POLYLINE
  5
FC
  8
0
  6
CONTINUOUS
 62
     7
 66
     1
 10
0.0
 20
0.0
 30
0.0
  0
VERTEX
  5
731
  8
0
  6
CONTINUOUS
 62
     7
 10
44.6758758196
 20
35.6056877748
 30
0.0
  0
VERTEX
  5
732
  8
0
  6
CONTINUOUS
 62
     7
 10
44.643617302
 20
35.6180940651
 30
0.0
  0
VERTEX
  5
733
  8
0
  6
CONTINUOUS
 62
     7
 10
44.6148545669
 20
35.6167239701
 30
0.0
  0
VERTEX
  5
734
  8
0
  6
CONTINUOUS
 62
     7
 10
44.5927042409
 20
35.601725803
 30
0.0
  0
VERTEX
  5
735
  8
0
  6
CONTINUOUS
 62
     7
 10
44.5795669521
 20
35.5747246647
 30
0.0
  0
VERTEX
  5
736
  8
0
  6
CONTINUOUS
 62
     7
 10
44.576866401
 20
35.5386468541
 30
0.0
  0
VERTEX
  5
737
  8
0
  6
CONTINUOUS
 62
     7
 10
44.5848950438
 20
35.4974017769
 30
0.0
  0
VERTEX
  5
738
  8
0
  6
CONTINUOUS
 62
     7
 10
44.6027825646
 20
35.4554591964
 30
0.0
  0
VERTEX
  5
739
  8
0
  6
CONTINUOUS
 62
     7
 10
44.628590872
 20
35.4173639841
 30
0.0
  0
VERTEX
  5
73A
  8
0
  6
CONTINUOUS
 62
     7
 10
44.659523589
 20
35.3872444126
 30
0.0
  0
VERTEX
  5
73B
  8
0
  6
CONTINUOUS
 62
     7
 10
44.6922280501
 20
35.3683645291
 30
0.0
  0
VERTEX
  5
73C
  8
0
  6
CONTINUOUS
 62
     7
 10
44.7231603523
 20
35.3627701852
 30
0.0
  0
VERTEX
  5
73D
  8
0
  6
CONTINUOUS
 62
     7
 10
44.7489686597
 20
35.37106776
 30
0.0
  0
VERTEX
  5
73E
  8
0
  6
CONTINUOUS
 62
     7
 10
44.7668561805
 20
35.3923578486
 30
0.0
  0
VERTEX
  5
73F
  8
0
  6
CONTINUOUS
 62
     7
 10
44.7748848233
 20
35.4243332522
 30
0.0
  0
VERTEX
  5
740
  8
0
  6
CONTINUOUS
 62
     7
 10
44.7721842722
 20
35.4635290526
 30
0.0
  0
VERTEX
  5
741
  8
0
  6
CONTINUOUS
 62
     7
 10
44.7590469834
 20
35.5056981818
 30
0.0
  0
VERTEX
  5
742
  8
0
  6
CONTINUOUS
 62
     7
 10
44.7368966574
 20
35.546270571
 30
0.0
  0
VERTEX
  5
743
  8
0
  6
CONTINUOUS
 62
     7
 10
44.7081339223
 20
35.5808494131
 30
0.0
  0
VERTEX
  5
744
  8
0
  6
CONTINUOUS
 62
     7
 10
44.6758758196
 20
35.6056877748
 30
0.0
  0
SEQEND
  5
745
  8
0
  6
CONTINUOUS
 62
     7
  0
LINE
  5
FD
  8
0
  6
CONTINUOUS
 62
     7
 10
44.8950788408
 20
31.8410390178
 30
0.0
 11
44.8950788408
 21
37.5568246918
 31
0.0
  0
LINE
  5
FE
  8
0
  6
CONTINUOUS
 62
     7
 10
44.8526523961
 20
31.8165467526
 30
0.0
 11
44.8950788408
 21
31.8410390178
 31
0.0
  0
ARC
  5
FF
  8
0
  6
CONTINUOUS
 62
     7
 10
44.7998301659
 20
37.501805654
 30
0.0
 40
0.1789248536937951
 50
161.5285171474
 51
258.4660528017
  0
POLYLINE
  5
100
  8
0
  6
CONTINUOUS
 62
     7
 66
     1
 10
0.0
 20
0.0
 30
0.0
  0
VERTEX
  5
746
  8
0
  6
CONTINUOUS
 62
     7
 10
44.4212628083
 20
37.3775891257
 30
0.0
  0
VERTEX
  5
747
  8
0
  6
CONTINUOUS
 62
     7
 10
44.4036503206
 20
37.3557845103
 30
0.0
  0
VERTEX
  5
748
  8
0
  6
CONTINUOUS
 62
     7
 10
44.374181128
 20
37.3387723075
 30
0.0
  0
VERTEX
  5
749
  8
0
  6
CONTINUOUS
 62
     7
 10
44.3364099188
 20
37.3286045953
 30
0.0
  0
VERTEX
  5
74A
  8
0
  6
CONTINUOUS
 62
     7
 10
44.2948931989
 20
37.3265079747
 30
0.0
  0
VERTEX
  5
74B
  8
0
  6
CONTINUOUS
 62
     7
 10
44.2546375658
 20
37.3327346147
 30
0.0
  0
VERTEX
  5
74C
  8
0
  6
CONTINUOUS
 62
     7
 10
44.2204990333
 20
37.3465344738
 30
0.0
  0
VERTEX
  5
74D
  8
0
  6
CONTINUOUS
 62
     7
 10
44.196594801
 20
37.3662419896
 30
0.0
  0
VERTEX
  5
74E
  8
0
  6
CONTINUOUS
 62
     7
 10
44.1858083605
 20
37.3894813114
 30
0.0
  0
VERTEX
  5
74F
  8
0
  6
CONTINUOUS
 62
     7
 10
44.1853516314
 20
37.3955187647
 30
0.0
  0
SEQEND
  5
750
  8
0
  6
CONTINUOUS
 62
     7
  0
ARC
  5
101
  8
0
  6
CONTINUOUS
 62
     7
 10
44.7998294706
 20
36.9914673486
 30
0.0
 40
0.1789243213768056
 50
161.5283246881
 51
258.466245261
  0
POLYLINE
  5
102
  8
0
  6
CONTINUOUS
 62
     7
 66
     1
 10
0.0
 20
0.0
 30
0.0
  0
VERTEX
  5
751
  8
0
  6
CONTINUOUS
 62
     7
 10
44.1855208825
 20
36.9827571133
 30
0.0
  0
VERTEX
  5
752
  8
0
  6
CONTINUOUS
 62
     7
 10
44.1858083605
 20
36.9730451258
 30
0.0
  0
VERTEX
  5
753
  8
0
  6
CONTINUOUS
 62
     7
 10
44.196594801
 20
36.9498058039
 30
0.0
  0
VERTEX
  5
754
  8
0
  6
CONTINUOUS
 62
     7
 10
44.2204990333
 20
36.9300982881
 30
0.0
  0
VERTEX
  5
755
  8
0
  6
CONTINUOUS
 62
     7
 10
44.2546375658
 20
36.9162984291
 30
0.0
  0
VERTEX
  5
756
  8
0
  6
CONTINUOUS
 62
     7
 10
44.2948931989
 20
36.910071789
 30
0.0
  0
VERTEX
  5
757
  8
0
  6
CONTINUOUS
 62
     7
 10
44.3364099188
 20
36.9121684097
 30
0.0
  0
VERTEX
  5
758
  8
0
  6
CONTINUOUS
 62
     7
 10
44.374181128
 20
36.9223361218
 30
0.0
  0
VERTEX
  5
759
  8
0
  6
CONTINUOUS
 62
     7
 10
44.4036503206
 20
36.9393483246
 30
0.0
  0
VERTEX
  5
75A
  8
0
  6
CONTINUOUS
 62
     7
 10
44.4160836409
 20
36.9523864075
 30
0.0
  0
SEQEND
  5
75B
  8
0
  6
CONTINUOUS
 62
     7
  0
POLYLINE
  5
103
  8
0
  6
CONTINUOUS
 62
     7
 66
     1
 10
0.0
 20
0.0
 30
0.0
  0
VERTEX
  5
75C
  8
0
  6
CONTINUOUS
 62
     7
 10
44.4212628083
 20
36.5610479046
 30
0.0
  0
VERTEX
  5
75D
  8
0
  6
CONTINUOUS
 62
     7
 10
44.4036503206
 20
36.5392432891
 30
0.0
  0
VERTEX
  5
75E
  8
0
  6
CONTINUOUS
 62
     7
 10
44.374181128
 20
36.5222310863
 30
0.0
  0
VERTEX
  5
75F
  8
0
  6
CONTINUOUS
 62
     7
 10
44.3364099188
 20
36.5120633742
 30
0.0
  0
VERTEX
  5
760
  8
0
  6
CONTINUOUS
 62
     7
 10
44.2948931989
 20
36.5099667535
 30
0.0
  0
VERTEX
  5
761
  8
0
  6
CONTINUOUS
 62
     7
 10
44.2546375658
 20
36.5161933936
 30
0.0
  0
VERTEX
  5
762
  8
0
  6
CONTINUOUS
 62
     7
 10
44.2204990333
 20
36.5299932526
 30
0.0
  0
VERTEX
  5
763
  8
0
  6
CONTINUOUS
 62
     7
 10
44.196594801
 20
36.5497007684
 30
0.0
  0
VERTEX
  5
764
  8
0
  6
CONTINUOUS
 62
     7
 10
44.1858083605
 20
36.5729400903
 30
0.0
  0
VERTEX
  5
765
  8
0
  6
CONTINUOUS
 62
     7
 10
44.1853516314
 20
36.5789775435
 30
0.0
  0
SEQEND
  5
766
  8
0
  6
CONTINUOUS
 62
     7
  0
ARC
  5
104
  8
0
  6
CONTINUOUS
 62
     7
 10
44.7998294706
 20
36.4811294446
 30
0.0
 40
0.1789243213768154
 50
161.5283246881
 51
258.466245261
  0
ARC
  5
105
  8
0
  6
CONTINUOUS
 62
     7
 10
44.79982981
 20
36.07285903
 30
0.0
 40
0.178924581177335
 50
161.5284186192
 51
258.4661513298
  0
POLYLINE
  5
106
  8
0
  6
CONTINUOUS
 62
     7
 66
     1
 10
0.0
 20
0.0
 30
0.0
  0
VERTEX
  5
767
  8
0
  6
CONTINUOUS
 62
     7
 10
44.1855204677
 20
36.1662161317
 30
0.0
  0
VERTEX
  5
768
  8
0
  6
CONTINUOUS
 62
     7
 10
44.1858083605
 20
36.1565043836
 30
0.0
  0
VERTEX
  5
769
  8
0
  6
CONTINUOUS
 62
     7
 10
44.196594801
 20
36.1332650618
 30
0.0
  0
VERTEX
  5
76A
  8
0
  6
CONTINUOUS
 62
     7
 10
44.2204990333
 20
36.113557546
 30
0.0
  0
VERTEX
  5
76B
  8
0
  6
CONTINUOUS
 62
     7
 10
44.2546375658
 20
36.0997576869
 30
0.0
  0
VERTEX
  5
76C
  8
0
  6
CONTINUOUS
 62
     7
 10
44.2948931989
 20
36.0935310469
 30
0.0
  0
VERTEX
  5
76D
  8
0
  6
CONTINUOUS
 62
     7
 10
44.3364099188
 20
36.0956276675
 30
0.0
  0
VERTEX
  5
76E
  8
0
  6
CONTINUOUS
 62
     7
 10
44.374181128
 20
36.1057953797
 30
0.0
  0
VERTEX
  5
76F
  8
0
  6
CONTINUOUS
 62
     7
 10
44.4036503206
 20
36.1228075825
 30
0.0
  0
VERTEX
  5
770
  8
0
  6
CONTINUOUS
 62
     7
 10
44.4160836409
 20
36.1358456654
 30
0.0
  0
SEQEND
  5
771
  8
0
  6
CONTINUOUS
 62
     7
  0
POLYLINE
  5
107
  8
0
  6
CONTINUOUS
 62
     7
 66
     1
 10
0.0
 20
0.0
 30
0.0
  0
VERTEX
  5
772
  8
0
  6
CONTINUOUS
 62
     7
 10
44.4212628083
 20
35.744507402
 30
0.0
  0
VERTEX
  5
773
  8
0
  6
CONTINUOUS
 62
     7
 10
44.4036503206
 20
35.7227027865
 30
0.0
  0
VERTEX
  5
774
  8
0
  6
CONTINUOUS
 62
     7
 10
44.374181128
 20
35.7056905837
 30
0.0
  0
VERTEX
  5
775
  8
0
  6
CONTINUOUS
 62
     7
 10
44.3364099188
 20
35.6955228715
 30
0.0
  0
VERTEX
  5
776
  8
0
  6
CONTINUOUS
 62
     7
 10
44.2948931989
 20
35.6934262509
 30
0.0
  0
VERTEX
  5
777
  8
0
  6
CONTINUOUS
 62
     7
 10
44.2546375658
 20
35.6996528909
 30
0.0
  0
VERTEX
  5
778
  8
0
  6
CONTINUOUS
 62
     7
 10
44.2204990333
 20
35.71345275
 30
0.0
  0
VERTEX
  5
779
  8
0
  6
CONTINUOUS
 62
     7
 10
44.196594801
 20
35.7331602658
 30
0.0
  0
VERTEX
  5
77A
  8
0
  6
CONTINUOUS
 62
     7
 10
44.1858083605
 20
35.7563995876
 30
0.0
  0
VERTEX
  5
77B
  8
0
  6
CONTINUOUS
 62
     7
 10
44.1853516314
 20
35.7624370409
 30
0.0
  0
SEQEND
  5
77C
  8
0
  6
CONTINUOUS
 62
     7
  0
ARC
  5
108
  8
0
  6
CONTINUOUS
 62
     7
 10
44.7998298183
 20
35.5625211308
 30
0.0
 40
0.1789245875347841
 50
161.5284209178
 51
258.4661490313
  0
ARC
  5
109
  8
0
  6
CONTINUOUS
 62
     7
 10
44.79982981
 20
35.0521829825
 30
0.0
 40
0.1789245811773384
 50
161.5284186192
 51
258.4661513298
  0
POLYLINE
  5
10A
  8
0
  6
CONTINUOUS
 62
     7
 66
     1
 10
0.0
 20
0.0
 30
0.0
  0
VERTEX
  5
77D
  8
0
  6
CONTINUOUS
 62
     7
 10
44.1855208825
 20
35.349675629
 30
0.0
  0
VERTEX
  5
77E
  8
0
  6
CONTINUOUS
 62
     7
 10
44.1858083605
 20
35.3399636415
 30
0.0
  0
VERTEX
  5
77F
  8
0
  6
CONTINUOUS
 62
     7
 10
44.196594801
 20
35.3167243197
 30
0.0
  0
VERTEX
  5
780
  8
0
  6
CONTINUOUS
 62
     7
 10
44.2204990333
 20
35.2970168038
 30
0.0
  0
VERTEX
  5
781
  8
0
  6
CONTINUOUS
 62
     7
 10
44.2546375658
 20
35.2832169448
 30
0.0
  0
VERTEX
  5
782
  8
0
  6
CONTINUOUS
 62
     7
 10
44.2948931989
 20
35.2769903047
 30
0.0
  0
VERTEX
  5
783
  8
0
  6
CONTINUOUS
 62
     7
 10
44.3364099188
 20
35.2790869254
 30
0.0
  0
VERTEX
  5
784
  8
0
  6
CONTINUOUS
 62
     7
 10
44.374181128
 20
35.2892546376
 30
0.0
  0
VERTEX
  5
785
  8
0
  6
CONTINUOUS
 62
     7
 10
44.4036503206
 20
35.3062668404
 30
0.0
  0
VERTEX
  5
786
  8
0
  6
CONTINUOUS
 62
     7
 10
44.4160836409
 20
35.3193049232
 30
0.0
  0
SEQEND
  5
787
  8
0
  6
CONTINUOUS
 62
     7
  0
POLYLINE
  5
10B
  8
0
  6
CONTINUOUS
 62
     7
 66
     1
 10
0.0
 20
0.0
 30
0.0
  0
VERTEX
  5
788
  8
0
  6
CONTINUOUS
 62
     7
 10
44.4212628083
 20
34.9279664203
 30
0.0
  0
VERTEX
  5
789
  8
0
  6
CONTINUOUS
 62
     7
 10
44.4036503206
 20
34.9061618049
 30
0.0
  0
VERTEX
  5
78A
  8
0
  6
CONTINUOUS
 62
     7
 10
44.374181128
 20
34.8891496021
 30
0.0
  0
VERTEX
  5
78B
  8
0
  6
CONTINUOUS
 62
     7
 10
44.3364099188
 20
34.8789818899
 30
0.0
  0
VERTEX
  5
78C
  8
0
  6
CONTINUOUS
 62
     7
 10
44.2948931989
 20
34.8768852692
 30
0.0
  0
VERTEX
  5
78D
  8
0
  6
CONTINUOUS
 62
     7
 10
44.2546375658
 20
34.8831119093
 30
0.0
  0
VERTEX
  5
78E
  8
0
  6
CONTINUOUS
 62
     7
 10
44.2204990333
 20
34.8969117683
 30
0.0
  0
VERTEX
  5
78F
  8
0
  6
CONTINUOUS
 62
     7
 10
44.196594801
 20
34.9166192841
 30
0.0
  0
VERTEX
  5
790
  8
0
  6
CONTINUOUS
 62
     7
 10
44.1858083605
 20
34.939858606
 30
0.0
  0
VERTEX
  5
791
  8
0
  6
CONTINUOUS
 62
     7
 10
44.1853516314
 20
34.9458960593
 30
0.0
  0
SEQEND
  5
792
  8
0
  6
CONTINUOUS
 62
     7
  0
ARC
  5
10C
  8
0
  6
CONTINUOUS
 62
     7
 10
44.7998298183
 20
34.6439126163
 30
0.0
 40
0.1789245875347841
 50
161.5284209178
 51
258.4661490313
  0
ARC
  5
10D
  8
0
  6
CONTINUOUS
 62
     7
 10
44.7998298183
 20
34.1335747123
 30
0.0
 40
0.1789245875347908
 50
161.5284209178
 51
258.4661490313
  0
POLYLINE
  5
10E
  8
0
  6
CONTINUOUS
 62
     7
 66
     1
 10
0.0
 20
0.0
 30
0.0
  0
VERTEX
  5
793
  8
0
  6
CONTINUOUS
 62
     7
 10
44.1855208825
 20
34.5331348869
 30
0.0
  0
VERTEX
  5
794
  8
0
  6
CONTINUOUS
 62
     7
 10
44.1858083605
 20
34.5234228993
 30
0.0
  0
VERTEX
  5
795
  8
0
  6
CONTINUOUS
 62
     7
 10
44.196594801
 20
34.5001835775
 30
0.0
  0
VERTEX
  5
796
  8
0
  6
CONTINUOUS
 62
     7
 10
44.2204990333
 20
34.4804760617
 30
0.0
  0
VERTEX
  5
797
  8
0
  6
CONTINUOUS
 62
     7
 10
44.2546375658
 20
34.4666762027
 30
0.0
  0
VERTEX
  5
798
  8
0
  6
CONTINUOUS
 62
     7
 10
44.2948931989
 20
34.4604495626
 30
0.0
  0
VERTEX
  5
799
  8
0
  6
CONTINUOUS
 62
     7
 10
44.3364099188
 20
34.4625461832
 30
0.0
  0
VERTEX
  5
79A
  8
0
  6
CONTINUOUS
 62
     7
 10
44.374181128
 20
34.4727138954
 30
0.0
  0
VERTEX
  5
79B
  8
0
  6
CONTINUOUS
 62
     7
 10
44.4036503206
 20
34.4897260982
 30
0.0
  0
VERTEX
  5
79C
  8
0
  6
CONTINUOUS
 62
     7
 10
44.4160836409
 20
34.5027641811
 30
0.0
  0
SEQEND
  5
79D
  8
0
  6
CONTINUOUS
 62
     7
  0
POLYLINE
  5
10F
  8
0
  6
CONTINUOUS
 62
     7
 66
     1
 10
0.0
 20
0.0
 30
0.0
  0
VERTEX
  5
79E
  8
0
  6
CONTINUOUS
 62
     7
 10
44.4212628083
 20
34.1114256782
 30
0.0
  0
VERTEX
  5
79F
  8
0
  6
CONTINUOUS
 62
     7
 10
44.4036503206
 20
34.0896210627
 30
0.0
  0
VERTEX
  5
7A0
  8
0
  6
CONTINUOUS
 62
     7
 10
44.374181128
 20
34.0726088599
 30
0.0
  0
VERTEX
  5
7A1
  8
0
  6
CONTINUOUS
 62
     7
 10
44.3364099188
 20
34.0624411477
 30
0.0
  0
VERTEX
  5
7A2
  8
0
  6
CONTINUOUS
 62
     7
 10
44.2948931989
 20
34.0603445271
 30
0.0
  0
VERTEX
  5
7A3
  8
0
  6
CONTINUOUS
 62
     7
 10
44.2546375658
 20
34.0665711672
 30
0.0
  0
VERTEX
  5
7A4
  8
0
  6
CONTINUOUS
 62
     7
 10
44.2204990333
 20
34.0803710262
 30
0.0
  0
VERTEX
  5
7A5
  8
0
  6
CONTINUOUS
 62
     7
 10
44.196594801
 20
34.100078542
 30
0.0
  0
VERTEX
  5
7A6
  8
0
  6
CONTINUOUS
 62
     7
 10
44.1858083605
 20
34.1233178638
 30
0.0
  0
VERTEX
  5
7A7
  8
0
  6
CONTINUOUS
 62
     7
 10
44.1853516314
 20
34.1293553171
 30
0.0
  0
SEQEND
  5
7A8
  8
0
  6
CONTINUOUS
 62
     7
  0
ARC
  5
110
  8
0
  6
CONTINUOUS
 62
     7
 10
44.7998300521
 20
33.6232367331
 30
0.0
 40
0.1789247952589786
 50
161.5284581684
 51
258.4660861686
  0
POLYLINE
  5
111
  8
0
  6
CONTINUOUS
 62
     7
 66
     1
 10
0.0
 20
0.0
 30
0.0
  0
VERTEX
  5
7A9
  8
0
  6
CONTINUOUS
 62
     7
 10
44.1855208825
 20
33.716594025
 30
0.0
  0
VERTEX
  5
7AA
  8
0
  6
CONTINUOUS
 62
     7
 10
44.1858083605
 20
33.7068820374
 30
0.0
  0
VERTEX
  5
7AB
  8
0
  6
CONTINUOUS
 62
     7
 10
44.196594801
 20
33.6836427156
 30
0.0
  0
VERTEX
  5
7AC
  8
0
  6
CONTINUOUS
 62
     7
 10
44.2204990333
 20
33.6639351998
 30
0.0
  0
VERTEX
  5
7AD
  8
0
  6
CONTINUOUS
 62
     7
 10
44.2546375658
 20
33.6501353408
 30
0.0
  0
VERTEX
  5
7AE
  8
0
  6
CONTINUOUS
 62
     7
 10
44.2948931989
 20
33.6439087007
 30
0.0
  0
VERTEX
  5
7AF
  8
0
  6
CONTINUOUS
 62
     7
 10
44.3364099188
 20
33.6460053213
 30
0.0
  0
VERTEX
  5
7B0
  8
0
  6
CONTINUOUS
 62
     7
 10
44.374181128
 20
33.6561730335
 30
0.0
  0
VERTEX
  5
7B1
  8
0
  6
CONTINUOUS
 62
     7
 10
44.4036503206
 20
33.6731852363
 30
0.0
  0
VERTEX
  5
7B2
  8
0
  6
CONTINUOUS
 62
     7
 10
44.4160836409
 20
33.6862233192
 30
0.0
  0
SEQEND
  5
7B3
  8
0
  6
CONTINUOUS
 62
     7
  0
POLYLINE
  5
112
  8
0
  6
CONTINUOUS
 62
     7
 66
     1
 10
0.0
 20
0.0
 30
0.0
  0
VERTEX
  5
7B4
  8
0
  6
CONTINUOUS
 62
     7
 10
44.4212628083
 20
33.2948848163
 30
0.0
  0
VERTEX
  5
7B5
  8
0
  6
CONTINUOUS
 62
     7
 10
44.4036503206
 20
33.2730802008
 30
0.0
  0
VERTEX
  5
7B6
  8
0
  6
CONTINUOUS
 62
     7
 10
44.374181128
 20
33.256067998
 30
0.0
  0
VERTEX
  5
7B7
  8
0
  6
CONTINUOUS
 62
     7
 10
44.3364099188
 20
33.2459002858
 30
0.0
  0
VERTEX
  5
7B8
  8
0
  6
CONTINUOUS
 62
     7
 10
44.2948931989
 20
33.2438036652
 30
0.0
  0
VERTEX
  5
7B9
  8
0
  6
CONTINUOUS
 62
     7
 10
44.2546375658
 20
33.2500303053
 30
0.0
  0
VERTEX
  5
7BA
  8
0
  6
CONTINUOUS
 62
     7
 10
44.2204990333
 20
33.2638301643
 30
0.0
  0
VERTEX
  5
7BB
  8
0
  6
CONTINUOUS
 62
     7
 10
44.196594801
 20
33.2835376801
 30
0.0
  0
VERTEX
  5
7BC
  8
0
  6
CONTINUOUS
 62
     7
 10
44.1858083605
 20
33.3067770019
 30
0.0
  0
VERTEX
  5
7BD
  8
0
  6
CONTINUOUS
 62
     7
 10
44.1853516314
 20
33.3128144552
 30
0.0
  0
SEQEND
  5
7BE
  8
0
  6
CONTINUOUS
 62
     7
  0
ARC
  5
113
  8
0
  6
CONTINUOUS
 62
     7
 10
44.7998299982
 20
33.2149663309
 30
0.0
 40
0.1789247539538185
 50
161.5284432346
 51
258.4661011025
  0
ARC
  5
114
  8
0
  6
CONTINUOUS
 62
     7
 10
44.7998299951
 20
32.7046282908
 30
0.0
 40
0.1789247372839872
 50
161.5284561336
 51
258.4661010095
  0
POLYLINE
  5
115
  8
0
  6
CONTINUOUS
 62
     7
 66
     1
 10
0.0
 20
0.0
 30
0.0
  0
VERTEX
  5
7BF
  8
0
  6
CONTINUOUS
 62
     7
 10
44.1855208825
 20
32.900053223
 30
0.0
  0
VERTEX
  5
7C0
  8
0
  6
CONTINUOUS
 62
     7
 10
44.1858083605
 20
32.8903412354
 30
0.0
  0
VERTEX
  5
7C1
  8
0
  6
CONTINUOUS
 62
     7
 10
44.196594801
 20
32.8671019136
 30
0.0
  0
VERTEX
  5
7C2
  8
0
  6
CONTINUOUS
 62
     7
 10
44.2204990333
 20
32.8473943978
 30
0.0
  0
VERTEX
  5
7C3
  8
0
  6
CONTINUOUS
 62
     7
 10
44.2546375658
 20
32.8335945387
 30
0.0
  0
VERTEX
  5
7C4
  8
0
  6
CONTINUOUS
 62
     7
 10
44.2948931989
 20
32.8273678987
 30
0.0
  0
VERTEX
  5
7C5
  8
0
  6
CONTINUOUS
 62
     7
 10
44.3364099188
 20
32.8294645193
 30
0.0
  0
VERTEX
  5
7C6
  8
0
  6
CONTINUOUS
 62
     7
 10
44.374181128
 20
32.8396322315
 30
0.0
  0
VERTEX
  5
7C7
  8
0
  6
CONTINUOUS
 62
     7
 10
44.4036503206
 20
32.8566444343
 30
0.0
  0
VERTEX
  5
7C8
  8
0
  6
CONTINUOUS
 62
     7
 10
44.4160836409
 20
32.8696825172
 30
0.0
  0
SEQEND
  5
7C9
  8
0
  6
CONTINUOUS
 62
     7
  0
POLYLINE
  5
116
  8
0
  6
CONTINUOUS
 62
     7
 66
     1
 10
0.0
 20
0.0
 30
0.0
  0
VERTEX
  5
7CA
  8
0
  6
CONTINUOUS
 62
     7
 10
44.4212628083
 20
32.4783440442
 30
0.0
  0
VERTEX
  5
7CB
  8
0
  6
CONTINUOUS
 62
     7
 10
44.4036503206
 20
32.4565394287
 30
0.0
  0
VERTEX
  5
7CC
  8
0
  6
CONTINUOUS
 62
     7
 10
44.374181128
 20
32.439527226
 30
0.0
  0
VERTEX
  5
7CD
  8
0
  6
CONTINUOUS
 62
     7
 10
44.3364099188
 20
32.4293595138
 30
0.0
  0
VERTEX
  5
7CE
  8
0
  6
CONTINUOUS
 62
     7
 10
44.2948931989
 20
32.4272628931
 30
0.0
  0
VERTEX
  5
7CF
  8
0
  6
CONTINUOUS
 62
     7
 10
44.2546375658
 20
32.4334895332
 30
0.0
  0
VERTEX
  5
7D0
  8
0
  6
CONTINUOUS
 62
     7
 10
44.2204990333
 20
32.4472893922
 30
0.0
  0
VERTEX
  5
7D1
  8
0
  6
CONTINUOUS
 62
     7
 10
44.196594801
 20
32.466996908
 30
0.0
  0
VERTEX
  5
7D2
  8
0
  6
CONTINUOUS
 62
     7
 10
44.1858083605
 20
32.4902362299
 30
0.0
  0
VERTEX
  5
7D3
  8
0
  6
CONTINUOUS
 62
     7
 10
44.1853516314
 20
32.4962736832
 30
0.0
  0
SEQEND
  5
7D4
  8
0
  6
CONTINUOUS
 62
     7
  0
ARC
  5
117
  8
0
  6
CONTINUOUS
 62
     7
 10
44.7998299428
 20
32.1942902724
 30
0.0
 40
0.1789246954230792
 50
161.5284433645
 51
258.4661153793
  0
LINE
  5
118
  8
0
  6
CONTINUOUS
 62
     7
 10
57.8132123587
 20
30.0503604184
 30
0.0
 11
57.8132123587
 21
24.3345747444
 31
0.0
  0
ARC
  5
119
  8
0
  6
CONTINUOUS
 62
     7
 10
57.8676597816
 20
30.1554438877
 30
0.0
 40
0.1183514147894521
 50
242.6097453919
 51
297.3902546081
  0
LINE
  5
11A
  8
0
  6
CONTINUOUS
 62
     7
 10
57.9221072044
 20
30.0503604184
 30
0.0
 11
57.9221072044
 21
24.3345747444
 31
0.0
  0
ARC
  5
11B
  8
0
  6
CONTINUOUS
 62
     7
 10
57.8676597816
 20
24.4396582137
 30
0.0
 40
0.1183514147894521
 50
242.6097453919
 51
297.3902546081
  0
ARC
  5
11C
  8
0
  6
CONTINUOUS
 62
     7
 10
57.8676597816
 20
30.0961404711
 30
0.0
 40
0.0230560892673548
 50
242.6100446368
 51
297.3899553631
  0
LINE
  5
11D
  8
0
  6
CONTINUOUS
 62
     7
 10
57.8782666002
 20
30.0756690605
 30
0.0
 11
57.9221072044
 21
30.0503604184
 31
0.0
  0
LINE
  5
11E
  8
0
  6
CONTINUOUS
 62
     7
 10
57.8132123587
 20
30.0503604184
 30
0.0
 11
57.857052963
 21
30.0756690605
 31
0.0
  0
POLYLINE
  5
11F
  8
0
  6
CONTINUOUS
 62
     7
 66
     1
 10
0.0
 20
0.0
 30
0.0
  0
VERTEX
  5
7D5
  8
0
  6
CONTINUOUS
 62
     7
 10
61.2046141115
 20
27.5690607905
 30
0.0
  0
VERTEX
  5
7D6
  8
0
  6
CONTINUOUS
 62
     7
 10
61.1706349261
 20
27.5425263688
 30
0.0
  0
VERTEX
  5
7D7
  8
0
  6
CONTINUOUS
 62
     7
 10
61.1407541432
 20
27.5053549471
 30
0.0
  0
VERTEX
  5
7D8
  8
0
  6
CONTINUOUS
 62
     7
 10
61.1185757901
 20
27.4620300292
 30
0.0
  0
VERTEX
  5
7D9
  8
0
  6
CONTINUOUS
 62
     7
 10
61.1067749318
 20
27.4177771363
 30
0.0
  0
VERTEX
  5
7DA
  8
0
  6
CONTINUOUS
 62
     7
 10
61.1067749318
 20
27.3779339106
 30
0.0
  0
VERTEX
  5
7DB
  8
0
  6
CONTINUOUS
 62
     7
 10
61.1185757901
 20
27.3473059987
 30
0.0
  0
VERTEX
  5
7DC
  8
0
  6
CONTINUOUS
 62
     7
 10
61.1407541432
 20
27.3295876621
 30
0.0
  0
VERTEX
  5
7DD
  8
0
  6
CONTINUOUS
 62
     7
 10
61.1706349261
 20
27.3269158581
 30
0.0
  0
VERTEX
  5
7DE
  8
0
  6
CONTINUOUS
 62
     7
 10
61.2046141115
 20
27.3396128491
 30
0.0
  0
SEQEND
  5
7DF
  8
0
  6
CONTINUOUS
 62
     7
  0
LINE
  5
120
  8
0
  6
CONTINUOUS
 62
     7
 10
61.2046141115
 20
27.3396128491
 30
0.0
 11
61.3487465784
 21
27.4228187512
 31
0.0
  0
LINE
  5
121
  8
0
  6
CONTINUOUS
 62
     7
 10
61.3487465784
 20
27.4228187512
 30
0.0
 11
61.3487465784
 21
26.3127315487
 31
0.0
  0
LINE
  5
122
  8
0
  6
CONTINUOUS
 62
     7
 10
57.9221072044
 20
24.3345747444
 30
0.0
 11
61.3487465784
 21
26.3127315487
 31
0.0
  0
LINE
  5
123
  8
0
  6
CONTINUOUS
 62
     7
 10
57.9221072044
 20
30.0503604184
 30
0.0
 11
61.3487465784
 21
32.0285172227
 31
0.0
  0
LINE
  5
124
  8
0
  6
CONTINUOUS
 62
     7
 10
61.3487465784
 20
32.0285172227
 30
0.0
 11
61.3487465784
 21
30.9184301401
 31
0.0
  0
LINE
  5
125
  8
0
  6
CONTINUOUS
 62
     7
 10
61.3487465784
 20
30.9184301401
 30
0.0
 11
61.2046141115
 21
30.835224238
 31
0.0
  0
POLYLINE
  5
126
  8
0
  6
CONTINUOUS
 62
     7
 66
     1
 10
0.0
 20
0.0
 30
0.0
  0
VERTEX
  5
7E0
  8
0
  6
CONTINUOUS
 62
     7
 10
61.2046141115
 20
30.835224238
 30
0.0
  0
VERTEX
  5
7E1
  8
0
  6
CONTINUOUS
 62
     7
 10
61.1706349261
 20
30.8086898164
 30
0.0
  0
VERTEX
  5
7E2
  8
0
  6
CONTINUOUS
 62
     7
 10
61.1407541432
 20
30.7715180354
 30
0.0
  0
VERTEX
  5
7E3
  8
0
  6
CONTINUOUS
 62
     7
 10
61.1185757901
 20
30.7281932373
 30
0.0
  0
VERTEX
  5
7E4
  8
0
  6
CONTINUOUS
 62
     7
 10
61.1067749318
 20
30.6839405839
 30
0.0
  0
VERTEX
  5
7E5
  8
0
  6
CONTINUOUS
 62
     7
 10
61.1067749318
 20
30.6440971187
 30
0.0
  0
VERTEX
  5
7E6
  8
0
  6
CONTINUOUS
 62
     7
 10
61.1185757901
 20
30.6134694462
 30
0.0
  0
VERTEX
  5
7E7
  8
0
  6
CONTINUOUS
 62
     7
 10
61.1407541432
 20
30.5957507504
 30
0.0
  0
VERTEX
  5
7E8
  8
0
  6
CONTINUOUS
 62
     7
 10
61.1706349261
 20
30.5930790662
 30
0.0
  0
VERTEX
  5
7E9
  8
0
  6
CONTINUOUS
 62
     7
 10
61.2046141115
 20
30.6057761769
 30
0.0
  0
SEQEND
  5
7EA
  8
0
  6
CONTINUOUS
 62
     7
  0
LINE
  5
127
  8
0
  6
CONTINUOUS
 62
     7
 10
61.2046141115
 20
30.6057761769
 30
0.0
 11
61.3487465784
 21
30.688982079
 31
0.0
  0
LINE
  5
128
  8
0
  6
CONTINUOUS
 62
     7
 10
61.3487465784
 20
30.688982079
 30
0.0
 11
61.3487465784
 21
27.6522666925
 31
0.0
  0
LINE
  5
129
  8
0
  6
CONTINUOUS
 62
     7
 10
61.3487465784
 20
27.6522666925
 30
0.0
 11
61.2046141115
 21
27.5690607905
 31
0.0
  0
LINE
  5
12A
  8
0
  6
CONTINUOUS
 62
     7
 10
57.8782666002
 20
30.0756690605
 30
0.0
 11
61.3049059742
 21
32.0538258649
 31
0.0
  0
LINE
  5
12B
  8
0
  6
CONTINUOUS
 62
     7
 10
61.3487465784
 20
32.0285172227
 30
0.0
 11
61.3049059742
 21
32.0538258649
 31
0.0
  0
LINE
  5
12C
  8
0
  6
CONTINUOUS
 62
     7
 10
57.4476382276
 20
30.2614018721
 30
0.0
 11
57.4914788319
 21
30.2867105142
 31
0.0
  0
LINE
  5
12D
  8
0
  6
CONTINUOUS
 62
     7
 10
57.4914788319
 20
30.2867105142
 30
0.0
 11
57.857052963
 21
30.0756690605
 31
0.0
  0
LINE
  5
12E
  8
0
  6
CONTINUOUS
 62
     7
 10
57.4476382276
 20
30.2614018721
 30
0.0
 11
57.8132123587
 21
30.0503604184
 31
0.0
  0
POLYLINE
  5
12F
  8
0
  6
CONTINUOUS
 62
     7
 66
     1
 10
0.0
 20
0.0
 30
0.0
  0
VERTEX
  5
7EB
  8
0
  6
CONTINUOUS
 62
     7
 10
57.7237635546
 20
29.3875251442
 30
0.0
  0
VERTEX
  5
7EC
  8
0
  6
CONTINUOUS
 62
     7
 10
57.7183807051
 20
29.4278830634
 30
0.0
  0
VERTEX
  5
7ED
  8
0
  6
CONTINUOUS
 62
     7
 10
57.7028149945
 20
29.4700831017
 30
0.0
  0
VERTEX
  5
7EE
  8
0
  6
CONTINUOUS
 62
     7
 10
57.6787535412
 20
29.509551862
 30
0.0
  0
VERTEX
  5
7EF
  8
0
  6
CONTINUOUS
 62
     7
 10
57.6488035592
 20
29.5420120748
 30
0.0
  0
VERTEX
  5
7F0
  8
0
  6
CONTINUOUS
 62
     7
 10
57.6162106878
 20
29.5639460356
 30
0.0
  0
VERTEX
  5
7F1
  8
0
  6
CONTINUOUS
 62
     7
 10
57.5845072144
 20
29.5729768809
 30
0.0
  0
VERTEX
  5
7F2
  8
0
  6
CONTINUOUS
 62
     7
 10
57.5571279412
 20
29.5681267501
 30
0.0
  0
VERTEX
  5
7F3
  8
0
  6
CONTINUOUS
 62
     7
 10
57.5370405707
 20
29.5499204615
 30
0.0
  0
VERTEX
  5
7F4
  8
0
  6
CONTINUOUS
 62
     7
 10
57.5264213072
 20
29.5203313509
 30
0.0
  0
VERTEX
  5
7F5
  8
0
  6
CONTINUOUS
 62
     7
 10
57.5264213072
 20
29.4825654464
 30
0.0
  0
VERTEX
  5
7F6
  8
0
  6
CONTINUOUS
 62
     7
 10
57.5370405707
 20
29.4407151161
 30
0.0
  0
VERTEX
  5
7F7
  8
0
  6
CONTINUOUS
 62
     7
 10
57.5571279412
 20
29.3993164431
 30
0.0
  0
VERTEX
  5
7F8
  8
0
  6
CONTINUOUS
 62
     7
 10
57.5845072144
 20
29.3628548764
 30
0.0
  0
VERTEX
  5
7F9
  8
0
  6
CONTINUOUS
 62
     7
 10
57.6162106878
 20
29.3352816704
 30
0.0
  0
VERTEX
  5
7FA
  8
0
  6
CONTINUOUS
 62
     7
 10
57.6488035592
 20
29.3195847029
 30
0.0
  0
VERTEX
  5
7FB
  8
0
  6
CONTINUOUS
 62
     7
 10
57.6787535412
 20
29.3174654026
 30
0.0
  0
VERTEX
  5
7FC
  8
0
  6
CONTINUOUS
 62
     7
 10
57.7028149945
 20
29.3291534002
 30
0.0
  0
VERTEX
  5
7FD
  8
0
  6
CONTINUOUS
 62
     7
 10
57.7183807051
 20
29.3533816516
 30
0.0
  0
VERTEX
  5
7FE
  8
0
  6
CONTINUOUS
 62
     7
 10
57.7237635546
 20
29.3875251442
 30
0.0
  0
SEQEND
  5
7FF
  8
0
  6
CONTINUOUS
 62
     7
  0
POLYLINE
  5
130
  8
0
  6
CONTINUOUS
 62
     7
 66
     1
 10
0.0
 20
0.0
 30
0.0
  0
VERTEX
  5
800
  8
0
  6
CONTINUOUS
 62
     7
 10
57.7237635546
 20
27.9585784861
 30
0.0
  0
VERTEX
  5
801
  8
0
  6
CONTINUOUS
 62
     7
 10
57.7183807051
 20
27.9989366449
 30
0.0
  0
VERTEX
  5
802
  8
0
  6
CONTINUOUS
 62
     7
 10
57.7028149945
 20
28.0411366832
 30
0.0
  0
VERTEX
  5
803
  8
0
  6
CONTINUOUS
 62
     7
 10
57.6787535412
 20
28.0806052039
 30
0.0
  0
VERTEX
  5
804
  8
0
  6
CONTINUOUS
 62
     7
 10
57.6488035592
 20
28.1130654168
 30
0.0
  0
VERTEX
  5
805
  8
0
  6
CONTINUOUS
 62
     7
 10
57.6162106878
 20
28.1349996171
 30
0.0
  0
VERTEX
  5
806
  8
0
  6
CONTINUOUS
 62
     7
 10
57.5845072144
 20
28.1440307019
 30
0.0
  0
VERTEX
  5
807
  8
0
  6
CONTINUOUS
 62
     7
 10
57.5571279412
 20
28.1391803316
 30
0.0
  0
VERTEX
  5
808
  8
0
  6
CONTINUOUS
 62
     7
 10
57.5370405707
 20
28.120974043
 30
0.0
  0
VERTEX
  5
809
  8
0
  6
CONTINUOUS
 62
     7
 10
57.5264213072
 20
28.0913846929
 30
0.0
  0
VERTEX
  5
80A
  8
0
  6
CONTINUOUS
 62
     7
 10
57.5264213072
 20
28.0536187884
 30
0.0
  0
VERTEX
  5
80B
  8
0
  6
CONTINUOUS
 62
     7
 10
57.5370405707
 20
28.0117686976
 30
0.0
  0
VERTEX
  5
80C
  8
0
  6
CONTINUOUS
 62
     7
 10
57.5571279412
 20
27.9703700246
 30
0.0
  0
VERTEX
  5
80D
  8
0
  6
CONTINUOUS
 62
     7
 10
57.5845072144
 20
27.9339082184
 30
0.0
  0
VERTEX
  5
80E
  8
0
  6
CONTINUOUS
 62
     7
 10
57.6162106878
 20
27.9063352519
 30
0.0
  0
VERTEX
  5
80F
  8
0
  6
CONTINUOUS
 62
     7
 10
57.6488035592
 20
27.8906385239
 30
0.0
  0
VERTEX
  5
810
  8
0
  6
CONTINUOUS
 62
     7
 10
57.6787535412
 20
27.8885192236
 30
0.0
  0
VERTEX
  5
811
  8
0
  6
CONTINUOUS
 62
     7
 10
57.7028149945
 20
27.9002069817
 30
0.0
  0
VERTEX
  5
812
  8
0
  6
CONTINUOUS
 62
     7
 10
57.7183807051
 20
27.9244352331
 30
0.0
  0
VERTEX
  5
813
  8
0
  6
CONTINUOUS
 62
     7
 10
57.7237635546
 20
27.9585784861
 30
0.0
  0
SEQEND
  5
814
  8
0
  6
CONTINUOUS
 62
     7
  0
POLYLINE
  5
131
  8
0
  6
CONTINUOUS
 62
     7
 66
     1
 10
0.0
 20
0.0
 30
0.0
  0
VERTEX
  5
815
  8
0
  6
CONTINUOUS
 62
     7
 10
57.7237635546
 20
28.8771867612
 30
0.0
  0
VERTEX
  5
816
  8
0
  6
CONTINUOUS
 62
     7
 10
57.7183807051
 20
28.9175451594
 30
0.0
  0
VERTEX
  5
817
  8
0
  6
CONTINUOUS
 62
     7
 10
57.7028149945
 20
28.9597451978
 30
0.0
  0
VERTEX
  5
818
  8
0
  6
CONTINUOUS
 62
     7
 10
57.6787535412
 20
28.999213479
 30
0.0
  0
VERTEX
  5
819
  8
0
  6
CONTINUOUS
 62
     7
 10
57.6488035592
 20
29.0316736918
 30
0.0
  0
VERTEX
  5
81A
  8
0
  6
CONTINUOUS
 62
     7
 10
57.6162106878
 20
29.0536081317
 30
0.0
  0
VERTEX
  5
81B
  8
0
  6
CONTINUOUS
 62
     7
 10
57.5845072144
 20
29.062638977
 30
0.0
  0
VERTEX
  5
81C
  8
0
  6
CONTINUOUS
 62
     7
 10
57.5571279412
 20
29.0577888462
 30
0.0
  0
VERTEX
  5
81D
  8
0
  6
CONTINUOUS
 62
     7
 10
57.5370405707
 20
29.0395825575
 30
0.0
  0
VERTEX
  5
81E
  8
0
  6
CONTINUOUS
 62
     7
 10
57.5264213072
 20
29.0099929679
 30
0.0
  0
VERTEX
  5
81F
  8
0
  6
CONTINUOUS
 62
     7
 10
57.5264213072
 20
28.9722270634
 30
0.0
  0
VERTEX
  5
820
  8
0
  6
CONTINUOUS
 62
     7
 10
57.5370405707
 20
28.9303772121
 30
0.0
  0
VERTEX
  5
821
  8
0
  6
CONTINUOUS
 62
     7
 10
57.5571279412
 20
28.8889785391
 30
0.0
  0
VERTEX
  5
822
  8
0
  6
CONTINUOUS
 62
     7
 10
57.5845072144
 20
28.8525164934
 30
0.0
  0
VERTEX
  5
823
  8
0
  6
CONTINUOUS
 62
     7
 10
57.6162106878
 20
28.8249437665
 30
0.0
  0
VERTEX
  5
824
  8
0
  6
CONTINUOUS
 62
     7
 10
57.6488035592
 20
28.8092467989
 30
0.0
  0
VERTEX
  5
825
  8
0
  6
CONTINUOUS
 62
     7
 10
57.6787535412
 20
28.8071274986
 30
0.0
  0
VERTEX
  5
826
  8
0
  6
CONTINUOUS
 62
     7
 10
57.7028149945
 20
28.8188154962
 30
0.0
  0
VERTEX
  5
827
  8
0
  6
CONTINUOUS
 62
     7
 10
57.7183807051
 20
28.8430437477
 30
0.0
  0
VERTEX
  5
828
  8
0
  6
CONTINUOUS
 62
     7
 10
57.7237635546
 20
28.8771867612
 30
0.0
  0
SEQEND
  5
829
  8
0
  6
CONTINUOUS
 62
     7
  0
POLYLINE
  5
132
  8
0
  6
CONTINUOUS
 62
     7
 66
     1
 10
0.0
 20
0.0
 30
0.0
  0
VERTEX
  5
82A
  8
0
  6
CONTINUOUS
 62
     7
 10
57.7237635546
 20
27.4482405822
 30
0.0
  0
VERTEX
  5
82B
  8
0
  6
CONTINUOUS
 62
     7
 10
57.7183807051
 20
27.4885987409
 30
0.0
  0
VERTEX
  5
82C
  8
0
  6
CONTINUOUS
 62
     7
 10
57.7028149945
 20
27.5307987793
 30
0.0
  0
VERTEX
  5
82D
  8
0
  6
CONTINUOUS
 62
     7
 10
57.6787535412
 20
27.5702673
 30
0.0
  0
VERTEX
  5
82E
  8
0
  6
CONTINUOUS
 62
     7
 10
57.6488035592
 20
27.6027275128
 30
0.0
  0
VERTEX
  5
82F
  8
0
  6
CONTINUOUS
 62
     7
 10
57.6162106878
 20
27.6246614737
 30
0.0
  0
VERTEX
  5
830
  8
0
  6
CONTINUOUS
 62
     7
 10
57.5845072144
 20
27.6336925585
 30
0.0
  0
VERTEX
  5
831
  8
0
  6
CONTINUOUS
 62
     7
 10
57.5571279412
 20
27.6288424277
 30
0.0
  0
VERTEX
  5
832
  8
0
  6
CONTINUOUS
 62
     7
 10
57.5370405707
 20
27.6106358995
 30
0.0
  0
VERTEX
  5
833
  8
0
  6
CONTINUOUS
 62
     7
 10
57.5264213072
 20
27.5810467889
 30
0.0
  0
VERTEX
  5
834
  8
0
  6
CONTINUOUS
 62
     7
 10
57.5264213072
 20
27.5432808844
 30
0.0
  0
VERTEX
  5
835
  8
0
  6
CONTINUOUS
 62
     7
 10
57.5370405707
 20
27.5014307936
 30
0.0
  0
VERTEX
  5
836
  8
0
  6
CONTINUOUS
 62
     7
 10
57.5571279412
 20
27.4600318811
 30
0.0
  0
VERTEX
  5
837
  8
0
  6
CONTINUOUS
 62
     7
 10
57.5845072144
 20
27.4235703144
 30
0.0
  0
VERTEX
  5
838
  8
0
  6
CONTINUOUS
 62
     7
 10
57.6162106878
 20
27.395997348
 30
0.0
  0
VERTEX
  5
839
  8
0
  6
CONTINUOUS
 62
     7
 10
57.6488035592
 20
27.38030062
 30
0.0
  0
VERTEX
  5
83A
  8
0
  6
CONTINUOUS
 62
     7
 10
57.6787535412
 20
27.3781810801
 30
0.0
  0
VERTEX
  5
83B
  8
0
  6
CONTINUOUS
 62
     7
 10
57.7028149945
 20
27.3898688382
 30
0.0
  0
VERTEX
  5
83C
  8
0
  6
CONTINUOUS
 62
     7
 10
57.7183807051
 20
27.4140970896
 30
0.0
  0
VERTEX
  5
83D
  8
0
  6
CONTINUOUS
 62
     7
 10
57.7237635546
 20
27.4482405822
 30
0.0
  0
SEQEND
  5
83E
  8
0
  6
CONTINUOUS
 62
     7
  0
POLYLINE
  5
133
  8
0
  6
CONTINUOUS
 62
     7
 66
     1
 10
0.0
 20
0.0
 30
0.0
  0
VERTEX
  5
83F
  8
0
  6
CONTINUOUS
 62
     7
 10
57.7237635546
 20
29.8978630481
 30
0.0
  0
VERTEX
  5
840
  8
0
  6
CONTINUOUS
 62
     7
 10
57.7183807051
 20
29.9382209673
 30
0.0
  0
VERTEX
  5
841
  8
0
  6
CONTINUOUS
 62
     7
 10
57.7028149945
 20
29.9804210057
 30
0.0
  0
VERTEX
  5
842
  8
0
  6
CONTINUOUS
 62
     7
 10
57.6787535412
 20
30.0198897659
 30
0.0
  0
VERTEX
  5
843
  8
0
  6
CONTINUOUS
 62
     7
 10
57.6488035592
 20
30.0523499787
 30
0.0
  0
VERTEX
  5
844
  8
0
  6
CONTINUOUS
 62
     7
 10
57.6162106878
 20
30.0742839396
 30
0.0
  0
VERTEX
  5
845
  8
0
  6
CONTINUOUS
 62
     7
 10
57.5845072144
 20
30.0833152639
 30
0.0
  0
VERTEX
  5
846
  8
0
  6
CONTINUOUS
 62
     7
 10
57.5571279412
 20
30.0784646541
 30
0.0
  0
VERTEX
  5
847
  8
0
  6
CONTINUOUS
 62
     7
 10
57.5370405707
 20
30.0602583654
 30
0.0
  0
VERTEX
  5
848
  8
0
  6
CONTINUOUS
 62
     7
 10
57.5264213072
 20
30.0306692549
 30
0.0
  0
VERTEX
  5
849
  8
0
  6
CONTINUOUS
 62
     7
 10
57.5264213072
 20
29.9929033503
 30
0.0
  0
VERTEX
  5
84A
  8
0
  6
CONTINUOUS
 62
     7
 10
57.5370405707
 20
29.95105302
 30
0.0
  0
VERTEX
  5
84B
  8
0
  6
CONTINUOUS
 62
     7
 10
57.5571279412
 20
29.909654347
 30
0.0
  0
VERTEX
  5
84C
  8
0
  6
CONTINUOUS
 62
     7
 10
57.5845072144
 20
29.8731927804
 30
0.0
  0
VERTEX
  5
84D
  8
0
  6
CONTINUOUS
 62
     7
 10
57.6162106878
 20
29.8456195744
 30
0.0
  0
VERTEX
  5
84E
  8
0
  6
CONTINUOUS
 62
     7
 10
57.6488035592
 20
29.8299230859
 30
0.0
  0
VERTEX
  5
84F
  8
0
  6
CONTINUOUS
 62
     7
 10
57.6787535412
 20
29.8278037856
 30
0.0
  0
VERTEX
  5
850
  8
0
  6
CONTINUOUS
 62
     7
 10
57.7028149945
 20
29.8394913041
 30
0.0
  0
VERTEX
  5
851
  8
0
  6
CONTINUOUS
 62
     7
 10
57.7183807051
 20
29.8637195556
 30
0.0
  0
VERTEX
  5
852
  8
0
  6
CONTINUOUS
 62
     7
 10
57.7237635546
 20
29.8978630481
 30
0.0
  0
SEQEND
  5
853
  8
0
  6
CONTINUOUS
 62
     7
  0
POLYLINE
  5
134
  8
0
  6
CONTINUOUS
 62
     7
 66
     1
 10
0.0
 20
0.0
 30
0.0
  0
VERTEX
  5
854
  8
0
  6
CONTINUOUS
 62
     7
 10
57.7237635546
 20
28.4689166296
 30
0.0
  0
VERTEX
  5
855
  8
0
  6
CONTINUOUS
 62
     7
 10
57.7183807051
 20
28.5092745488
 30
0.0
  0
VERTEX
  5
856
  8
0
  6
CONTINUOUS
 62
     7
 10
57.7028149945
 20
28.5514745872
 30
0.0
  0
VERTEX
  5
857
  8
0
  6
CONTINUOUS
 62
     7
 10
57.6787535412
 20
28.5909433474
 30
0.0
  0
VERTEX
  5
858
  8
0
  6
CONTINUOUS
 62
     7
 10
57.6488035592
 20
28.6234035602
 30
0.0
  0
VERTEX
  5
859
  8
0
  6
CONTINUOUS
 62
     7
 10
57.6162106878
 20
28.6453375211
 30
0.0
  0
VERTEX
  5
85A
  8
0
  6
CONTINUOUS
 62
     7
 10
57.5845072144
 20
28.6543688454
 30
0.0
  0
VERTEX
  5
85B
  8
0
  6
CONTINUOUS
 62
     7
 10
57.5571279412
 20
28.6495182356
 30
0.0
  0
VERTEX
  5
85C
  8
0
  6
CONTINUOUS
 62
     7
 10
57.5370405707
 20
28.6313119469
 30
0.0
  0
VERTEX
  5
85D
  8
0
  6
CONTINUOUS
 62
     7
 10
57.5264213072
 20
28.6017228364
 30
0.0
  0
VERTEX
  5
85E
  8
0
  6
CONTINUOUS
 62
     7
 10
57.5264213072
 20
28.5639569318
 30
0.0
  0
VERTEX
  5
85F
  8
0
  6
CONTINUOUS
 62
     7
 10
57.5370405707
 20
28.5221066015
 30
0.0
  0
VERTEX
  5
860
  8
0
  6
CONTINUOUS
 62
     7
 10
57.5571279412
 20
28.4807079285
 30
0.0
  0
VERTEX
  5
861
  8
0
  6
CONTINUOUS
 62
     7
 10
57.5845072144
 20
28.4442463619
 30
0.0
  0
VERTEX
  5
862
  8
0
  6
CONTINUOUS
 62
     7
 10
57.6162106878
 20
28.4166733954
 30
0.0
  0
VERTEX
  5
863
  8
0
  6
CONTINUOUS
 62
     7
 10
57.6488035592
 20
28.4009764279
 30
0.0
  0
VERTEX
  5
864
  8
0
  6
CONTINUOUS
 62
     7
 10
57.6787535412
 20
28.3988571275
 30
0.0
  0
VERTEX
  5
865
  8
0
  6
CONTINUOUS
 62
     7
 10
57.7028149945
 20
28.4105448856
 30
0.0
  0
VERTEX
  5
866
  8
0
  6
CONTINUOUS
 62
     7
 10
57.7183807051
 20
28.4347731371
 30
0.0
  0
VERTEX
  5
867
  8
0
  6
CONTINUOUS
 62
     7
 10
57.7237635546
 20
28.4689166296
 30
0.0
  0
SEQEND
  5
868
  8
0
  6
CONTINUOUS
 62
     7
  0
LINE
  5
135
  8
0
  6
CONTINUOUS
 62
     7
 10
57.4476382276
 20
30.2614018721
 30
0.0
 11
57.4476382276
 21
24.5456161981
 31
0.0
  0
LINE
  5
136
  8
0
  6
CONTINUOUS
 62
     7
 10
57.4476382276
 20
24.5456161981
 30
0.0
 11
57.8132123587
 21
24.3345747444
 31
0.0
  0
POLYLINE
  5
137
  8
0
  6
CONTINUOUS
 62
     7
 66
     1
 10
0.0
 20
0.0
 30
0.0
  0
VERTEX
  5
869
  8
0
  6
CONTINUOUS
 62
     7
 10
57.7237635546
 20
24.5903476404
 30
0.0
  0
VERTEX
  5
86A
  8
0
  6
CONTINUOUS
 62
     7
 10
57.7183807051
 20
24.6307059189
 30
0.0
  0
VERTEX
  5
86B
  8
0
  6
CONTINUOUS
 62
     7
 10
57.7028149945
 20
24.6729059123
 30
0.0
  0
VERTEX
  5
86C
  8
0
  6
CONTINUOUS
 62
     7
 10
57.6787535412
 20
24.7123744331
 30
0.0
  0
VERTEX
  5
86D
  8
0
  6
CONTINUOUS
 62
     7
 10
57.6488035592
 20
24.744834586
 30
0.0
  0
VERTEX
  5
86E
  8
0
  6
CONTINUOUS
 62
     7
 10
57.6162106878
 20
24.7667687265
 30
0.0
  0
VERTEX
  5
86F
  8
0
  6
CONTINUOUS
 62
     7
 10
57.5845072144
 20
24.7757997813
 30
0.0
  0
VERTEX
  5
870
  8
0
  6
CONTINUOUS
 62
     7
 10
57.5571279412
 20
24.7709495008
 30
0.0
  0
VERTEX
  5
871
  8
0
  6
CONTINUOUS
 62
     7
 10
57.5370405707
 20
24.7527431224
 30
0.0
  0
VERTEX
  5
872
  8
0
  6
CONTINUOUS
 62
     7
 10
57.5264213072
 20
24.7231538471
 30
0.0
  0
VERTEX
  5
873
  8
0
  6
CONTINUOUS
 62
     7
 10
57.5264213072
 20
24.6853879576
 30
0.0
  0
VERTEX
  5
874
  8
0
  6
CONTINUOUS
 62
     7
 10
57.5370405707
 20
24.6435379417
 30
0.0
  0
VERTEX
  5
875
  8
0
  6
CONTINUOUS
 62
     7
 10
57.5571279412
 20
24.6021391564
 30
0.0
  0
VERTEX
  5
876
  8
0
  6
CONTINUOUS
 62
     7
 10
57.5845072144
 20
24.565677455
 30
0.0
  0
VERTEX
  5
877
  8
0
  6
CONTINUOUS
 62
     7
 10
57.6162106878
 20
24.5381044511
 30
0.0
  0
VERTEX
  5
878
  8
0
  6
CONTINUOUS
 62
     7
 10
57.6488035592
 20
24.5224076632
 30
0.0
  0
VERTEX
  5
879
  8
0
  6
CONTINUOUS
 62
     7
 10
57.6787535412
 20
24.5202882955
 30
0.0
  0
VERTEX
  5
87A
  8
0
  6
CONTINUOUS
 62
     7
 10
57.7028149945
 20
24.5319760611
 30
0.0
  0
VERTEX
  5
87B
  8
0
  6
CONTINUOUS
 62
     7
 10
57.7183807051
 20
24.5562042826
 30
0.0
  0
VERTEX
  5
87C
  8
0
  6
CONTINUOUS
 62
     7
 10
57.7237635546
 20
24.5903476404
 30
0.0
  0
SEQEND
  5
87D
  8
0
  6
CONTINUOUS
 62
     7
  0
POLYLINE
  5
138
  8
0
  6
CONTINUOUS
 62
     7
 66
     1
 10
0.0
 20
0.0
 30
0.0
  0
VERTEX
  5
87E
  8
0
  6
CONTINUOUS
 62
     7
 10
57.7237635546
 20
25.1006856491
 30
0.0
  0
VERTEX
  5
87F
  8
0
  6
CONTINUOUS
 62
     7
 10
57.7183807051
 20
25.1410439276
 30
0.0
  0
VERTEX
  5
880
  8
0
  6
CONTINUOUS
 62
     7
 10
57.7028149945
 20
25.1832439061
 30
0.0
  0
VERTEX
  5
881
  8
0
  6
CONTINUOUS
 62
     7
 10
57.6787535412
 20
25.2227124268
 30
0.0
  0
VERTEX
  5
882
  8
0
  6
CONTINUOUS
 62
     7
 10
57.6488035592
 20
25.2551725798
 30
0.0
  0
VERTEX
  5
883
  8
0
  6
CONTINUOUS
 62
     7
 10
57.6162106878
 20
25.2771067203
 30
0.0
  0
VERTEX
  5
884
  8
0
  6
CONTINUOUS
 62
     7
 10
57.5845072144
 20
25.286137805
 30
0.0
  0
VERTEX
  5
885
  8
0
  6
CONTINUOUS
 62
     7
 10
57.5571279412
 20
25.2812874946
 30
0.0
  0
VERTEX
  5
886
  8
0
  6
CONTINUOUS
 62
     7
 10
57.5370405707
 20
25.2630810862
 30
0.0
  0
VERTEX
  5
887
  8
0
  6
CONTINUOUS
 62
     7
 10
57.5264213072
 20
25.2334918559
 30
0.0
  0
VERTEX
  5
888
  8
0
  6
CONTINUOUS
 62
     7
 10
57.5264213072
 20
25.1957259514
 30
0.0
  0
VERTEX
  5
889
  8
0
  6
CONTINUOUS
 62
     7
 10
57.5370405707
 20
25.1538759803
 30
0.0
  0
VERTEX
  5
88A
  8
0
  6
CONTINUOUS
 62
     7
 10
57.5571279412
 20
25.1124771876
 30
0.0
  0
VERTEX
  5
88B
  8
0
  6
CONTINUOUS
 62
     7
 10
57.5845072144
 20
25.0760154413
 30
0.0
  0
VERTEX
  5
88C
  8
0
  6
CONTINUOUS
 62
     7
 10
57.6162106878
 20
25.0484424748
 30
0.0
  0
VERTEX
  5
88D
  8
0
  6
CONTINUOUS
 62
     7
 10
57.6488035592
 20
25.0327456869
 30
0.0
  0
VERTEX
  5
88E
  8
0
  6
CONTINUOUS
 62
     7
 10
57.6787535412
 20
25.0306263267
 30
0.0
  0
VERTEX
  5
88F
  8
0
  6
CONTINUOUS
 62
     7
 10
57.7028149945
 20
25.0423140848
 30
0.0
  0
VERTEX
  5
890
  8
0
  6
CONTINUOUS
 62
     7
 10
57.7183807051
 20
25.0665422764
 30
0.0
  0
VERTEX
  5
891
  8
0
  6
CONTINUOUS
 62
     7
 10
57.7237635546
 20
25.1006856491
 30
0.0
  0
SEQEND
  5
892
  8
0
  6
CONTINUOUS
 62
     7
  0
POLYLINE
  5
139
  8
0
  6
CONTINUOUS
 62
     7
 66
     1
 10
0.0
 20
0.0
 30
0.0
  0
VERTEX
  5
893
  8
0
  6
CONTINUOUS
 62
     7
 10
57.7237635546
 20
25.6110236729
 30
0.0
  0
VERTEX
  5
894
  8
0
  6
CONTINUOUS
 62
     7
 10
57.7183807051
 20
25.6513819513
 30
0.0
  0
VERTEX
  5
895
  8
0
  6
CONTINUOUS
 62
     7
 10
57.7028149945
 20
25.6935819897
 30
0.0
  0
VERTEX
  5
896
  8
0
  6
CONTINUOUS
 62
     7
 10
57.6787535412
 20
25.7330505104
 30
0.0
  0
VERTEX
  5
897
  8
0
  6
CONTINUOUS
 62
     7
 10
57.6488035592
 20
25.7655106035
 30
0.0
  0
VERTEX
  5
898
  8
0
  6
CONTINUOUS
 62
     7
 10
57.6162106878
 20
25.7874448038
 30
0.0
  0
VERTEX
  5
899
  8
0
  6
CONTINUOUS
 62
     7
 10
57.5845072144
 20
25.7964757689
 30
0.0
  0
VERTEX
  5
89A
  8
0
  6
CONTINUOUS
 62
     7
 10
57.5571279412
 20
25.7916255183
 30
0.0
  0
VERTEX
  5
89B
  8
0
  6
CONTINUOUS
 62
     7
 10
57.5370405707
 20
25.7734191099
 30
0.0
  0
VERTEX
  5
89C
  8
0
  6
CONTINUOUS
 62
     7
 10
57.5264213072
 20
25.7438298796
 30
0.0
  0
VERTEX
  5
89D
  8
0
  6
CONTINUOUS
 62
     7
 10
57.5264213072
 20
25.7060639751
 30
0.0
  0
VERTEX
  5
89E
  8
0
  6
CONTINUOUS
 62
     7
 10
57.5370405707
 20
25.6642140041
 30
0.0
  0
VERTEX
  5
89F
  8
0
  6
CONTINUOUS
 62
     7
 10
57.5571279412
 20
25.6228152113
 30
0.0
  0
VERTEX
  5
8A0
  8
0
  6
CONTINUOUS
 62
     7
 10
57.5845072144
 20
25.5863535249
 30
0.0
  0
VERTEX
  5
8A1
  8
0
  6
CONTINUOUS
 62
     7
 10
57.6162106878
 20
25.5587804387
 30
0.0
  0
VERTEX
  5
8A2
  8
0
  6
CONTINUOUS
 62
     7
 10
57.6488035592
 20
25.5430837106
 30
0.0
  0
VERTEX
  5
8A3
  8
0
  6
CONTINUOUS
 62
     7
 10
57.6787535412
 20
25.5409642905
 30
0.0
  0
VERTEX
  5
8A4
  8
0
  6
CONTINUOUS
 62
     7
 10
57.7028149945
 20
25.5526520486
 30
0.0
  0
VERTEX
  5
8A5
  8
0
  6
CONTINUOUS
 62
     7
 10
57.7183807051
 20
25.5768803001
 30
0.0
  0
VERTEX
  5
8A6
  8
0
  6
CONTINUOUS
 62
     7
 10
57.7237635546
 20
25.6110236729
 30
0.0
  0
SEQEND
  5
8A7
  8
0
  6
CONTINUOUS
 62
     7
  0
POLYLINE
  5
13A
  8
0
  6
CONTINUOUS
 62
     7
 66
     1
 10
0.0
 20
0.0
 30
0.0
  0
VERTEX
  5
8A8
  8
0
  6
CONTINUOUS
 62
     7
 10
57.7237635546
 20
27.0399699716
 30
0.0
  0
VERTEX
  5
8A9
  8
0
  6
CONTINUOUS
 62
     7
 10
57.7183807051
 20
27.0803283698
 30
0.0
  0
VERTEX
  5
8AA
  8
0
  6
CONTINUOUS
 62
     7
 10
57.7028149945
 20
27.1225284082
 30
0.0
  0
VERTEX
  5
8AB
  8
0
  6
CONTINUOUS
 62
     7
 10
57.6787535412
 20
27.1619969289
 30
0.0
  0
VERTEX
  5
8AC
  8
0
  6
CONTINUOUS
 62
     7
 10
57.6488035592
 20
27.1944571417
 30
0.0
  0
VERTEX
  5
8AD
  8
0
  6
CONTINUOUS
 62
     7
 10
57.6162106878
 20
27.2163911026
 30
0.0
  0
VERTEX
  5
8AE
  8
0
  6
CONTINUOUS
 62
     7
 10
57.5845072144
 20
27.2254221874
 30
0.0
  0
VERTEX
  5
8AF
  8
0
  6
CONTINUOUS
 62
     7
 10
57.5571279412
 20
27.2205720566
 30
0.0
  0
VERTEX
  5
8B0
  8
0
  6
CONTINUOUS
 62
     7
 10
57.5370405707
 20
27.2023655284
 30
0.0
  0
VERTEX
  5
8B1
  8
0
  6
CONTINUOUS
 62
     7
 10
57.5264213072
 20
27.1727761783
 30
0.0
  0
VERTEX
  5
8B2
  8
0
  6
CONTINUOUS
 62
     7
 10
57.5264213072
 20
27.1350102738
 30
0.0
  0
VERTEX
  5
8B3
  8
0
  6
CONTINUOUS
 62
     7
 10
57.5370405707
 20
27.0931604226
 30
0.0
  0
VERTEX
  5
8B4
  8
0
  6
CONTINUOUS
 62
     7
 10
57.5571279412
 20
27.05176151
 30
0.0
  0
VERTEX
  5
8B5
  8
0
  6
CONTINUOUS
 62
     7
 10
57.5845072144
 20
27.0152999434
 30
0.0
  0
VERTEX
  5
8B6
  8
0
  6
CONTINUOUS
 62
     7
 10
57.6162106878
 20
26.9877269769
 30
0.0
  0
VERTEX
  5
8B7
  8
0
  6
CONTINUOUS
 62
     7
 10
57.6488035592
 20
26.9720300094
 30
0.0
  0
VERTEX
  5
8B8
  8
0
  6
CONTINUOUS
 62
     7
 10
57.6787535412
 20
26.969910709
 30
0.0
  0
VERTEX
  5
8B9
  8
0
  6
CONTINUOUS
 62
     7
 10
57.7028149945
 20
26.9815984671
 30
0.0
  0
VERTEX
  5
8BA
  8
0
  6
CONTINUOUS
 62
     7
 10
57.7183807051
 20
27.0058267186
 30
0.0
  0
VERTEX
  5
8BB
  8
0
  6
CONTINUOUS
 62
     7
 10
57.7237635546
 20
27.0399699716
 30
0.0
  0
SEQEND
  5
8BC
  8
0
  6
CONTINUOUS
 62
     7
  0
POLYLINE
  5
13B
  8
0
  6
CONTINUOUS
 62
     7
 66
     1
 10
0.0
 20
0.0
 30
0.0
  0
VERTEX
  5
8BD
  8
0
  6
CONTINUOUS
 62
     7
 10
57.7237635546
 20
26.0192940439
 30
0.0
  0
VERTEX
  5
8BE
  8
0
  6
CONTINUOUS
 62
     7
 10
57.7183807051
 20
26.0596523224
 30
0.0
  0
VERTEX
  5
8BF
  8
0
  6
CONTINUOUS
 62
     7
 10
57.7028149945
 20
26.1018523608
 30
0.0
  0
VERTEX
  5
8C0
  8
0
  6
CONTINUOUS
 62
     7
 10
57.6787535412
 20
26.1413208815
 30
0.0
  0
VERTEX
  5
8C1
  8
0
  6
CONTINUOUS
 62
     7
 10
57.6488035592
 20
26.1737809746
 30
0.0
  0
VERTEX
  5
8C2
  8
0
  6
CONTINUOUS
 62
     7
 10
57.6162106878
 20
26.1957151749
 30
0.0
  0
VERTEX
  5
8C3
  8
0
  6
CONTINUOUS
 62
     7
 10
57.5845072144
 20
26.2047462597
 30
0.0
  0
VERTEX
  5
8C4
  8
0
  6
CONTINUOUS
 62
     7
 10
57.5571279412
 20
26.1998958894
 30
0.0
  0
VERTEX
  5
8C5
  8
0
  6
CONTINUOUS
 62
     7
 10
57.5370405707
 20
26.181689481
 30
0.0
  0
VERTEX
  5
8C6
  8
0
  6
CONTINUOUS
 62
     7
 10
57.5264213072
 20
26.1521002507
 30
0.0
  0
VERTEX
  5
8C7
  8
0
  6
CONTINUOUS
 62
     7
 10
57.5264213072
 20
26.1143343461
 30
0.0
  0
VERTEX
  5
8C8
  8
0
  6
CONTINUOUS
 62
     7
 10
57.5370405707
 20
26.0724843751
 30
0.0
  0
VERTEX
  5
8C9
  8
0
  6
CONTINUOUS
 62
     7
 10
57.5571279412
 20
26.0310855824
 30
0.0
  0
VERTEX
  5
8CA
  8
0
  6
CONTINUOUS
 62
     7
 10
57.5845072144
 20
25.9946238959
 30
0.0
  0
VERTEX
  5
8CB
  8
0
  6
CONTINUOUS
 62
     7
 10
57.6162106878
 20
25.9670508097
 30
0.0
  0
VERTEX
  5
8CC
  8
0
  6
CONTINUOUS
 62
     7
 10
57.6488035592
 20
25.9513540817
 30
0.0
  0
VERTEX
  5
8CD
  8
0
  6
CONTINUOUS
 62
     7
 10
57.6787535412
 20
25.9492346616
 30
0.0
  0
VERTEX
  5
8CE
  8
0
  6
CONTINUOUS
 62
     7
 10
57.7028149945
 20
25.9609225395
 30
0.0
  0
VERTEX
  5
8CF
  8
0
  6
CONTINUOUS
 62
     7
 10
57.7183807051
 20
25.9851506711
 30
0.0
  0
VERTEX
  5
8D0
  8
0
  6
CONTINUOUS
 62
     7
 10
57.7237635546
 20
26.0192940439
 30
0.0
  0
SEQEND
  5
8D1
  8
0
  6
CONTINUOUS
 62
     7
  0
POLYLINE
  5
13C
  8
0
  6
CONTINUOUS
 62
     7
 66
     1
 10
0.0
 20
0.0
 30
0.0
  0
VERTEX
  5
8D2
  8
0
  6
CONTINUOUS
 62
     7
 10
57.7237635546
 20
26.5296320676
 30
0.0
  0
VERTEX
  5
8D3
  8
0
  6
CONTINUOUS
 62
     7
 10
57.7183807051
 20
26.5699902264
 30
0.0
  0
VERTEX
  5
8D4
  8
0
  6
CONTINUOUS
 62
     7
 10
57.7028149945
 20
26.6121902647
 30
0.0
  0
VERTEX
  5
8D5
  8
0
  6
CONTINUOUS
 62
     7
 10
57.6787535412
 20
26.6516587854
 30
0.0
  0
VERTEX
  5
8D6
  8
0
  6
CONTINUOUS
 62
     7
 10
57.6488035592
 20
26.6841189983
 30
0.0
  0
VERTEX
  5
8D7
  8
0
  6
CONTINUOUS
 62
     7
 10
57.6162106878
 20
26.7060531986
 30
0.0
  0
VERTEX
  5
8D8
  8
0
  6
CONTINUOUS
 62
     7
 10
57.5845072144
 20
26.7150842834
 30
0.0
  0
VERTEX
  5
8D9
  8
0
  6
CONTINUOUS
 62
     7
 10
57.5571279412
 20
26.7102339131
 30
0.0
  0
VERTEX
  5
8DA
  8
0
  6
CONTINUOUS
 62
     7
 10
57.5370405707
 20
26.6920276245
 30
0.0
  0
VERTEX
  5
8DB
  8
0
  6
CONTINUOUS
 62
     7
 10
57.5264213072
 20
26.6624382744
 30
0.0
  0
VERTEX
  5
8DC
  8
0
  6
CONTINUOUS
 62
     7
 10
57.5264213072
 20
26.6246723699
 30
0.0
  0
VERTEX
  5
8DD
  8
0
  6
CONTINUOUS
 62
     7
 10
57.5370405707
 20
26.5828222791
 30
0.0
  0
VERTEX
  5
8DE
  8
0
  6
CONTINUOUS
 62
     7
 10
57.5571279412
 20
26.5414236061
 30
0.0
  0
VERTEX
  5
8DF
  8
0
  6
CONTINUOUS
 62
     7
 10
57.5845072144
 20
26.5049617999
 30
0.0
  0
VERTEX
  5
8E0
  8
0
  6
CONTINUOUS
 62
     7
 10
57.6162106878
 20
26.4773888334
 30
0.0
  0
VERTEX
  5
8E1
  8
0
  6
CONTINUOUS
 62
     7
 10
57.6488035592
 20
26.4616921054
 30
0.0
  0
VERTEX
  5
8E2
  8
0
  6
CONTINUOUS
 62
     7
 10
57.6787535412
 20
26.4595728051
 30
0.0
  0
VERTEX
  5
8E3
  8
0
  6
CONTINUOUS
 62
     7
 10
57.7028149945
 20
26.4712605632
 30
0.0
  0
VERTEX
  5
8E4
  8
0
  6
CONTINUOUS
 62
     7
 10
57.7183807051
 20
26.4954888146
 30
0.0
  0
VERTEX
  5
8E5
  8
0
  6
CONTINUOUS
 62
     7
 10
57.7237635546
 20
26.5296320676
 30
0.0
  0
SEQEND
  5
8E6
  8
0
  6
CONTINUOUS
 62
     7
  0
ARC
  5
13D
  8
0
  6
CONTINUOUS
 62
     7
 10
57.7504893107
 20
30.0279968803
 30
0.0
 40
0.179671413841125
 50
162.014406043
 51
257.9802481584
  0
ARC
  5
13E
  8
0
  6
CONTINUOUS
 62
     7
 10
57.7504903637
 20
29.5176592201
 30
0.0
 40
0.1796723400722116
 50
162.0145836599
 51
257.9799677433
  0
ARC
  5
13F
  8
0
  6
CONTINUOUS
 62
     7
 10
57.7504903366
 20
29.0073213005
 30
0.0
 40
0.1796723191535466
 50
162.0145762558
 51
257.9799751474
  0
ARC
  5
140
  8
0
  6
CONTINUOUS
 62
     7
 10
57.7501033751
 20
28.5989671069
 30
0.0
 40
0.179330185236273
 50
161.951001497
 51
258.3534607157
  0
ARC
  5
141
  8
0
  6
CONTINUOUS
 62
     7
 10
57.7504898237
 20
28.0887126719
 30
0.0
 40
0.1796718664963866
 50
162.0144911494
 51
257.9801116528
  0
ARC
  5
142
  8
0
  6
CONTINUOUS
 62
     7
 10
57.7504901267
 20
27.5783747033
 30
0.0
 40
0.1796721007035341
 50
162.0145740471
 51
257.9800287551
  0
ARC
  5
143
  8
0
  6
CONTINUOUS
 62
     7
 10
57.7504901132
 20
27.1701043244
 30
0.0
 40
0.179672090244297
 50
162.014570345
 51
257.9800324572
  0
ARC
  5
144
  8
0
  6
CONTINUOUS
 62
     7
 10
57.7504898237
 20
26.6597662534
 30
0.0
 40
0.1796718664963875
 50
162.0144911494
 51
257.9801116528
  0
ARC
  5
145
  8
0
  6
CONTINUOUS
 62
     7
 10
61.3025820663
 20
32.059948947
 30
0.0
 40
0.0065492505652372
 50
290.783374816
 51
69.218657007
  0
LINE
  5
146
  8
0
  6
CONTINUOUS
 62
     7
 10
61.304905757
 20
32.0660721116
 30
0.0
 11
61.3487463775
 21
32.0913807631
 31
0.0
  0
ARC
  5
147
  8
0
  6
CONTINUOUS
 62
     7
 10
61.3368170321
 20
32.0599489548
 30
0.0
 40
0.0336194564699403
 50
290.7836721393
 51
69.2166941354
  0
ARC
  5
148
  8
0
  6
CONTINUOUS
 62
     7
 10
61.3327643529
 20
30.9537043336
 30
0.0
 40
0.0387259636005011
 50
294.3745908246
 51
354.3057220718
  0
LINE
  5
149
  8
0
  6
CONTINUOUS
 62
     7
 10
61.304905757
 20
32.0660721116
 30
0.0
 11
47.9787716633
 21
39.7590855735
 31
0.0
  0
LINE
  5
14A
  8
0
  6
CONTINUOUS
 62
     7
 10
48.0226122837
 20
39.784394225
 30
0.0
 11
47.9787716633
 21
39.7590855735
 31
0.0
  0
LINE
  5
14B
  8
0
  6
CONTINUOUS
 62
     7
 10
61.3487463775
 20
32.0913807631
 30
0.0
 11
48.0226122837
 21
39.784394225
 31
0.0
  0
LINE
  5
14C
  8
0
  6
CONTINUOUS
 62
     7
 10
61.304905757
 20
27.46037364
 30
0.0
 11
61.1677268914
 21
27.5395653135
 31
0.0
  0
LINE
  5
14D
  8
0
  6
CONTINUOUS
 62
     7
 10
57.7132861471
 20
28.4236843049
 30
0.0
 11
57.6226098574
 21
28.4760306127
 31
0.0
  0
LINE
  5
14E
  8
0
  6
CONTINUOUS
 62
     7
 10
57.4476384188
 20
28.5770394742
 30
0.0
 11
47.9787716633
 21
34.0432998995
 31
0.0
  0
LINE
  5
14F
  8
0
  6
CONTINUOUS
 62
     7
 10
47.9787716633
 20
35.1533871019
 30
0.0
 11
47.9787716633
 21
34.0432998995
 31
0.0
  0
LINE
  5
150
  8
0
  6
CONTINUOUS
 62
     7
 10
48.2120582033
 20
35.018713649
 30
0.0
 11
47.9787716633
 21
35.1533871019
 31
0.0
  0
POLYLINE
  5
151
  8
0
  6
CONTINUOUS
 62
     7
 66
     1
 10
0.0
 20
0.0
 30
0.0
  0
VERTEX
  5
8E7
  8
0
  6
CONTINUOUS
 62
     7
 10
48.2120582033
 20
35.2481615904
 30
0.0
  0
VERTEX
  5
8E8
  8
0
  6
CONTINUOUS
 62
     7
 10
48.2460374406
 20
35.2216271388
 30
0.0
  0
VERTEX
  5
8E9
  8
0
  6
CONTINUOUS
 62
     7
 10
48.2759181457
 20
35.184455762
 30
0.0
  0
VERTEX
  5
8EA
  8
0
  6
CONTINUOUS
 62
     7
 10
48.2980962654
 20
35.1411309788
 30
0.0
  0
VERTEX
  5
8EB
  8
0
  6
CONTINUOUS
 62
     7
 10
48.309897383
 20
35.0968779362
 30
0.0
  0
VERTEX
  5
8EC
  8
0
  6
CONTINUOUS
 62
     7
 10
48.309897383
 20
35.0570347105
 30
0.0
  0
VERTEX
  5
8ED
  8
0
  6
CONTINUOUS
 62
     7
 10
48.2980962654
 20
35.0264069482
 30
0.0
  0
VERTEX
  5
8EE
  8
0
  6
CONTINUOUS
 62
     7
 10
48.2759181457
 20
35.008688477
 30
0.0
  0
VERTEX
  5
8EF
  8
0
  6
CONTINUOUS
 62
     7
 10
48.2460374406
 20
35.0060166281
 30
0.0
  0
VERTEX
  5
8F0
  8
0
  6
CONTINUOUS
 62
     7
 10
48.2120582033
 20
35.018713649
 30
0.0
  0
SEQEND
  5
8F1
  8
0
  6
CONTINUOUS
 62
     7
  0
LINE
  5
152
  8
0
  6
CONTINUOUS
 62
     7
 10
47.9787716633
 20
35.3828350433
 30
0.0
 11
48.2120582033
 21
35.2481615904
 31
0.0
  0
LINE
  5
153
  8
0
  6
CONTINUOUS
 62
     7
 10
47.9787716633
 20
38.4195504298
 30
0.0
 11
47.9787716633
 21
35.3828350433
 31
0.0
  0
LINE
  5
154
  8
0
  6
CONTINUOUS
 62
     7
 10
48.2120582033
 20
38.2848769768
 30
0.0
 11
47.9787716633
 21
38.4195504298
 31
0.0
  0
POLYLINE
  5
155
  8
0
  6
CONTINUOUS
 62
     7
 66
     1
 10
0.0
 20
0.0
 30
0.0
  0
VERTEX
  5
8F2
  8
0
  6
CONTINUOUS
 62
     7
 10
48.2120582033
 20
38.514325038
 30
0.0
  0
VERTEX
  5
8F3
  8
0
  6
CONTINUOUS
 62
     7
 10
48.2460374406
 20
38.4877905863
 30
0.0
  0
VERTEX
  5
8F4
  8
0
  6
CONTINUOUS
 62
     7
 10
48.2759181457
 20
38.4506188503
 30
0.0
  0
VERTEX
  5
8F5
  8
0
  6
CONTINUOUS
 62
     7
 10
48.2980962654
 20
38.4072941869
 30
0.0
  0
VERTEX
  5
8F6
  8
0
  6
CONTINUOUS
 62
     7
 10
48.309897383
 20
38.3630413838
 30
0.0
  0
VERTEX
  5
8F7
  8
0
  6
CONTINUOUS
 62
     7
 10
48.309897383
 20
38.3231979186
 30
0.0
  0
VERTEX
  5
8F8
  8
0
  6
CONTINUOUS
 62
     7
 10
48.2980962654
 20
38.2925703958
 30
0.0
  0
VERTEX
  5
8F9
  8
0
  6
CONTINUOUS
 62
     7
 10
48.2759181457
 20
38.2748515653
 30
0.0
  0
VERTEX
  5
8FA
  8
0
  6
CONTINUOUS
 62
     7
 10
48.2460374406
 20
38.2721798361
 30
0.0
  0
VERTEX
  5
8FB
  8
0
  6
CONTINUOUS
 62
     7
 10
48.2120582033
 20
38.2848769768
 30
0.0
  0
SEQEND
  5
8FC
  8
0
  6
CONTINUOUS
 62
     7
  0
LINE
  5
156
  8
0
  6
CONTINUOUS
 62
     7
 10
47.9787716633
 20
38.6489984909
 30
0.0
 11
48.2120582033
 21
38.514325038
 31
0.0
  0
LINE
  5
157
  8
0
  6
CONTINUOUS
 62
     7
 10
47.9787716633
 20
39.7590855735
 30
0.0
 11
47.9787716633
 21
38.6489984909
 31
0.0
  0
LINE
  5
158
  8
0
  6
CONTINUOUS
 62
     7
 10
61.304905757
 20
30.7265369678
 30
0.0
 11
61.1677268914
 21
30.8057286413
 31
0.0
  0
POLYLINE
  5
159
  8
0
  6
CONTINUOUS
 62
     7
 66
     1
 10
0.0
 20
0.0
 30
0.0
  0
VERTEX
  5
8FD
  8
0
  6
CONTINUOUS
 62
     7
 10
57.1552498427
 20
31.6037246433
 30
0.0
  0
VERTEX
  5
8FE
  8
0
  6
CONTINUOUS
 62
     7
 10
57.150172309
 20
31.6792856759
 30
0.0
  0
VERTEX
  5
8FF
  8
0
  6
CONTINUOUS
 62
     7
 10
57.1350714167
 20
31.758751673
 30
0.0
  0
VERTEX
  5
900
  8
0
  6
CONTINUOUS
 62
     7
 10
57.1103381443
 20
31.8400651102
 30
0.0
  0
VERTEX
  5
901
  8
0
  6
CONTINUOUS
 62
     7
 10
57.0766131986
 20
31.9211198649
 30
0.0
  0
VERTEX
  5
902
  8
0
  6
CONTINUOUS
 62
     7
 10
57.0347697991
 20
31.9998164229
 30
0.0
  0
VERTEX
  5
903
  8
0
  6
CONTINUOUS
 62
     7
 10
56.9858918997
 20
32.0741168453
 30
0.0
  0
VERTEX
  5
904
  8
0
  6
CONTINUOUS
 62
     7
 10
56.9312453579
 20
32.142096621
 30
0.0
  0
VERTEX
  5
905
  8
0
  6
CONTINUOUS
 62
     7
 10
56.8722455776
 20
32.2019952019
 30
0.0
  0
VERTEX
  5
906
  8
0
  6
CONTINUOUS
 62
     7
 10
56.8104203821
 20
32.2522611473
 30
0.0
  0
VERTEX
  5
907
  8
0
  6
CONTINUOUS
 62
     7
 10
56.7473712272
 20
32.2915927191
 30
0.0
  0
VERTEX
  5
908
  8
0
  6
CONTINUOUS
 62
     7
 10
56.6847308885
 20
32.31897117
 30
0.0
  0
VERTEX
  5
909
  8
0
  6
CONTINUOUS
 62
     7
 10
56.6241217706
 20
32.3336874456
 30
0.0
  0
VERTEX
  5
90A
  8
0
  6
CONTINUOUS
 62
     7
 10
56.5671138023
 20
32.3353602644
 30
0.0
  0
VERTEX
  5
90B
  8
0
  6
CONTINUOUS
 62
     7
 10
56.5151831602
 20
32.323946532
 30
0.0
  0
VERTEX
  5
90C
  8
0
  6
CONTINUOUS
 62
     7
 10
56.4859315466
 20
32.3102979693
 30
0.0
  0
SEQEND
  5
90D
  8
0
  6
CONTINUOUS
 62
     7
  0
ARC
  5
15A
  8
0
  6
CONTINUOUS
 62
     7
 10
56.8743428995
 20
31.5778963718
 30
0.0
 40
0.2820918473455856
 50
306.0588414273
 51
5.253347265
  0
POLYLINE
  5
15B
  8
0
  6
CONTINUOUS
 62
     7
 66
     1
 10
0.0
 20
0.0
 30
0.0
  0
VERTEX
  5
90E
  8
0
  6
CONTINUOUS
 62
     7
 10
55.0339294211
 20
32.8283368561
 30
0.0
  0
VERTEX
  5
90F
  8
0
  6
CONTINUOUS
 62
     7
 10
55.0288519392
 20
32.9038978588
 30
0.0
  0
VERTEX
  5
910
  8
0
  6
CONTINUOUS
 62
     7
 10
55.0137510469
 20
32.9833638559
 30
0.0
  0
VERTEX
  5
911
  8
0
  6
CONTINUOUS
 62
     7
 10
54.9890178005
 20
33.0646772781
 30
0.0
  0
VERTEX
  5
912
  8
0
  6
CONTINUOUS
 62
     7
 10
54.9552928029
 20
33.1457320628
 30
0.0
  0
VERTEX
  5
913
  8
0
  6
CONTINUOUS
 62
     7
 10
54.9134494811
 20
33.2244285758
 30
0.0
  0
VERTEX
  5
914
  8
0
  6
CONTINUOUS
 62
     7
 10
54.8645716077
 20
33.2987289832
 30
0.0
  0
VERTEX
  5
915
  8
0
  6
CONTINUOUS
 62
     7
 10
54.8099250789
 20
33.3667087515
 30
0.0
  0
VERTEX
  5
916
  8
0
  6
CONTINUOUS
 62
     7
 10
54.7509251949
 20
33.4266073922
 30
0.0
  0
VERTEX
  5
917
  8
0
  6
CONTINUOUS
 62
     7
 10
54.6891000221
 20
33.4768733246
 30
0.0
  0
VERTEX
  5
918
  8
0
  6
CONTINUOUS
 62
     7
 10
54.6260508089
 20
33.5162049301
 30
0.0
  0
VERTEX
  5
919
  8
0
  6
CONTINUOUS
 62
     7
 10
54.5634104928
 20
33.5435833678
 30
0.0
  0
VERTEX
  5
91A
  8
0
  6
CONTINUOUS
 62
     7
 10
54.5028014268
 20
33.5582996135
 30
0.0
  0
VERTEX
  5
91B
  8
0
  6
CONTINUOUS
 62
     7
 10
54.4457933547
 20
33.5599724921
 30
0.0
  0
VERTEX
  5
91C
  8
0
  6
CONTINUOUS
 62
     7
 10
54.3938627645
 20
33.5485587299
 30
0.0
  0
VERTEX
  5
91D
  8
0
  6
CONTINUOUS
 62
     7
 10
54.3646112286
 20
33.5349101222
 30
0.0
  0
SEQEND
  5
91E
  8
0
  6
CONTINUOUS
 62
     7
  0
ARC
  5
15C
  8
0
  6
CONTINUOUS
 62
     7
 10
54.7530229422
 20
32.8025083746
 30
0.0
 40
0.282091404175328
 50
306.0587902987
 51
5.2533983936
  0
LINE
  5
15D
  8
0
  6
CONTINUOUS
 62
     7
 10
48.8856357786
 20
33.9559813707
 30
0.0
 11
48.8856357786
 21
33.8774232786
 31
0.0
  0
POLYLINE
  5
15E
  8
0
  6
CONTINUOUS
 62
     7
 66
     1
 10
0.0
 20
0.0
 30
0.0
  0
VERTEX
  5
91F
  8
0
  6
CONTINUOUS
 62
     7
 10
48.8856357786
 20
33.8774232786
 30
0.0
  0
VERTEX
  5
920
  8
0
  6
CONTINUOUS
 62
     7
 10
48.8916276003
 20
33.8347263345
 30
0.0
  0
VERTEX
  5
921
  8
0
  6
CONTINUOUS
 62
     7
 10
48.9088791848
 20
33.7902619814
 30
0.0
  0
VERTEX
  5
922
  8
0
  6
CONTINUOUS
 62
     7
 10
48.9353101538
 20
33.7493929643
 30
0.0
  0
VERTEX
  5
923
  8
0
  6
CONTINUOUS
 62
     7
 10
48.9677329445
 20
33.717048505
 30
0.0
  0
VERTEX
  5
924
  8
0
  6
CONTINUOUS
 62
     7
 10
49.0022361136
 20
33.6971302495
 30
0.0
  0
VERTEX
  5
925
  8
0
  6
CONTINUOUS
 62
     7
 10
49.0346589042
 20
33.6920401515
 30
0.0
  0
VERTEX
  5
926
  8
0
  6
CONTINUOUS
 62
     7
 10
49.0610898733
 20
33.7023926213
 30
0.0
  0
VERTEX
  5
927
  8
0
  6
CONTINUOUS
 62
     7
 10
49.0783414578
 20
33.7269387188
 30
0.0
  0
VERTEX
  5
928
  8
0
  6
CONTINUOUS
 62
     7
 10
49.0843328646
 20
33.7627178924
 30
0.0
  0
SEQEND
  5
929
  8
0
  6
CONTINUOUS
 62
     7
  0
LINE
  5
15F
  8
0
  6
CONTINUOUS
 62
     7
 10
49.0843328646
 20
33.7627178924
 30
0.0
 11
49.0843328646
 21
33.8412759845
 31
0.0
  0
POLYLINE
  5
160
  8
0
  6
CONTINUOUS
 62
     7
 66
     1
 10
0.0
 20
0.0
 30
0.0
  0
VERTEX
  5
92A
  8
0
  6
CONTINUOUS
 62
     7
 10
49.0843328646
 20
33.8412759845
 30
0.0
  0
VERTEX
  5
92B
  8
0
  6
CONTINUOUS
 62
     7
 10
49.1187995286
 20
33.8549943764
 30
0.0
  0
VERTEX
  5
92C
  8
0
  6
CONTINUOUS
 62
     7
 10
49.1450508757
 20
33.8822091659
 30
0.0
  0
VERTEX
  5
92D
  8
0
  6
CONTINUOUS
 62
     7
 10
49.1614752868
 20
33.9212495187
 30
0.0
  0
VERTEX
  5
92E
  8
0
  6
CONTINUOUS
 62
     7
 10
49.1670643074
 20
33.9697187742
 30
0.0
  0
VERTEX
  5
92F
  8
0
  6
CONTINUOUS
 62
     7
 10
49.1614752868
 20
34.0246409755
 30
0.0
  0
VERTEX
  5
930
  8
0
  6
CONTINUOUS
 62
     7
 10
49.1450508757
 20
34.0826445498
 30
0.0
  0
VERTEX
  5
931
  8
0
  6
CONTINUOUS
 62
     7
 10
49.1187995286
 20
34.1401684696
 30
0.0
  0
VERTEX
  5
932
  8
0
  6
CONTINUOUS
 62
     7
 10
49.0843328646
 20
34.1936812246
 30
0.0
  0
SEQEND
  5
933
  8
0
  6
CONTINUOUS
 62
     7
  0
LINE
  5
161
  8
0
  6
CONTINUOUS
 62
     7
 10
49.0843328646
 20
34.1936812246
 30
0.0
 11
49.0843328646
 21
34.2722393167
 31
0.0
  0
POLYLINE
  5
162
  8
0
  6
CONTINUOUS
 62
     7
 66
     1
 10
0.0
 20
0.0
 30
0.0
  0
VERTEX
  5
934
  8
0
  6
CONTINUOUS
 62
     7
 10
49.0843328646
 20
34.2722393167
 30
0.0
  0
VERTEX
  5
935
  8
0
  6
CONTINUOUS
 62
     7
 10
49.0783414578
 20
34.3149360513
 30
0.0
  0
VERTEX
  5
936
  8
0
  6
CONTINUOUS
 62
     7
 10
49.0610898733
 20
34.3594003744
 30
0.0
  0
VERTEX
  5
937
  8
0
  6
CONTINUOUS
 62
     7
 10
49.0346589042
 20
34.4002694215
 30
0.0
  0
VERTEX
  5
938
  8
0
  6
CONTINUOUS
 62
     7
 10
49.0022361136
 20
34.4326138358
 30
0.0
  0
VERTEX
  5
939
  8
0
  6
CONTINUOUS
 62
     7
 10
48.9677329445
 20
34.4525320914
 30
0.0
  0
VERTEX
  5
93A
  8
0
  6
CONTINUOUS
 62
     7
 10
48.9353101538
 20
34.4576222343
 30
0.0
  0
VERTEX
  5
93B
  8
0
  6
CONTINUOUS
 62
     7
 10
48.9088791848
 20
34.4472697345
 30
0.0
  0
VERTEX
  5
93C
  8
0
  6
CONTINUOUS
 62
     7
 10
48.8916276003
 20
34.4227236669
 30
0.0
  0
VERTEX
  5
93D
  8
0
  6
CONTINUOUS
 62
     7
 10
48.8856357786
 20
34.3869447029
 30
0.0
  0
SEQEND
  5
93E
  8
0
  6
CONTINUOUS
 62
     7
  0
LINE
  5
163
  8
0
  6
CONTINUOUS
 62
     7
 10
48.8856357786
 20
34.3869447029
 30
0.0
 11
48.8856357786
 21
34.3083866108
 31
0.0
  0
POLYLINE
  5
164
  8
0
  6
CONTINUOUS
 62
     7
 66
     1
 10
0.0
 20
0.0
 30
0.0
  0
VERTEX
  5
93F
  8
0
  6
CONTINUOUS
 62
     7
 10
48.8856357786
 20
34.3083866108
 30
0.0
  0
VERTEX
  5
940
  8
0
  6
CONTINUOUS
 62
     7
 10
48.8511695295
 20
34.2946679794
 30
0.0
  0
VERTEX
  5
941
  8
0
  6
CONTINUOUS
 62
     7
 10
48.8249181824
 20
34.2674532198
 30
0.0
  0
VERTEX
  5
942
  8
0
  6
CONTINUOUS
 62
     7
 10
48.8084937712
 20
34.2284128671
 30
0.0
  0
VERTEX
  5
943
  8
0
  6
CONTINUOUS
 62
     7
 10
48.8029043358
 20
34.179943851
 30
0.0
  0
VERTEX
  5
944
  8
0
  6
CONTINUOUS
 62
     7
 10
48.8084937712
 20
34.1250214102
 30
0.0
  0
VERTEX
  5
945
  8
0
  6
CONTINUOUS
 62
     7
 10
48.8249181824
 20
34.067017836
 30
0.0
  0
VERTEX
  5
946
  8
0
  6
CONTINUOUS
 62
     7
 10
48.8511695295
 20
34.0094938862
 30
0.0
  0
VERTEX
  5
947
  8
0
  6
CONTINUOUS
 62
     7
 10
48.8856357786
 20
33.9559813707
 30
0.0
  0
SEQEND
  5
948
  8
0
  6
CONTINUOUS
 62
     7
  0
LINE
  5
165
  8
0
  6
CONTINUOUS
 62
     7
 10
48.8856357786
 20
38.446955662
 30
0.0
 11
48.8856357786
 21
38.3683978094
 31
0.0
  0
POLYLINE
  5
166
  8
0
  6
CONTINUOUS
 62
     7
 66
     1
 10
0.0
 20
0.0
 30
0.0
  0
VERTEX
  5
949
  8
0
  6
CONTINUOUS
 62
     7
 10
48.8856357786
 20
38.3683978094
 30
0.0
  0
VERTEX
  5
94A
  8
0
  6
CONTINUOUS
 62
     7
 10
48.8916276003
 20
38.3257008354
 30
0.0
  0
VERTEX
  5
94B
  8
0
  6
CONTINUOUS
 62
     7
 10
48.9088791848
 20
38.2812365722
 30
0.0
  0
VERTEX
  5
94C
  8
0
  6
CONTINUOUS
 62
     7
 10
48.9353101538
 20
38.2403673454
 30
0.0
  0
VERTEX
  5
94D
  8
0
  6
CONTINUOUS
 62
     7
 10
48.9677329445
 20
38.2080230508
 30
0.0
  0
VERTEX
  5
94E
  8
0
  6
CONTINUOUS
 62
     7
 10
49.0022361136
 20
38.1881047953
 30
0.0
  0
VERTEX
  5
94F
  8
0
  6
CONTINUOUS
 62
     7
 10
49.0346589042
 20
38.1830145326
 30
0.0
  0
VERTEX
  5
950
  8
0
  6
CONTINUOUS
 62
     7
 10
49.0610898733
 20
38.1933672121
 30
0.0
  0
VERTEX
  5
951
  8
0
  6
CONTINUOUS
 62
     7
 10
49.0783414578
 20
38.2179132197
 30
0.0
  0
VERTEX
  5
952
  8
0
  6
CONTINUOUS
 62
     7
 10
49.0843328646
 20
38.2536924233
 30
0.0
  0
SEQEND
  5
953
  8
0
  6
CONTINUOUS
 62
     7
  0
LINE
  5
167
  8
0
  6
CONTINUOUS
 62
     7
 10
49.0843328646
 20
38.2536924233
 30
0.0
 11
49.0843328646
 21
38.3322502758
 31
0.0
  0
POLYLINE
  5
168
  8
0
  6
CONTINUOUS
 62
     7
 66
     1
 10
0.0
 20
0.0
 30
0.0
  0
VERTEX
  5
954
  8
0
  6
CONTINUOUS
 62
     7
 10
49.0843328646
 20
38.3322502758
 30
0.0
  0
VERTEX
  5
955
  8
0
  6
CONTINUOUS
 62
     7
 10
49.1187995286
 20
38.3459686677
 30
0.0
  0
VERTEX
  5
956
  8
0
  6
CONTINUOUS
 62
     7
 10
49.1450508757
 20
38.3731834872
 30
0.0
  0
VERTEX
  5
957
  8
0
  6
CONTINUOUS
 62
     7
 10
49.1614752868
 20
38.4122239597
 30
0.0
  0
VERTEX
  5
958
  8
0
  6
CONTINUOUS
 62
     7
 10
49.1670643074
 20
38.4606931554
 30
0.0
  0
VERTEX
  5
959
  8
0
  6
CONTINUOUS
 62
     7
 10
49.1614752868
 20
38.5156152968
 30
0.0
  0
VERTEX
  5
95A
  8
0
  6
CONTINUOUS
 62
     7
 10
49.1450508757
 20
38.5736189908
 30
0.0
  0
VERTEX
  5
95B
  8
0
  6
CONTINUOUS
 62
     7
 10
49.1187995286
 20
38.6311429705
 30
0.0
  0
VERTEX
  5
95C
  8
0
  6
CONTINUOUS
 62
     7
 10
49.0843328646
 20
38.6846557255
 30
0.0
  0
SEQEND
  5
95D
  8
0
  6
CONTINUOUS
 62
     7
  0
LINE
  5
169
  8
0
  6
CONTINUOUS
 62
     7
 10
49.0843328646
 20
38.6846557255
 30
0.0
 11
49.0843328646
 21
38.7632135781
 31
0.0
  0
POLYLINE
  5
16A
  8
0
  6
CONTINUOUS
 62
     7
 66
     1
 10
0.0
 20
0.0
 30
0.0
  0
VERTEX
  5
95E
  8
0
  6
CONTINUOUS
 62
     7
 10
49.0843328646
 20
38.7632135781
 30
0.0
  0
VERTEX
  5
95F
  8
0
  6
CONTINUOUS
 62
     7
 10
49.0783414578
 20
38.8059103127
 30
0.0
  0
VERTEX
  5
960
  8
0
  6
CONTINUOUS
 62
     7
 10
49.0610898733
 20
38.8503750549
 30
0.0
  0
VERTEX
  5
961
  8
0
  6
CONTINUOUS
 62
     7
 10
49.0346589042
 20
38.8912438026
 30
0.0
  0
VERTEX
  5
962
  8
0
  6
CONTINUOUS
 62
     7
 10
49.0022361136
 20
38.9235880972
 30
0.0
  0
VERTEX
  5
963
  8
0
  6
CONTINUOUS
 62
     7
 10
48.9677329445
 20
38.9435063528
 30
0.0
  0
VERTEX
  5
964
  8
0
  6
CONTINUOUS
 62
     7
 10
48.9353101538
 20
38.9485966154
 30
0.0
  0
VERTEX
  5
965
  8
0
  6
CONTINUOUS
 62
     7
 10
48.9088791848
 20
38.938244415
 30
0.0
  0
VERTEX
  5
966
  8
0
  6
CONTINUOUS
 62
     7
 10
48.8916276003
 20
38.9136979283
 30
0.0
  0
VERTEX
  5
967
  8
0
  6
CONTINUOUS
 62
     7
 10
48.8856357786
 20
38.8779189643
 30
0.0
  0
SEQEND
  5
968
  8
0
  6
CONTINUOUS
 62
     7
  0
LINE
  5
16B
  8
0
  6
CONTINUOUS
 62
     7
 10
48.8856357786
 20
38.8779189643
 30
0.0
 11
48.8856357786
 21
38.7993611117
 31
0.0
  0
POLYLINE
  5
16C
  8
0
  6
CONTINUOUS
 62
     7
 66
     1
 10
0.0
 20
0.0
 30
0.0
  0
VERTEX
  5
969
  8
0
  6
CONTINUOUS
 62
     7
 10
48.8856357786
 20
38.7993611117
 30
0.0
  0
VERTEX
  5
96A
  8
0
  6
CONTINUOUS
 62
     7
 10
48.8511695295
 20
38.7856424803
 30
0.0
  0
VERTEX
  5
96B
  8
0
  6
CONTINUOUS
 62
     7
 10
48.8249181824
 20
38.7584276609
 30
0.0
  0
VERTEX
  5
96C
  8
0
  6
CONTINUOUS
 62
     7
 10
48.8084937712
 20
38.7193871884
 30
0.0
  0
VERTEX
  5
96D
  8
0
  6
CONTINUOUS
 62
     7
 10
48.8029043358
 20
38.6709182322
 30
0.0
  0
VERTEX
  5
96E
  8
0
  6
CONTINUOUS
 62
     7
 10
48.8084937712
 20
38.6159958513
 30
0.0
  0
VERTEX
  5
96F
  8
0
  6
CONTINUOUS
 62
     7
 10
48.8249181824
 20
38.5579921573
 30
0.0
  0
VERTEX
  5
970
  8
0
  6
CONTINUOUS
 62
     7
 10
48.8511695295
 20
38.5004681776
 30
0.0
  0
VERTEX
  5
971
  8
0
  6
CONTINUOUS
 62
     7
 10
48.8856357786
 20
38.446955662
 30
0.0
  0
SEQEND
  5
972
  8
0
  6
CONTINUOUS
 62
     7
  0
LINE
  5
16D
  8
0
  6
CONTINUOUS
 62
     7
 10
60.1993445557
 20
31.9156906069
 30
0.0
 11
60.1993445557
 21
31.8371327543
 31
0.0
  0
POLYLINE
  5
16E
  8
0
  6
CONTINUOUS
 62
     7
 66
     1
 10
0.0
 20
0.0
 30
0.0
  0
VERTEX
  5
973
  8
0
  6
CONTINUOUS
 62
     7
 10
60.1993445557
 20
31.8371327543
 30
0.0
  0
VERTEX
  5
974
  8
0
  6
CONTINUOUS
 62
     7
 10
60.2053359625
 20
31.7944360197
 30
0.0
  0
VERTEX
  5
975
  8
0
  6
CONTINUOUS
 62
     7
 10
60.2225875471
 20
31.7499717565
 30
0.0
  0
VERTEX
  5
976
  8
0
  6
CONTINUOUS
 62
     7
 10
60.2490185161
 20
31.7091025298
 30
0.0
  0
VERTEX
  5
977
  8
0
  6
CONTINUOUS
 62
     7
 10
60.2814413068
 20
31.6767582352
 30
0.0
  0
VERTEX
  5
978
  8
0
  6
CONTINUOUS
 62
     7
 10
60.3159444758
 20
31.6568399796
 30
0.0
  0
VERTEX
  5
979
  8
0
  6
CONTINUOUS
 62
     7
 10
60.3483672665
 20
31.651749717
 30
0.0
  0
VERTEX
  5
97A
  8
0
  6
CONTINUOUS
 62
     7
 10
60.3747982355
 20
31.6621023964
 30
0.0
  0
VERTEX
  5
97B
  8
0
  6
CONTINUOUS
 62
     7
 10
60.3920498201
 20
31.6866484041
 30
0.0
  0
VERTEX
  5
97C
  8
0
  6
CONTINUOUS
 62
     7
 10
60.3980416417
 20
31.7224273681
 30
0.0
  0
SEQEND
  5
97D
  8
0
  6
CONTINUOUS
 62
     7
  0
LINE
  5
16F
  8
0
  6
CONTINUOUS
 62
     7
 10
60.3980416417
 20
31.7224273681
 30
0.0
 11
60.3980416417
 21
31.8009852207
 31
0.0
  0
POLYLINE
  5
170
  8
0
  6
CONTINUOUS
 62
     7
 66
     1
 10
0.0
 20
0.0
 30
0.0
  0
VERTEX
  5
97E
  8
0
  6
CONTINUOUS
 62
     7
 10
60.3980416417
 20
31.8009852207
 30
0.0
  0
VERTEX
  5
97F
  8
0
  6
CONTINUOUS
 62
     7
 10
60.4325078908
 20
31.8147038521
 30
0.0
  0
VERTEX
  5
980
  8
0
  6
CONTINUOUS
 62
     7
 10
60.4587592379
 20
31.8419186715
 30
0.0
  0
VERTEX
  5
981
  8
0
  6
CONTINUOUS
 62
     7
 10
60.4751836491
 20
31.880959144
 30
0.0
  0
VERTEX
  5
982
  8
0
  6
CONTINUOUS
 62
     7
 10
60.4807730845
 20
31.9294281002
 30
0.0
  0
VERTEX
  5
983
  8
0
  6
CONTINUOUS
 62
     7
 10
60.4751836491
 20
31.9843504812
 30
0.0
  0
VERTEX
  5
984
  8
0
  6
CONTINUOUS
 62
     7
 10
60.4587592379
 20
32.0423541752
 30
0.0
  0
VERTEX
  5
985
  8
0
  6
CONTINUOUS
 62
     7
 10
60.4325078908
 20
32.0998781548
 30
0.0
  0
VERTEX
  5
986
  8
0
  6
CONTINUOUS
 62
     7
 10
60.3980416417
 20
32.1533906704
 30
0.0
  0
SEQEND
  5
987
  8
0
  6
CONTINUOUS
 62
     7
  0
LINE
  5
171
  8
0
  6
CONTINUOUS
 62
     7
 10
60.3980416417
 20
32.1533906704
 30
0.0
 11
60.3980416417
 21
32.231948523
 31
0.0
  0
POLYLINE
  5
172
  8
0
  6
CONTINUOUS
 62
     7
 66
     1
 10
0.0
 20
0.0
 30
0.0
  0
VERTEX
  5
988
  8
0
  6
CONTINUOUS
 62
     7
 10
60.3980416417
 20
32.231948523
 30
0.0
  0
VERTEX
  5
989
  8
0
  6
CONTINUOUS
 62
     7
 10
60.3920498201
 20
32.274645497
 30
0.0
  0
VERTEX
  5
98A
  8
0
  6
CONTINUOUS
 62
     7
 10
60.3747982355
 20
32.3191102393
 30
0.0
  0
VERTEX
  5
98B
  8
0
  6
CONTINUOUS
 62
     7
 10
60.3483672665
 20
32.359978987
 30
0.0
  0
VERTEX
  5
98C
  8
0
  6
CONTINUOUS
 62
     7
 10
60.3159444758
 20
32.3923232816
 30
0.0
  0
VERTEX
  5
98D
  8
0
  6
CONTINUOUS
 62
     7
 10
60.2814413068
 20
32.4122415371
 30
0.0
  0
VERTEX
  5
98E
  8
0
  6
CONTINUOUS
 62
     7
 10
60.2490185161
 20
32.4173317998
 30
0.0
  0
VERTEX
  5
98F
  8
0
  6
CONTINUOUS
 62
     7
 10
60.2225875471
 20
32.4069795994
 30
0.0
  0
VERTEX
  5
990
  8
0
  6
CONTINUOUS
 62
     7
 10
60.2053359625
 20
32.3824331127
 30
0.0
  0
VERTEX
  5
991
  8
0
  6
CONTINUOUS
 62
     7
 10
60.1993445557
 20
32.3466539092
 30
0.0
  0
SEQEND
  5
992
  8
0
  6
CONTINUOUS
 62
     7
  0
LINE
  5
173
  8
0
  6
CONTINUOUS
 62
     7
 10
60.1993445557
 20
32.3466539092
 30
0.0
 11
60.1993445557
 21
32.2680960566
 31
0.0
  0
POLYLINE
  5
174
  8
0
  6
CONTINUOUS
 62
     7
 66
     1
 10
0.0
 20
0.0
 30
0.0
  0
VERTEX
  5
993
  8
0
  6
CONTINUOUS
 62
     7
 10
60.1993445557
 20
32.2680960566
 30
0.0
  0
VERTEX
  5
994
  8
0
  6
CONTINUOUS
 62
     7
 10
60.1648778918
 20
32.2543776647
 30
0.0
  0
VERTEX
  5
995
  8
0
  6
CONTINUOUS
 62
     7
 10
60.1386265446
 20
32.2271628452
 30
0.0
  0
VERTEX
  5
996
  8
0
  6
CONTINUOUS
 62
     7
 10
60.1222021335
 20
32.1881223727
 30
0.0
  0
VERTEX
  5
997
  8
0
  6
CONTINUOUS
 62
     7
 10
60.1166131129
 20
32.1396531771
 30
0.0
  0
VERTEX
  5
998
  8
0
  6
CONTINUOUS
 62
     7
 10
60.1222021335
 20
32.0847310356
 30
0.0
  0
VERTEX
  5
999
  8
0
  6
CONTINUOUS
 62
     7
 10
60.1386265446
 20
32.0267273416
 30
0.0
  0
VERTEX
  5
99A
  8
0
  6
CONTINUOUS
 62
     7
 10
60.1648778918
 20
31.9692033619
 30
0.0
  0
VERTEX
  5
99B
  8
0
  6
CONTINUOUS
 62
     7
 10
60.1993445557
 20
31.9156906069
 30
0.0
  0
SEQEND
  5
99C
  8
0
  6
CONTINUOUS
 62
     7
  0
POLYLINE
  5
175
  8
0
  6
CONTINUOUS
 62
     7
 66
     1
 10
0.0
 20
0.0
 30
0.0
  0
VERTEX
  5
99D
  8
0
  6
CONTINUOUS
 62
     7
 10
52.9126091031
 20
34.0529490091
 30
0.0
  0
VERTEX
  5
99E
  8
0
  6
CONTINUOUS
 62
     7
 10
52.9075315694
 20
34.1285100416
 30
0.0
  0
VERTEX
  5
99F
  8
0
  6
CONTINUOUS
 62
     7
 10
52.8924306772
 20
34.2079760387
 30
0.0
  0
VERTEX
  5
9A0
  8
0
  6
CONTINUOUS
 62
     7
 10
52.8676974048
 20
34.289289476
 30
0.0
  0
VERTEX
  5
9A1
  8
0
  6
CONTINUOUS
 62
     7
 10
52.833972459
 20
34.3703442307
 30
0.0
  0
VERTEX
  5
9A2
  8
0
  6
CONTINUOUS
 62
     7
 10
52.7921290595
 20
34.4490407886
 30
0.0
  0
VERTEX
  5
9A3
  8
0
  6
CONTINUOUS
 62
     7
 10
52.7432513676
 20
34.5233410913
 30
0.0
  0
VERTEX
  5
9A4
  8
0
  6
CONTINUOUS
 62
     7
 10
52.6886048258
 20
34.591320867
 30
0.0
  0
VERTEX
  5
9A5
  8
0
  6
CONTINUOUS
 62
     7
 10
52.6296048381
 20
34.6512195676
 30
0.0
  0
VERTEX
  5
9A6
  8
0
  6
CONTINUOUS
 62
     7
 10
52.5677796426
 20
34.7014855131
 30
0.0
  0
VERTEX
  5
9A7
  8
0
  6
CONTINUOUS
 62
     7
 10
52.5047304877
 20
34.7408170849
 30
0.0
  0
VERTEX
  5
9A8
  8
0
  6
CONTINUOUS
 62
     7
 10
52.4420901489
 20
34.7681955357
 30
0.0
  0
VERTEX
  5
9A9
  8
0
  6
CONTINUOUS
 62
     7
 10
52.3814810311
 20
34.7829118114
 30
0.0
  0
VERTEX
  5
9AA
  8
0
  6
CONTINUOUS
 62
     7
 10
52.3244730627
 20
34.7845846301
 30
0.0
  0
VERTEX
  5
9AB
  8
0
  6
CONTINUOUS
 62
     7
 10
52.2725424207
 20
34.7731708978
 30
0.0
  0
VERTEX
  5
9AC
  8
0
  6
CONTINUOUS
 62
     7
 10
52.243290807
 20
34.759522335
 30
0.0
  0
SEQEND
  5
9AD
  8
0
  6
CONTINUOUS
 62
     7
  0
ARC
  5
176
  8
0
  6
CONTINUOUS
 62
     7
 10
52.63170216
 20
34.0271207376
 30
0.0
 40
0.2820918473455383
 50
306.0588414273
 51
5.253347265
  0
ARC
  5
177
  8
0
  6
CONTINUOUS
 62
     7
 10
57.7504900364
 20
26.1494282327
 30
0.0
 40
0.1796720309263141
 50
162.0145493495
 51
257.9800534528
  0
ARC
  5
178
  8
0
  6
CONTINUOUS
 62
     7
 10
57.7504900364
 20
25.7411578616
 30
0.0
 40
0.1796720309263265
 50
162.0145493495
 51
257.9800534528
  0
LINE
  5
179
  8
0
  6
CONTINUOUS
 62
     7
 10
61.2046141115
 20
30.6057761769
 30
0.0
 11
61.1607735073
 21
30.6310848191
 31
0.0
  0
POLYLINE
  5
17A
  8
0
  6
CONTINUOUS
 62
     7
 66
     1
 10
0.0
 20
0.0
 30
0.0
  0
VERTEX
  5
9AE
  8
0
  6
CONTINUOUS
 62
     7
 10
61.1159561571
 20
30.617548818
 30
0.0
  0
VERTEX
  5
9AF
  8
0
  6
CONTINUOUS
 62
     7
 10
61.1267943219
 20
30.6183877083
 30
0.0
  0
VERTEX
  5
9B0
  8
0
  6
CONTINUOUS
 62
     7
 10
61.1607735073
 20
30.6310848191
 30
0.0
  0
SEQEND
  5
9B1
  8
0
  6
CONTINUOUS
 62
     7
  0
ARC
  5
17B
  8
0
  6
CONTINUOUS
 62
     7
 10
57.7504900024
 20
25.2308198782
 30
0.0
 40
0.1796720046482403
 50
162.0145400483
 51
257.9800627539
  0
LINE
  5
17C
  8
0
  6
CONTINUOUS
 62
     7
 10
61.3049059742
 20
30.7142907211
 30
0.0
 11
61.3487465784
 21
30.688982079
 31
0.0
  0
LINE
  5
17D
  8
0
  6
CONTINUOUS
 62
     7
 10
61.1607735073
 20
30.6310848191
 30
0.0
 11
61.3049059742
 21
30.7142907211
 31
0.0
  0
ARC
  5
17E
  8
0
  6
CONTINUOUS
 62
     7
 10
61.3368170321
 20
30.720413811
 30
0.0
 40
0.0336194564702308
 50
290.7836721397
 51
69.2166941343
  0
ARC
  5
17F
  8
0
  6
CONTINUOUS
 62
     7
 10
61.3327643529
 20
27.687540886
 30
0.0
 40
0.0387259636005089
 50
294.3745908246
 51
354.3057220717
  0
ARC
  5
180
  8
0
  6
CONTINUOUS
 62
     7
 10
61.3025820663
 20
30.7204138033
 30
0.0
 40
0.0065492505652339
 50
290.783374816
 51
69.218657007
  0
LINE
  5
181
  8
0
  6
CONTINUOUS
 62
     7
 10
61.3487463775
 20
30.7518456193
 30
0.0
 11
61.304905757
 21
30.7265369678
 31
0.0
  0
LINE
  5
182
  8
0
  6
CONTINUOUS
 62
     7
 10
60.2431851761
 20
32.3719625606
 30
0.0
 11
60.1993445557
 21
32.3466539092
 31
0.0
  0
POLYLINE
  5
183
  8
0
  6
CONTINUOUS
 62
     7
 66
     1
 10
0.0
 20
0.0
 30
0.0
  0
VERTEX
  5
9B2
  8
0
  6
CONTINUOUS
 62
     7
 10
60.2431851761
 20
32.3719625606
 30
0.0
  0
VERTEX
  5
9B3
  8
0
  6
CONTINUOUS
 62
     7
 10
60.249176583
 20
32.4077417642
 30
0.0
  0
VERTEX
  5
9B4
  8
0
  6
CONTINUOUS
 62
     7
 10
60.2538757906
 20
32.4175613978
 30
0.0
  0
SEQEND
  5
9B5
  8
0
  6
CONTINUOUS
 62
     7
  0
LINE
  5
184
  8
0
  6
CONTINUOUS
 62
     7
 10
61.3487463775
 20
30.7518456193
 30
0.0
 11
61.2044643575
 21
30.8351378565
 31
0.0
  0
LINE
  5
185
  8
0
  6
CONTINUOUS
 62
     7
 10
60.4418822622
 20
31.8262938721
 30
0.0
 11
60.3980416417
 21
31.8009852207
 31
0.0
  0
LINE
  5
186
  8
0
  6
CONTINUOUS
 62
     7
 10
60.4474733569
 20
31.8274431149
 30
0.0
 11
60.4418822622
 21
31.8262938721
 31
0.0
  0
ARC
  5
187
  8
0
  6
CONTINUOUS
 62
     7
 10
57.7504900332
 20
24.7204818608
 30
0.0
 40
0.1796720319425307
 50
162.0145450147
 51
257.9800545751
  0
LINE
  5
188
  8
0
  6
CONTINUOUS
 62
     7
 10
60.2431851761
 20
32.2934047081
 30
0.0
 11
60.1993445557
 21
32.2680960566
 31
0.0
  0
LINE
  5
189
  8
0
  6
CONTINUOUS
 62
     7
 10
60.2431851761
 20
32.2934047081
 30
0.0
 11
60.2431851761
 21
32.3719625606
 31
0.0
  0
LINE
  5
18A
  8
0
  6
CONTINUOUS
 62
     7
 10
60.2431851761
 20
31.9409992583
 30
0.0
 11
60.1993445557
 21
31.9156906069
 31
0.0
  0
POLYLINE
  5
18B
  8
0
  6
CONTINUOUS
 62
     7
 66
     1
 10
0.0
 20
0.0
 30
0.0
  0
VERTEX
  5
9B6
  8
0
  6
CONTINUOUS
 62
     7
 10
60.2431851761
 20
31.9409992583
 30
0.0
  0
VERTEX
  5
9B7
  8
0
  6
CONTINUOUS
 62
     7
 10
60.2087185122
 20
31.9945120134
 30
0.0
  0
VERTEX
  5
9B8
  8
0
  6
CONTINUOUS
 62
     7
 10
60.1824671651
 20
32.0520359931
 30
0.0
  0
VERTEX
  5
9B9
  8
0
  6
CONTINUOUS
 62
     7
 10
60.1660427539
 20
32.1100396871
 30
0.0
  0
VERTEX
  5
9BA
  8
0
  6
CONTINUOUS
 62
     7
 10
60.1604537334
 20
32.1649618285
 30
0.0
  0
VERTEX
  5
9BB
  8
0
  6
CONTINUOUS
 62
     7
 10
60.1660427539
 20
32.2134310242
 30
0.0
  0
VERTEX
  5
9BC
  8
0
  6
CONTINUOUS
 62
     7
 10
60.1824671651
 20
32.2524714967
 30
0.0
  0
VERTEX
  5
9BD
  8
0
  6
CONTINUOUS
 62
     7
 10
60.1937530623
 20
32.2669474579
 30
0.0
  0
SEQEND
  5
9BE
  8
0
  6
CONTINUOUS
 62
     7
  0
LINE
  5
18C
  8
0
  6
CONTINUOUS
 62
     7
 10
60.2431851761
 20
31.8624414058
 30
0.0
 11
60.1993445557
 21
31.8371327543
 31
0.0
  0
ARC
  5
18D
  8
0
  6
CONTINUOUS
 62
     7
 10
60.4278645836
 20
31.8570892532
 30
0.0
 40
0.1847569459115403
 50
178.3399884687
 51
257.3332407667
  0
LINE
  5
18E
  8
0
  6
CONTINUOUS
 62
     7
 10
60.2431851761
 20
31.8624414058
 30
0.0
 11
60.2431851761
 21
31.9409992583
 31
0.0
  0
LINE
  5
18F
  8
0
  6
CONTINUOUS
 62
     7
 10
61.2046141115
 20
27.3396128491
 30
0.0
 11
61.1607735073
 21
27.3649214912
 31
0.0
  0
POLYLINE
  5
190
  8
0
  6
CONTINUOUS
 62
     7
 66
     1
 10
0.0
 20
0.0
 30
0.0
  0
VERTEX
  5
9BF
  8
0
  6
CONTINUOUS
 62
     7
 10
61.1159561571
 20
27.3513856099
 30
0.0
  0
VERTEX
  5
9C0
  8
0
  6
CONTINUOUS
 62
     7
 10
61.1267943219
 20
27.3522245002
 30
0.0
  0
VERTEX
  5
9C1
  8
0
  6
CONTINUOUS
 62
     7
 10
61.1607735073
 20
27.3649214912
 30
0.0
  0
SEQEND
  5
9C2
  8
0
  6
CONTINUOUS
 62
     7
  0
LINE
  5
191
  8
0
  6
CONTINUOUS
 62
     7
 10
61.3049059742
 20
27.4481273933
 30
0.0
 11
61.3487465784
 21
27.4228187512
 31
0.0
  0
LINE
  5
192
  8
0
  6
CONTINUOUS
 62
     7
 10
61.1607735073
 20
27.3649214912
 30
0.0
 11
61.3049059742
 21
27.4481273933
 31
0.0
  0
ARC
  5
193
  8
0
  6
CONTINUOUS
 62
     7
 10
61.3327643529
 20
26.3480057422
 30
0.0
 40
0.0387259636005035
 50
294.3745908246
 51
354.3057220717
  0
ARC
  5
194
  8
0
  6
CONTINUOUS
 62
     7
 10
61.3368170321
 20
27.4542504832
 30
0.0
 40
0.0336194564702239
 50
290.7836721397
 51
69.2166941343
  0
ARC
  5
195
  8
0
  6
CONTINUOUS
 62
     7
 10
61.3025820663
 20
27.4542504754
 30
0.0
 40
0.0065492505652339
 50
290.783374816
 51
69.218657007
  0
LINE
  5
196
  8
0
  6
CONTINUOUS
 62
     7
 10
61.3487463775
 20
27.4856822915
 30
0.0
 11
61.304905757
 21
27.46037364
 31
0.0
  0
LINE
  5
197
  8
0
  6
CONTINUOUS
 62
     7
 10
61.3487463775
 20
27.4856822915
 30
0.0
 11
61.2044643575
 21
27.5689745287
 31
0.0
  0
POLYLINE
  5
198
  8
0
  6
CONTINUOUS
 62
     7
 66
     1
 10
0.0
 20
0.0
 30
0.0
  0
VERTEX
  5
9C3
  8
0
  6
CONTINUOUS
 62
     7
 10
57.1128234336
 20
31.5792323987
 30
0.0
  0
VERTEX
  5
9C4
  8
0
  6
CONTINUOUS
 62
     7
 10
57.1077458999
 20
31.6547934313
 30
0.0
  0
VERTEX
  5
9C5
  8
0
  6
CONTINUOUS
 62
     7
 10
57.0926450076
 20
31.7342594284
 30
0.0
  0
VERTEX
  5
9C6
  8
0
  6
CONTINUOUS
 62
     7
 10
57.0679117352
 20
31.8155728656
 30
0.0
  0
VERTEX
  5
9C7
  8
0
  6
CONTINUOUS
 62
     7
 10
57.0341867895
 20
31.8966276203
 30
0.0
  0
VERTEX
  5
9C8
  8
0
  6
CONTINUOUS
 62
     7
 10
56.99234339
 20
31.9753241783
 30
0.0
  0
VERTEX
  5
9C9
  8
0
  6
CONTINUOUS
 62
     7
 10
56.9434654906
 20
32.0496246006
 30
0.0
  0
VERTEX
  5
9CA
  8
0
  6
CONTINUOUS
 62
     7
 10
56.8888189488
 20
32.1176043764
 30
0.0
  0
VERTEX
  5
9CB
  8
0
  6
CONTINUOUS
 62
     7
 10
56.8298191686
 20
32.1775029573
 30
0.0
  0
VERTEX
  5
9CC
  8
0
  6
CONTINUOUS
 62
     7
 10
56.7679939731
 20
32.2277689027
 30
0.0
  0
VERTEX
  5
9CD
  8
0
  6
CONTINUOUS
 62
     7
 10
56.7049448182
 20
32.2671004745
 30
0.0
  0
VERTEX
  5
9CE
  8
0
  6
CONTINUOUS
 62
     7
 10
56.6423044794
 20
32.2944789254
 30
0.0
  0
VERTEX
  5
9CF
  8
0
  6
CONTINUOUS
 62
     7
 10
56.5816953615
 20
32.309195201
 30
0.0
  0
VERTEX
  5
9D0
  8
0
  6
CONTINUOUS
 62
     7
 10
56.5246873932
 20
32.3108680197
 30
0.0
  0
VERTEX
  5
9D1
  8
0
  6
CONTINUOUS
 62
     7
 10
56.4727567512
 20
32.2994542874
 30
0.0
  0
VERTEX
  5
9D2
  8
0
  6
CONTINUOUS
 62
     7
 10
56.4272485255
 20
32.2752495731
 30
0.0
  0
VERTEX
  5
9D3
  8
0
  6
CONTINUOUS
 62
     7
 10
56.3893414592
 20
32.2388806807
 30
0.0
  0
VERTEX
  5
9D4
  8
0
  6
CONTINUOUS
 62
     7
 10
56.36001725
 20
32.1912895985
 30
0.0
  0
VERTEX
  5
9D5
  8
0
  6
CONTINUOUS
 62
     7
 10
56.340035454
 20
32.1337087069
 30
0.0
  0
VERTEX
  5
9D6
  8
0
  6
CONTINUOUS
 62
     7
 10
56.3299133657
 20
32.0676297593
 30
0.0
  0
VERTEX
  5
9D7
  8
0
  6
CONTINUOUS
 62
     7
 10
56.3299133657
 20
31.9947637619
 30
0.0
  0
VERTEX
  5
9D8
  8
0
  6
CONTINUOUS
 62
     7
 10
56.340035454
 20
31.9169980998
 30
0.0
  0
VERTEX
  5
9D9
  8
0
  6
CONTINUOUS
 62
     7
 10
56.36001725
 20
31.8363467176
 30
0.0
  0
VERTEX
  5
9DA
  8
0
  6
CONTINUOUS
 62
     7
 10
56.3893414592
 20
31.7548986242
 30
0.0
  0
VERTEX
  5
9DB
  8
0
  6
CONTINUOUS
 62
     7
 10
56.4272485255
 20
31.6747631646
 30
0.0
  0
VERTEX
  5
9DC
  8
0
  6
CONTINUOUS
 62
     7
 10
56.4727567512
 20
31.5980157714
 30
0.0
  0
VERTEX
  5
9DD
  8
0
  6
CONTINUOUS
 62
     7
 10
56.5246873932
 20
31.526644196
 30
0.0
  0
VERTEX
  5
9DE
  8
0
  6
CONTINUOUS
 62
     7
 10
56.5816953615
 20
31.4624970155
 30
0.0
  0
VERTEX
  5
9DF
  8
0
  6
CONTINUOUS
 62
     7
 10
56.6423044794
 20
31.4072354932
 30
0.0
  0
VERTEX
  5
9E0
  8
0
  6
CONTINUOUS
 62
     7
 10
56.7049448182
 20
31.3622909483
 30
0.0
  0
VERTEX
  5
9E1
  8
0
  6
CONTINUOUS
 62
     7
 10
56.7679939731
 20
31.3288275154
 30
0.0
  0
VERTEX
  5
9E2
  8
0
  6
CONTINUOUS
 62
     7
 10
56.8298191686
 20
31.3077116095
 30
0.0
  0
VERTEX
  5
9E3
  8
0
  6
CONTINUOUS
 62
     7
 10
56.8888189488
 20
31.299490494
 30
0.0
  0
VERTEX
  5
9E4
  8
0
  6
CONTINUOUS
 62
     7
 10
56.9434654906
 20
31.3043767156
 30
0.0
  0
VERTEX
  5
9E5
  8
0
  6
CONTINUOUS
 62
     7
 10
56.99234339
 20
31.3222439166
 30
0.0
  0
VERTEX
  5
9E6
  8
0
  6
CONTINUOUS
 62
     7
 10
57.0341867895
 20
31.3526291139
 30
0.0
  0
VERTEX
  5
9E7
  8
0
  6
CONTINUOUS
 62
     7
 10
57.0679117352
 20
31.394745875
 30
0.0
  0
VERTEX
  5
9E8
  8
0
  6
CONTINUOUS
 62
     7
 10
57.0926450076
 20
31.4475028838
 30
0.0
  0
VERTEX
  5
9E9
  8
0
  6
CONTINUOUS
 62
     7
 10
57.1077458999
 20
31.5095340013
 30
0.0
  0
VERTEX
  5
9EA
  8
0
  6
CONTINUOUS
 62
     7
 10
57.1128234336
 20
31.5792323987
 30
0.0
  0
SEQEND
  5
9EB
  8
0
  6
CONTINUOUS
 62
     7
  0
POLYLINE
  5
199
  8
0
  6
CONTINUOUS
 62
     7
 66
     1
 10
0.0
 20
0.0
 30
0.0
  0
VERTEX
  5
9EC
  8
0
  6
CONTINUOUS
 62
     7
 10
54.991503012
 20
32.8038446115
 30
0.0
  0
VERTEX
  5
9ED
  8
0
  6
CONTINUOUS
 62
     7
 10
54.9864255301
 20
32.8794056141
 30
0.0
  0
VERTEX
  5
9EE
  8
0
  6
CONTINUOUS
 62
     7
 10
54.9713246379
 20
32.9588716112
 30
0.0
  0
VERTEX
  5
9EF
  8
0
  6
CONTINUOUS
 62
     7
 10
54.9465913914
 20
33.0401850335
 30
0.0
  0
VERTEX
  5
9F0
  8
0
  6
CONTINUOUS
 62
     7
 10
54.9128663938
 20
33.1212398181
 30
0.0
  0
VERTEX
  5
9F1
  8
0
  6
CONTINUOUS
 62
     7
 10
54.8710230721
 20
33.1999363312
 30
0.0
  0
VERTEX
  5
9F2
  8
0
  6
CONTINUOUS
 62
     7
 10
54.8221451986
 20
33.2742367386
 30
0.0
  0
VERTEX
  5
9F3
  8
0
  6
CONTINUOUS
 62
     7
 10
54.7674986698
 20
33.3422165069
 30
0.0
  0
VERTEX
  5
9F4
  8
0
  6
CONTINUOUS
 62
     7
 10
54.7084987858
 20
33.4021151476
 30
0.0
  0
VERTEX
  5
9F5
  8
0
  6
CONTINUOUS
 62
     7
 10
54.646673613
 20
33.45238108
 30
0.0
  0
VERTEX
  5
9F6
  8
0
  6
CONTINUOUS
 62
     7
 10
54.5836243998
 20
33.4917126854
 30
0.0
  0
VERTEX
  5
9F7
  8
0
  6
CONTINUOUS
 62
     7
 10
54.5209840837
 20
33.5190911232
 30
0.0
  0
VERTEX
  5
9F8
  8
0
  6
CONTINUOUS
 62
     7
 10
54.4603750177
 20
33.5338073689
 30
0.0
  0
VERTEX
  5
9F9
  8
0
  6
CONTINUOUS
 62
     7
 10
54.4033669456
 20
33.5354802475
 30
0.0
  0
VERTEX
  5
9FA
  8
0
  6
CONTINUOUS
 62
     7
 10
54.3514363555
 20
33.5240664853
 30
0.0
  0
VERTEX
  5
9FB
  8
0
  6
CONTINUOUS
 62
     7
 10
54.3059281817
 20
33.499861741
 30
0.0
  0
VERTEX
  5
9FC
  8
0
  6
CONTINUOUS
 62
     7
 10
54.2680211153
 20
33.4634928486
 30
0.0
  0
VERTEX
  5
9FD
  8
0
  6
CONTINUOUS
 62
     7
 10
54.2386969062
 20
33.4159017664
 30
0.0
  0
VERTEX
  5
9FE
  8
0
  6
CONTINUOUS
 62
     7
 10
54.2187150324
 20
33.3583209197
 30
0.0
  0
VERTEX
  5
9FF
  8
0
  6
CONTINUOUS
 62
     7
 10
54.2085930218
 20
33.2922419272
 30
0.0
  0
VERTEX
  5
A00
  8
0
  6
CONTINUOUS
 62
     7
 10
54.2085930218
 20
33.2193759298
 30
0.0
  0
VERTEX
  5
A01
  8
0
  6
CONTINUOUS
 62
     7
 10
54.2187150324
 20
33.1416103126
 30
0.0
  0
VERTEX
  5
A02
  8
0
  6
CONTINUOUS
 62
     7
 10
54.2386969062
 20
33.0609588855
 30
0.0
  0
VERTEX
  5
A03
  8
0
  6
CONTINUOUS
 62
     7
 10
54.2680211153
 20
32.9795107921
 30
0.0
  0
VERTEX
  5
A04
  8
0
  6
CONTINUOUS
 62
     7
 10
54.3059281817
 20
32.8993753325
 30
0.0
  0
VERTEX
  5
A05
  8
0
  6
CONTINUOUS
 62
     7
 10
54.3514363555
 20
32.8226279692
 30
0.0
  0
VERTEX
  5
A06
  8
0
  6
CONTINUOUS
 62
     7
 10
54.4033669456
 20
32.7512564238
 30
0.0
  0
VERTEX
  5
A07
  8
0
  6
CONTINUOUS
 62
     7
 10
54.4603750177
 20
32.6871091834
 30
0.0
  0
VERTEX
  5
A08
  8
0
  6
CONTINUOUS
 62
     7
 10
54.5209840837
 20
32.631847691
 30
0.0
  0
VERTEX
  5
A09
  8
0
  6
CONTINUOUS
 62
     7
 10
54.5836243998
 20
32.5869031593
 30
0.0
  0
VERTEX
  5
A0A
  8
0
  6
CONTINUOUS
 62
     7
 10
54.646673613
 20
32.5534396926
 30
0.0
  0
VERTEX
  5
A0B
  8
0
  6
CONTINUOUS
 62
     7
 10
54.7084987858
 20
32.5323237999
 30
0.0
  0
VERTEX
  5
A0C
  8
0
  6
CONTINUOUS
 62
     7
 10
54.7674986698
 20
32.5241026245
 30
0.0
  0
VERTEX
  5
A0D
  8
0
  6
CONTINUOUS
 62
     7
 10
54.8221451986
 20
32.5289888536
 30
0.0
  0
VERTEX
  5
A0E
  8
0
  6
CONTINUOUS
 62
     7
 10
54.8710230721
 20
32.5468560696
 30
0.0
  0
VERTEX
  5
A0F
  8
0
  6
CONTINUOUS
 62
     7
 10
54.9128663938
 20
32.5772413117
 30
0.0
  0
VERTEX
  5
A10
  8
0
  6
CONTINUOUS
 62
     7
 10
54.9465913914
 20
32.6193580429
 30
0.0
  0
VERTEX
  5
A11
  8
0
  6
CONTINUOUS
 62
     7
 10
54.9713246379
 20
32.6721150666
 30
0.0
  0
VERTEX
  5
A12
  8
0
  6
CONTINUOUS
 62
     7
 10
54.9864255301
 20
32.7341461842
 30
0.0
  0
VERTEX
  5
A13
  8
0
  6
CONTINUOUS
 62
     7
 10
54.991503012
 20
32.8038446115
 30
0.0
  0
SEQEND
  5
A14
  8
0
  6
CONTINUOUS
 62
     7
  0
LINE
  5
19A
  8
0
  6
CONTINUOUS
 62
     7
 10
44.4990990357
 20
37.8131769799
 30
0.0
 11
44.4990990357
 21
37.7854190065
 31
0.0
  0
LINE
  5
19B
  8
0
  6
CONTINUOUS
 62
     7
 10
44.5429396399
 20
37.7878683377
 30
0.0
 11
44.4990990357
 21
37.8131769799
 31
0.0
  0
LINE
  5
19C
  8
0
  6
CONTINUOUS
 62
     7
 10
44.5429396399
 20
37.7878683377
 30
0.0
 11
44.5429396399
 21
37.7601103644
 31
0.0
  0
LINE
  5
19D
  8
0
  6
CONTINUOUS
 62
     7
 10
47.9575582432
 20
39.7590856989
 30
0.0
 11
47.913717639
 21
39.784394341
 31
0.0
  0
LINE
  5
19E
  8
0
  6
CONTINUOUS
 62
     7
 10
47.9575582432
 20
39.7590856989
 30
0.0
 11
44.5429396399
 21
37.7878683377
 31
0.0
  0
LINE
  5
19F
  8
0
  6
CONTINUOUS
 62
     7
 10
47.913717639
 20
39.784394341
 30
0.0
 11
44.4990990357
 21
37.8131769799
 31
0.0
  0
LINE
  5
1A0
  8
0
  6
CONTINUOUS
 62
     7
 10
47.9575582432
 20
35.1533872273
 30
0.0
 11
47.8133084569
 21
35.0701135982
 31
0.0
  0
LINE
  5
1A1
  8
0
  6
CONTINUOUS
 62
     7
 10
47.9575582432
 20
35.1533872273
 30
0.0
 11
47.9575582432
 21
34.0433000249
 31
0.0
  0
LINE
  5
1A2
  8
0
  6
CONTINUOUS
 62
     7
 10
47.9575582432
 20
34.0433000249
 30
0.0
 11
44.8950788408
 21
32.2753682973
 31
0.0
  0
LINE
  5
1A3
  8
0
  6
CONTINUOUS
 62
     7
 10
44.7339192065
 20
32.1823328208
 30
0.0
 11
44.6376634374
 21
32.1267655481
 31
0.0
  0
LINE
  5
1A4
  8
0
  6
CONTINUOUS
 62
     7
 10
47.9575582432
 20
39.7590856989
 30
0.0
 11
47.9575582432
 21
38.6489986162
 31
0.0
  0
LINE
  5
1A5
  8
0
  6
CONTINUOUS
 62
     7
 10
47.8133084569
 20
38.5657249871
 30
0.0
 11
47.9575582432
 21
38.6489986162
 31
0.0
  0
POLYLINE
  5
1A6
  8
0
  6
CONTINUOUS
 62
     7
 66
     1
 10
0.0
 20
0.0
 30
0.0
  0
VERTEX
  5
A15
  8
0
  6
CONTINUOUS
 62
     7
 10
47.8133084569
 20
38.5657249871
 30
0.0
  0
VERTEX
  5
A16
  8
0
  6
CONTINUOUS
 62
     7
 10
47.7793292715
 20
38.5391905654
 30
0.0
  0
VERTEX
  5
A17
  8
0
  6
CONTINUOUS
 62
     7
 10
47.7494484626
 20
38.5020187695
 30
0.0
  0
VERTEX
  5
A18
  8
0
  6
CONTINUOUS
 62
     7
 10
47.7272701355
 20
38.4586939863
 30
0.0
  0
VERTEX
  5
A19
  8
0
  6
CONTINUOUS
 62
     7
 10
47.7154692771
 20
38.4144413329
 30
0.0
  0
VERTEX
  5
A1A
  8
0
  6
CONTINUOUS
 62
     7
 10
47.7154692771
 20
38.3745978677
 30
0.0
  0
VERTEX
  5
A1B
  8
0
  6
CONTINUOUS
 62
     7
 10
47.7272701355
 20
38.3439701953
 30
0.0
  0
VERTEX
  5
A1C
  8
0
  6
CONTINUOUS
 62
     7
 10
47.7494484626
 20
38.3262514845
 30
0.0
  0
VERTEX
  5
A1D
  8
0
  6
CONTINUOUS
 62
     7
 10
47.7793292715
 20
38.3235798152
 30
0.0
  0
VERTEX
  5
A1E
  8
0
  6
CONTINUOUS
 62
     7
 10
47.8133084569
 20
38.336276926
 30
0.0
  0
SEQEND
  5
A1F
  8
0
  6
CONTINUOUS
 62
     7
  0
LINE
  5
1A7
  8
0
  6
CONTINUOUS
 62
     7
 10
47.9575582432
 20
38.4195505551
 30
0.0
 11
47.8133084569
 21
38.336276926
 31
0.0
  0
LINE
  5
1A8
  8
0
  6
CONTINUOUS
 62
     7
 10
47.9575582432
 20
38.4195505551
 30
0.0
 11
47.9575582432
 21
35.3828351686
 31
0.0
  0
LINE
  5
1A9
  8
0
  6
CONTINUOUS
 62
     7
 10
47.8133084569
 20
35.2995615395
 30
0.0
 11
47.9575582432
 21
35.3828351686
 31
0.0
  0
POLYLINE
  5
1AA
  8
0
  6
CONTINUOUS
 62
     7
 66
     1
 10
0.0
 20
0.0
 30
0.0
  0
VERTEX
  5
A20
  8
0
  6
CONTINUOUS
 62
     7
 10
47.8133084569
 20
35.2995615395
 30
0.0
  0
VERTEX
  5
A21
  8
0
  6
CONTINUOUS
 62
     7
 10
47.7793292715
 20
35.2730271178
 30
0.0
  0
VERTEX
  5
A22
  8
0
  6
CONTINUOUS
 62
     7
 10
47.7494484626
 20
35.2358556812
 30
0.0
  0
VERTEX
  5
A23
  8
0
  6
CONTINUOUS
 62
     7
 10
47.7272701355
 20
35.1925307783
 30
0.0
  0
VERTEX
  5
A24
  8
0
  6
CONTINUOUS
 62
     7
 10
47.7154692771
 20
35.1482778853
 30
0.0
  0
VERTEX
  5
A25
  8
0
  6
CONTINUOUS
 62
     7
 10
47.7154692771
 20
35.1084346597
 30
0.0
  0
VERTEX
  5
A26
  8
0
  6
CONTINUOUS
 62
     7
 10
47.7272701355
 20
35.0778067477
 30
0.0
  0
VERTEX
  5
A27
  8
0
  6
CONTINUOUS
 62
     7
 10
47.7494484626
 20
35.0600883962
 30
0.0
  0
VERTEX
  5
A28
  8
0
  6
CONTINUOUS
 62
     7
 10
47.7793292715
 20
35.0574166072
 30
0.0
  0
VERTEX
  5
A29
  8
0
  6
CONTINUOUS
 62
     7
 10
47.8133084569
 20
35.0701135982
 30
0.0
  0
SEQEND
  5
A2A
  8
0
  6
CONTINUOUS
 62
     7
  0
POLYLINE
  5
1AB
  8
0
  6
CONTINUOUS
 62
     7
 66
     1
 10
0.0
 20
0.0
 30
0.0
  0
VERTEX
  5
A2B
  8
0
  6
CONTINUOUS
 62
     7
 10
52.8701826941
 20
34.0284567644
 30
0.0
  0
VERTEX
  5
A2C
  8
0
  6
CONTINUOUS
 62
     7
 10
52.8651051603
 20
34.104017797
 30
0.0
  0
VERTEX
  5
A2D
  8
0
  6
CONTINUOUS
 62
     7
 10
52.8500042681
 20
34.1834837941
 30
0.0
  0
VERTEX
  5
A2E
  8
0
  6
CONTINUOUS
 62
     7
 10
52.8252709957
 20
34.2647972313
 30
0.0
  0
VERTEX
  5
A2F
  8
0
  6
CONTINUOUS
 62
     7
 10
52.7915460499
 20
34.345851986
 30
0.0
  0
VERTEX
  5
A30
  8
0
  6
CONTINUOUS
 62
     7
 10
52.7497026504
 20
34.424548544
 30
0.0
  0
VERTEX
  5
A31
  8
0
  6
CONTINUOUS
 62
     7
 10
52.7008249585
 20
34.4988488466
 30
0.0
  0
VERTEX
  5
A32
  8
0
  6
CONTINUOUS
 62
     7
 10
52.6461784167
 20
34.5668286224
 30
0.0
  0
VERTEX
  5
A33
  8
0
  6
CONTINUOUS
 62
     7
 10
52.587178429
 20
34.626727323
 30
0.0
  0
VERTEX
  5
A34
  8
0
  6
CONTINUOUS
 62
     7
 10
52.5253532335
 20
34.6769932684
 30
0.0
  0
VERTEX
  5
A35
  8
0
  6
CONTINUOUS
 62
     7
 10
52.4623040786
 20
34.7163248403
 30
0.0
  0
VERTEX
  5
A36
  8
0
  6
CONTINUOUS
 62
     7
 10
52.3996637398
 20
34.7437032911
 30
0.0
  0
VERTEX
  5
A37
  8
0
  6
CONTINUOUS
 62
     7
 10
52.339054622
 20
34.7584195667
 30
0.0
  0
VERTEX
  5
A38
  8
0
  6
CONTINUOUS
 62
     7
 10
52.2820466536
 20
34.7600923855
 30
0.0
  0
VERTEX
  5
A39
  8
0
  6
CONTINUOUS
 62
     7
 10
52.2301160116
 20
34.7486786532
 30
0.0
  0
VERTEX
  5
A3A
  8
0
  6
CONTINUOUS
 62
     7
 10
52.184607786
 20
34.7244739389
 30
0.0
  0
VERTEX
  5
A3B
  8
0
  6
CONTINUOUS
 62
     7
 10
52.1467007196
 20
34.6881050465
 30
0.0
  0
VERTEX
  5
A3C
  8
0
  6
CONTINUOUS
 62
     7
 10
52.1173765105
 20
34.6405139642
 30
0.0
  0
VERTEX
  5
A3D
  8
0
  6
CONTINUOUS
 62
     7
 10
52.0973947145
 20
34.5829330726
 30
0.0
  0
VERTEX
  5
A3E
  8
0
  6
CONTINUOUS
 62
     7
 10
52.0872726261
 20
34.516854125
 30
0.0
  0
VERTEX
  5
A3F
  8
0
  6
CONTINUOUS
 62
     7
 10
52.0872726261
 20
34.4439881276
 30
0.0
  0
VERTEX
  5
A40
  8
0
  6
CONTINUOUS
 62
     7
 10
52.0973947145
 20
34.3662224656
 30
0.0
  0
VERTEX
  5
A41
  8
0
  6
CONTINUOUS
 62
     7
 10
52.1173765105
 20
34.2855710834
 30
0.0
  0
VERTEX
  5
A42
  8
0
  6
CONTINUOUS
 62
     7
 10
52.1467007196
 20
34.2041229899
 30
0.0
  0
VERTEX
  5
A43
  8
0
  6
CONTINUOUS
 62
     7
 10
52.184607786
 20
34.1239875303
 30
0.0
  0
VERTEX
  5
A44
  8
0
  6
CONTINUOUS
 62
     7
 10
52.2301160116
 20
34.0472401371
 30
0.0
  0
VERTEX
  5
A45
  8
0
  6
CONTINUOUS
 62
     7
 10
52.2820466536
 20
33.9758685618
 30
0.0
  0
VERTEX
  5
A46
  8
0
  6
CONTINUOUS
 62
     7
 10
52.339054622
 20
33.9117213813
 30
0.0
  0
VERTEX
  5
A47
  8
0
  6
CONTINUOUS
 62
     7
 10
52.3996637398
 20
33.8564598589
 30
0.0
  0
VERTEX
  5
A48
  8
0
  6
CONTINUOUS
 62
     7
 10
52.4623040786
 20
33.8115153141
 30
0.0
  0
VERTEX
  5
A49
  8
0
  6
CONTINUOUS
 62
     7
 10
52.5253532335
 20
33.7780518811
 30
0.0
  0
VERTEX
  5
A4A
  8
0
  6
CONTINUOUS
 62
     7
 10
52.587178429
 20
33.7569359753
 30
0.0
  0
VERTEX
  5
A4B
  8
0
  6
CONTINUOUS
 62
     7
 10
52.6461784167
 20
33.74871474
 30
0.0
  0
VERTEX
  5
A4C
  8
0
  6
CONTINUOUS
 62
     7
 10
52.7008249585
 20
33.7536009616
 30
0.0
  0
VERTEX
  5
A4D
  8
0
  6
CONTINUOUS
 62
     7
 10
52.7497026504
 20
33.7714682824
 30
0.0
  0
VERTEX
  5
A4E
  8
0
  6
CONTINUOUS
 62
     7
 10
52.7915460499
 20
33.8018534796
 30
0.0
  0
VERTEX
  5
A4F
  8
0
  6
CONTINUOUS
 62
     7
 10
52.8252709957
 20
33.8439702407
 30
0.0
  0
VERTEX
  5
A50
  8
0
  6
CONTINUOUS
 62
     7
 10
52.8500042681
 20
33.8967272495
 30
0.0
  0
VERTEX
  5
A51
  8
0
  6
CONTINUOUS
 62
     7
 10
52.8651051603
 20
33.9587583671
 30
0.0
  0
VERTEX
  5
A52
  8
0
  6
CONTINUOUS
 62
     7
 10
52.8701826941
 20
34.0284567644
 30
0.0
  0
SEQEND
  5
A53
  8
0
  6
CONTINUOUS
 62
     7
  0
LINE
  5
1AC
  8
0
  6
CONTINUOUS
 62
     7
 10
48.9294763991
 20
38.9032276158
 30
0.0
 11
48.8856357786
 21
38.8779189643
 31
0.0
  0
POLYLINE
  5
1AD
  8
0
  6
CONTINUOUS
 62
     7
 66
     1
 10
0.0
 20
0.0
 30
0.0
  0
VERTEX
  5
A54
  8
0
  6
CONTINUOUS
 62
     7
 10
48.9294763991
 20
38.9032276158
 30
0.0
  0
VERTEX
  5
A55
  8
0
  6
CONTINUOUS
 62
     7
 10
48.9354682207
 20
38.9390065798
 30
0.0
  0
VERTEX
  5
A56
  8
0
  6
CONTINUOUS
 62
     7
 10
48.9401670136
 20
38.9488264529
 30
0.0
  0
SEQEND
  5
A57
  8
0
  6
CONTINUOUS
 62
     7
  0
LINE
  5
1AE
  8
0
  6
CONTINUOUS
 62
     7
 10
49.1281734851
 20
38.3575589273
 30
0.0
 11
49.0843328646
 21
38.3322502758
 31
0.0
  0
LINE
  5
1AF
  8
0
  6
CONTINUOUS
 62
     7
 10
49.1337649946
 20
38.3587079305
 30
0.0
 11
49.1281734851
 21
38.3575589273
 31
0.0
  0
LINE
  5
1B0
  8
0
  6
CONTINUOUS
 62
     7
 10
48.9294763991
 20
38.8246697632
 30
0.0
 11
48.8856357786
 21
38.7993611117
 31
0.0
  0
LINE
  5
1B1
  8
0
  6
CONTINUOUS
 62
     7
 10
48.9294763991
 20
38.8246697632
 30
0.0
 11
48.9294763991
 21
38.9032276158
 31
0.0
  0
LINE
  5
1B2
  8
0
  6
CONTINUOUS
 62
     7
 10
48.9294763991
 20
38.4722643135
 30
0.0
 11
48.8856357786
 21
38.446955662
 31
0.0
  0
POLYLINE
  5
1B3
  8
0
  6
CONTINUOUS
 62
     7
 66
     1
 10
0.0
 20
0.0
 30
0.0
  0
VERTEX
  5
A58
  8
0
  6
CONTINUOUS
 62
     7
 10
48.9294763991
 20
38.4722643135
 30
0.0
  0
VERTEX
  5
A59
  8
0
  6
CONTINUOUS
 62
     7
 10
48.89501015
 20
38.5257768291
 30
0.0
  0
VERTEX
  5
A5A
  8
0
  6
CONTINUOUS
 62
     7
 10
48.8687588028
 20
38.5833008087
 30
0.0
  0
VERTEX
  5
A5B
  8
0
  6
CONTINUOUS
 62
     7
 10
48.8523343917
 20
38.6413045027
 30
0.0
  0
VERTEX
  5
A5C
  8
0
  6
CONTINUOUS
 62
     7
 10
48.8467449563
 20
38.6962268837
 30
0.0
  0
VERTEX
  5
A5D
  8
0
  6
CONTINUOUS
 62
     7
 10
48.8523343917
 20
38.7446958398
 30
0.0
  0
VERTEX
  5
A5E
  8
0
  6
CONTINUOUS
 62
     7
 10
48.8687588028
 20
38.7837363124
 30
0.0
  0
VERTEX
  5
A5F
  8
0
  6
CONTINUOUS
 62
     7
 10
48.8800447001
 20
38.7982122735
 30
0.0
  0
SEQEND
  5
A60
  8
0
  6
CONTINUOUS
 62
     7
  0
LINE
  5
1B4
  8
0
  6
CONTINUOUS
 62
     7
 10
48.9294763991
 20
38.3937064609
 30
0.0
 11
48.8856357786
 21
38.3683978094
 31
0.0
  0
ARC
  5
1B5
  8
0
  6
CONTINUOUS
 62
     7
 10
49.1141565687
 20
38.3883549004
 30
0.0
 40
0.1847576906822291
 50
178.3401788369
 51
257.3330503985
  0
LINE
  5
1B6
  8
0
  6
CONTINUOUS
 62
     7
 10
48.9294763991
 20
38.3937064609
 30
0.0
 11
48.9294763991
 21
38.4722643135
 31
0.0
  0
ARC
  5
1B7
  8
0
  6
CONTINUOUS
 62
     7
 10
47.9681648323
 20
39.7386152826
 30
0.0
 40
0.0230551008255403
 50
62.6087371937
 51
117.3905856787
  0
ARC
  5
1B8
  8
0
  6
CONTINUOUS
 62
     7
 10
47.9681648494
 20
39.6793111716
 30
0.0
 40
0.1183510508026379
 50
62.6096478364
 51
117.3902300985
  0
ARC
  5
1B9
  8
0
  6
CONTINUOUS
 62
     7
 10
47.9681648323
 20
38.6285282
 30
0.0
 40
0.0230551008255214
 50
62.6087371937
 51
117.3905856787
  0
LINE
  5
1BA
  8
0
  6
CONTINUOUS
 62
     7
 10
48.2558988237
 20
38.3101856283
 30
0.0
 11
48.2120582033
 21
38.2848769768
 31
0.0
  0
POLYLINE
  5
1BB
  8
0
  6
CONTINUOUS
 62
     7
 66
     1
 10
0.0
 20
0.0
 30
0.0
  0
VERTEX
  5
A61
  8
0
  6
CONTINUOUS
 62
     7
 10
48.3007159406
 20
38.2966497619
 30
0.0
  0
VERTEX
  5
A62
  8
0
  6
CONTINUOUS
 62
     7
 10
48.289878061
 20
38.2974884876
 30
0.0
  0
VERTEX
  5
A63
  8
0
  6
CONTINUOUS
 62
     7
 10
48.2558988237
 20
38.3101856283
 30
0.0
  0
SEQEND
  5
A64
  8
0
  6
CONTINUOUS
 62
     7
  0
LINE
  5
1BC
  8
0
  6
CONTINUOUS
 62
     7
 10
47.7694678526
 20
38.3615855681
 30
0.0
 11
47.8133084569
 21
38.336276926
 31
0.0
  0
POLYLINE
  5
1BD
  8
0
  6
CONTINUOUS
 62
     7
 66
     1
 10
0.0
 20
0.0
 30
0.0
  0
VERTEX
  5
A65
  8
0
  6
CONTINUOUS
 62
     7
 10
47.7246505024
 20
38.348049567
 30
0.0
  0
VERTEX
  5
A66
  8
0
  6
CONTINUOUS
 62
     7
 10
47.7354886672
 20
38.3488884574
 30
0.0
  0
VERTEX
  5
A67
  8
0
  6
CONTINUOUS
 62
     7
 10
47.7694678526
 20
38.3615855681
 30
0.0
  0
SEQEND
  5
A68
  8
0
  6
CONTINUOUS
 62
     7
  0
LINE
  5
1BE
  8
0
  6
CONTINUOUS
 62
     7
 10
47.9787716633
 20
38.4195504298
 30
0.0
 11
48.0226122837
 21
38.4448590812
 31
0.0
  0
LINE
  5
1BF
  8
0
  6
CONTINUOUS
 62
     7
 10
48.2558988237
 20
38.3101856283
 30
0.0
 11
48.0226122837
 21
38.4448590812
 31
0.0
  0
LINE
  5
1C0
  8
0
  6
CONTINUOUS
 62
     7
 10
47.913717639
 20
38.4448591972
 30
0.0
 11
47.9575582432
 21
38.4195505551
 31
0.0
  0
LINE
  5
1C1
  8
0
  6
CONTINUOUS
 62
     7
 10
47.913717639
 20
38.4448591972
 30
0.0
 11
47.7694678526
 21
38.3615855681
 31
0.0
  0
ARC
  5
1C2
  8
0
  6
CONTINUOUS
 62
     7
 10
47.9681648323
 20
38.3990801388
 30
0.0
 40
0.0230551008255592
 50
62.6087371938
 51
117.3905856787
  0
ARC
  5
1C3
  8
0
  6
CONTINUOUS
 62
     7
 10
47.9681648494
 20
38.3397760278
 30
0.0
 40
0.1183510508046974
 50
62.6096478369
 51
117.3902300982
  0
ARC
  5
1C4
  8
0
  6
CONTINUOUS
 62
     7
 10
47.9681648323
 20
35.3623647524
 30
0.0
 40
0.0230551008255592
 50
62.6087371938
 51
117.3905856787
  0
LINE
  5
1C5
  8
0
  6
CONTINUOUS
 62
     7
 10
48.9294763991
 20
34.4122533544
 30
0.0
 11
48.8856357786
 21
34.3869447029
 31
0.0
  0
POLYLINE
  5
1C6
  8
0
  6
CONTINUOUS
 62
     7
 66
     1
 10
0.0
 20
0.0
 30
0.0
  0
VERTEX
  5
A69
  8
0
  6
CONTINUOUS
 62
     7
 10
48.9294763991
 20
34.4122533544
 30
0.0
  0
VERTEX
  5
A6A
  8
0
  6
CONTINUOUS
 62
     7
 10
48.9354682207
 20
34.4480323184
 30
0.0
  0
VERTEX
  5
A6B
  8
0
  6
CONTINUOUS
 62
     7
 10
48.9401670136
 20
34.4578518921
 30
0.0
  0
SEQEND
  5
A6C
  8
0
  6
CONTINUOUS
 62
     7
  0
LINE
  5
1C7
  8
0
  6
CONTINUOUS
 62
     7
 10
49.1281734851
 20
33.8665846359
 30
0.0
 11
49.0843328646
 21
33.8412759845
 31
0.0
  0
LINE
  5
1C8
  8
0
  6
CONTINUOUS
 62
     7
 10
49.1337649946
 20
33.8677333398
 30
0.0
 11
49.1281734851
 21
33.8665846359
 31
0.0
  0
LINE
  5
1C9
  8
0
  6
CONTINUOUS
 62
     7
 10
48.9294763991
 20
34.3336952623
 30
0.0
 11
48.8856357786
 21
34.3083866108
 31
0.0
  0
LINE
  5
1CA
  8
0
  6
CONTINUOUS
 62
     7
 10
48.9294763991
 20
34.3336952623
 30
0.0
 11
48.9294763991
 21
34.4122533544
 31
0.0
  0
LINE
  5
1CB
  8
0
  6
CONTINUOUS
 62
     7
 10
48.9294763991
 20
33.9812900221
 30
0.0
 11
48.8856357786
 21
33.9559813707
 31
0.0
  0
POLYLINE
  5
1CC
  8
0
  6
CONTINUOUS
 62
     7
 66
     1
 10
0.0
 20
0.0
 30
0.0
  0
VERTEX
  5
A6D
  8
0
  6
CONTINUOUS
 62
     7
 10
48.9294763991
 20
33.9812900221
 30
0.0
  0
VERTEX
  5
A6E
  8
0
  6
CONTINUOUS
 62
     7
 10
48.89501015
 20
34.0348025377
 30
0.0
  0
VERTEX
  5
A6F
  8
0
  6
CONTINUOUS
 62
     7
 10
48.8687588028
 20
34.0923264875
 30
0.0
  0
VERTEX
  5
A70
  8
0
  6
CONTINUOUS
 62
     7
 10
48.8523343917
 20
34.1503300617
 30
0.0
  0
VERTEX
  5
A71
  8
0
  6
CONTINUOUS
 62
     7
 10
48.8467449563
 20
34.2052525025
 30
0.0
  0
VERTEX
  5
A72
  8
0
  6
CONTINUOUS
 62
     7
 10
48.8523343917
 20
34.2537215186
 30
0.0
  0
VERTEX
  5
A73
  8
0
  6
CONTINUOUS
 62
     7
 10
48.8687588028
 20
34.2927618713
 30
0.0
  0
VERTEX
  5
A74
  8
0
  6
CONTINUOUS
 62
     7
 10
48.8800447001
 20
34.3072376528
 30
0.0
  0
SEQEND
  5
A75
  8
0
  6
CONTINUOUS
 62
     7
  0
LINE
  5
1CD
  8
0
  6
CONTINUOUS
 62
     7
 10
48.2558988237
 20
35.0440223005
 30
0.0
 11
48.2120582033
 21
35.018713649
 31
0.0
  0
POLYLINE
  5
1CE
  8
0
  6
CONTINUOUS
 62
     7
 66
     1
 10
0.0
 20
0.0
 30
0.0
  0
VERTEX
  5
A76
  8
0
  6
CONTINUOUS
 62
     7
 10
48.3007159406
 20
35.0304865539
 30
0.0
  0
VERTEX
  5
A77
  8
0
  6
CONTINUOUS
 62
     7
 10
48.289878061
 20
35.0313252795
 30
0.0
  0
VERTEX
  5
A78
  8
0
  6
CONTINUOUS
 62
     7
 10
48.2558988237
 20
35.0440223005
 30
0.0
  0
SEQEND
  5
A79
  8
0
  6
CONTINUOUS
 62
     7
  0
LINE
  5
1CF
  8
0
  6
CONTINUOUS
 62
     7
 10
48.9294763991
 20
33.9027319301
 30
0.0
 11
48.8856357786
 21
33.8774232786
 31
0.0
  0
ARC
  5
1D0
  8
0
  6
CONTINUOUS
 62
     7
 10
49.1141570103
 20
33.8973806252
 30
0.0
 40
0.1847581246437049
 50
178.3402620742
 51
257.332940298
  0
LINE
  5
1D1
  8
0
  6
CONTINUOUS
 62
     7
 10
47.7694678526
 20
35.0954222403
 30
0.0
 11
47.8133084569
 21
35.0701135982
 31
0.0
  0
POLYLINE
  5
1D2
  8
0
  6
CONTINUOUS
 62
     7
 66
     1
 10
0.0
 20
0.0
 30
0.0
  0
VERTEX
  5
A7A
  8
0
  6
CONTINUOUS
 62
     7
 10
47.7246505024
 20
35.081886359
 30
0.0
  0
VERTEX
  5
A7B
  8
0
  6
CONTINUOUS
 62
     7
 10
47.7354886672
 20
35.0827252493
 30
0.0
  0
VERTEX
  5
A7C
  8
0
  6
CONTINUOUS
 62
     7
 10
47.7694678526
 20
35.0954222403
 30
0.0
  0
SEQEND
  5
A7D
  8
0
  6
CONTINUOUS
 62
     7
  0
LINE
  5
1D3
  8
0
  6
CONTINUOUS
 62
     7
 10
48.9294763991
 20
33.9027319301
 30
0.0
 11
48.9294763991
 21
33.9812900221
 31
0.0
  0
LINE
  5
1D4
  8
0
  6
CONTINUOUS
 62
     7
 10
47.9787716633
 20
35.1533871019
 30
0.0
 11
48.0226122837
 21
35.1786957534
 31
0.0
  0
LINE
  5
1D5
  8
0
  6
CONTINUOUS
 62
     7
 10
48.2558988237
 20
35.0440223005
 30
0.0
 11
48.0226122837
 21
35.1786957534
 31
0.0
  0
LINE
  5
1D6
  8
0
  6
CONTINUOUS
 62
     7
 10
47.913717639
 20
35.1786958694
 30
0.0
 11
47.9575582432
 21
35.1533872273
 31
0.0
  0
LINE
  5
1D7
  8
0
  6
CONTINUOUS
 62
     7
 10
47.913717639
 20
35.1786958694
 30
0.0
 11
47.7694678526
 21
35.0954222403
 31
0.0
  0
ARC
  5
1D8
  8
0
  6
CONTINUOUS
 62
     7
 10
47.9681648323
 20
35.132916811
 30
0.0
 40
0.0230551008255246
 50
62.6087371938
 51
117.3905856787
  0
ARC
  5
1D9
  8
0
  6
CONTINUOUS
 62
     7
 10
47.9681648494
 20
35.0736127
 30
0.0
 40
0.1183510508026189
 50
62.6096478364
 51
117.3902300985
  0
ARC
  5
1DA
  8
0
  6
CONTINUOUS
 62
     7
 10
47.9681648323
 20
34.0228296086
 30
0.0
 40
0.0230551008255214
 50
62.6087371937
 51
117.3905856787
  0
LINE
  5
1DB
  8
0
  6
CONTINUOUS
 62
     8
 10
61.304905757
 20
32.0660721116
 30
0.0
 11
61.304905757
 21
32.0538261441
 31
0.0
  0
LINE
  5
1DC
  8
0
  6
CONTINUOUS
 62
     8
 10
61.304905757
 20
27.46037364
 30
0.0
 11
61.304905757
 21
27.4481275528
 31
0.0
  0
LINE
  5
1DD
  8
0
  6
CONTINUOUS
 62
     8
 10
61.304905757
 20
30.7265369678
 30
0.0
 11
61.304905757
 21
30.7142910004
 31
0.0
  0
LINE
  5
1DE
  8
0
  6
CONTINUOUS
 62
     7
 10
12.014570483
 20
11.8934559006
 30
0.0
 11
12.014570483
 21
11.3989559165
 31
0.0
  0
LINE
  5
1DF
  8
0
  6
CONTINUOUS
 62
     7
 10
12.014570483
 20
15.893455889
 30
0.0
 11
12.014570483
 21
15.4034558428
 31
0.0
  0
LINE
  5
1E0
  8
0
  6
CONTINUOUS
 62
     7
 10
12.014570483
 20
14.8934559744
 30
0.0
 11
12.014570483
 21
14.4034559282
 31
0.0
  0
LINE
  5
1E1
  8
0
  6
CONTINUOUS
 62
     7
 10
12.014570483
 20
13.8934560598
 30
0.0
 11
12.014570483
 21
13.403455867
 31
0.0
  0
LINE
  5
1E2
  8
0
  6
CONTINUOUS
 62
     7
 10
12.014570483
 20
12.8934558519
 30
0.0
 11
12.014570483
 21
12.4034559524
 31
0.0
  0
LINE
  5
1E3
  8
0
  6
CONTINUOUS
 62
     7
 10
12.014570483
 20
17.8934557181
 30
0.0
 11
12.014570483
 21
17.403455672
 31
0.0
  0
LINE
  5
1E4
  8
0
  6
CONTINUOUS
 62
     7
 10
12.014570483
 20
16.8934558035
 30
0.0
 11
12.014570483
 21
16.4034557574
 31
0.0
  0
LINE
  5
1E5
  8
0
  6
CONTINUOUS
 62
     7
 10
12.2545706971
 20
12.9044558715
 30
0.0
 11
12.2545706971
 21
13.3944559176
 31
0.0
  0
LINE
  5
1E6
  8
0
  6
CONTINUOUS
 62
     7
 10
12.014570483
 20
13.3944559176
 30
0.0
 11
12.014570483
 21
12.9044558715
 31
0.0
  0
LINE
  5
1E7
  8
0
  6
CONTINUOUS
 62
     7
 10
12.2545706971
 20
13.9044559327
 30
0.0
 11
12.2545706971
 21
14.3944559789
 31
0.0
  0
LINE
  5
1E8
  8
0
  6
CONTINUOUS
 62
     7
 10
12.014570483
 20
14.3944559789
 30
0.0
 11
12.014570483
 21
13.9044559327
 31
0.0
  0
LINE
  5
1E9
  8
0
  6
CONTINUOUS
 62
     7
 10
12.2545706971
 20
14.9044558473
 30
0.0
 11
12.2545706971
 21
15.3944558934
 31
0.0
  0
LINE
  5
1EA
  8
0
  6
CONTINUOUS
 62
     7
 10
12.014570483
 20
15.3944558934
 30
0.0
 11
12.014570483
 21
14.9044558473
 31
0.0
  0
LINE
  5
1EB
  8
0
  6
CONTINUOUS
 62
     7
 10
12.2545706971
 20
15.9044560552
 30
0.0
 11
12.2545706971
 21
16.394455808
 31
0.0
  0
LINE
  5
1EC
  8
0
  6
CONTINUOUS
 62
     7
 10
12.014570483
 20
16.394455808
 30
0.0
 11
12.014570483
 21
15.9044560552
 31
0.0
  0
LINE
  5
1ED
  8
0
  6
CONTINUOUS
 62
     7
 10
12.2545706971
 20
16.9044556765
 30
0.0
 11
12.2545706971
 21
17.3944557226
 31
0.0
  0
LINE
  5
1EE
  8
0
  6
CONTINUOUS
 62
     7
 10
12.014570483
 20
17.3944557226
 30
0.0
 11
12.014570483
 21
16.9044556765
 31
0.0
  0
LINE
  5
1EF
  8
0
  6
CONTINUOUS
 62
     7
 10
12.2545706971
 20
11.9044559202
 30
0.0
 11
12.2545706971
 21
12.3944559297
 31
0.0
  0
LINE
  5
1F0
  8
0
  6
CONTINUOUS
 62
     7
 10
12.014570483
 20
12.3944559297
 30
0.0
 11
12.014570483
 21
11.9044559202
 31
0.0
  0
LINE
  5
1F1
  8
0
  6
CONTINUOUS
 62
     7
 10
12.2545706971
 20
17.9044561777
 30
0.0
 11
12.2545706971
 21
18.3989559052
 31
0.0
  0
LINE
  5
1F2
  8
0
  6
CONTINUOUS
 62
     7
 10
12.014570483
 20
18.3989559052
 30
0.0
 11
12.014570483
 21
17.9044561777
 31
0.0
  0
LINE
  5
1F3
  8
0
  6
CONTINUOUS
 62
     7
 10
12.2545706971
 20
11.3989559165
 30
0.0
 11
12.014570483
 21
11.3989559165
 31
0.0
  0
LINE
  5
1F4
  8
0
  6
CONTINUOUS
 62
     7
 10
12.2545706971
 20
11.8934559006
 30
0.0
 11
12.014570483
 21
11.8934559006
 31
0.0
  0
LINE
  5
1F5
  8
0
  6
CONTINUOUS
 62
     7
 10
12.2545706971
 20
11.3989559165
 30
0.0
 11
12.2545706971
 21
11.8934559006
 31
0.0
  0
LINE
  5
1F6
  8
0
  6
CONTINUOUS
 62
     7
 10
12.014570483
 20
15.4034558428
 30
0.0
 11
12.2545706971
 21
15.4034558428
 31
0.0
  0
LINE
  5
1F7
  8
0
  6
CONTINUOUS
 62
     7
 10
12.2545706971
 20
15.4034558428
 30
0.0
 11
12.2545706971
 21
15.893455889
 31
0.0
  0
LINE
  5
1F8
  8
0
  6
CONTINUOUS
 62
     7
 10
12.2545706971
 20
15.893455889
 30
0.0
 11
12.014570483
 21
15.893455889
 31
0.0
  0
LINE
  5
1F9
  8
0
  6
CONTINUOUS
 62
     7
 10
12.014570483
 20
14.4034559282
 30
0.0
 11
12.2545706971
 21
14.4034559282
 31
0.0
  0
LINE
  5
1FA
  8
0
  6
CONTINUOUS
 62
     7
 10
12.2545706971
 20
14.4034559282
 30
0.0
 11
12.2545706971
 21
14.8934559744
 31
0.0
  0
LINE
  5
1FB
  8
0
  6
CONTINUOUS
 62
     7
 10
12.2545706971
 20
14.8934559744
 30
0.0
 11
12.014570483
 21
14.8934559744
 31
0.0
  0
LINE
  5
1FC
  8
0
  6
CONTINUOUS
 62
     7
 10
12.014570483
 20
13.403455867
 30
0.0
 11
12.2545706971
 21
13.403455867
 31
0.0
  0
LINE
  5
1FD
  8
0
  6
CONTINUOUS
 62
     7
 10
12.2545706971
 20
13.8934560598
 30
0.0
 11
12.014570483
 21
13.8934560598
 31
0.0
  0
LINE
  5
1FE
  8
0
  6
CONTINUOUS
 62
     7
 10
12.2545706971
 20
13.403455867
 30
0.0
 11
12.2545706971
 21
13.8934560598
 31
0.0
  0
LINE
  5
1FF
  8
0
  6
CONTINUOUS
 62
     7
 10
12.014570483
 20
12.4034559524
 30
0.0
 11
12.2545706971
 21
12.4034559524
 31
0.0
  0
LINE
  5
200
  8
0
  6
CONTINUOUS
 62
     7
 10
12.2545706971
 20
12.8934558519
 30
0.0
 11
12.014570483
 21
12.8934558519
 31
0.0
  0
LINE
  5
201
  8
0
  6
CONTINUOUS
 62
     7
 10
12.2545706971
 20
12.4034559524
 30
0.0
 11
12.2545706971
 21
12.8934558519
 31
0.0
  0
LINE
  5
202
  8
0
  6
CONTINUOUS
 62
     7
 10
12.014570483
 20
17.403455672
 30
0.0
 11
12.2545706971
 21
17.403455672
 31
0.0
  0
LINE
  5
203
  8
0
  6
CONTINUOUS
 62
     7
 10
12.2545706971
 20
17.8934557181
 30
0.0
 11
12.014570483
 21
17.8934557181
 31
0.0
  0
LINE
  5
204
  8
0
  6
CONTINUOUS
 62
     7
 10
12.2545706971
 20
17.403455672
 30
0.0
 11
12.2545706971
 21
17.8934557181
 31
0.0
  0
LINE
  5
205
  8
0
  6
CONTINUOUS
 62
     7
 10
12.2545706971
 20
16.4034557574
 30
0.0
 11
12.2545706971
 21
16.8934558035
 31
0.0
  0
LINE
  5
206
  8
0
  6
CONTINUOUS
 62
     7
 10
12.014570483
 20
16.4034557574
 30
0.0
 11
12.2545706971
 21
16.4034557574
 31
0.0
  0
LINE
  5
207
  8
0
  6
CONTINUOUS
 62
     7
 10
12.2545706971
 20
16.8934558035
 30
0.0
 11
12.014570483
 21
16.8934558035
 31
0.0
  0
LINE
  5
208
  8
0
  6
CONTINUOUS
 62
     7
 10
12.1945706436
 20
11.8934559006
 30
0.0
 11
12.1945706436
 21
11.9044559202
 31
0.0
  0
LINE
  5
209
  8
0
  6
CONTINUOUS
 62
     7
 10
12.1945706436
 20
12.3944559297
 30
0.0
 11
12.1945706436
 21
12.4034559524
 31
0.0
  0
LINE
  5
20A
  8
0
  6
CONTINUOUS
 62
     7
 10
12.2545706971
 20
11.8934559006
 30
0.0
 11
12.2545706971
 21
11.9044559202
 31
0.0
  0
LINE
  5
20B
  8
0
  6
CONTINUOUS
 62
     7
 10
12.2545706971
 20
12.3944559297
 30
0.0
 11
12.2545706971
 21
12.4034559524
 31
0.0
  0
LINE
  5
20C
  8
0
  6
CONTINUOUS
 62
     7
 10
12.1945706436
 20
12.8934558519
 30
0.0
 11
12.1945706436
 21
12.9044558715
 31
0.0
  0
LINE
  5
20D
  8
0
  6
CONTINUOUS
 62
     7
 10
12.1945706436
 20
13.3944559176
 30
0.0
 11
12.1945706436
 21
13.403455867
 31
0.0
  0
LINE
  5
20E
  8
0
  6
CONTINUOUS
 62
     7
 10
12.2545706971
 20
12.8934558519
 30
0.0
 11
12.2545706971
 21
12.9044558715
 31
0.0
  0
LINE
  5
20F
  8
0
  6
CONTINUOUS
 62
     7
 10
12.2545706971
 20
13.3944559176
 30
0.0
 11
12.2545706971
 21
13.403455867
 31
0.0
  0
LINE
  5
210
  8
0
  6
CONTINUOUS
 62
     7
 10
12.1945706436
 20
13.8934560598
 30
0.0
 11
12.1945706436
 21
13.9044559327
 31
0.0
  0
LINE
  5
211
  8
0
  6
CONTINUOUS
 62
     7
 10
12.1945706436
 20
14.3944559789
 30
0.0
 11
12.1945706436
 21
14.4034559282
 31
0.0
  0
LINE
  5
212
  8
0
  6
CONTINUOUS
 62
     7
 10
12.2545706971
 20
13.8934560598
 30
0.0
 11
12.2545706971
 21
13.9044559327
 31
0.0
  0
LINE
  5
213
  8
0
  6
CONTINUOUS
 62
     7
 10
12.2545706971
 20
14.3944559789
 30
0.0
 11
12.2545706971
 21
14.4034559282
 31
0.0
  0
LINE
  5
214
  8
0
  6
CONTINUOUS
 62
     7
 10
12.1945706436
 20
16.8934558035
 30
0.0
 11
12.1945706436
 21
16.9044556765
 31
0.0
  0
LINE
  5
215
  8
0
  6
CONTINUOUS
 62
     7
 10
12.1945706436
 20
17.3944557226
 30
0.0
 11
12.1945706436
 21
17.403455672
 31
0.0
  0
LINE
  5
216
  8
0
  6
CONTINUOUS
 62
     7
 10
12.2545706971
 20
16.8934558035
 30
0.0
 11
12.2545706971
 21
16.9044556765
 31
0.0
  0
LINE
  5
217
  8
0
  6
CONTINUOUS
 62
     7
 10
12.2545706971
 20
17.3944557226
 30
0.0
 11
12.2545706971
 21
17.403455672
 31
0.0
  0
LINE
  5
218
  8
0
  6
CONTINUOUS
 62
     7
 10
12.1945706436
 20
15.893455889
 30
0.0
 11
12.1945706436
 21
15.9044560552
 31
0.0
  0
LINE
  5
219
  8
0
  6
CONTINUOUS
 62
     7
 10
12.1945706436
 20
16.394455808
 30
0.0
 11
12.1945706436
 21
16.4034557574
 31
0.0
  0
LINE
  5
21A
  8
0
  6
CONTINUOUS
 62
     7
 10
12.2545706971
 20
15.893455889
 30
0.0
 11
12.2545706971
 21
15.9044560552
 31
0.0
  0
LINE
  5
21B
  8
0
  6
CONTINUOUS
 62
     7
 10
12.2545706971
 20
16.394455808
 30
0.0
 11
12.2545706971
 21
16.4034557574
 31
0.0
  0
LINE
  5
21C
  8
0
  6
CONTINUOUS
 62
     7
 10
12.1945706436
 20
17.8934557181
 30
0.0
 11
12.1945706436
 21
17.9044561777
 31
0.0
  0
LINE
  5
21D
  8
0
  6
CONTINUOUS
 62
     7
 10
12.2545706971
 20
17.8934557181
 30
0.0
 11
12.2545706971
 21
17.9044561777
 31
0.0
  0
LINE
  5
21E
  8
0
  6
CONTINUOUS
 62
     7
 10
12.1945706436
 20
14.8934559744
 30
0.0
 11
12.1945706436
 21
14.9044558473
 31
0.0
  0
LINE
  5
21F
  8
0
  6
CONTINUOUS
 62
     7
 10
12.1945706436
 20
15.3944558934
 30
0.0
 11
12.1945706436
 21
15.4034558428
 31
0.0
  0
LINE
  5
220
  8
0
  6
CONTINUOUS
 62
     7
 10
12.2545706971
 20
14.8934559744
 30
0.0
 11
12.2545706971
 21
14.9044558473
 31
0.0
  0
LINE
  5
221
  8
0
  6
CONTINUOUS
 62
     7
 10
12.2545706971
 20
15.3944558934
 30
0.0
 11
12.2545706971
 21
15.4034558428
 31
0.0
  0
LINE
  5
222
  8
0
  6
CONTINUOUS
 62
     7
 10
12.014570483
 20
13.3944559176
 30
0.0
 11
12.2545706971
 21
13.3944559176
 31
0.0
  0
LINE
  5
223
  8
0
  6
CONTINUOUS
 62
     7
 10
12.2545706971
 20
12.9044558715
 30
0.0
 11
12.014570483
 21
12.9044558715
 31
0.0
  0
LINE
  5
224
  8
0
  6
CONTINUOUS
 62
     7
 10
12.2545706971
 20
13.9044559327
 30
0.0
 11
12.014570483
 21
13.9044559327
 31
0.0
  0
LINE
  5
225
  8
0
  6
CONTINUOUS
 62
     7
 10
12.014570483
 20
14.3944559789
 30
0.0
 11
12.2545706971
 21
14.3944559789
 31
0.0
  0
LINE
  5
226
  8
0
  6
CONTINUOUS
 62
     7
 10
12.2545706971
 20
14.9044558473
 30
0.0
 11
12.014570483
 21
14.9044558473
 31
0.0
  0
LINE
  5
227
  8
0
  6
CONTINUOUS
 62
     7
 10
12.014570483
 20
15.3944558934
 30
0.0
 11
12.2545706971
 21
15.3944558934
 31
0.0
  0
LINE
  5
228
  8
0
  6
CONTINUOUS
 62
     7
 10
12.2545706971
 20
15.9044560552
 30
0.0
 11
12.014570483
 21
15.9044560552
 31
0.0
  0
LINE
  5
229
  8
0
  6
CONTINUOUS
 62
     7
 10
12.014570483
 20
16.394455808
 30
0.0
 11
12.2545706971
 21
16.394455808
 31
0.0
  0
LINE
  5
22A
  8
0
  6
CONTINUOUS
 62
     7
 10
12.014570483
 20
17.3944557226
 30
0.0
 11
12.2545706971
 21
17.3944557226
 31
0.0
  0
LINE
  5
22B
  8
0
  6
CONTINUOUS
 62
     7
 10
12.2545706971
 20
16.9044556765
 30
0.0
 11
12.014570483
 21
16.9044556765
 31
0.0
  0
LINE
  5
22C
  8
0
  6
CONTINUOUS
 62
     7
 10
12.014570483
 20
12.3944559297
 30
0.0
 11
12.2545706971
 21
12.3944559297
 31
0.0
  0
LINE
  5
22D
  8
0
  6
CONTINUOUS
 62
     7
 10
12.2545706971
 20
11.9044559202
 30
0.0
 11
12.014570483
 21
11.9044559202
 31
0.0
  0
LINE
  5
22E
  8
0
  6
CONTINUOUS
 62
     7
 10
12.2545706971
 20
18.3989559052
 30
0.0
 11
12.014570483
 21
18.3989559052
 31
0.0
  0
LINE
  5
22F
  8
0
  6
CONTINUOUS
 62
     7
 10
12.2545706971
 20
17.9044561777
 30
0.0
 11
12.014570483
 21
17.9044561777
 31
0.0
  0
CIRCLE
  5
230
  8
0
  6
CONTINUOUS
 62
     7
 10
12.5985707657
 20
12.2739559165
 30
0.0
 40
0.1404999999999994
  0
CIRCLE
  5
231
  8
0
  6
CONTINUOUS
 62
     7
 10
12.5985707657
 20
14.0239559165
 30
0.0
 40
0.1404999999999994
  0
CIRCLE
  5
232
  8
0
  6
CONTINUOUS
 62
     7
 10
12.5985707657
 20
12.8989559165
 30
0.0
 40
0.140500000000003
  0
CIRCLE
  5
233
  8
0
  6
CONTINUOUS
 62
     7
 10
12.5985707657
 20
14.6489559165
 30
0.0
 40
0.1404999999999994
  0
CIRCLE
  5
234
  8
0
  6
CONTINUOUS
 62
     7
 10
12.5985707657
 20
11.6489559165
 30
0.0
 40
0.1404999999999994
  0
CIRCLE
  5
235
  8
0
  6
CONTINUOUS
 62
     7
 10
12.5985707657
 20
13.3989559165
 30
0.0
 40
0.1404999999999994
  0
LINE
  5
236
  8
0
  6
CONTINUOUS
 62
     7
 10
12.2665708252
 20
12.9044558715
 30
0.0
 11
12.2665708252
 21
12.3944559297
 31
0.0
  0
LINE
  5
237
  8
0
  6
CONTINUOUS
 62
     7
 10
12.2665708252
 20
14.9044558473
 30
0.0
 11
12.2665708252
 21
14.3944559789
 31
0.0
  0
LINE
  5
238
  8
0
  6
CONTINUOUS
 62
     7
 10
12.2665708252
 20
17.9044561777
 30
0.0
 11
12.2665708252
 21
17.3944557226
 31
0.0
  0
LINE
  5
239
  8
0
  6
CONTINUOUS
 62
     7
 10
12.8485708752
 20
11.3989559165
 30
0.0
 11
12.8485708752
 21
18.3989559052
 31
0.0
  0
LINE
  5
23A
  8
0
  6
CONTINUOUS
 62
     7
 10
12.8485708752
 20
11.3989559165
 30
0.0
 11
12.2665708252
 21
11.3989559165
 31
0.0
  0
LINE
  5
23B
  8
0
  6
CONTINUOUS
 62
     7
 10
12.2665708252
 20
11.9044559202
 30
0.0
 11
12.2665708252
 21
11.3989559165
 31
0.0
  0
CIRCLE
  5
23C
  8
0
  6
CONTINUOUS
 62
     7
 10
12.5985707657
 20
18.1489559165
 30
0.0
 40
0.1404999999999994
  0
CIRCLE
  5
23D
  8
0
  6
CONTINUOUS
 62
     7
 10
12.5985707657
 20
17.5239559165
 30
0.0
 40
0.1404999999999994
  0
CIRCLE
  5
23E
  8
0
  6
CONTINUOUS
 62
     7
 10
12.5985707657
 20
16.8989559165
 30
0.0
 40
0.1404999999999994
  0
CIRCLE
  5
23F
  8
0
  6
CONTINUOUS
 62
     7
 10
12.5985707657
 20
15.1489559165
 30
0.0
 40
0.1404999999999994
  0
CIRCLE
  5
240
  8
0
  6
CONTINUOUS
 62
     7
 10
12.5985707657
 20
16.3989559165
 30
0.0
 40
0.1404999999999994
  0
CIRCLE
  5
241
  8
0
  6
CONTINUOUS
 62
     7
 10
12.5985707657
 20
15.7739559165
 30
0.0
 40
0.1404999999999976
  0
LINE
  5
242
  8
0
  6
CONTINUOUS
 62
     7
 10
12.2665708252
 20
15.9044560552
 30
0.0
 11
12.2665708252
 21
15.3944558934
 31
0.0
  0
LINE
  5
243
  8
0
  6
CONTINUOUS
 62
     7
 10
12.2665708252
 20
16.9044556765
 30
0.0
 11
12.2665708252
 21
16.394455808
 31
0.0
  0
LINE
  5
244
  8
0
  6
CONTINUOUS
 62
     7
 10
12.2665708252
 20
13.9044559327
 30
0.0
 11
12.2665708252
 21
13.3944559176
 31
0.0
  0
LINE
  5
245
  8
0
  6
CONTINUOUS
 62
     7
 10
12.8485708752
 20
18.3989559052
 30
0.0
 11
12.2545706971
 21
18.3989559052
 31
0.0
  0
LINE
  5
246
  8
0
  6
CONTINUOUS
 62
     7
 10
12.2665708252
 20
17.3944557226
 30
0.0
 11
12.2545706971
 21
17.3944557226
 31
0.0
  0
LINE
  5
247
  8
0
  6
CONTINUOUS
 62
     7
 10
12.2545706971
 20
17.9044561777
 30
0.0
 11
12.2665708252
 21
17.9044561777
 31
0.0
  0
LINE
  5
248
  8
0
  6
CONTINUOUS
 62
     7
 10
12.2545706971
 20
13.9044559327
 30
0.0
 11
12.2665708252
 21
13.9044559327
 31
0.0
  0
LINE
  5
249
  8
0
  6
CONTINUOUS
 62
     7
 10
12.2545706971
 20
14.9044558473
 30
0.0
 11
12.2665708252
 21
14.9044558473
 31
0.0
  0
LINE
  5
24A
  8
0
  6
CONTINUOUS
 62
     7
 10
12.2665708252
 20
12.3944559297
 30
0.0
 11
12.2545706971
 21
12.3944559297
 31
0.0
  0
LINE
  5
24B
  8
0
  6
CONTINUOUS
 62
     7
 10
12.2665708252
 20
13.3944559176
 30
0.0
 11
12.2545706971
 21
13.3944559176
 31
0.0
  0
LINE
  5
24C
  8
0
  6
CONTINUOUS
 62
     7
 10
12.2545706971
 20
12.9044558715
 30
0.0
 11
12.2665708252
 21
12.9044558715
 31
0.0
  0
LINE
  5
24D
  8
0
  6
CONTINUOUS
 62
     7
 10
12.2545706971
 20
15.9044560552
 30
0.0
 11
12.2665708252
 21
15.9044560552
 31
0.0
  0
LINE
  5
24E
  8
0
  6
CONTINUOUS
 62
     7
 10
12.2545706971
 20
16.9044556765
 30
0.0
 11
12.2665708252
 21
16.9044556765
 31
0.0
  0
LINE
  5
24F
  8
0
  6
CONTINUOUS
 62
     7
 10
12.2665708252
 20
16.394455808
 30
0.0
 11
12.2545706971
 21
16.394455808
 31
0.0
  0
LINE
  5
250
  8
0
  6
CONTINUOUS
 62
     7
 10
12.2665708252
 20
14.3944559789
 30
0.0
 11
12.2545706971
 21
14.3944559789
 31
0.0
  0
LINE
  5
251
  8
0
  6
CONTINUOUS
 62
     7
 10
12.2665708252
 20
15.3944558934
 30
0.0
 11
12.2545706971
 21
15.3944558934
 31
0.0
  0
LINE
  5
252
  8
0
  6
CONTINUOUS
 62
     7
 10
12.2545706971
 20
11.9044559202
 30
0.0
 11
12.2665708252
 21
11.9044559202
 31
0.0
  0
LINE
  5
253
  8
0
  6
CONTINUOUS
 62
     7
 10
31.2545708342
 20
18.3989559052
 30
0.0
 11
31.2545708342
 21
11.3989559165
 31
0.0
  0
LINE
  5
254
  8
0
  6
CONTINUOUS
 62
     7
 10
31.1775705504
 20
11.3989559165
 30
0.0
 11
31.2545708342
 21
11.3989559165
 31
0.0
  0
LINE
  5
255
  8
0
  6
CONTINUOUS
 62
     7
 10
31.1775705504
 20
18.3989559052
 30
0.0
 11
31.2545708342
 21
18.3989559052
 31
0.0
  0
CIRCLE
  5
256
  8
0
  6
CONTINUOUS
 62
     7
 10
30.9105707657
 20
17.5239559165
 30
0.0
 40
0.1404999999999994
  0
CIRCLE
  5
257
  8
0
  6
CONTINUOUS
 62
     7
 10
30.9105707657
 20
15.7739559165
 30
0.0
 40
0.1404999999999994
  0
CIRCLE
  5
258
  8
0
  6
CONTINUOUS
 62
     7
 10
30.9105707657
 20
16.8989559165
 30
0.0
 40
0.1404999999999994
  0
CIRCLE
  5
259
  8
0
  6
CONTINUOUS
 62
     7
 10
30.9105707657
 20
15.1489559165
 30
0.0
 40
0.1404999999999994
  0
CIRCLE
  5
25A
  8
0
  6
CONTINUOUS
 62
     7
 10
30.9105707657
 20
18.1489559165
 30
0.0
 40
0.1404999999999994
  0
CIRCLE
  5
25B
  8
0
  6
CONTINUOUS
 62
     7
 10
30.9105707657
 20
16.3989559165
 30
0.0
 40
0.1404999999999994
  0
LINE
  5
25C
  8
0
  6
CONTINUOUS
 62
     7
 10
30.6605706561
 20
18.3989559052
 30
0.0
 11
30.6605706561
 21
11.3989559165
 31
0.0
  0
LINE
  5
25D
  8
0
  6
CONTINUOUS
 62
     7
 10
30.6605706561
 20
11.3989559165
 30
0.0
 11
31.1775705504
 21
11.3989559165
 31
0.0
  0
CIRCLE
  5
25E
  8
0
  6
CONTINUOUS
 62
     7
 10
30.9105707657
 20
11.6489559165
 30
0.0
 40
0.1404999999999994
  0
CIRCLE
  5
25F
  8
0
  6
CONTINUOUS
 62
     7
 10
30.9105707657
 20
12.2739559165
 30
0.0
 40
0.1404999999999994
  0
CIRCLE
  5
260
  8
0
  6
CONTINUOUS
 62
     7
 10
30.9105707657
 20
12.8989559165
 30
0.0
 40
0.1404999999999994
  0
CIRCLE
  5
261
  8
0
  6
CONTINUOUS
 62
     7
 10
30.9105707657
 20
14.6489559165
 30
0.0
 40
0.1404999999999994
  0
CIRCLE
  5
262
  8
0
  6
CONTINUOUS
 62
     7
 10
30.9105707657
 20
13.3989559165
 30
0.0
 40
0.1404999999999994
  0
CIRCLE
  5
263
  8
0
  6
CONTINUOUS
 62
     7
 10
30.9105707657
 20
14.0239559165
 30
0.0
 40
0.1404999999999994
  0
LINE
  5
264
  8
0
  6
CONTINUOUS
 62
     7
 10
30.6605706561
 20
18.3989559052
 30
0.0
 11
31.1775705504
 21
18.3989559052
 31
0.0
  0
LINE
  5
265
  8
0
  6
CONTINUOUS
 62
     7
 10
12.2665708252
 20
11.3989559165
 30
0.0
 11
12.2545706971
 21
11.3989559165
 31
0.0
  0
CIRCLE
  5
266
  8
0
  6
CONTINUOUS
 62
     7
 10
24.7545707657
 20
14.8989559165
 30
0.0
 40
0.5544999999999973
  0
CIRCLE
  5
267
  8
0
  6
CONTINUOUS
 62
     7
 10
21.7545707657
 20
14.8989559165
 30
0.0
 40
0.5545000000000009
  0
CIRCLE
  5
268
  8
0
  6
CONTINUOUS
 62
     7
 10
18.7545707657
 20
14.8989559165
 30
0.0
 40
0.5545000000000009
  0
LINE
  5
269
  8
0
  6
CONTINUOUS
 62
     7
 10
30.6605706561
 20
11.3989559165
 30
0.0
 11
12.8485708752
 21
11.3989559165
 31
0.0
  0
LINE
  5
26A
  8
0
  6
CONTINUOUS
 62
     7
 10
30.6605706561
 20
18.3989559052
 30
0.0
 11
12.8485708752
 21
18.3989559052
 31
0.0
  0
LINE
  5
26B
  8
0
  6
CONTINUOUS
 62
     7
 10
29.6140709054
 20
11.9331643419
 30
0.0
 11
29.6140709054
 21
11.8369559333
 31
0.0
  0
ARC
  5
26C
  8
0
  6
CONTINUOUS
 62
     7
 10
29.7545707657
 20
11.8369559165
 30
0.0
 40
0.1404999999999994
 50
180.0
 51
0.0
  0
LINE
  5
26D
  8
0
  6
CONTINUOUS
 62
     7
 10
29.8950710192
 20
11.8369559333
 30
0.0
 11
29.8950710192
 21
11.9331643419
 31
0.0
  0
ARC
  5
26E
  8
0
  6
CONTINUOUS
 62
     7
 10
29.7545707657
 20
12.1489559165
 30
0.0
 40
0.2575000000000003
 50
303.0677991622
 51
56.9322008378
  0
LINE
  5
26F
  8
0
  6
CONTINUOUS
 62
     7
 10
29.8950710192
 20
12.3647474729
 30
0.0
 11
29.8950710192
 21
12.4609558815
 31
0.0
  0
ARC
  5
270
  8
0
  6
CONTINUOUS
 62
     7
 10
29.7545707657
 20
12.4609559165
 30
0.0
 40
0.1404999999999994
 50
0.0
 51
180.0
  0
LINE
  5
271
  8
0
  6
CONTINUOUS
 62
     7
 10
29.6140709054
 20
12.4609558815
 30
0.0
 11
29.6140709054
 21
12.3647474729
 31
0.0
  0
ARC
  5
272
  8
0
  6
CONTINUOUS
 62
     7
 10
29.7545707657
 20
12.1489559165
 30
0.0
 40
0.2575000000000003
 50
123.0677991622
 51
236.9322008378
  0
LINE
  5
273
  8
0
  6
CONTINUOUS
 62
     7
 10
13.6140705121
 20
11.9331643419
 30
0.0
 11
13.6140705121
 21
11.8369559333
 31
0.0
  0
ARC
  5
274
  8
0
  6
CONTINUOUS
 62
     7
 10
13.7545707657
 20
11.8369559165
 30
0.0
 40
0.1404999999999994
 50
180.0
 51
0.0
  0
LINE
  5
275
  8
0
  6
CONTINUOUS
 62
     7
 10
13.8950706259
 20
11.8369559333
 30
0.0
 11
13.8950706259
 21
11.9331643419
 31
0.0
  0
ARC
  5
276
  8
0
  6
CONTINUOUS
 62
     7
 10
13.7545707657
 20
12.1489559165
 30
0.0
 40
0.2575000000000003
 50
303.0677991622
 51
56.9322008378
  0
LINE
  5
277
  8
0
  6
CONTINUOUS
 62
     7
 10
13.8950706259
 20
12.3647474729
 30
0.0
 11
13.8950706259
 21
12.4609558815
 31
0.0
  0
ARC
  5
278
  8
0
  6
CONTINUOUS
 62
     7
 10
13.7545707657
 20
12.4609559165
 30
0.0
 40
0.1405000000000012
 50
0.0
 51
180.0
  0
LINE
  5
279
  8
0
  6
CONTINUOUS
 62
     7
 10
13.6140705121
 20
12.4609558815
 30
0.0
 11
13.6140705121
 21
12.3647474729
 31
0.0
  0
ARC
  5
27A
  8
0
  6
CONTINUOUS
 62
     7
 10
13.7545707657
 20
12.1489559165
 30
0.0
 40
0.2575000000000013
 50
123.0677991622
 51
236.9322008378
  0
LINE
  5
27B
  8
0
  6
CONTINUOUS
 62
     7
 10
13.6140705121
 20
17.4331641288
 30
0.0
 11
13.6140705121
 21
17.3369560135
 31
0.0
  0
ARC
  5
27C
  8
0
  6
CONTINUOUS
 62
     7
 10
13.7545707657
 20
17.3369559165
 30
0.0
 40
0.1404999999999994
 50
180.0
 51
0.0
  0
LINE
  5
27D
  8
0
  6
CONTINUOUS
 62
     7
 10
13.8950706259
 20
17.3369560135
 30
0.0
 11
13.8950706259
 21
17.4331641288
 31
0.0
  0
ARC
  5
27E
  8
0
  6
CONTINUOUS
 62
     7
 10
13.7545707657
 20
17.6489559165
 30
0.0
 40
0.2575000000000003
 50
303.0677991622
 51
56.9322008378
  0
LINE
  5
27F
  8
0
  6
CONTINUOUS
 62
     7
 10
13.8950706259
 20
17.8647475164
 30
0.0
 11
13.8950706259
 21
17.9609556317
 31
0.0
  0
ARC
  5
280
  8
0
  6
CONTINUOUS
 62
     7
 10
13.7545707657
 20
17.9609559165
 30
0.0
 40
0.1405000000000012
 50
0.0
 51
180.0
  0
LINE
  5
281
  8
0
  6
CONTINUOUS
 62
     7
 10
13.6140705121
 20
17.9609556317
 30
0.0
 11
13.6140705121
 21
17.8647475164
 31
0.0
  0
ARC
  5
282
  8
0
  6
CONTINUOUS
 62
     7
 10
13.7545707657
 20
17.6489559165
 30
0.0
 40
0.2575000000000013
 50
123.0677991622
 51
236.9322008378
  0
LINE
  5
283
  8
0
  6
CONTINUOUS
 62
     7
 10
29.6140709054
 20
17.4331641288
 30
0.0
 11
29.6140709054
 21
17.3369560135
 31
0.0
  0
ARC
  5
284
  8
0
  6
CONTINUOUS
 62
     7
 10
29.7545707657
 20
17.3369559165
 30
0.0
 40
0.1404999999999994
 50
180.0
 51
0.0
  0
LINE
  5
285
  8
0
  6
CONTINUOUS
 62
     7
 10
29.8950710192
 20
17.3369560135
 30
0.0
 11
29.8950710192
 21
17.4331641288
 31
0.0
  0
ARC
  5
286
  8
0
  6
CONTINUOUS
 62
     7
 10
29.7545707657
 20
17.6489559165
 30
0.0
 40
0.2575000000000003
 50
303.0677991622
 51
56.9322008378
  0
LINE
  5
287
  8
0
  6
CONTINUOUS
 62
     7
 10
29.8950710192
 20
17.8647475164
 30
0.0
 11
29.8950710192
 21
17.9609556317
 31
0.0
  0
ARC
  5
288
  8
0
  6
CONTINUOUS
 62
     7
 10
29.7545707657
 20
17.9609559165
 30
0.0
 40
0.1404999999999994
 50
0.0
 51
180.0
  0
LINE
  5
289
  8
0
  6
CONTINUOUS
 62
     7
 10
29.6140709054
 20
17.9609556317
 30
0.0
 11
29.6140709054
 21
17.8647475164
 31
0.0
  0
ARC
  5
28A
  8
0
  6
CONTINUOUS
 62
     7
 10
29.7545707657
 20
17.6489559165
 30
0.0
 40
0.2575000000000022
 50
123.0677991622
 51
236.9322008378
  0
DIMENSION
  5
28B
  8
0
  6
CONTINUOUS
 62
     7
  2
*D5
 10
31.2545707657
 20
22.0675175091
 30
0.0
 11
21.6345707657
 21
22.0675175091
 31
0.0
 70
   160
  3
SLDDIMSTYLE0
 13
12.0145707657
 23
18.3989559165
 33
0.0
 14
31.2545707657
 24
18.3989559165
 34
0.0
  0
DIMENSION
  5
2A0
  8
0
  6
CONTINUOUS
 62
     7
  2
*D6
 10
30.9725648171
 20
11.775039173
 30
0.0
 11
27.1071633133
 21
9.2776317638
 31
0.0
 70
   163
  1
<> (24X)
  3
SLDDIMSTYLE1
 15
30.8485767142
 25
11.5228726599
 35
0.0
 40
0.0
  0
DIMENSION
  5
2B2
  8
0
  6
CONTINUOUS
 62
     7
  2
*D7
 10
10.4397676161
 20
11.3989559165
 30
0.0
 11
10.4397676161
 21
14.8989559165
 31
0.0
 70
   160
  3
SLDDIMSTYLE2
 13
12.0745707657
 23
18.3989559165
 33
0.0
 14
12.1945707657
 24
11.3989559165
 34
0.0
 50
90.0
  0
DIMENSION
  5
2C7
  8
0
  6
CONTINUOUS
 62
     7
  2
*D8
 10
30.9105707657
 20
19.9737590661
 30
0.0
 11
21.7545707657
 21
19.9737590661
 31
0.0
 70
   160
  3
SLDDIMSTYLE0
 13
12.5985707657
 23
18.1489559165
 33
0.0
 14
30.9105707657
 24
18.1489559165
 34
0.0
  0
DIMENSION
  5
2DB
  8
0
  6
CONTINUOUS
 62
     7
  2
*D9
 10
31.2545707657
 20
19.9737590661
 30
0.0
 11
33.4885613773
 21
19.9737590661
 31
0.0
 70
   160
  3
SLDDIMSTYLE3
 13
30.9105707657
 23
18.1489559165
 33
0.0
 14
31.2545707657
 24
18.3989559165
 34
0.0
  0
DIMENSION
  5
2F0
  8
0
  6
CONTINUOUS
 62
     7
  2
*D10
 10
32.8293739153
 20
11.6489559165
 30
0.0
 11
32.8293739153
 21
8.8792708771
 31
0.0
 70
   160
  1
HOLES ON E.I.A.\PUNIVERSAL\PSPACING = <>
  3
SLDDIMSTYLE2
 13
30.9105707657
 23
18.1489559165
 33
0.0
 14
30.9105707657
 24
11.6489559165
 34
0.0
 50
90.0
  0
LINE
  5
306
  8
0
  6
CONTINUOUS
 62
     7
 10
21.2000707646
 20
31.6088352668
 30
0.0
 11
21.2000707646
 21
31.5488352637
 31
0.0
  0
LINE
  5
307
  8
0
  6
CONTINUOUS
 62
     7
 10
22.3090707667
 20
31.5488352637
 30
0.0
 11
22.3090707667
 21
31.6088352668
 31
0.0
  0
LINE
  5
308
  8
0
  6
CONTINUOUS
 62
     7
 10
24.2000707284
 20
31.6088352668
 30
0.0
 11
24.2000707284
 21
31.5488352637
 31
0.0
  0
LINE
  5
309
  8
0
  6
CONTINUOUS
 62
     7
 10
25.3090708771
 20
31.5488352637
 30
0.0
 11
25.3090708771
 21
31.6088352668
 31
0.0
  0
LINE
  5
30A
  8
0
  6
CONTINUOUS
 62
     7
 10
18.2000706542
 20
31.6088352668
 30
0.0
 11
18.2000706542
 21
31.5488352637
 31
0.0
  0
LINE
  5
30B
  8
0
  6
CONTINUOUS
 62
     7
 10
19.309070803
 20
31.5488352637
 30
0.0
 11
19.309070803
 21
31.6088352668
 31
0.0
  0
LINE
  5
30C
  8
0
  6
CONTINUOUS
 62
     7
 10
12.2545706971
 20
26.7428352888
 30
0.0
 11
12.1945706436
 21
26.7428352888
 31
0.0
  0
LINE
  5
30D
  8
0
  6
CONTINUOUS
 62
     7
 10
12.2545706971
 20
27.4858353456
 30
0.0
 11
12.1945706436
 21
27.4858353456
 31
0.0
  0
LINE
  5
30E
  8
0
  6
CONTINUOUS
 62
     7
 10
12.1945706436
 20
27.4858353456
 30
0.0
 11
12.1945706436
 21
26.7428352888
 31
0.0
  0
LINE
  5
30F
  8
0
  6
CONTINUOUS
 62
     7
 10
12.2545706971
 20
27.4858353456
 30
0.0
 11
12.2545706971
 21
26.7428352888
 31
0.0
  0
LINE
  5
310
  8
0
  6
CONTINUOUS
 62
     7
 10
12.1945706436
 20
26.7308351608
 30
0.0
 11
12.1945706436
 21
26.7428352888
 31
0.0
  0
LINE
  5
311
  8
0
  6
CONTINUOUS
 62
     7
 10
12.2545706971
 20
26.6108350537
 30
0.0
 11
12.2545706971
 21
26.6708351072
 31
0.0
  0
LINE
  5
312
  8
0
  6
CONTINUOUS
 62
     7
 10
12.2545706971
 20
26.7308351608
 30
0.0
 11
12.2545706971
 21
26.7428352888
 31
0.0
  0
ARC
  5
313
  8
0
  6
CONTINUOUS
 62
     7
 10
12.1345707657
 20
26.6108352668
 30
0.0
 40
0.1199999999999983
 50
90.0
 51
30.0
  0
LINE
  5
314
  8
0
  6
CONTINUOUS
 62
     7
 10
12.8485708752
 20
26.6708351072
 30
0.0
 11
12.8485708752
 21
26.7308351608
 31
0.0
  0
LINE
  5
315
  8
0
  6
CONTINUOUS
 62
     7
 10
12.8485708752
 20
26.6708351072
 30
0.0
 11
12.2384938695
 21
26.6708351072
 31
0.0
  0
CIRCLE
  5
316
  8
0
  6
CONTINUOUS
 62
     7
 10
12.1345707657
 20
26.6108352668
 30
0.0
 40
0.0599999999999987
  0
LINE
  5
317
  8
0
  6
CONTINUOUS
 62
     7
 10
12.8485708752
 20
26.7308351608
 30
0.0
 11
12.1345705901
 21
26.7308351608
 31
0.0
  0
LINE
  5
318
  8
0
  6
CONTINUOUS
 62
     7
 10
31.1775705504
 20
31.6088352668
 30
0.0
 11
12.331570981
 21
31.6088352668
 31
0.0
  0
LINE
  5
319
  8
0
  6
CONTINUOUS
 62
     7
 10
31.1775705504
 20
31.6708352668
 30
0.0
 11
12.331570981
 21
31.6708352668
 31
0.0
  0
ARC
  5
31A
  8
0
  6
CONTINUOUS
 62
     7
 10
31.1775707657
 20
31.5938352668
 30
0.0
 40
0.0150000000000006
 50
0.0
 51
90.0
  0
ARC
  5
31B
  8
0
  6
CONTINUOUS
 62
     7
 10
31.1775707657
 20
31.5938352668
 30
0.0
 40
0.0769999999999982
 50
0.0
 51
90.0
  0
LINE
  5
31C
  8
0
  6
CONTINUOUS
 62
     7
 10
12.3165706742
 20
31.5938352672
 30
0.0
 11
12.3165706742
 21
26.764835328
 31
0.0
  0
LINE
  5
31D
  8
0
  6
CONTINUOUS
 62
     7
 10
12.3165706742
 20
26.764835328
 30
0.0
 11
12.2545706971
 21
26.764835328
 31
0.0
  0
LINE
  5
31E
  8
0
  6
CONTINUOUS
 62
     7
 10
12.2545706971
 20
31.5938352672
 30
0.0
 11
12.2545706971
 21
26.764835328
 31
0.0
  0
LINE
  5
31F
  8
0
  6
CONTINUOUS
 62
     7
 10
31.1925708571
 20
26.7478353911
 30
0.0
 11
31.1925708571
 21
31.5938352672
 31
0.0
  0
LINE
  5
320
  8
0
  6
CONTINUOUS
 62
     7
 10
31.2545708342
 20
26.7478353911
 30
0.0
 11
31.2545708342
 21
31.5938352672
 31
0.0
  0
ARC
  5
321
  8
0
  6
CONTINUOUS
 62
     7
 10
12.3315707657
 20
31.5938352668
 30
0.0
 40
0.077
 50
90.0
 51
180.0
  0
ARC
  5
322
  8
0
  6
CONTINUOUS
 62
     7
 10
12.3315707657
 20
31.5938352668
 30
0.0
 40
0.0149999999999988
 50
90.0
 51
180.0
  0
LINE
  5
323
  8
0
  6
CONTINUOUS
 62
     7
 10
30.6605706561
 20
26.7328350844
 30
0.0
 11
31.1775705504
 21
26.7328350844
 31
0.0
  0
LINE
  5
324
  8
0
  6
CONTINUOUS
 62
     7
 10
30.6605706561
 20
26.6708351072
 30
0.0
 11
31.1775705504
 21
26.6708351072
 31
0.0
  0
LINE
  5
325
  8
0
  6
CONTINUOUS
 62
     7
 10
30.6605706561
 20
26.6708351072
 30
0.0
 11
30.6605706561
 21
26.7328350844
 31
0.0
  0
ARC
  5
326
  8
0
  6
CONTINUOUS
 62
     7
 10
31.1775707657
 20
26.7478352668
 30
0.0
 40
0.0150000000000041
 50
270.0
 51
0.0
  0
ARC
  5
327
  8
0
  6
CONTINUOUS
 62
     7
 10
31.1775707657
 20
26.7478352668
 30
0.0
 40
0.0770000000000017
 50
270.0
 51
0.0
  0
LINE
  5
328
  8
0
  6
CONTINUOUS
 62
     7
 10
22.3090707667
 20
31.5488352637
 30
0.0
 11
21.2000707646
 21
31.5488352637
 31
0.0
  0
LINE
  5
329
  8
0
  6
CONTINUOUS
 62
     7
 10
25.3090708771
 20
31.5488352637
 30
0.0
 11
24.2000707284
 21
31.5488352637
 31
0.0
  0
LINE
  5
32A
  8
0
  6
CONTINUOUS
 62
     7
 10
19.309070803
 20
31.5488352637
 30
0.0
 11
18.2000706542
 21
31.5488352637
 31
0.0
  0
DIMENSION
  5
32B
  8
0
  6
CONTINUOUS
 62
     7
  2
*D11
 10
31.2545707657
 20
33.2456384164
 30
0.0
 11
21.7545707657
 21
33.2456384164
 31
0.0
 70
   160
  3
SLDDIMSTYLE2
 13
12.2545707657
 23
31.2493352668
 33
0.0
 14
31.2545707657
 24
31.5938352668
 34
0.0
 50
0.0
  0
DIMENSION
  5
33F
  8
0
  6
CONTINUOUS
 62
     7
  2
*D12
 10
30.6605707657
 20
25.402049502
 30
0.0
 11
21.7545707657
 21
25.402049502
 31
0.0
 70
   160
  3
SLDDIMSTYLE0
 13
12.8485707657
 23
26.6708352668
 33
0.0
 14
30.6605707657
 24
26.6708352668
 34
0.0
  0
DIMENSION
  5
353
  8
0
  6
CONTINUOUS
 62
     7
  2
*D13
 10
31.2545707657
 20
25.402049502
 30
0.0
 11
33.774255805
 21
25.402049502
 31
0.0
 70
   160
  3
SLDDIMSTYLE3
 13
30.6605707657
 23
26.6708352668
 33
0.0
 14
31.2545707657
 24
26.7478352668
 34
0.0
 50
0.0
  0
LINE
  5
367
  8
0
  6
CONTINUOUS
 62
     7
 10
8.3968210792
 20
11.3989559165
 30
0.0
 11
8.3968210792
 21
11.8934559006
 31
0.0
  0
LINE
  5
368
  8
0
  6
CONTINUOUS
 62
     7
 10
8.1568214517
 20
11.8934559006
 30
0.0
 11
8.1568214517
 21
11.3989559165
 31
0.0
  0
LINE
  5
369
  8
0
  6
CONTINUOUS
 62
     7
 10
8.3968210792
 20
17.403455672
 30
0.0
 11
8.3968210792
 21
17.8934557181
 31
0.0
  0
LINE
  5
36A
  8
0
  6
CONTINUOUS
 62
     7
 10
8.1568214517
 20
17.8934557181
 30
0.0
 11
8.1568214517
 21
17.403455672
 31
0.0
  0
LINE
  5
36B
  8
0
  6
CONTINUOUS
 62
     7
 10
8.3968210792
 20
14.4034559282
 30
0.0
 11
8.3968210792
 21
14.8934559744
 31
0.0
  0
LINE
  5
36C
  8
0
  6
CONTINUOUS
 62
     7
 10
8.1568214517
 20
14.8934559744
 30
0.0
 11
8.1568214517
 21
14.4034559282
 31
0.0
  0
LINE
  5
36D
  8
0
  6
CONTINUOUS
 62
     7
 10
8.3968210792
 20
16.4034557574
 30
0.0
 11
8.3968210792
 21
16.8934558035
 31
0.0
  0
LINE
  5
36E
  8
0
  6
CONTINUOUS
 62
     7
 10
8.1568214517
 20
16.8934558035
 30
0.0
 11
8.1568214517
 21
16.4034557574
 31
0.0
  0
LINE
  5
36F
  8
0
  6
CONTINUOUS
 62
     7
 10
8.3968210792
 20
13.403455867
 30
0.0
 11
8.3968210792
 21
13.8934560598
 31
0.0
  0
LINE
  5
370
  8
0
  6
CONTINUOUS
 62
     7
 10
8.1568214517
 20
13.8934560598
 30
0.0
 11
8.1568214517
 21
13.403455867
 31
0.0
  0
LINE
  5
371
  8
0
  6
CONTINUOUS
 62
     7
 10
8.3968210792
 20
12.4034559524
 30
0.0
 11
8.3968210792
 21
12.8934558519
 31
0.0
  0
LINE
  5
372
  8
0
  6
CONTINUOUS
 62
     7
 10
8.1568214517
 20
12.8934558519
 30
0.0
 11
8.1568214517
 21
12.4034559524
 31
0.0
  0
LINE
  5
373
  8
0
  6
CONTINUOUS
 62
     7
 10
8.3968210792
 20
15.4034558428
 30
0.0
 11
8.3968210792
 21
15.893455889
 31
0.0
  0
LINE
  5
374
  8
0
  6
CONTINUOUS
 62
     7
 10
8.1568214517
 20
15.893455889
 30
0.0
 11
8.1568214517
 21
15.4034558428
 31
0.0
  0
LINE
  5
375
  8
0
  6
CONTINUOUS
 62
     7
 10
8.3968210792
 20
11.9044559202
 30
0.0
 11
8.3968210792
 21
12.3944559297
 31
0.0
  0
LINE
  5
376
  8
0
  6
CONTINUOUS
 62
     7
 10
8.3968210792
 20
14.9044558473
 30
0.0
 11
8.3968210792
 21
15.3944558934
 31
0.0
  0
LINE
  5
377
  8
0
  6
CONTINUOUS
 62
     7
 10
8.3968210792
 20
15.9044560552
 30
0.0
 11
8.3968210792
 21
16.394455808
 31
0.0
  0
LINE
  5
378
  8
0
  6
CONTINUOUS
 62
     7
 10
8.3968210792
 20
13.9044559327
 30
0.0
 11
8.3968210792
 21
14.3944559789
 31
0.0
  0
LINE
  5
379
  8
0
  6
CONTINUOUS
 62
     7
 10
8.3968210792
 20
12.9044558715
 30
0.0
 11
8.3968210792
 21
13.3944559176
 31
0.0
  0
LINE
  5
37A
  8
0
  6
CONTINUOUS
 62
     7
 10
8.3968210792
 20
16.9044556765
 30
0.0
 11
8.3968210792
 21
17.3944557226
 31
0.0
  0
LINE
  5
37B
  8
0
  6
CONTINUOUS
 62
     7
 10
8.3968210792
 20
17.9044561777
 30
0.0
 11
8.3968210792
 21
18.3989559052
 31
0.0
  0
LINE
  5
37C
  8
0
  6
CONTINUOUS
 62
     7
 10
8.3968210792
 20
11.8934559006
 30
0.0
 11
8.1568214517
 21
11.8934559006
 31
0.0
  0
LINE
  5
37D
  8
0
  6
CONTINUOUS
 62
     7
 10
8.3968210792
 20
11.3989559165
 30
0.0
 11
8.1568214517
 21
11.3989559165
 31
0.0
  0
LINE
  5
37E
  8
0
  6
CONTINUOUS
 62
     7
 10
8.1568214517
 20
17.403455672
 30
0.0
 11
8.3968210792
 21
17.403455672
 31
0.0
  0
LINE
  5
37F
  8
0
  6
CONTINUOUS
 62
     7
 10
8.3968210792
 20
17.8934557181
 30
0.0
 11
8.1568214517
 21
17.8934557181
 31
0.0
  0
LINE
  5
380
  8
0
  6
CONTINUOUS
 62
     7
 10
8.1568214517
 20
14.4034559282
 30
0.0
 11
8.3968210792
 21
14.4034559282
 31
0.0
  0
LINE
  5
381
  8
0
  6
CONTINUOUS
 62
     7
 10
8.3968210792
 20
14.8934559744
 30
0.0
 11
8.1568214517
 21
14.8934559744
 31
0.0
  0
LINE
  5
382
  8
0
  6
CONTINUOUS
 62
     7
 10
8.1568214517
 20
16.4034557574
 30
0.0
 11
8.3968210792
 21
16.4034557574
 31
0.0
  0
LINE
  5
383
  8
0
  6
CONTINUOUS
 62
     7
 10
8.3968210792
 20
16.8934558035
 30
0.0
 11
8.1568214517
 21
16.8934558035
 31
0.0
  0
LINE
  5
384
  8
0
  6
CONTINUOUS
 62
     7
 10
8.1568214517
 20
13.403455867
 30
0.0
 11
8.3968210792
 21
13.403455867
 31
0.0
  0
LINE
  5
385
  8
0
  6
CONTINUOUS
 62
     7
 10
8.3968210792
 20
13.8934560598
 30
0.0
 11
8.1568214517
 21
13.8934560598
 31
0.0
  0
LINE
  5
386
  8
0
  6
CONTINUOUS
 62
     7
 10
8.1568214517
 20
12.4034559524
 30
0.0
 11
8.3968210792
 21
12.4034559524
 31
0.0
  0
LINE
  5
387
  8
0
  6
CONTINUOUS
 62
     7
 10
8.3968210792
 20
12.8934558519
 30
0.0
 11
8.1568214517
 21
12.8934558519
 31
0.0
  0
LINE
  5
388
  8
0
  6
CONTINUOUS
 62
     7
 10
8.1568214517
 20
15.4034558428
 30
0.0
 11
8.3968210792
 21
15.4034558428
 31
0.0
  0
LINE
  5
389
  8
0
  6
CONTINUOUS
 62
     7
 10
8.3968210792
 20
15.893455889
 30
0.0
 11
8.1568214517
 21
15.893455889
 31
0.0
  0
LINE
  5
38A
  8
0
  6
CONTINUOUS
 62
     7
 10
8.1448213237
 20
16.8934558035
 30
0.0
 11
8.1448213237
 21
17.403455672
 31
0.0
  0
LINE
  5
38B
  8
0
  6
CONTINUOUS
 62
     7
 10
8.1448213237
 20
15.893455889
 30
0.0
 11
8.1448213237
 21
16.4034557574
 31
0.0
  0
LINE
  5
38C
  8
0
  6
CONTINUOUS
 62
     7
 10
8.1448213237
 20
14.8934559744
 30
0.0
 11
8.1448213237
 21
15.4034558428
 31
0.0
  0
LINE
  5
38D
  8
0
  6
CONTINUOUS
 62
     7
 10
8.1448213237
 20
13.8934560598
 30
0.0
 11
8.1448213237
 21
14.4034559282
 31
0.0
  0
LINE
  5
38E
  8
0
  6
CONTINUOUS
 62
     7
 10
8.1448213237
 20
12.8934558519
 30
0.0
 11
8.1448213237
 21
13.403455867
 31
0.0
  0
LINE
  5
38F
  8
0
  6
CONTINUOUS
 62
     7
 10
8.1448213237
 20
11.8934559006
 30
0.0
 11
8.1448213237
 21
12.4034559524
 31
0.0
  0
LINE
  5
390
  8
0
  6
CONTINUOUS
 62
     7
 10
7.4018212669
 20
18.3989559052
 30
0.0
 11
8.1448213237
 21
18.3989559052
 31
0.0
  0
LINE
  5
391
  8
0
  6
CONTINUOUS
 62
     7
 10
8.1448213237
 20
17.8934557181
 30
0.0
 11
8.1448213237
 21
18.3989559052
 31
0.0
  0
LINE
  5
392
  8
0
  6
CONTINUOUS
 62
     7
 10
7.4018212669
 20
11.3989559165
 30
0.0
 11
7.4018212669
 21
18.3989559052
 31
0.0
  0
LINE
  5
393
  8
0
  6
CONTINUOUS
 62
     7
 10
8.1448213237
 20
14.4034559282
 30
0.0
 11
8.1568214517
 21
14.4034559282
 31
0.0
  0
LINE
  5
394
  8
0
  6
CONTINUOUS
 62
     7
 10
8.1568214517
 20
14.8934559744
 30
0.0
 11
8.1448213237
 21
14.8934559744
 31
0.0
  0
LINE
  5
395
  8
0
  6
CONTINUOUS
 62
     7
 10
8.1448213237
 20
13.403455867
 30
0.0
 11
8.1568214517
 21
13.403455867
 31
0.0
  0
LINE
  5
396
  8
0
  6
CONTINUOUS
 62
     7
 10
8.1448213237
 20
17.403455672
 30
0.0
 11
8.1568214517
 21
17.403455672
 31
0.0
  0
LINE
  5
397
  8
0
  6
CONTINUOUS
 62
     7
 10
8.1568214517
 20
16.8934558035
 30
0.0
 11
8.1448213237
 21
16.8934558035
 31
0.0
  0
LINE
  5
398
  8
0
  6
CONTINUOUS
 62
     7
 10
8.1448213237
 20
15.4034558428
 30
0.0
 11
8.1568214517
 21
15.4034558428
 31
0.0
  0
LINE
  5
399
  8
0
  6
CONTINUOUS
 62
     7
 10
8.1448213237
 20
12.4034559524
 30
0.0
 11
8.1568214517
 21
12.4034559524
 31
0.0
  0
LINE
  5
39A
  8
0
  6
CONTINUOUS
 62
     7
 10
8.1568214517
 20
13.8934560598
 30
0.0
 11
8.1448213237
 21
13.8934560598
 31
0.0
  0
LINE
  5
39B
  8
0
  6
CONTINUOUS
 62
     7
 10
8.1568214517
 20
15.893455889
 30
0.0
 11
8.1448213237
 21
15.893455889
 31
0.0
  0
LINE
  5
39C
  8
0
  6
CONTINUOUS
 62
     7
 10
8.1568214517
 20
12.8934558519
 30
0.0
 11
8.1448213237
 21
12.8934558519
 31
0.0
  0
LINE
  5
39D
  8
0
  6
CONTINUOUS
 62
     7
 10
8.1568214517
 20
17.8934557181
 30
0.0
 11
8.1448213237
 21
17.8934557181
 31
0.0
  0
LINE
  5
39E
  8
0
  6
CONTINUOUS
 62
     7
 10
8.1448213237
 20
16.4034557574
 30
0.0
 11
8.1568214517
 21
16.4034557574
 31
0.0
  0
LINE
  5
39F
  8
0
  6
CONTINUOUS
 62
     7
 10
8.1568214517
 20
11.8934559006
 30
0.0
 11
8.1448213237
 21
11.8934559006
 31
0.0
  0
LINE
  5
3A0
  8
0
  6
CONTINUOUS
 62
     7
 10
7.4018212669
 20
11.3989559165
 30
0.0
 11
8.1568214517
 21
11.3989559165
 31
0.0
  0
LINE
  5
3A1
  8
0
  6
CONTINUOUS
 62
     7
 10
8.1568214517
 20
11.9044559202
 30
0.0
 11
8.1568214517
 21
12.3944559297
 31
0.0
  0
LINE
  5
3A2
  8
0
  6
CONTINUOUS
 62
     7
 10
8.1568214517
 20
12.3944559297
 30
0.0
 11
8.3968210792
 21
12.3944559297
 31
0.0
  0
LINE
  5
3A3
  8
0
  6
CONTINUOUS
 62
     7
 10
8.3968210792
 20
11.9044559202
 30
0.0
 11
8.1568214517
 21
11.9044559202
 31
0.0
  0
LINE
  5
3A4
  8
0
  6
CONTINUOUS
 62
     7
 10
8.1568214517
 20
14.9044558473
 30
0.0
 11
8.1568214517
 21
15.3944558934
 31
0.0
  0
LINE
  5
3A5
  8
0
  6
CONTINUOUS
 62
     7
 10
8.1568214517
 20
15.3944558934
 30
0.0
 11
8.3968210792
 21
15.3944558934
 31
0.0
  0
LINE
  5
3A6
  8
0
  6
CONTINUOUS
 62
     7
 10
8.3968210792
 20
14.9044558473
 30
0.0
 11
8.1568214517
 21
14.9044558473
 31
0.0
  0
LINE
  5
3A7
  8
0
  6
CONTINUOUS
 62
     7
 10
8.1568214517
 20
15.9044560552
 30
0.0
 11
8.1568214517
 21
16.394455808
 31
0.0
  0
LINE
  5
3A8
  8
0
  6
CONTINUOUS
 62
     7
 10
8.3968210792
 20
15.9044560552
 30
0.0
 11
8.1568214517
 21
15.9044560552
 31
0.0
  0
LINE
  5
3A9
  8
0
  6
CONTINUOUS
 62
     7
 10
8.1568214517
 20
16.394455808
 30
0.0
 11
8.3968210792
 21
16.394455808
 31
0.0
  0
LINE
  5
3AA
  8
0
  6
CONTINUOUS
 62
     7
 10
8.1568214517
 20
13.9044559327
 30
0.0
 11
8.1568214517
 21
14.3944559789
 31
0.0
  0
LINE
  5
3AB
  8
0
  6
CONTINUOUS
 62
     7
 10
8.3968210792
 20
13.9044559327
 30
0.0
 11
8.1568214517
 21
13.9044559327
 31
0.0
  0
LINE
  5
3AC
  8
0
  6
CONTINUOUS
 62
     7
 10
8.1568214517
 20
14.3944559789
 30
0.0
 11
8.3968210792
 21
14.3944559789
 31
0.0
  0
LINE
  5
3AD
  8
0
  6
CONTINUOUS
 62
     7
 10
8.1568214517
 20
12.9044558715
 30
0.0
 11
8.1568214517
 21
13.3944559176
 31
0.0
  0
LINE
  5
3AE
  8
0
  6
CONTINUOUS
 62
     7
 10
8.1568214517
 20
13.3944559176
 30
0.0
 11
8.3968210792
 21
13.3944559176
 31
0.0
  0
LINE
  5
3AF
  8
0
  6
CONTINUOUS
 62
     7
 10
8.3968210792
 20
12.9044558715
 30
0.0
 11
8.1568214517
 21
12.9044558715
 31
0.0
  0
LINE
  5
3B0
  8
0
  6
CONTINUOUS
 62
     7
 10
8.1568214517
 20
16.9044556765
 30
0.0
 11
8.1568214517
 21
17.3944557226
 31
0.0
  0
LINE
  5
3B1
  8
0
  6
CONTINUOUS
 62
     7
 10
8.3968210792
 20
16.9044556765
 30
0.0
 11
8.1568214517
 21
16.9044556765
 31
0.0
  0
LINE
  5
3B2
  8
0
  6
CONTINUOUS
 62
     7
 10
8.1568214517
 20
17.3944557226
 30
0.0
 11
8.3968210792
 21
17.3944557226
 31
0.0
  0
LINE
  5
3B3
  8
0
  6
CONTINUOUS
 62
     7
 10
8.1568214517
 20
17.9044561777
 30
0.0
 11
8.1568214517
 21
18.3989559052
 31
0.0
  0
LINE
  5
3B4
  8
0
  6
CONTINUOUS
 62
     7
 10
8.3968210792
 20
18.3989559052
 30
0.0
 11
8.1568214517
 21
18.3989559052
 31
0.0
  0
LINE
  5
3B5
  8
0
  6
CONTINUOUS
 62
     7
 10
8.3968210792
 20
17.9044561777
 30
0.0
 11
8.1568214517
 21
17.9044561777
 31
0.0
  0
LINE
  5
3B6
  8
0
  6
CONTINUOUS
 62
     7
 10
8.2168215053
 20
13.9044559327
 30
0.0
 11
8.2168215053
 21
13.8934560598
 31
0.0
  0
LINE
  5
3B7
  8
0
  6
CONTINUOUS
 62
     7
 10
8.2168215053
 20
13.403455867
 30
0.0
 11
8.2168215053
 21
13.3944559176
 31
0.0
  0
LINE
  5
3B8
  8
0
  6
CONTINUOUS
 62
     7
 10
8.1568214517
 20
13.9044559327
 30
0.0
 11
8.1568214517
 21
13.8934560598
 31
0.0
  0
LINE
  5
3B9
  8
0
  6
CONTINUOUS
 62
     7
 10
8.1568214517
 20
13.403455867
 30
0.0
 11
8.1568214517
 21
13.3944559176
 31
0.0
  0
LINE
  5
3BA
  8
0
  6
CONTINUOUS
 62
     7
 10
8.2168215053
 20
11.9044559202
 30
0.0
 11
8.2168215053
 21
11.8934559006
 31
0.0
  0
LINE
  5
3BB
  8
0
  6
CONTINUOUS
 62
     7
 10
8.1568214517
 20
11.9044559202
 30
0.0
 11
8.1568214517
 21
11.8934559006
 31
0.0
  0
LINE
  5
3BC
  8
0
  6
CONTINUOUS
 62
     7
 10
8.2168215053
 20
12.9044558715
 30
0.0
 11
8.2168215053
 21
12.8934558519
 31
0.0
  0
LINE
  5
3BD
  8
0
  6
CONTINUOUS
 62
     7
 10
8.2168215053
 20
12.4034559524
 30
0.0
 11
8.2168215053
 21
12.3944559297
 31
0.0
  0
LINE
  5
3BE
  8
0
  6
CONTINUOUS
 62
     7
 10
8.1568214517
 20
12.9044558715
 30
0.0
 11
8.1568214517
 21
12.8934558519
 31
0.0
  0
LINE
  5
3BF
  8
0
  6
CONTINUOUS
 62
     7
 10
8.1568214517
 20
12.4034559524
 30
0.0
 11
8.1568214517
 21
12.3944559297
 31
0.0
  0
LINE
  5
3C0
  8
0
  6
CONTINUOUS
 62
     7
 10
8.2168215053
 20
15.9044560552
 30
0.0
 11
8.2168215053
 21
15.893455889
 31
0.0
  0
LINE
  5
3C1
  8
0
  6
CONTINUOUS
 62
     7
 10
8.2168215053
 20
15.4034558428
 30
0.0
 11
8.2168215053
 21
15.3944558934
 31
0.0
  0
LINE
  5
3C2
  8
0
  6
CONTINUOUS
 62
     7
 10
8.1568214517
 20
15.9044560552
 30
0.0
 11
8.1568214517
 21
15.893455889
 31
0.0
  0
LINE
  5
3C3
  8
0
  6
CONTINUOUS
 62
     7
 10
8.1568214517
 20
15.4034558428
 30
0.0
 11
8.1568214517
 21
15.3944558934
 31
0.0
  0
LINE
  5
3C4
  8
0
  6
CONTINUOUS
 62
     7
 10
8.2168215053
 20
14.9044558473
 30
0.0
 11
8.2168215053
 21
14.8934559744
 31
0.0
  0
LINE
  5
3C5
  8
0
  6
CONTINUOUS
 62
     7
 10
8.2168215053
 20
14.4034559282
 30
0.0
 11
8.2168215053
 21
14.3944559789
 31
0.0
  0
LINE
  5
3C6
  8
0
  6
CONTINUOUS
 62
     7
 10
8.1568214517
 20
14.9044558473
 30
0.0
 11
8.1568214517
 21
14.8934559744
 31
0.0
  0
LINE
  5
3C7
  8
0
  6
CONTINUOUS
 62
     7
 10
8.1568214517
 20
14.4034559282
 30
0.0
 11
8.1568214517
 21
14.3944559789
 31
0.0
  0
LINE
  5
3C8
  8
0
  6
CONTINUOUS
 62
     7
 10
8.2168215053
 20
16.9044556765
 30
0.0
 11
8.2168215053
 21
16.8934558035
 31
0.0
  0
LINE
  5
3C9
  8
0
  6
CONTINUOUS
 62
     7
 10
8.2168215053
 20
16.4034557574
 30
0.0
 11
8.2168215053
 21
16.394455808
 31
0.0
  0
LINE
  5
3CA
  8
0
  6
CONTINUOUS
 62
     7
 10
8.1568214517
 20
16.9044556765
 30
0.0
 11
8.1568214517
 21
16.8934558035
 31
0.0
  0
LINE
  5
3CB
  8
0
  6
CONTINUOUS
 62
     7
 10
8.1568214517
 20
16.4034557574
 30
0.0
 11
8.1568214517
 21
16.394455808
 31
0.0
  0
LINE
  5
3CC
  8
0
  6
CONTINUOUS
 62
     7
 10
8.2168215053
 20
17.9044561777
 30
0.0
 11
8.2168215053
 21
17.8934557181
 31
0.0
  0
LINE
  5
3CD
  8
0
  6
CONTINUOUS
 62
     7
 10
8.2168215053
 20
17.403455672
 30
0.0
 11
8.2168215053
 21
17.3944557226
 31
0.0
  0
LINE
  5
3CE
  8
0
  6
CONTINUOUS
 62
     7
 10
8.1568214517
 20
17.9044561777
 30
0.0
 11
8.1568214517
 21
17.8934557181
 31
0.0
  0
LINE
  5
3CF
  8
0
  6
CONTINUOUS
 62
     7
 10
8.1568214517
 20
17.403455672
 30
0.0
 11
8.1568214517
 21
17.3944557226
 31
0.0
  0
LINE
  5
3D0
  8
0
  6
CONTINUOUS
 62
     7
 10
3.2938213454
 20
11.3989559165
 30
0.0
 11
3.2168213457
 21
11.3989559165
 31
0.0
  0
LINE
  5
3D1
  8
0
  6
CONTINUOUS
 62
     7
 10
3.2168213457
 20
12.7584558781
 30
0.0
 11
3.2168213457
 21
11.3989559165
 31
0.0
  0
LINE
  5
3D2
  8
0
  6
CONTINUOUS
 62
     7
 10
3.2168213457
 20
12.7584558781
 30
0.0
 11
3.2938213454
 21
12.7584558781
 31
0.0
  0
LINE
  5
3D3
  8
0
  6
CONTINUOUS
 62
     7
 10
3.2938213454
 20
16.7584559764
 30
0.0
 11
3.4978213496
 21
16.7584559764
 31
0.0
  0
ARC
  5
3D4
  8
0
  6
CONTINUOUS
 62
     7
 10
3.4978213457
 20
16.8989559165
 30
0.0
 40
0.140500000000003
 50
270.0
 51
90.0
  0
LINE
  5
3D5
  8
0
  6
CONTINUOUS
 62
     7
 10
3.4978213496
 20
17.0394560903
 30
0.0
 11
3.2938213454
 21
17.0394560903
 31
0.0
  0
LINE
  5
3D6
  8
0
  6
CONTINUOUS
 62
     7
 10
3.2938213454
 20
18.3989559052
 30
0.0
 11
7.4018212669
 21
18.3989559052
 31
0.0
  0
LINE
  5
3D7
  8
0
  6
CONTINUOUS
 62
     7
 10
3.2938213454
 20
11.3989559165
 30
0.0
 11
7.4018212669
 21
11.3989559165
 31
0.0
  0
ARC
  5
3D8
  8
0
  6
CONTINUOUS
 62
     7
 10
3.4978213457
 20
12.8989559165
 30
0.0
 40
0.140500000000003
 50
270.0
 51
90.0
  0
LINE
  5
3D9
  8
0
  6
CONTINUOUS
 62
     7
 10
3.4978213496
 20
13.0394558453
 30
0.0
 11
3.2938213454
 21
13.0394558453
 31
0.0
  0
LINE
  5
3DA
  8
0
  6
CONTINUOUS
 62
     7
 10
3.2938213454
 20
12.7584558781
 30
0.0
 11
3.4978213496
 21
12.7584558781
 31
0.0
  0
LINE
  5
3DB
  8
0
  6
CONTINUOUS
 62
     7
 10
3.2168213457
 20
18.3989559052
 30
0.0
 11
3.2938213454
 21
18.3989559052
 31
0.0
  0
LINE
  5
3DC
  8
0
  6
CONTINUOUS
 62
     7
 10
3.2168213457
 20
18.3989559052
 30
0.0
 11
3.2168213457
 21
17.0394560903
 31
0.0
  0
LINE
  5
3DD
  8
0
  6
CONTINUOUS
 62
     7
 10
3.2938213454
 20
17.0394560903
 30
0.0
 11
3.2168213457
 21
17.0394560903
 31
0.0
  0
LINE
  5
3DE
  8
0
  6
CONTINUOUS
 62
     7
 10
3.2168213457
 20
16.7584559764
 30
0.0
 11
3.2168213457
 21
13.0394558453
 31
0.0
  0
LINE
  5
3DF
  8
0
  6
CONTINUOUS
 62
     7
 10
3.2168213457
 20
16.7584559764
 30
0.0
 11
3.2938213454
 21
16.7584559764
 31
0.0
  0
LINE
  5
3E0
  8
0
  6
CONTINUOUS
 62
     7
 10
3.2938213454
 20
13.0394558453
 30
0.0
 11
3.2168213457
 21
13.0394558453
 31
0.0
  0
LINE
  5
3E1
  8
0
  6
CONTINUOUS
 62
     7
 10
3.2168213457
 20
13.0394558453
 30
0.0
 11
3.2168213457
 21
12.7584558781
 31
0.0
  0
LINE
  5
3E2
  8
0
  6
CONTINUOUS
 62
     7
 10
3.2788213457
 20
13.0394558453
 30
0.0
 11
3.2788213457
 21
12.7584558781
 31
0.0
  0
LINE
  5
3E3
  8
0
  6
CONTINUOUS
 62
     7
 10
3.2168213457
 20
17.0394560903
 30
0.0
 11
3.2168213457
 21
16.7584559764
 31
0.0
  0
LINE
  5
3E4
  8
0
  6
CONTINUOUS
 62
     7
 10
3.2788213457
 20
17.0394560903
 30
0.0
 11
3.2788213457
 21
16.7584559764
 31
0.0
  0
LINE
  5
3E5
  8
0
  6
CONTINUOUS
 62
     7
 10
8.1548215282
 20
18.3989559052
 30
0.0
 11
8.1548215282
 21
17.8934557181
 31
0.0
  0
LINE
  5
3E6
  8
0
  6
CONTINUOUS
 62
     7
 10
8.1548215282
 20
17.403455672
 30
0.0
 11
8.1548215282
 21
16.8934558035
 31
0.0
  0
LINE
  5
3E7
  8
0
  6
CONTINUOUS
 62
     7
 10
8.1548215282
 20
16.4034557574
 30
0.0
 11
8.1548215282
 21
15.893455889
 31
0.0
  0
LINE
  5
3E8
  8
0
  6
CONTINUOUS
 62
     7
 10
8.1548215282
 20
15.4034558428
 30
0.0
 11
8.1548215282
 21
14.8934559744
 31
0.0
  0
LINE
  5
3E9
  8
0
  6
CONTINUOUS
 62
     7
 10
8.1548215282
 20
14.4034559282
 30
0.0
 11
8.1548215282
 21
13.8934560598
 31
0.0
  0
LINE
  5
3EA
  8
0
  6
CONTINUOUS
 62
     7
 10
8.1548215282
 20
13.403455867
 30
0.0
 11
8.1548215282
 21
12.8934558519
 31
0.0
  0
LINE
  5
3EB
  8
0
  6
CONTINUOUS
 62
     7
 10
8.1548215282
 20
12.4034559524
 30
0.0
 11
8.1548215282
 21
11.8934559006
 31
0.0
  0
LINE
  5
3EC
  8
0
  6
CONTINUOUS
 62
     7
 10
8.1568214517
 20
18.3989559052
 30
0.0
 11
8.1548215282
 21
18.3989559052
 31
0.0
  0
LINE
  5
3ED
  8
0
  6
CONTINUOUS
 62
     7
 10
8.1548215282
 20
18.3989559052
 30
0.0
 11
8.1448213237
 21
18.3989559052
 31
0.0
  0
ARC
  5
3EE
  8
0
  6
CONTINUOUS
 62
     7
 10
3.4976554267
 20
16.8989559165
 30
0.0
 40
0.140500000000003
 50
270.0
 51
90.0
  0
ARC
  5
3EF
  8
0
  6
CONTINUOUS
 62
     7
 10
3.4976554267
 20
12.8989559165
 30
0.0
 40
0.140500000000003
 50
270.0
 51
90.0
  0
DIMENSION
  5
3F0
  8
0
  6
CONTINUOUS
 62
     7
  2
*D14
 10
8.3968213457
 20
19.8118218571
 30
0.0
 11
5.8068213457
 21
19.8118218571
 31
0.0
 70
   160
  3
SLDDIMSTYLE0
 13
3.2168213457
 23
18.3989559165
 33
0.0
 14
8.3968213457
 24
18.3989559165
 34
0.0
 50
0.0
  0
ARC
  5
404
  8
0
  6
CONTINUOUS
 62
     7
 10
39.664456965
 20
12.8989559165
 30
0.0
 40
0.140500000000003
 50
90.0
 51
270.0
  0
LINE
  5
405
  8
0
  6
CONTINUOUS
 62
     7
 10
35.0222911703
 20
11.3989559165
 30
0.0
 11
39.8682910464
 21
11.3989559165
 31
0.0
  0
LINE
  5
406
  8
0
  6
CONTINUOUS
 62
     7
 10
35.0222911703
 20
18.3989559052
 30
0.0
 11
39.8682910464
 21
18.3989559052
 31
0.0
  0
ARC
  5
407
  8
0
  6
CONTINUOUS
 62
     7
 10
39.664456965
 20
16.8989559165
 30
0.0
 40
0.140500000000003
 50
90.0
 51
270.0
  0
LINE
  5
408
  8
0
  6
CONTINUOUS
 62
     7
 10
39.8682910464
 20
13.0394558453
 30
0.0
 11
39.6644569569
 21
13.0394558453
 31
0.0
  0
LINE
  5
409
  8
0
  6
CONTINUOUS
 62
     7
 10
39.6644569569
 20
16.7584559764
 30
0.0
 11
39.8682910464
 21
16.7584559764
 31
0.0
  0
LINE
  5
40A
  8
0
  6
CONTINUOUS
 62
     7
 10
39.6644569569
 20
12.7584558781
 30
0.0
 11
39.8682910464
 21
12.7584558781
 31
0.0
  0
LINE
  5
40B
  8
0
  6
CONTINUOUS
 62
     7
 10
39.8682910464
 20
17.0394560903
 30
0.0
 11
39.6644569569
 21
17.0394560903
 31
0.0
  0
LINE
  5
40C
  8
0
  6
CONTINUOUS
 62
     7
 10
39.945291046
 20
16.7584559764
 30
0.0
 11
39.945291046
 21
13.0394558453
 31
0.0
  0
LINE
  5
40D
  8
0
  6
CONTINUOUS
 62
     7
 10
39.945291046
 20
13.0394558453
 30
0.0
 11
39.8682910464
 21
13.0394558453
 31
0.0
  0
LINE
  5
40E
  8
0
  6
CONTINUOUS
 62
     7
 10
39.8682910464
 20
16.7584559764
 30
0.0
 11
39.945291046
 21
16.7584559764
 31
0.0
  0
LINE
  5
40F
  8
0
  6
CONTINUOUS
 62
     7
 10
39.945291046
 20
18.3989559052
 30
0.0
 11
39.945291046
 21
17.0394560903
 31
0.0
  0
LINE
  5
410
  8
0
  6
CONTINUOUS
 62
     7
 10
39.945291046
 20
17.0394560903
 30
0.0
 11
39.8682910464
 21
17.0394560903
 31
0.0
  0
LINE
  5
411
  8
0
  6
CONTINUOUS
 62
     7
 10
39.8682910464
 20
18.3989559052
 30
0.0
 11
39.945291046
 21
18.3989559052
 31
0.0
  0
LINE
  5
412
  8
0
  6
CONTINUOUS
 62
     7
 10
39.945291046
 20
12.7584558781
 30
0.0
 11
39.945291046
 21
11.3989559165
 31
0.0
  0
LINE
  5
413
  8
0
  6
CONTINUOUS
 62
     7
 10
39.945291046
 20
11.3989559165
 30
0.0
 11
39.8682910464
 21
11.3989559165
 31
0.0
  0
LINE
  5
414
  8
0
  6
CONTINUOUS
 62
     7
 10
39.8682910464
 20
12.7584558781
 30
0.0
 11
39.945291046
 21
12.7584558781
 31
0.0
  0
LINE
  5
415
  8
0
  6
CONTINUOUS
 62
     7
 10
34.9452908864
 20
18.3989559052
 30
0.0
 11
34.9452908864
 21
11.3989559165
 31
0.0
  0
LINE
  5
416
  8
0
  6
CONTINUOUS
 62
     7
 10
34.9452908864
 20
18.3989559052
 30
0.0
 11
35.0222911703
 21
18.3989559052
 31
0.0
  0
LINE
  5
417
  8
0
  6
CONTINUOUS
 62
     7
 10
34.9452908864
 20
11.3989559165
 30
0.0
 11
35.0222911703
 21
11.3989559165
 31
0.0
  0
LINE
  5
418
  8
0
  6
CONTINUOUS
 62
     7
 10
39.883291046
 20
13.0394558453
 30
0.0
 11
39.883291046
 21
12.7584558781
 31
0.0
  0
LINE
  5
419
  8
0
  6
CONTINUOUS
 62
     7
 10
39.945291046
 20
13.0394558453
 30
0.0
 11
39.945291046
 21
12.7584558781
 31
0.0
  0
LINE
  5
41A
  8
0
  6
CONTINUOUS
 62
     7
 10
39.883291046
 20
17.0394560903
 30
0.0
 11
39.883291046
 21
16.7584559764
 31
0.0
  0
LINE
  5
41B
  8
0
  6
CONTINUOUS
 62
     7
 10
39.945291046
 20
17.0394560903
 30
0.0
 11
39.945291046
 21
16.7584559764
 31
0.0
  0
DIMENSION
  5
41C
  8
0
  6
CONTINUOUS
 62
     7
  2
*D15
 10
41.5200941956
 20
12.8989559165
 30
0.0
 11
41.5200941956
 21
14.8989559165
 31
0.0
 70
   160
  3
SLDDIMSTYLE2
 13
39.904956965
 23
16.8989559165
 33
0.0
 14
39.904956965
 24
12.8989559165
 34
0.0
 50
90.0
  0
DIMENSION
  5
430
  8
0
  6
CONTINUOUS
 62
     7
  2
*D16
 10
39.945291046
 20
19.9737590661
 30
0.0
 11
37.445291046
 21
19.9737590661
 31
0.0
 70
   160
  3
SLDDIMSTYLE2
 13
34.945291046
 23
18.3989559165
 33
0.0
 14
39.945291046
 24
18.3989559165
 34
0.0
  0
INSERT
  5
44F
  8
0
  6
CONTINUOUS
 62
     7
  2
SW_CENTERMARKSYMBOL_0
 10
39.664456965
 20
16.8989559165
 30
0.0
  0
INSERT
  5
45B
  8
0
  6
CONTINUOUS
 62
     7
  2
SW_CENTERMARKSYMBOL_1
 10
39.664456965
 20
12.8989559165
 30
0.0
  0
LINE
  5
45C
  8
0
  6
CONTINUOUS
 62
     7
 10
65.3617349935
 20
17.403455672
 30
0.0
 11
65.3617349935
 21
17.8934557181
 31
0.0
  0
LINE
  5
45D
  8
0
  6
CONTINUOUS
 62
     7
 10
65.3617349935
 20
14.4034559282
 30
0.0
 11
65.3617349935
 21
14.8934559744
 31
0.0
  0
LINE
  5
45E
  8
0
  6
CONTINUOUS
 62
     7
 10
65.3617349935
 20
16.4034557574
 30
0.0
 11
65.3617349935
 21
16.8934558035
 31
0.0
  0
LINE
  5
45F
  8
0
  6
CONTINUOUS
 62
     7
 10
65.3617349935
 20
15.4034558428
 30
0.0
 11
65.3617349935
 21
15.893455889
 31
0.0
  0
LINE
  5
460
  8
0
  6
CONTINUOUS
 62
     7
 10
65.3617349935
 20
13.403455867
 30
0.0
 11
65.3617349935
 21
13.8934560598
 31
0.0
  0
LINE
  5
461
  8
0
  6
CONTINUOUS
 62
     7
 10
65.3617349935
 20
11.3989559165
 30
0.0
 11
65.3617349935
 21
11.8934559006
 31
0.0
  0
LINE
  5
462
  8
0
  6
CONTINUOUS
 62
     7
 10
65.3617349935
 20
12.4034559524
 30
0.0
 11
65.3617349935
 21
12.8934558519
 31
0.0
  0
LINE
  5
463
  8
0
  6
CONTINUOUS
 62
     7
 10
65.3617349935
 20
15.9044560552
 30
0.0
 11
65.3617349935
 21
16.394455808
 31
0.0
  0
LINE
  5
464
  8
0
  6
CONTINUOUS
 62
     7
 10
65.3617349935
 20
13.9044559327
 30
0.0
 11
65.3617349935
 21
14.3944559789
 31
0.0
  0
LINE
  5
465
  8
0
  6
CONTINUOUS
 62
     7
 10
65.3617349935
 20
17.9044561777
 30
0.0
 11
65.3617349935
 21
18.3989559052
 31
0.0
  0
LINE
  5
466
  8
0
  6
CONTINUOUS
 62
     7
 10
65.3617349935
 20
14.9044558473
 30
0.0
 11
65.3617349935
 21
15.3944558934
 31
0.0
  0
LINE
  5
467
  8
0
  6
CONTINUOUS
 62
     7
 10
65.3617349935
 20
16.9044556765
 30
0.0
 11
65.3617349935
 21
17.3944557226
 31
0.0
  0
LINE
  5
468
  8
0
  6
CONTINUOUS
 62
     7
 10
65.3617349935
 20
12.9044558715
 30
0.0
 11
65.3617349935
 21
13.3944559176
 31
0.0
  0
LINE
  5
469
  8
0
  6
CONTINUOUS
 62
     7
 10
65.3617349935
 20
11.9044559202
 30
0.0
 11
65.3617349935
 21
12.3944559297
 31
0.0
  0
LINE
  5
46A
  8
0
  6
CONTINUOUS
 62
     7
 10
65.1817348329
 20
11.3989559165
 30
0.0
 11
65.1817348329
 21
18.3989559052
 31
0.0
  0
LINE
  5
46B
  8
0
  6
CONTINUOUS
 62
     7
 10
65.1217347793
 20
11.3989559165
 30
0.0
 11
65.1817348329
 21
11.3989559165
 31
0.0
  0
LINE
  5
46C
  8
0
  6
CONTINUOUS
 62
     7
 10
65.1217347793
 20
18.3989559052
 30
0.0
 11
65.1817348329
 21
18.3989559052
 31
0.0
  0
LINE
  5
46D
  8
0
  6
CONTINUOUS
 62
     7
 10
65.1817348329
 20
17.403455672
 30
0.0
 11
65.3617349935
 21
17.403455672
 31
0.0
  0
LINE
  5
46E
  8
0
  6
CONTINUOUS
 62
     7
 10
65.3617349935
 20
17.8934557181
 30
0.0
 11
65.1817348329
 21
17.8934557181
 31
0.0
  0
LINE
  5
46F
  8
0
  6
CONTINUOUS
 62
     7
 10
65.1817348329
 20
14.4034559282
 30
0.0
 11
65.3617349935
 21
14.4034559282
 31
0.0
  0
LINE
  5
470
  8
0
  6
CONTINUOUS
 62
     7
 10
65.3617349935
 20
14.8934559744
 30
0.0
 11
65.1817348329
 21
14.8934559744
 31
0.0
  0
LINE
  5
471
  8
0
  6
CONTINUOUS
 62
     7
 10
65.3617349935
 20
16.8934558035
 30
0.0
 11
65.1817348329
 21
16.8934558035
 31
0.0
  0
LINE
  5
472
  8
0
  6
CONTINUOUS
 62
     7
 10
65.1817348329
 20
16.4034557574
 30
0.0
 11
65.3617349935
 21
16.4034557574
 31
0.0
  0
LINE
  5
473
  8
0
  6
CONTINUOUS
 62
     7
 10
65.1817348329
 20
15.4034558428
 30
0.0
 11
65.3617349935
 21
15.4034558428
 31
0.0
  0
LINE
  5
474
  8
0
  6
CONTINUOUS
 62
     7
 10
65.3617349935
 20
15.893455889
 30
0.0
 11
65.1817348329
 21
15.893455889
 31
0.0
  0
LINE
  5
475
  8
0
  6
CONTINUOUS
 62
     7
 10
65.1817348329
 20
13.403455867
 30
0.0
 11
65.3617349935
 21
13.403455867
 31
0.0
  0
LINE
  5
476
  8
0
  6
CONTINUOUS
 62
     7
 10
65.3617349935
 20
13.8934560598
 30
0.0
 11
65.1817348329
 21
13.8934560598
 31
0.0
  0
LINE
  5
477
  8
0
  6
CONTINUOUS
 62
     7
 10
65.3617349935
 20
11.8934559006
 30
0.0
 11
65.1817348329
 21
11.8934559006
 31
0.0
  0
LINE
  5
478
  8
0
  6
CONTINUOUS
 62
     7
 10
65.3617349935
 20
11.3989559165
 30
0.0
 11
65.1817348329
 21
11.3989559165
 31
0.0
  0
LINE
  5
479
  8
0
  6
CONTINUOUS
 62
     7
 10
65.3617349935
 20
12.8934558519
 30
0.0
 11
65.1817348329
 21
12.8934558519
 31
0.0
  0
LINE
  5
47A
  8
0
  6
CONTINUOUS
 62
     7
 10
65.1817348329
 20
12.4034559524
 30
0.0
 11
65.3617349935
 21
12.4034559524
 31
0.0
  0
LINE
  5
47B
  8
0
  6
CONTINUOUS
 62
     7
 10
65.3617349935
 20
15.9044560552
 30
0.0
 11
65.2417348864
 21
15.9044560552
 31
0.0
  0
LINE
  5
47C
  8
0
  6
CONTINUOUS
 62
     7
 10
65.2417348864
 20
16.394455808
 30
0.0
 11
65.3617349935
 21
16.394455808
 31
0.0
  0
LINE
  5
47D
  8
0
  6
CONTINUOUS
 62
     7
 10
65.3617349935
 20
13.9044559327
 30
0.0
 11
65.2417348864
 21
13.9044559327
 31
0.0
  0
LINE
  5
47E
  8
0
  6
CONTINUOUS
 62
     7
 10
65.2417348864
 20
14.3944559789
 30
0.0
 11
65.3617349935
 21
14.3944559789
 31
0.0
  0
LINE
  5
47F
  8
0
  6
CONTINUOUS
 62
     7
 10
65.3617349935
 20
18.3989559052
 30
0.0
 11
65.2417348864
 21
18.3989559052
 31
0.0
  0
LINE
  5
480
  8
0
  6
CONTINUOUS
 62
     7
 10
65.3617349935
 20
17.9044561777
 30
0.0
 11
65.2417348864
 21
17.9044561777
 31
0.0
  0
LINE
  5
481
  8
0
  6
CONTINUOUS
 62
     7
 10
65.3617349935
 20
14.9044558473
 30
0.0
 11
65.2417348864
 21
14.9044558473
 31
0.0
  0
LINE
  5
482
  8
0
  6
CONTINUOUS
 62
     7
 10
65.2417348864
 20
15.3944558934
 30
0.0
 11
65.3617349935
 21
15.3944558934
 31
0.0
  0
LINE
  5
483
  8
0
  6
CONTINUOUS
 62
     7
 10
65.3617349935
 20
16.9044556765
 30
0.0
 11
65.2417348864
 21
16.9044556765
 31
0.0
  0
LINE
  5
484
  8
0
  6
CONTINUOUS
 62
     7
 10
65.2417348864
 20
17.3944557226
 30
0.0
 11
65.3617349935
 21
17.3944557226
 31
0.0
  0
LINE
  5
485
  8
0
  6
CONTINUOUS
 62
     7
 10
65.2417348864
 20
13.3944559176
 30
0.0
 11
65.3617349935
 21
13.3944559176
 31
0.0
  0
LINE
  5
486
  8
0
  6
CONTINUOUS
 62
     7
 10
65.3617349935
 20
12.9044558715
 30
0.0
 11
65.2417348864
 21
12.9044558715
 31
0.0
  0
CIRCLE
  5
487
  8
0
  6
CONTINUOUS
 62
     7
 10
64.7777347108
 20
12.8989559165
 30
0.0
 40
0.140500000000003
  0
CIRCLE
  5
488
  8
0
  6
CONTINUOUS
 62
     7
 10
64.7777347108
 20
16.8989559165
 30
0.0
 40
0.1404999999999994
  0
LINE
  5
489
  8
0
  6
CONTINUOUS
 62
     7
 10
65.1817348329
 20
12.3944559297
 30
0.0
 11
65.2417348864
 21
12.3944559297
 31
0.0
  0
LINE
  5
48A
  8
0
  6
CONTINUOUS
 62
     7
 10
65.2417348864
 20
12.9044558715
 30
0.0
 11
65.1817348329
 21
12.9044558715
 31
0.0
  0
LINE
  5
48B
  8
0
  6
CONTINUOUS
 62
     7
 10
65.1817348329
 20
13.3944559176
 30
0.0
 11
65.2417348864
 21
13.3944559176
 31
0.0
  0
LINE
  5
48C
  8
0
  6
CONTINUOUS
 62
     7
 10
65.2417348864
 20
13.9044559327
 30
0.0
 11
65.1817348329
 21
13.9044559327
 31
0.0
  0
LINE
  5
48D
  8
0
  6
CONTINUOUS
 62
     7
 10
65.2417348864
 20
11.9044559202
 30
0.0
 11
65.1817348329
 21
11.9044559202
 31
0.0
  0
LINE
  5
48E
  8
0
  6
CONTINUOUS
 62
     7
 10
65.1817348329
 20
18.3989559052
 30
0.0
 11
65.2417348864
 21
18.3989559052
 31
0.0
  0
LINE
  5
48F
  8
0
  6
CONTINUOUS
 62
     7
 10
65.2417348864
 20
15.9044560552
 30
0.0
 11
65.1817348329
 21
15.9044560552
 31
0.0
  0
LINE
  5
490
  8
0
  6
CONTINUOUS
 62
     7
 10
65.2417348864
 20
14.9044558473
 30
0.0
 11
65.1817348329
 21
14.9044558473
 31
0.0
  0
LINE
  5
491
  8
0
  6
CONTINUOUS
 62
     7
 10
65.1817348329
 20
14.3944559789
 30
0.0
 11
65.2417348864
 21
14.3944559789
 31
0.0
  0
LINE
  5
492
  8
0
  6
CONTINUOUS
 62
     7
 10
65.2417348864
 20
17.9044561777
 30
0.0
 11
65.1817348329
 21
17.9044561777
 31
0.0
  0
LINE
  5
493
  8
0
  6
CONTINUOUS
 62
     7
 10
65.1817348329
 20
15.3944558934
 30
0.0
 11
65.2417348864
 21
15.3944558934
 31
0.0
  0
LINE
  5
494
  8
0
  6
CONTINUOUS
 62
     7
 10
65.2417348864
 20
16.9044556765
 30
0.0
 11
65.1817348329
 21
16.9044556765
 31
0.0
  0
LINE
  5
495
  8
0
  6
CONTINUOUS
 62
     7
 10
65.1817348329
 20
17.3944557226
 30
0.0
 11
65.2417348864
 21
17.3944557226
 31
0.0
  0
LINE
  5
496
  8
0
  6
CONTINUOUS
 62
     7
 10
65.1817348329
 20
16.394455808
 30
0.0
 11
65.2417348864
 21
16.394455808
 31
0.0
  0
LINE
  5
497
  8
0
  6
CONTINUOUS
 62
     7
 10
65.2417348864
 20
12.3944559297
 30
0.0
 11
65.3617349935
 21
12.3944559297
 31
0.0
  0
LINE
  5
498
  8
0
  6
CONTINUOUS
 62
     7
 10
65.3617349935
 20
11.9044559202
 30
0.0
 11
65.2417348864
 21
11.9044559202
 31
0.0
  0
LINE
  5
499
  8
0
  6
CONTINUOUS
 62
     7
 10
65.1217347793
 20
16.7584559764
 30
0.0
 11
65.1217347793
 21
13.0394558453
 31
0.0
  0
LINE
  5
49A
  8
0
  6
CONTINUOUS
 62
     7
 10
65.0447344955
 20
16.7584559764
 30
0.0
 11
65.1217347793
 21
16.7584559764
 31
0.0
  0
LINE
  5
49B
  8
0
  6
CONTINUOUS
 62
     7
 10
65.1217347793
 20
13.0394558453
 30
0.0
 11
65.0447344955
 21
13.0394558453
 31
0.0
  0
LINE
  5
49C
  8
0
  6
CONTINUOUS
 62
     7
 10
65.0447344955
 20
18.3989559052
 30
0.0
 11
65.1217347793
 21
18.3989559052
 31
0.0
  0
LINE
  5
49D
  8
0
  6
CONTINUOUS
 62
     7
 10
65.1217347793
 20
18.3989559052
 30
0.0
 11
65.1217347793
 21
17.0394560903
 31
0.0
  0
LINE
  5
49E
  8
0
  6
CONTINUOUS
 62
     7
 10
65.1217347793
 20
17.0394560903
 30
0.0
 11
65.0447344955
 21
17.0394560903
 31
0.0
  0
LINE
  5
49F
  8
0
  6
CONTINUOUS
 62
     7
 10
46.1987349261
 20
16.7584559764
 30
0.0
 11
46.5288179396
 21
16.7584559764
 31
0.0
  0
ARC
  5
4A0
  8
0
  6
CONTINUOUS
 62
     7
 10
46.5288176703
 20
16.8989559165
 30
0.0
 40
0.140500000000003
 50
270.0
 51
90.0
  0
LINE
  5
4A1
  8
0
  6
CONTINUOUS
 62
     7
 10
46.5288179396
 20
17.0394560903
 30
0.0
 11
46.1987349261
 21
17.0394560903
 31
0.0
  0
LINE
  5
4A2
  8
0
  6
CONTINUOUS
 62
     7
 10
46.1987349261
 20
18.3989559052
 30
0.0
 11
65.0447344955
 21
18.3989559052
 31
0.0
  0
ARC
  5
4A3
  8
0
  6
CONTINUOUS
 62
     7
 10
64.7148176703
 20
16.8989559165
 30
0.0
 40
0.140500000000003
 50
90.0
 51
270.0
  0
ARC
  5
4A4
  8
0
  6
CONTINUOUS
 62
     7
 10
64.7148176703
 20
12.8989559165
 30
0.0
 40
0.140500000000003
 50
90.0
 51
270.0
  0
LINE
  5
4A5
  8
0
  6
CONTINUOUS
 62
     7
 10
64.7148175067
 20
12.7584558781
 30
0.0
 11
65.0447344955
 21
12.7584558781
 31
0.0
  0
LINE
  5
4A6
  8
0
  6
CONTINUOUS
 62
     7
 10
46.1987349261
 20
11.3989559165
 30
0.0
 11
65.0447344955
 21
11.3989559165
 31
0.0
  0
LINE
  5
4A7
  8
0
  6
CONTINUOUS
 62
     7
 10
46.1987349261
 20
12.7584558781
 30
0.0
 11
46.5288179396
 21
12.7584558781
 31
0.0
  0
ARC
  5
4A8
  8
0
  6
CONTINUOUS
 62
     7
 10
46.5288176703
 20
12.8989559165
 30
0.0
 40
0.140500000000003
 50
270.0
 51
90.0
  0
LINE
  5
4A9
  8
0
  6
CONTINUOUS
 62
     7
 10
46.5288179396
 20
13.0394558453
 30
0.0
 11
46.1987349261
 21
13.0394558453
 31
0.0
  0
LINE
  5
4AA
  8
0
  6
CONTINUOUS
 62
     7
 10
47.7622345711
 20
12.3647474729
 30
0.0
 11
47.7622345711
 21
12.4609558815
 31
0.0
  0
ARC
  5
4AB
  8
0
  6
CONTINUOUS
 62
     7
 10
47.6217347108
 20
12.4609559165
 30
0.0
 40
0.140500000000003
 50
0.0
 51
180.0
  0
LINE
  5
4AC
  8
0
  6
CONTINUOUS
 62
     7
 10
47.4812344572
 20
12.4609558815
 30
0.0
 11
47.4812344572
 21
12.3647474729
 31
0.0
  0
ARC
  5
4AD
  8
0
  6
CONTINUOUS
 62
     7
 10
47.6217347108
 20
12.1489559165
 30
0.0
 40
0.2575000000000022
 50
123.0677991622
 51
236.9322008378
  0
LINE
  5
4AE
  8
0
  6
CONTINUOUS
 62
     7
 10
47.4812344572
 20
11.9331643419
 30
0.0
 11
47.4812344572
 21
11.8369559333
 31
0.0
  0
ARC
  5
4AF
  8
0
  6
CONTINUOUS
 62
     7
 10
47.6217347108
 20
11.8369559165
 30
0.0
 40
0.140500000000003
 50
180.0
 51
0.0
  0
LINE
  5
4B0
  8
0
  6
CONTINUOUS
 62
     7
 10
47.7622345711
 20
11.8369559333
 30
0.0
 11
47.7622345711
 21
11.9331643419
 31
0.0
  0
ARC
  5
4B1
  8
0
  6
CONTINUOUS
 62
     7
 10
47.6217347108
 20
12.1489559165
 30
0.0
 40
0.2574999999999983
 50
303.0677991622
 51
56.9322008378
  0
LINE
  5
4B2
  8
0
  6
CONTINUOUS
 62
     7
 10
63.7622349644
 20
12.3647474729
 30
0.0
 11
63.7622349644
 21
12.4609558815
 31
0.0
  0
ARC
  5
4B3
  8
0
  6
CONTINUOUS
 62
     7
 10
63.6217347108
 20
12.4609559165
 30
0.0
 40
0.1405000000000101
 50
0.0
 51
180.0
  0
LINE
  5
4B4
  8
0
  6
CONTINUOUS
 62
     7
 10
63.4812348505
 20
12.4609558815
 30
0.0
 11
63.4812348505
 21
12.3647474729
 31
0.0
  0
ARC
  5
4B5
  8
0
  6
CONTINUOUS
 62
     7
 10
63.6217347108
 20
12.1489559165
 30
0.0
 40
0.2575000000000022
 50
123.0677991622
 51
236.9322008378
  0
LINE
  5
4B6
  8
0
  6
CONTINUOUS
 62
     7
 10
63.4812348505
 20
11.9331643419
 30
0.0
 11
63.4812348505
 21
11.8369559333
 31
0.0
  0
ARC
  5
4B7
  8
0
  6
CONTINUOUS
 62
     7
 10
63.6217347108
 20
11.8369559165
 30
0.0
 40
0.1405000000000101
 50
180.0
 51
0.0
  0
LINE
  5
4B8
  8
0
  6
CONTINUOUS
 62
     7
 10
63.7622349644
 20
11.8369559333
 30
0.0
 11
63.7622349644
 21
11.9331643419
 31
0.0
  0
ARC
  5
4B9
  8
0
  6
CONTINUOUS
 62
     7
 10
63.6217347108
 20
12.1489559165
 30
0.0
 40
0.2575000000000061
 50
303.0677991622
 51
56.9322008378
  0
ARC
  5
4BA
  8
0
  6
CONTINUOUS
 62
     7
 10
63.6217347108
 20
17.9609559165
 30
0.0
 40
0.1405000000000101
 50
0.0
 51
180.0
  0
LINE
  5
4BB
  8
0
  6
CONTINUOUS
 62
     7
 10
63.4812348505
 20
17.9609556317
 30
0.0
 11
63.4812348505
 21
17.8647475164
 31
0.0
  0
ARC
  5
4BC
  8
0
  6
CONTINUOUS
 62
     7
 10
63.6217347108
 20
17.6489559165
 30
0.0
 40
0.2575000000000022
 50
123.0677991622
 51
236.9322008378
  0
LINE
  5
4BD
  8
0
  6
CONTINUOUS
 62
     7
 10
63.4812348505
 20
17.4331641288
 30
0.0
 11
63.4812348505
 21
17.3369560135
 31
0.0
  0
ARC
  5
4BE
  8
0
  6
CONTINUOUS
 62
     7
 10
63.6217347108
 20
17.3369559165
 30
0.0
 40
0.1405000000000101
 50
180.0
 51
0.0
  0
LINE
  5
4BF
  8
0
  6
CONTINUOUS
 62
     7
 10
63.7622349644
 20
17.3369560135
 30
0.0
 11
63.7622349644
 21
17.4331641288
 31
0.0
  0
ARC
  5
4C0
  8
0
  6
CONTINUOUS
 62
     7
 10
63.6217347108
 20
17.6489559165
 30
0.0
 40
0.2575000000000061
 50
303.0677991622
 51
56.9322008378
  0
LINE
  5
4C1
  8
0
  6
CONTINUOUS
 62
     7
 10
63.7622349644
 20
17.8647475164
 30
0.0
 11
63.7622349644
 21
17.9609556317
 31
0.0
  0
ARC
  5
4C2
  8
0
  6
CONTINUOUS
 62
     7
 10
47.6217347108
 20
17.9609559165
 30
0.0
 40
0.140500000000003
 50
0.0
 51
180.0
  0
LINE
  5
4C3
  8
0
  6
CONTINUOUS
 62
     7
 10
47.4812344572
 20
17.9609556317
 30
0.0
 11
47.4812344572
 21
17.8647475164
 31
0.0
  0
ARC
  5
4C4
  8
0
  6
CONTINUOUS
 62
     7
 10
47.6217347108
 20
17.6489559165
 30
0.0
 40
0.2575000000000022
 50
123.0677991622
 51
236.9322008378
  0
LINE
  5
4C5
  8
0
  6
CONTINUOUS
 62
     7
 10
47.4812344572
 20
17.4331641288
 30
0.0
 11
47.4812344572
 21
17.3369560135
 31
0.0
  0
ARC
  5
4C6
  8
0
  6
CONTINUOUS
 62
     7
 10
47.6217347108
 20
17.3369559165
 30
0.0
 40
0.140500000000003
 50
180.0
 51
0.0
  0
LINE
  5
4C7
  8
0
  6
CONTINUOUS
 62
     7
 10
47.7622345711
 20
17.3369560135
 30
0.0
 11
47.7622345711
 21
17.4331641288
 31
0.0
  0
ARC
  5
4C8
  8
0
  6
CONTINUOUS
 62
     7
 10
47.6217347108
 20
17.6489559165
 30
0.0
 40
0.2574999999999983
 50
303.0677991622
 51
56.9322008378
  0
LINE
  5
4C9
  8
0
  6
CONTINUOUS
 62
     7
 10
47.7622345711
 20
17.8647475164
 30
0.0
 11
47.7622345711
 21
17.9609556317
 31
0.0
  0
LINE
  5
4CA
  8
0
  6
CONTINUOUS
 62
     7
 10
58.6519046127
 20
15.4074551033
 30
0.0
 11
58.5915299768
 21
15.4074545166
 31
0.0
  0
LINE
  5
4CB
  8
0
  6
CONTINUOUS
 62
     7
 10
58.5915299768
 20
15.4074545166
 30
0.0
 11
58.5916027226
 21
15.4526367147
 31
0.0
  0
ARC
  5
4CC
  8
0
  6
CONTINUOUS
 62
     7
 10
58.6217347108
 20
14.8989559165
 30
0.0
 40
0.5544999999999998
 50
93.1150223235
 51
266.6999692801
  0
LINE
  5
4CD
  8
0
  6
CONTINUOUS
 62
     7
 10
58.5898151699
 20
14.3453754259
 30
0.0
 11
58.5899395418
 21
14.4224572554
 31
0.0
  0
LINE
  5
4CE
  8
0
  6
CONTINUOUS
 62
     7
 10
58.5899395418
 20
14.4224572554
 30
0.0
 11
58.6527347364
 21
14.4224557887
 31
0.0
  0
LINE
  5
4CF
  8
0
  6
CONTINUOUS
 62
     7
 10
58.6527347364
 20
14.4224557887
 30
0.0
 11
58.6527995623
 21
14.3453267331
 31
0.0
  0
ARC
  5
4D0
  8
0
  6
CONTINUOUS
 62
     7
 10
58.6217347108
 20
14.8989559165
 30
0.0
 40
0.5545000000000003
 50
273.2115880396
 51
86.8849776765
  0
LINE
  5
4D1
  8
0
  6
CONTINUOUS
 62
     7
 10
58.6518664798
 20
15.4526367147
 30
0.0
 11
58.6519046127
 21
15.4074551033
 31
0.0
  0
LINE
  5
4D2
  8
0
  6
CONTINUOUS
 62
     7
 10
55.6519046558
 20
15.4074551033
 30
0.0
 11
55.5915298916
 21
15.4074545166
 31
0.0
  0
LINE
  5
4D3
  8
0
  6
CONTINUOUS
 62
     7
 10
55.5915298916
 20
15.4074545166
 30
0.0
 11
55.5916028391
 21
15.4526367147
 31
0.0
  0
ARC
  5
4D4
  8
0
  6
CONTINUOUS
 62
     7
 10
55.6217347108
 20
14.8989559165
 30
0.0
 40
0.5544999999999998
 50
93.1150223235
 51
266.6999692801
  0
LINE
  5
4D5
  8
0
  6
CONTINUOUS
 62
     7
 10
55.5898151604
 20
14.3453754259
 30
0.0
 11
55.5899396102
 21
14.4224572554
 31
0.0
  0
LINE
  5
4D6
  8
0
  6
CONTINUOUS
 62
     7
 10
55.5899396102
 20
14.4224572554
 30
0.0
 11
55.6527347108
 21
14.4224557887
 31
0.0
  0
LINE
  5
4D7
  8
0
  6
CONTINUOUS
 62
     7
 10
55.6527347108
 20
14.4224557887
 30
0.0
 11
55.6527997063
 21
14.3453267331
 31
0.0
  0
ARC
  5
4D8
  8
0
  6
CONTINUOUS
 62
     7
 10
55.6217347108
 20
14.8989559165
 30
0.0
 40
0.5545000000000003
 50
273.2115880396
 51
86.8849776765
  0
LINE
  5
4D9
  8
0
  6
CONTINUOUS
 62
     7
 10
55.6518665825
 20
15.4526367147
 30
0.0
 11
55.6519046558
 21
15.4074551033
 31
0.0
  0
LINE
  5
4DA
  8
0
  6
CONTINUOUS
 62
     7
 10
52.6519045385
 20
15.4074551033
 30
0.0
 11
52.5915299027
 21
15.4074545166
 31
0.0
  0
LINE
  5
4DB
  8
0
  6
CONTINUOUS
 62
     7
 10
52.5915299027
 20
15.4074545166
 30
0.0
 11
52.5916029418
 21
15.4526367147
 31
0.0
  0
ARC
  5
4DC
  8
0
  6
CONTINUOUS
 62
     7
 10
52.6217347108
 20
14.8989559165
 30
0.0
 40
0.5545000000000001
 50
93.1150223235
 51
266.6999692801
  0
LINE
  5
4DD
  8
0
  6
CONTINUOUS
 62
     7
 10
52.5898150958
 20
14.3453754259
 30
0.0
 11
52.5899394677
 21
14.4224572554
 31
0.0
  0
LINE
  5
4DE
  8
0
  6
CONTINUOUS
 62
     7
 10
52.5899394677
 20
14.4224572554
 30
0.0
 11
52.6527346623
 21
14.4224557887
 31
0.0
  0
LINE
  5
4DF
  8
0
  6
CONTINUOUS
 62
     7
 10
52.6527346623
 20
14.4224557887
 30
0.0
 11
52.6527997815
 21
14.3453267331
 31
0.0
  0
ARC
  5
4E0
  8
0
  6
CONTINUOUS
 62
     7
 10
52.6217347108
 20
14.8989559165
 30
0.0
 40
0.5545000000000007
 50
273.2115880396
 51
86.8849776765
  0
LINE
  5
4E1
  8
0
  6
CONTINUOUS
 62
     7
 10
52.651866699
 20
15.4526367147
 30
0.0
 11
52.6519045385
 21
15.4074551033
 31
0.0
  0
LINE
  5
4E2
  8
0
  6
CONTINUOUS
 62
     7
 10
64.7148175067
 20
16.7584559764
 30
0.0
 11
65.0447344955
 21
16.7584559764
 31
0.0
  0
LINE
  5
4E3
  8
0
  6
CONTINUOUS
 62
     7
 10
65.0447344955
 20
13.0394558453
 30
0.0
 11
64.7148175067
 21
13.0394558453
 31
0.0
  0
LINE
  5
4E4
  8
0
  6
CONTINUOUS
 62
     7
 10
65.0447344955
 20
17.0394560903
 30
0.0
 11
64.7148175067
 21
17.0394560903
 31
0.0
  0
LINE
  5
4E5
  8
0
  6
CONTINUOUS
 62
     7
 10
46.1987349261
 20
11.3989559165
 30
0.0
 11
46.1217346423
 21
11.3989559165
 31
0.0
  0
LINE
  5
4E6
  8
0
  6
CONTINUOUS
 62
     7
 10
46.1217346423
 20
12.7584558781
 30
0.0
 11
46.1217346423
 21
11.3989559165
 31
0.0
  0
LINE
  5
4E7
  8
0
  6
CONTINUOUS
 62
     7
 10
46.1217346423
 20
12.7584558781
 30
0.0
 11
46.1987349261
 21
12.7584558781
 31
0.0
  0
LINE
  5
4E8
  8
0
  6
CONTINUOUS
 62
     7
 10
46.1217346423
 20
16.7584559764
 30
0.0
 11
46.1987349261
 21
16.7584559764
 31
0.0
  0
LINE
  5
4E9
  8
0
  6
CONTINUOUS
 62
     7
 10
46.1987349261
 20
13.0394558453
 30
0.0
 11
46.1217346423
 21
13.0394558453
 31
0.0
  0
LINE
  5
4EA
  8
0
  6
CONTINUOUS
 62
     7
 10
46.1217346423
 20
16.7584559764
 30
0.0
 11
46.1217346423
 21
13.0394558453
 31
0.0
  0
LINE
  5
4EB
  8
0
  6
CONTINUOUS
 62
     7
 10
65.0447344955
 20
12.7584558781
 30
0.0
 11
65.1217347793
 21
12.7584558781
 31
0.0
  0
LINE
  5
4EC
  8
0
  6
CONTINUOUS
 62
     7
 10
65.1217347793
 20
12.7584558781
 30
0.0
 11
65.1217347793
 21
11.3989559165
 31
0.0
  0
LINE
  5
4ED
  8
0
  6
CONTINUOUS
 62
     7
 10
65.1217347793
 20
11.3989559165
 30
0.0
 11
65.0447344955
 21
11.3989559165
 31
0.0
  0
LINE
  5
4EE
  8
0
  6
CONTINUOUS
 62
     7
 10
46.1217346423
 20
18.3989559052
 30
0.0
 11
46.1217346423
 21
17.0394560903
 31
0.0
  0
LINE
  5
4EF
  8
0
  6
CONTINUOUS
 62
     7
 10
46.1217346423
 20
18.3989559052
 30
0.0
 11
46.1987349261
 21
18.3989559052
 31
0.0
  0
LINE
  5
4F0
  8
0
  6
CONTINUOUS
 62
     7
 10
46.1987349261
 20
17.0394560903
 30
0.0
 11
46.1217346423
 21
17.0394560903
 31
0.0
  0
LINE
  5
4F1
  8
0
  6
CONTINUOUS
 62
     7
 10
46.1217346423
 20
13.0394558453
 30
0.0
 11
46.1217346423
 21
12.7584558781
 31
0.0
  0
LINE
  5
4F2
  8
0
  6
CONTINUOUS
 62
     7
 10
46.1837346194
 20
13.0394558453
 30
0.0
 11
46.1837346194
 21
12.7584558781
 31
0.0
  0
LINE
  5
4F3
  8
0
  6
CONTINUOUS
 62
     7
 10
46.1217346423
 20
17.0394560903
 30
0.0
 11
46.1217346423
 21
16.7584559764
 31
0.0
  0
LINE
  5
4F4
  8
0
  6
CONTINUOUS
 62
     7
 10
46.1837346194
 20
17.0394560903
 30
0.0
 11
46.1837346194
 21
16.7584559764
 31
0.0
  0
LINE
  5
4F5
  8
0
  6
CONTINUOUS
 62
     7
 10
65.0597348022
 20
13.0394558453
 30
0.0
 11
65.0597348022
 21
12.7584558781
 31
0.0
  0
LINE
  5
4F6
  8
0
  6
CONTINUOUS
 62
     7
 10
65.1217347793
 20
13.0394558453
 30
0.0
 11
65.1217347793
 21
12.7584558781
 31
0.0
  0
LINE
  5
4F7
  8
0
  6
CONTINUOUS
 62
     7
 10
65.0597348022
 20
17.0394560903
 30
0.0
 11
65.0597348022
 21
16.7584559764
 31
0.0
  0
LINE
  5
4F8
  8
0
  6
CONTINUOUS
 62
     7
 10
65.1217347793
 20
17.0394560903
 30
0.0
 11
65.1217347793
 21
16.7584559764
 31
0.0
  0
CIRCLE
  5
4F9
  8
0
  6
CONTINUOUS
 62
     7
 10
46.4657347108
 20
16.8989559165
 30
0.0
 40
0.1404999999999959
  0
CIRCLE
  5
4FA
  8
0
  6
CONTINUOUS
 62
     7
 10
46.4657347108
 20
12.8989559165
 30
0.0
 40
0.1404999999999959
  0
DIMENSION
  5
4FB
  8
0
  6
CONTINUOUS
 62
     7
  2
*D19
 10
60.8475998622
 20
11.3989559165
 30
0.0
 11
60.8475998622
 21
13.1489559165
 31
0.0
 70
   160
  3
SLDDIMSTYLE2
 13
58.6217347108
 23
14.8989559165
 33
0.0
 14
65.1217347108
 24
11.3989559165
 34
0.0
 50
90.0
  0
DIMENSION
  5
50E
  8
0
  6
CONTINUOUS
 62
     7
  2
*D20
 10
55.6217347108
 20
9.8241527669
 30
0.0
 11
54.1217347108
 21
9.8241527669
 31
0.0
 70
   160
  3
SLDDIMSTYLE4
 13
52.6217347108
 23
14.8989559165
 33
0.0
 14
55.6217347108
 24
14.8989559165
 34
0.0
  0
DIMENSION
  5
523
  8
0
  6
CONTINUOUS
 62
     7
  2
*D21
 10
58.6217347108
 20
8.5774961271
 30
0.0
 11
57.1217347108
 21
8.5774961271
 31
0.0
 70
   160
  3
SLDDIMSTYLE4
 13
55.6217347108
 23
14.8989559165
 33
0.0
 14
58.6217347108
 24
14.8989559165
 34
0.0
  0
DIMENSION
  5
537
  8
0
  6
CONTINUOUS
 62
     7
  2
*D22
 10
63.6217347108
 20
20.2347050728
 30
0.0
 11
55.6217347108
 21
20.2347050728
 31
0.0
 70
   160
  3
SLDDIMSTYLE2
 13
47.6217347108
 23
18.0064559165
 33
0.0
 14
63.6217347108
 24
18.0064559165
 34
0.0
  0
DIMENSION
  5
54B
  8
0
  6
CONTINUOUS
 62
     7
  2
*D23
 10
44.5469315612
 20
12.1489559165
 30
0.0
 11
44.5469315612
 21
14.8989559165
 31
0.0
 70
   160
  3
SLDDIMSTYLE2
 13
47.2642347108
 23
17.6489559165
 33
0.0
 14
47.6217347108
 24
12.1489559165
 34
0.0
 50
90.0
  0
DIMENSION
  5
55F
  8
0
  6
CONTINUOUS
 62
     7
  2
*D24
 10
52.8247818085
 20
15.4149424726
 30
0.0
 11
46.0442330773
 21
9.8241527669
 31
0.0
 70
   163
  1
<> KNOCKOUT (3X)
  3
SLDDIMSTYLE5
 15
52.4186876131
 25
14.3829693603
 35
0.0
 40
0.0
  0
INSERT
  5
578
  8
0
  6
CONTINUOUS
 62
     7
  2
SW_NOTE_4
 10
47.4018638345
 20
17.7829822114
 30
0.0
  0
INSERT
  5
584
  8
0
  6
CONTINUOUS
 62
     7
  2
SW_CENTERMARKSYMBOL_2
 10
47.6217347108
 20
17.6489559165
 30
0.0
  0
INSERT
  5
590
  8
0
  6
CONTINUOUS
 62
     7
  2
SW_CENTERMARKSYMBOL_3
 10
47.6217347108
 20
12.1489559165
 30
0.0
  0
INSERT
  5
59C
  8
0
  6
CONTINUOUS
 62
     7
  2
SW_CENTERMARKSYMBOL_4
 10
63.6217347108
 20
17.6489559165
 30
0.0
  0
INSERT
  5
5A8
  8
0
  6
CONTINUOUS
 62
     7
  2
SW_CENTERMARKSYMBOL_5
 10
63.6217347108
 20
12.1489559165
 30
0.0
  0
ENDSEC
  0
EOF
