  0
SECTION
  2
HEADER
  9
$ACADVER
  1
AC1014
  9
$ACADMAINTVER
 70
     9
  9
$DWGCODEPAGE
  3
ANSI_1252
  9
$INSBASE
 10
0.0
 20
0.0
 30
0.0
  9
$EXTMIN
 10
-0.0001616296297051
 20
-0.0011819568675122
 30
-0.0000000000112498
  9
$EXTMAX
 10
10.60016177771903
 20
15.66024367579991
 30
0.0000000000002956
  9
$LIMMIN
 10
0.0
 20
0.0
  9
$LIMMAX
 10
10.6
 20
15.65999999999999
  9
$ORTHOMODE
 70
     1
  9
$REGENMODE
 70
     1
  9
$FILLMODE
 70
     1
  9
$QTEXTMODE
 70
     0
  9
$MIRRTEXT
 70
     0
  9
$DRAGMODE
 70
     2
  9
$LTSCALE
 40
1.0
  9
$OSMODE
 70
   229
  9
$ATTMODE
 70
     1
  9
$TEXTSIZE
 40
0.125
  9
$TRACEWID
 40
0.05
  9
$TEXTSTYLE
  7
TXT
  9
$CLAYER
  8
0
  9
$CELTYPE
  6
BYLAYER
  9
$CECOLOR
 62
   256
  9
$CELTSCALE
 40
1.0
  9
$DELOBJ
 70
     1
  9
$DISPSILH
 70
     0
  9
$DIMSCALE
 40
1.0
  9
$DIMASZ
 40
0.18
  9
$DIMEXO
 40
0.063
  9
$DIMDLI
 40
0.281
  9
$DIMRND
 40
0.0
  9
$DIMDLE
 40
0.0
  9
$DIMEXE
 40
0.093
  9
$DIMTP
 40
0.0
  9
$DIMTM
 40
0.0
  9
$DIMTXT
 40
0.125
  9
$DIMCEN
 40
0.09
  9
$DIMTSZ
 40
0.0
  9
$DIMTOL
 70
     0
  9
$DIMLIM
 70
     0
  9
$DIMTIH
 70
     1
  9
$DIMTOH
 70
     1
  9
$DIMSE1
 70
     0
  9
$DIMSE2
 70
     0
  9
$DIMTAD
 70
     0
  9
$DIMZIN
 70
     0
  9
$DIMBLK
  1

  9
$DIMASO
 70
     1
  9
$DIMSHO
 70
     1
  9
$DIMPOST
  1

  9
$DIMAPOST
  1

  9
$DIMALT
 70
     0
  9
$DIMALTD
 70
     2
  9
$DIMALTF
 40
25.4
  9
$DIMLFAC
 40
1.0
  9
$DIMTOFL
 70
     0
  9
$DIMTVP
 40
0.0
  9
$DIMTIX
 70
     0
  9
$DIMSOXD
 70
     0
  9
$DIMSAH
 70
     0
  9
$DIMBLK1
  1

  9
$DIMBLK2
  1

  9
$DIMSTYLE
  2
STD
  9
$DIMCLRD
 70
     0
  9
$DIMCLRE
 70
     0
  9
$DIMCLRT
 70
     0
  9
$DIMTFAC
 40
1.0
  9
$DIMGAP
 40
0.09
  9
$DIMJUST
 70
     0
  9
$DIMSD1
 70
     0
  9
$DIMSD2
 70
     0
  9
$DIMTOLJ
 70
     1
  9
$DIMTZIN
 70
     0
  9
$DIMALTZ
 70
     0
  9
$DIMALTTZ
 70
     0
  9
$DIMFIT
 70
     1
  9
$DIMUPT
 70
     0
  9
$DIMUNIT
 70
     2
  9
$DIMDEC
 70
     3
  9
$DIMTDEC
 70
     3
  9
$DIMALTU
 70
     2
  9
$DIMALTTD
 70
     2
  9
$DIMTXSTY
  7
TXT
  9
$DIMAUNIT
 70
     0
  9
$LUNITS
 70
     2
  9
$LUPREC
 70
     3
  9
$SKETCHINC
 40
0.1
  9
$FILLETRAD
 40
0.0
  9
$AUNITS
 70
     0
  9
$AUPREC
 70
     0
  9
$MENU
  1
acad
  9
$ELEVATION
 40
0.0
  9
$PELEVATION
 40
0.0
  9
$THICKNESS
 40
0.0
  9
$LIMCHECK
 70
     0
  9
$BLIPMODE
 70
     0
  9
$CHAMFERA
 40
0.0
  9
$CHAMFERB
 40
0.0
  9
$CHAMFERC
 40
0.0
  9
$CHAMFERD
 40
0.0
  9
$SKPOLY
 70
     0
  9
$TDCREATE
 40
2448653.603547453
  9
$TDUPDATE
 40
2455463.455198923
  9
$TDINDWG
 40
0.1316509954
  9
$TDUSRTIMER
 40
0.1316499074
  9
$USRTIMER
 70
     1
  9
$ANGBASE
 50
0.0
  9
$ANGDIR
 70
     0
  9
$PDMODE
 70
     0
  9
$PDSIZE
 40
0.0
  9
$PLINEWID
 40
0.0
  9
$COORDS
 70
     2
  9
$SPLFRAME
 70
     0
  9
$SPLINETYPE
 70
     6
  9
$SPLINESEGS
 70
     8
  9
$ATTDIA
 70
     0
  9
$ATTREQ
 70
     1
  9
$HANDLING
 70
  4097
  9
$HANDSEED
  5
1390
  9
$SURFTAB1
 70
     6
  9
$SURFTAB2
 70
     6
  9
$SURFTYPE
 70
     6
  9
$SURFU
 70
     6
  9
$SURFV
 70
     6
  9
$UCSNAME
  2

  9
$UCSORG
 10
0.0
 20
0.0
 30
0.0
  9
$UCSXDIR
 10
1.0
 20
0.0
 30
0.0
  9
$UCSYDIR
 10
0.0
 20
1.0
 30
0.0
  9
$PUCSNAME
  2

  9
$PUCSORG
 10
0.0
 20
0.0
 30
0.0
  9
$PUCSXDIR
 10
1.0
 20
0.0
 30
0.0
  9
$PUCSYDIR
 10
0.0
 20
1.0
 30
0.0
  9
$USERI1
 70
     0
  9
$USERI2
 70
     0
  9
$USERI3
 70
     0
  9
$USERI4
 70
     0
  9
$USERI5
 70
     0
  9
$USERR1
 40
0.0
  9
$USERR2
 40
0.0
  9
$USERR3
 40
0.0
  9
$USERR4
 40
0.0
  9
$USERR5
 40
0.0
  9
$WORLDVIEW
 70
     1
  9
$SHADEDGE
 70
     3
  9
$SHADEDIF
 70
    70
  9
$TILEMODE
 70
     1
  9
$MAXACTVP
 70
    16
  9
$PINSBASE
 10
0.0
 20
0.0
 30
0.0
  9
$PLIMCHECK
 70
     0
  9
$PEXTMIN
 10
1.000000000000000E+20
 20
1.000000000000000E+20
 30
1.000000000000000E+20
  9
$PEXTMAX
 10
-1.000000000000000E+20
 20
-1.000000000000000E+20
 30
-1.000000000000000E+20
  9
$PLIMMIN
 10
0.0
 20
0.0
  9
$PLIMMAX
 10
12.0
 20
9.0
  9
$UNITMODE
 70
     0
  9
$VISRETAIN
 70
     0
  9
$PLINEGEN
 70
     0
  9
$PSLTSCALE
 70
     0
  9
$TREEDEPTH
 70
  3020
  9
$PICKSTYLE
 70
     1
  9
$CMLSTYLE
  2
STANDARD
  9
$CMLJUST
 70
     0
  9
$CMLSCALE
 40
1.0
  9
$PROXYGRAPHICS
 70
     1
  9
$MEASUREMENT
 70
     0
  0
ENDSEC
  0
SECTION
  2
CLASSES
  0
CLASS
  1
ACDBDICTIONARYWDFLT
  2
AcDbDictionaryWithDefault
  3
AutoCAD 2000
 90
        0
280
     0
281
     0
  0
CLASS
  1
ACDBPLACEHOLDER
  2
AcDbPlaceHolder
  3
AutoCAD 2000
 90
        0
280
     0
281
     0
  0
CLASS
  1
LAYOUT
  2
AcDbLayout
  3
AutoCAD 2000
 90
        0
280
     0
281
     0
  0
CLASS
  1
LONG_TRANSACTION
  2
AcDbLongTransaction
  3
AutoCAD 2000
 90
        0
280
     0
281
     0
  0
CLASS
  1
LWPOLYLINE
  2
AcDbPolyline
  3
AutoCAD 2000
 90
        0
280
     0
281
     1
  0
CLASS
  1
HATCH
  2
AcDbHatch
  3
AutoCAD 2000
 90
        0
280
     0
281
     1
  0
CLASS
  1
XRECORD
  2
AcDbXrecord
  3
AutoCAD 2000
 90
        0
280
     0
281
     0
  0
ENDSEC
  0
SECTION
  2
TABLES
  0
TABLE
  2
VPORT
  5
8
330
0
100
AcDbSymbolTable
 70
     2
  0
VPORT
  5
136A
330
8
100
AcDbSymbolTableRecord
100
AcDbViewportTableRecord
  2
*ACTIVE
 70
     0
 10
0.0
 20
0.0
 11
1.0
 21
1.0
 12
5.300000074044664
 22
7.829530859466198
 13
0.0
 23
0.0
 14
1.0
 24
1.0
 15
0.25
 25
0.25
 16
0.0
 26
0.0
 36
1.0
 17
0.0
 27
0.0
 37
0.0
 40
15.81909099138555
 41
1.836974789915966
 42
50.0
 43
0.0
 44
0.0
 50
0.0
 51
0.0
 71
     0
 72
   100
 73
     1
 74
     0
 75
     0
 76
     0
 77
     0
 78
     2
  0
ENDTAB
  0
TABLE
  2
LTYPE
  5
5
330
0
100
AcDbSymbolTable
 70
     6
  0
LTYPE
  5
13
330
5
100
AcDbSymbolTableRecord
100
AcDbLinetypeTableRecord
  2
BYBLOCK
 70
     0
  3

 72
    65
 73
     0
 40
0.0
  0
LTYPE
  5
14
330
5
100
AcDbSymbolTableRecord
100
AcDbLinetypeTableRecord
  2
BYLAYER
 70
     0
  3

 72
    65
 73
     0
 40
0.0
  0
LTYPE
  5
15
330
5
100
AcDbSymbolTableRecord
100
AcDbLinetypeTableRecord
  2
CONTINUOUS
 70
     0
  3
Solid line
 72
    65
 73
     0
 40
0.0
  0
ENDTAB
  0
TABLE
  2
LAYER
  5
2
330
0
100
AcDbSymbolTable
 70
     9
  0
LAYER
  5
10
330
2
100
AcDbSymbolTableRecord
100
AcDbLayerTableRecord
  2
0
 70
     0
 62
     7
  6
CONTINUOUS
  0
LAYER
  5
146
330
2
100
AcDbSymbolTableRecord
100
AcDbLayerTableRecord
  2
DEFPOINTS
 70
     0
 62
     7
  6
CONTINUOUS
  0
ENDTAB
  0
TABLE
  2
STYLE
  5
3
330
0
100
AcDbSymbolTable
 70
     1
  0
STYLE
  5
11
330
3
100
AcDbSymbolTableRecord
100
AcDbTextStyleTableRecord
  2
TXT
 70
     0
 40
0.0
 41
0.75
 50
0.0
 71
     0
 42
0.125
  3
TXT.shx
  4

  0
ENDTAB
  0
TABLE
  2
VIEW
  5
6
330
0
100
AcDbSymbolTable
 70
     0
  0
ENDTAB
  0
TABLE
  2
UCS
  5
7
330
0
100
AcDbSymbolTable
 70
     0
  0
ENDTAB
  0
TABLE
  2
APPID
  5
9
330
0
100
AcDbSymbolTable
 70
     1
  0
APPID
  5
12
330
9
100
AcDbSymbolTableRecord
100
AcDbRegAppTableRecord
  2
ACAD
 70
     0
  0
ENDTAB
  0
TABLE
  2
DIMSTYLE
  5
A
330
0
100
AcDbSymbolTable
 70
     4
  0
DIMSTYLE
105
147
102
{ACAD_REACTORS
330
1DB
330
1DC
330
1DD
330
1DE
330
1DF
330
1E2
330
1E3
330
1E4
330
1E5
330
1E6
330
1E7
330
469
330
46A
330
46B
330
46E
330
46F
330
C8C
330
C8D
330
C91
330
DFB
330
ED4
102
}
330
A
100
AcDbSymbolTableRecord
100
AcDbDimStyleTableRecord
  2
STD
 70
     0
  3

  4

  5

  6

  7

 40
1.0
 41
0.18
 42
0.063
 43
0.281
 44
0.093
 45
0.0
 46
0.0
 47
0.0
 48
0.0
140
0.125
141
0.09
142
0.0
143
25.4
144
1.0
145
0.0
146
1.0
147
0.09
 71
     0
 72
     0
 73
     1
 74
     1
 75
     0
 76
     0
 77
     0
 78
     0
170
     0
171
     2
172
     0
173
     0
174
     0
175
     0
176
     0
177
     0
178
     0
270
     2
271
     3
272
     3
273
     2
274
     2
340
11
275
     0
280
     0
281
     0
282
     0
283
     1
284
     0
285
     0
286
     0
287
     1
288
     0
  0
DIMSTYLE
105
148
102
{ACAD_REACTORS
330
46D
330
46C
330
E60
330
C90
102
}
330
A
100
AcDbSymbolTableRecord
100
AcDbDimStyleTableRecord
  2
DIM
 70
     0
  3

  4

  5

  6

  7

 40
1.0
 41
0.18
 42
0.063
 43
0.281
 44
0.093
 45
0.0
 46
0.0
 47
0.0
 48
0.0
140
0.125
141
0.09
142
0.0
143
25.4
144
1.0
145
0.0
146
1.0
147
0.09
 71
     0
 72
     0
 73
     1
 74
     1
 75
     0
 76
     0
 77
     0
 78
     0
170
     0
171
     2
172
     0
173
     0
174
     1
175
     0
176
     0
177
     0
178
     0
270
     2
271
     3
272
     3
273
     2
274
     2
340
11
275
     0
280
     0
281
     0
282
     0
283
     1
284
     0
285
     0
286
     0
287
     3
288
     0
  0
ENDTAB
  0
TABLE
  2
BLOCK_RECORD
  5
1
330
0
100
AcDbSymbolTable
 70
    25
  0
BLOCK_RECORD
  5
1E
102
{ACAD_XDICTIONARY
360
138E
102
}
330
1
100
AcDbSymbolTableRecord
100
AcDbBlockTableRecord
  2
*MODEL_SPACE
  0
BLOCK_RECORD
  5
1A
102
{ACAD_XDICTIONARY
360
138C
102
}
330
1
100
AcDbSymbolTableRecord
100
AcDbBlockTableRecord
  2
*PAPER_SPACE
  0
BLOCK_RECORD
  5
1E8
330
1
100
AcDbSymbolTableRecord
100
AcDbBlockTableRecord
  2
*D0
  0
BLOCK_RECORD
  5
1F5
330
1
100
AcDbSymbolTableRecord
100
AcDbBlockTableRecord
  2
*D1
  0
BLOCK_RECORD
  5
202
330
1
100
AcDbSymbolTableRecord
100
AcDbBlockTableRecord
  2
*D2
  0
BLOCK_RECORD
  5
20F
330
1
100
AcDbSymbolTableRecord
100
AcDbBlockTableRecord
  2
*D3
  0
BLOCK_RECORD
  5
21C
330
1
100
AcDbSymbolTableRecord
100
AcDbBlockTableRecord
  2
*D4
  0
BLOCK_RECORD
  5
22A
330
1
100
AcDbSymbolTableRecord
100
AcDbBlockTableRecord
  2
*D5
  0
BLOCK_RECORD
  5
237
330
1
100
AcDbSymbolTableRecord
100
AcDbBlockTableRecord
  2
*D6
  0
BLOCK_RECORD
  5
244
330
1
100
AcDbSymbolTableRecord
100
AcDbBlockTableRecord
  2
*D7
  0
BLOCK_RECORD
  5
251
330
1
100
AcDbSymbolTableRecord
100
AcDbBlockTableRecord
  2
*D8
  0
BLOCK_RECORD
  5
25E
330
1
100
AcDbSymbolTableRecord
100
AcDbBlockTableRecord
  2
*D9
  0
BLOCK_RECORD
  5
26B
330
1
100
AcDbSymbolTableRecord
100
AcDbBlockTableRecord
  2
*D10
  0
BLOCK_RECORD
  5
470
330
1
100
AcDbSymbolTableRecord
100
AcDbBlockTableRecord
  2
*D11
  0
BLOCK_RECORD
  5
47D
330
1
100
AcDbSymbolTableRecord
100
AcDbBlockTableRecord
  2
*D12
  0
BLOCK_RECORD
  5
48A
330
1
100
AcDbSymbolTableRecord
100
AcDbBlockTableRecord
  2
*D13
  0
BLOCK_RECORD
  5
498
330
1
100
AcDbSymbolTableRecord
100
AcDbBlockTableRecord
  2
*D14
  0
BLOCK_RECORD
  5
4A5
330
1
100
AcDbSymbolTableRecord
100
AcDbBlockTableRecord
  2
*D15
  0
BLOCK_RECORD
  5
4B2
330
1
100
AcDbSymbolTableRecord
100
AcDbBlockTableRecord
  2
*D16
  0
BLOCK_RECORD
  5
4BF
330
1
100
AcDbSymbolTableRecord
100
AcDbBlockTableRecord
  2
*D17
  0
BLOCK_RECORD
  5
C96
330
1
100
AcDbSymbolTableRecord
100
AcDbBlockTableRecord
  2
*D18
  0
BLOCK_RECORD
  5
CA3
330
1
100
AcDbSymbolTableRecord
100
AcDbBlockTableRecord
  2
*D19
  0
BLOCK_RECORD
  5
CCA
330
1
100
AcDbSymbolTableRecord
100
AcDbBlockTableRecord
  2
*D20
  0
BLOCK_RECORD
  5
CD8
330
1
100
AcDbSymbolTableRecord
100
AcDbBlockTableRecord
  2
*D21
  0
BLOCK_RECORD
  5
DFC
330
1
100
AcDbSymbolTableRecord
100
AcDbBlockTableRecord
  2
*D22
  0
BLOCK_RECORD
  5
E61
330
1
100
AcDbSymbolTableRecord
100
AcDbBlockTableRecord
  2
*D23
  0
BLOCK_RECORD
  5
ED5
330
1
100
AcDbSymbolTableRecord
100
AcDbBlockTableRecord
  2
*D24
  0
ENDTAB
  0
ENDSEC
  0
SECTION
  2
BLOCKS
  0
BLOCK
  5
28
330
1E
100
AcDbEntity
  8
0
100
AcDbBlockBegin
  2
*MODEL_SPACE
 70
     0
 10
0.0
 20
0.0
 30
0.0
  3
*MODEL_SPACE
  1

  0
ENDBLK
  5
29
330
1E
100
AcDbEntity
  8
0
100
AcDbBlockEnd
  0
BLOCK
  5
26
330
1A
100
AcDbEntity
 67
     1
  8
0
100
AcDbBlockBegin
  2
*PAPER_SPACE
 70
     0
 10
0.0
 20
0.0
 30
0.0
  3
*PAPER_SPACE
  1

  0
ENDBLK
  5
27
330
1A
100
AcDbEntity
 67
     1
  8
0
100
AcDbBlockEnd
  0
BLOCK
  5
1F3
330
1E8
100
AcDbEntity
  8
0
100
AcDbBlockBegin
  2
*D0
 70
     1
 10
0.0
 20
0.0
 30
0.0
  3
*D0
  1

  0
LINE
  5
12B6
330
1E8
100
AcDbEntity
  8
0
 62
     0
100
AcDbLine
 10
5.157458586896413
 20
13.40566629958272
 30
0.0
 11
4.341705339745998
 21
13.40566629958272
 31
0.0
  0
LINE
  5
12B7
330
1E8
100
AcDbEntity
  8
0
 62
     0
100
AcDbLine
 10
5.157458586896413
 20
11.90566629958271
 30
0.0
 11
4.341705339745998
 21
11.90566629958271
 31
0.0
  0
LINE
  5
12B8
330
1E8
100
AcDbEntity
  8
0
 62
     0
100
AcDbLine
 10
4.434705339745998
 20
13.22566629958272
 30
0.0
 11
4.434705339745998
 21
12.80816629958271
 31
0.0
  0
LINE
  5
12B9
330
1E8
100
AcDbEntity
  8
0
 62
     0
100
AcDbLine
 10
4.434705339745998
 20
12.08566629958272
 30
0.0
 11
4.434705339745998
 21
12.50316629958271
 31
0.0
  0
SOLID
  5
12BA
330
1E8
100
AcDbEntity
  8
0
 62
     0
100
AcDbTrace
 10
4.404705339745998
 20
13.22566629958272
 30
0.0
 11
4.464705339745998
 21
13.22566629958272
 31
0.0
 12
4.434705339745998
 22
13.40566629958272
 32
0.0
 13
4.434705339745998
 23
13.40566629958272
 33
0.0
  0
SOLID
  5
12BB
330
1E8
100
AcDbEntity
  8
0
 62
     0
100
AcDbTrace
 10
4.404705339745998
 20
12.08566629958272
 30
0.0
 11
4.464705339745998
 21
12.08566629958272
 31
0.0
 12
4.434705339745998
 22
11.90566629958271
 32
0.0
 13
4.434705339745998
 23
11.90566629958271
 33
0.0
  0
MTEXT
  5
12BC
330
1E8
100
AcDbEntity
  8
0
 62
     0
100
AcDbMText
 10
4.434705339745996
 20
12.65566629958272
 30
0.0
 40
0.125
 41
0.0
 71
     5
 72
     1
  1
\A1;C
1001
ACAD
1000
MTEXTBEGIN
1070
    73
1070
     1
1070
    44
1040
1.0
1070
    74
1070
     0
1000
MTEXTEND
  0
POINT
  5
12BD
330
1E8
100
AcDbEntity
  8
DEFPOINTS
 62
     0
100
AcDbPoint
 10
5.220458586896413
 20
13.40566629958272
 30
0.0
  0
POINT
  5
12BE
330
1E8
100
AcDbEntity
  8
DEFPOINTS
 62
     0
100
AcDbPoint
 10
5.220458586896413
 20
11.90566629958271
 30
0.0
  0
POINT
  5
12BF
330
1E8
100
AcDbEntity
  8
DEFPOINTS
 62
     0
100
AcDbPoint
 10
4.434705339745998
 20
11.90566629958271
 30
0.0
  0
ENDBLK
  5
1F4
330
1E8
100
AcDbEntity
  8
0
100
AcDbBlockEnd
  0
BLOCK
  5
200
330
1F5
100
AcDbEntity
  8
0
100
AcDbBlockBegin
  2
*D1
 70
     1
 10
0.0
 20
0.0
 30
0.0
  3
*D1
  1

  0
LINE
  5
12AC
330
1F5
100
AcDbEntity
  8
0
 62
     0
100
AcDbLine
 10
5.170458586896415
 20
13.41866629958272
 30
0.0
 11
5.170458586896415
 21
14.05844554160463
 31
0.0
  0
LINE
  5
12AD
330
1F5
100
AcDbEntity
  8
0
 62
     0
100
AcDbLine
 10
7.170458586896412
 20
13.41866629958272
 30
0.0
 11
7.170458586896412
 21
14.05844554160463
 31
0.0
  0
LINE
  5
12AE
330
1F5
100
AcDbEntity
  8
0
 62
     0
100
AcDbLine
 10
5.350458586896414
 20
13.96544554160463
 30
0.0
 11
6.049208586896414
 21
13.96544554160463
 31
0.0
  0
LINE
  5
12AF
330
1F5
100
AcDbEntity
  8
0
 62
     0
100
AcDbLine
 10
6.990458586896412
 20
13.96544554160463
 30
0.0
 11
6.291708586896413
 21
13.96544554160463
 31
0.0
  0
SOLID
  5
12B0
330
1F5
100
AcDbEntity
  8
0
 62
     0
100
AcDbTrace
 10
5.350458586896414
 20
13.99544554160462
 30
0.0
 11
5.350458586896414
 21
13.93544554160463
 31
0.0
 12
5.170458586896415
 22
13.96544554160463
 32
0.0
 13
5.170458586896415
 23
13.96544554160463
 33
0.0
  0
SOLID
  5
12B1
330
1F5
100
AcDbEntity
  8
0
 62
     0
100
AcDbTrace
 10
6.990458586896412
 20
13.99544554160462
 30
0.0
 11
6.990458586896412
 21
13.93544554160463
 31
0.0
 12
7.170458586896412
 22
13.96544554160463
 32
0.0
 13
7.170458586896412
 23
13.96544554160463
 33
0.0
  0
MTEXT
  5
12B2
330
1F5
100
AcDbEntity
  8
0
 62
     0
100
AcDbMText
 10
6.170458586896414
 20
13.96544554160463
 30
0.0
 40
0.125
 41
0.0
 71
     5
 72
     1
  1
\A1;A
1001
ACAD
1000
MTEXTBEGIN
1070
    73
1070
     1
1070
    44
1040
1.0
1070
    74
1070
     0
1000
MTEXTEND
  0
POINT
  5
12B3
330
1F5
100
AcDbEntity
  8
DEFPOINTS
 62
     0
100
AcDbPoint
 10
5.170458586896415
 20
13.35566629958272
 30
0.0
  0
POINT
  5
12B4
330
1F5
100
AcDbEntity
  8
DEFPOINTS
 62
     0
100
AcDbPoint
 10
7.170458586896412
 20
13.35566629958272
 30
0.0
  0
POINT
  5
12B5
330
1F5
100
AcDbEntity
  8
DEFPOINTS
 62
     0
100
AcDbPoint
 10
7.170458586896412
 20
13.96544554160463
 30
0.0
  0
ENDBLK
  5
201
330
1F5
100
AcDbEntity
  8
0
100
AcDbBlockEnd
  0
BLOCK
  5
20D
330
202
100
AcDbEntity
  8
0
100
AcDbBlockBegin
  2
*D2
 70
     1
 10
0.0
 20
0.0
 30
0.0
  3
*D2
  1

  0
LINE
  5
1324
330
202
100
AcDbEntity
  8
0
 62
     0
100
AcDbLine
 10
8.56758523726247
 20
13.41866629958272
 30
0.0
 11
8.56758523726247
 21
14.08342091662632
 31
0.0
  0
LINE
  5
1325
330
202
100
AcDbEntity
  8
0
 62
     0
100
AcDbLine
 10
8.404585237262471
 20
13.40066629958272
 30
0.0
 11
8.404585237262471
 21
14.08342091662632
 31
0.0
  0
LINE
  5
1326
330
202
100
AcDbEntity
  8
0
 62
     0
100
AcDbLine
 10
8.74758523726247
 20
13.99042091662632
 30
0.0
 11
8.927585237262469
 21
13.99042091662632
 31
0.0
  0
LINE
  5
1327
330
202
100
AcDbEntity
  8
0
 62
     0
100
AcDbLine
 10
8.224585237262472
 20
13.99042091662632
 30
0.0
 11
8.044585237262472
 21
13.99042091662632
 31
0.0
  0
SOLID
  5
1328
330
202
100
AcDbEntity
  8
0
 62
     0
100
AcDbTrace
 10
8.74758523726247
 20
14.02042091662631
 30
0.0
 11
8.74758523726247
 21
13.96042091662632
 31
0.0
 12
8.56758523726247
 22
13.99042091662632
 32
0.0
 13
8.56758523726247
 23
13.99042091662632
 33
0.0
  0
SOLID
  5
1329
330
202
100
AcDbEntity
  8
0
 62
     0
100
AcDbTrace
 10
8.224585237262472
 20
14.02042091662631
 30
0.0
 11
8.224585237262472
 21
13.96042091662632
 31
0.0
 12
8.404585237262471
 22
13.99042091662632
 32
0.0
 13
8.404585237262471
 23
13.99042091662632
 33
0.0
  0
MTEXT
  5
132A
330
202
100
AcDbEntity
  8
0
 62
     0
100
AcDbMText
 10
7.923335237262471
 20
13.99042091662632
 30
0.0
 40
0.125
 41
0.0
 71
     5
 72
     1
  1
\A1;K
1001
ACAD
1000
MTEXTBEGIN
1070
    73
1070
     1
1070
    44
1040
1.0
1070
    74
1070
     0
1000
MTEXTEND
  0
POINT
  5
132B
330
202
100
AcDbEntity
  8
DEFPOINTS
 62
     0
100
AcDbPoint
 10
8.56758523726247
 20
13.35566629958272
 30
0.0
  0
POINT
  5
132C
330
202
100
AcDbEntity
  8
DEFPOINTS
 62
     0
100
AcDbPoint
 10
8.404585237262471
 20
13.33766629958271
 30
0.0
  0
POINT
  5
132D
330
202
100
AcDbEntity
  8
DEFPOINTS
 62
     0
100
AcDbPoint
 10
8.404585237262471
 20
13.99042091662632
 30
0.0
  0
ENDBLK
  5
20E
330
202
100
AcDbEntity
  8
0
100
AcDbBlockEnd
  0
BLOCK
  5
21A
330
20F
100
AcDbEntity
  8
0
100
AcDbBlockBegin
  2
*D3
 70
     1
 10
0.0
 20
0.0
 30
0.0
  3
*D3
  1

  0
LINE
  5
131A
330
20F
100
AcDbEntity
  8
0
 62
     0
100
AcDbLine
 10
8.56758523726247
 20
13.41866629958272
 30
0.0
 11
8.56758523726247
 21
13.77470572122115
 31
0.0
  0
LINE
  5
131B
330
20F
100
AcDbEntity
  8
0
 62
     0
100
AcDbLine
 10
8.504585237262471
 20
13.46866629958272
 30
0.0
 11
8.504585237262471
 21
13.77470572122115
 31
0.0
  0
LINE
  5
131C
330
20F
100
AcDbEntity
  8
0
 62
     0
100
AcDbLine
 10
8.74758523726247
 20
13.68170572122115
 30
0.0
 11
8.927585237262469
 21
13.68170572122115
 31
0.0
  0
LINE
  5
131D
330
20F
100
AcDbEntity
  8
0
 62
     0
100
AcDbLine
 10
8.324585237262471
 20
13.68170572122115
 30
0.0
 11
8.144585237262472
 21
13.68170572122115
 31
0.0
  0
SOLID
  5
131E
330
20F
100
AcDbEntity
  8
0
 62
     0
100
AcDbTrace
 10
8.74758523726247
 20
13.71170572122115
 30
0.0
 11
8.74758523726247
 21
13.65170572122115
 31
0.0
 12
8.56758523726247
 22
13.68170572122115
 32
0.0
 13
8.56758523726247
 23
13.68170572122115
 33
0.0
  0
SOLID
  5
131F
330
20F
100
AcDbEntity
  8
0
 62
     0
100
AcDbTrace
 10
8.324585237262471
 20
13.71170572122115
 30
0.0
 11
8.324585237262471
 21
13.65170572122115
 31
0.0
 12
8.504585237262471
 22
13.68170572122115
 32
0.0
 13
8.504585237262471
 23
13.68170572122115
 33
0.0
  0
MTEXT
  5
1320
330
20F
100
AcDbEntity
  8
0
 62
     0
100
AcDbMText
 10
8.023335237262472
 20
13.68170572122115
 30
0.0
 40
0.125
 41
0.0
 71
     5
 72
     1
  1
\A1;J
1001
ACAD
1000
MTEXTBEGIN
1070
    73
1070
     1
1070
    44
1040
1.0
1070
    74
1070
     0
1000
MTEXTEND
  0
POINT
  5
1321
330
20F
100
AcDbEntity
  8
DEFPOINTS
 62
     0
100
AcDbPoint
 10
8.56758523726247
 20
13.35566629958272
 30
0.0
  0
POINT
  5
1322
330
20F
100
AcDbEntity
  8
DEFPOINTS
 62
     0
100
AcDbPoint
 10
8.504585237262471
 20
13.40566629958272
 30
0.0
  0
POINT
  5
1323
330
20F
100
AcDbEntity
  8
DEFPOINTS
 62
     0
100
AcDbPoint
 10
8.504585237262471
 20
13.68170572122115
 30
0.0
  0
ENDBLK
  5
21B
330
20F
100
AcDbEntity
  8
0
100
AcDbBlockEnd
  0
BLOCK
  5
228
330
21C
100
AcDbEntity
  8
0
100
AcDbBlockBegin
  2
*D4
 70
     1
 10
0.0
 20
0.0
 30
0.0
  3
*D4
  1

  0
LINE
  5
12A1
330
21C
100
AcDbEntity
  8
0
 62
     0
100
AcDbLine
 10
5.702454265601422
 20
12.03666629958272
 30
0.0
 11
5.764304640235734
 21
12.03666629958272
 31
0.0
  0
LINE
  5
12A2
330
21C
100
AcDbEntity
  8
0
 62
     0
100
AcDbLine
 10
5.702454265601422
 20
11.97366629958271
 30
0.0
 11
5.764304640235734
 21
11.97366629958271
 31
0.0
  0
LINE
  5
12A3
330
21C
100
AcDbEntity
  8
0
 62
     0
100
AcDbLine
 10
5.671304640235734
 20
12.21666629958272
 30
0.0
 11
5.671304640235734
 21
12.39666629958271
 31
0.0
  0
LINE
  5
12A4
330
21C
100
AcDbEntity
  8
0
 62
     0
100
AcDbLine
 10
5.671304640235734
 20
11.79366629958271
 30
0.0
 11
5.671304640235734
 21
11.61366629958272
 31
0.0
  0
LINE
  5
12A5
330
21C
100
AcDbEntity
  8
0
 62
     0
100
AcDbLine
 10
5.671304640235734
 20
11.61366629958272
 30
0.0
 11
5.491304640235735
 21
11.61366629958272
 31
0.0
  0
SOLID
  5
12A6
330
21C
100
AcDbEntity
  8
0
 62
     0
100
AcDbTrace
 10
5.641304640235734
 20
12.21666629958272
 30
0.0
 11
5.701304640235735
 21
12.21666629958272
 31
0.0
 12
5.671304640235734
 22
12.03666629958272
 32
0.0
 13
5.671304640235734
 23
12.03666629958272
 33
0.0
  0
SOLID
  5
12A7
330
21C
100
AcDbEntity
  8
0
 62
     0
100
AcDbTrace
 10
5.641304640235734
 20
11.79366629958271
 30
0.0
 11
5.701304640235735
 21
11.79366629958271
 31
0.0
 12
5.671304640235734
 22
11.97366629958271
 32
0.0
 13
5.671304640235734
 23
11.97366629958271
 33
0.0
  0
MTEXT
  5
12A8
330
21C
100
AcDbEntity
  8
0
 62
     0
100
AcDbMText
 10
5.057554640235733
 20
11.61366629958272
 30
0.0
 40
0.125
 41
0.0
 71
     5
 72
     1
  1
\A1;E  (TYP.)
1001
ACAD
1000
MTEXTBEGIN
1070
    73
1070
     1
1070
    44
1040
1.0
1070
    74
1070
     0
1000
MTEXTEND
  0
POINT
  5
12A9
330
21C
100
AcDbEntity
  8
DEFPOINTS
 62
     0
100
AcDbPoint
 10
5.639454265601422
 20
12.03666629958272
 30
0.0
  0
POINT
  5
12AA
330
21C
100
AcDbEntity
  8
DEFPOINTS
 62
     0
100
AcDbPoint
 10
5.639454265601422
 20
11.97366629958271
 30
0.0
  0
POINT
  5
12AB
330
21C
100
AcDbEntity
  8
DEFPOINTS
 62
     0
100
AcDbPoint
 10
5.671304640235734
 20
11.97366629958271
 30
0.0
  0
ENDBLK
  5
229
330
21C
100
AcDbEntity
  8
0
100
AcDbBlockEnd
  0
BLOCK
  5
235
330
22A
100
AcDbEntity
  8
0
100
AcDbBlockBegin
  2
*D5
 70
     1
 10
0.0
 20
0.0
 30
0.0
  3
*D5
  1

  0
LINE
  5
1338
330
22A
100
AcDbEntity
  8
0
 62
     0
100
AcDbLine
 10
8.279585237262471
 20
12.72366629958272
 30
0.0
 11
7.550812224535522
 21
12.72366629958272
 31
0.0
  0
LINE
  5
1339
330
22A
100
AcDbEntity
  8
0
 62
     0
100
AcDbLine
 10
8.341585237262471
 20
13.33766629958271
 30
0.0
 11
7.550812224535522
 21
13.33766629958271
 31
0.0
  0
LINE
  5
133A
330
22A
100
AcDbEntity
  8
0
 62
     0
100
AcDbLine
 10
7.643812224535522
 20
12.54366629958272
 30
0.0
 11
7.643812224535522
 21
12.36366629958272
 31
0.0
  0
LINE
  5
133B
330
22A
100
AcDbEntity
  8
0
 62
     0
100
AcDbLine
 10
7.643812224535522
 20
13.51766629958272
 30
0.0
 11
7.643812224535522
 21
13.69766629958272
 31
0.0
  0
SOLID
  5
133C
330
22A
100
AcDbEntity
  8
0
 62
     0
100
AcDbTrace
 10
7.613812224535521
 20
12.54366629958272
 30
0.0
 11
7.673812224535522
 21
12.54366629958272
 31
0.0
 12
7.643812224535522
 22
12.72366629958272
 32
0.0
 13
7.643812224535522
 23
12.72366629958272
 33
0.0
  0
SOLID
  5
133D
330
22A
100
AcDbEntity
  8
0
 62
     0
100
AcDbTrace
 10
7.613812224535521
 20
13.51766629958272
 30
0.0
 11
7.673812224535522
 21
13.51766629958272
 31
0.0
 12
7.643812224535522
 22
13.33766629958271
 32
0.0
 13
7.643812224535522
 23
13.33766629958271
 33
0.0
  0
MTEXT
  5
133E
330
22A
100
AcDbEntity
  8
0
 62
     0
100
AcDbMText
 10
7.64381222453552
 20
13.03066629958272
 30
0.0
 40
0.125
 41
0.0
 71
     5
 72
     1
  1
\A1;G
1001
ACAD
1000
MTEXTBEGIN
1070
    73
1070
     1
1070
    44
1040
1.0
1070
    74
1070
     0
1000
MTEXTEND
  0
POINT
  5
133F
330
22A
100
AcDbEntity
  8
DEFPOINTS
 62
     0
100
AcDbPoint
 10
8.342585237262472
 20
12.72366629958272
 30
0.0
  0
POINT
  5
1340
330
22A
100
AcDbEntity
  8
DEFPOINTS
 62
     0
100
AcDbPoint
 10
8.404585237262471
 20
13.33766629958271
 30
0.0
  0
POINT
  5
1341
330
22A
100
AcDbEntity
  8
DEFPOINTS
 62
     0
100
AcDbPoint
 10
7.643812224535522
 20
13.33766629958271
 30
0.0
  0
ENDBLK
  5
236
330
22A
100
AcDbEntity
  8
0
100
AcDbBlockEnd
  0
BLOCK
  5
242
330
237
100
AcDbEntity
  8
0
100
AcDbBlockBegin
  2
*D6
 70
     1
 10
0.0
 20
0.0
 30
0.0
  3
*D6
  1

  0
LINE
  5
132E
330
237
100
AcDbEntity
  8
0
 62
     0
100
AcDbLine
 10
8.279585237262471
 20
12.72366629958272
 30
0.0
 11
7.910186553010601
 21
12.72366629958272
 31
0.0
  0
LINE
  5
132F
330
237
100
AcDbEntity
  8
0
 62
     0
100
AcDbLine
 10
8.279585237262471
 20
12.22366629958272
 30
0.0
 11
7.910186553010601
 21
12.22366629958272
 31
0.0
  0
LINE
  5
1330
330
237
100
AcDbEntity
  8
0
 62
     0
100
AcDbLine
 10
8.003186553010602
 20
12.90366629958271
 30
0.0
 11
8.003186553010602
 21
13.08366629958271
 31
0.0
  0
LINE
  5
1331
330
237
100
AcDbEntity
  8
0
 62
     0
100
AcDbLine
 10
8.003186553010602
 20
12.04366629958272
 30
0.0
 11
8.0031865530106
 21
11.86366629958272
 31
0.0
  0
SOLID
  5
1332
330
237
100
AcDbEntity
  8
0
 62
     0
100
AcDbTrace
 10
7.9731865530106
 20
12.90366629958271
 30
0.0
 11
8.033186553010601
 21
12.90366629958271
 31
0.0
 12
8.003186553010602
 22
12.72366629958272
 32
0.0
 13
8.003186553010602
 23
12.72366629958272
 33
0.0
  0
SOLID
  5
1333
330
237
100
AcDbEntity
  8
0
 62
     0
100
AcDbTrace
 10
7.9731865530106
 20
12.04366629958272
 30
0.0
 11
8.033186553010601
 21
12.04366629958272
 31
0.0
 12
8.003186553010602
 22
12.22366629958272
 32
0.0
 13
8.003186553010602
 23
12.22366629958272
 33
0.0
  0
MTEXT
  5
1334
330
237
100
AcDbEntity
  8
0
 62
     0
100
AcDbMText
 10
8.003186553010598
 20
12.47366629958272
 30
0.0
 40
0.125
 41
0.0
 71
     5
 72
     1
  1
\A1;H
1001
ACAD
1000
MTEXTBEGIN
1070
    73
1070
     1
1070
    44
1040
1.0
1070
    74
1070
     0
1000
MTEXTEND
  0
POINT
  5
1335
330
237
100
AcDbEntity
  8
DEFPOINTS
 62
     0
100
AcDbPoint
 10
8.342585237262472
 20
12.72366629958272
 30
0.0
  0
POINT
  5
1336
330
237
100
AcDbEntity
  8
DEFPOINTS
 62
     0
100
AcDbPoint
 10
8.342585237262472
 20
12.22366629958272
 30
0.0
  0
POINT
  5
1337
330
237
100
AcDbEntity
  8
DEFPOINTS
 62
     0
100
AcDbPoint
 10
8.003186553010602
 20
12.22366629958272
 30
0.0
  0
ENDBLK
  5
243
330
237
100
AcDbEntity
  8
0
100
AcDbBlockEnd
  0
BLOCK
  5
24F
330
244
100
AcDbEntity
  8
0
100
AcDbBlockBegin
  2
*D7
 70
     1
 10
0.0
 20
0.0
 30
0.0
  3
*D7
  1

  0
LINE
  5
1360
330
244
100
AcDbEntity
  8
0
 62
     0
100
AcDbLine
 10
7.017458586896412
 20
14.52872547210569
 30
0.0
 11
7.017458586896412
 21
14.20688063453834
 31
0.0
  0
LINE
  5
1361
330
244
100
AcDbEntity
  8
0
 62
     0
100
AcDbLine
 10
7.10245858689641
 20
14.52872547210569
 30
0.0
 11
7.10245858689641
 21
14.20688063453834
 31
0.0
  0
LINE
  5
1362
330
244
100
AcDbEntity
  8
0
 62
     0
100
AcDbLine
 10
6.837458586896413
 20
14.29988063453834
 30
0.0
 11
6.657458586896412
 21
14.29988063453834
 31
0.0
  0
LINE
  5
1363
330
244
100
AcDbEntity
  8
0
 62
     0
100
AcDbLine
 10
7.282458586896409
 20
14.29988063453834
 30
0.0
 11
7.46245858689641
 21
14.29988063453834
 31
0.0
  0
SOLID
  5
1364
330
244
100
AcDbEntity
  8
0
 62
     0
100
AcDbTrace
 10
6.837458586896413
 20
14.32988063453834
 30
0.0
 11
6.837458586896413
 21
14.26988063453834
 31
0.0
 12
7.017458586896412
 22
14.29988063453834
 32
0.0
 13
7.017458586896412
 23
14.29988063453834
 33
0.0
  0
SOLID
  5
1365
330
244
100
AcDbEntity
  8
0
 62
     0
100
AcDbTrace
 10
7.282458586896409
 20
14.32988063453834
 30
0.0
 11
7.282458586896409
 21
14.26988063453834
 31
0.0
 12
7.10245858689641
 22
14.29988063453834
 32
0.0
 13
7.10245858689641
 23
14.29988063453834
 33
0.0
  0
MTEXT
  5
1366
330
244
100
AcDbEntity
  8
0
 62
     0
100
AcDbMText
 10
7.58370858689641
 20
14.29988063453834
 30
0.0
 40
0.125
 41
0.0
 71
     5
 72
     1
  1
\A1;F
1001
ACAD
1000
MTEXTBEGIN
1070
    73
1070
     1
1070
    44
1040
1.0
1070
    74
1070
     0
1000
MTEXTEND
  0
POINT
  5
1367
330
244
100
AcDbEntity
  8
DEFPOINTS
 62
     0
100
AcDbPoint
 10
7.017458586896412
 20
14.59172547210568
 30
0.0
  0
POINT
  5
1368
330
244
100
AcDbEntity
  8
DEFPOINTS
 62
     0
100
AcDbPoint
 10
7.10245858689641
 20
14.59172547210568
 30
0.0
  0
POINT
  5
1369
330
244
100
AcDbEntity
  8
DEFPOINTS
 62
     0
100
AcDbPoint
 10
7.10245858689641
 20
14.29988063453834
 30
0.0
  0
ENDBLK
  5
250
330
244
100
AcDbEntity
  8
0
100
AcDbBlockEnd
  0
BLOCK
  5
25C
330
251
100
AcDbEntity
  8
0
100
AcDbBlockBegin
  2
*D8
 70
     1
 10
0.0
 20
0.0
 30
0.0
  3
*D8
  1

  0
LINE
  5
1356
330
251
100
AcDbEntity
  8
0
 62
     0
100
AcDbLine
 10
5.301458586896416
 20
13.33766629958271
 30
0.0
 11
5.301458586896416
 21
13.77470572122115
 31
0.0
  0
LINE
  5
1357
330
251
100
AcDbEntity
  8
0
 62
     0
100
AcDbLine
 10
7.039458586896414
 20
13.33766629958271
 30
0.0
 11
7.039458586896414
 21
13.77470572122115
 31
0.0
  0
LINE
  5
1358
330
251
100
AcDbEntity
  8
0
 62
     0
100
AcDbLine
 10
5.481458586896415
 20
13.68170572122115
 30
0.0
 11
6.049208586896416
 21
13.68170572122115
 31
0.0
  0
LINE
  5
1359
330
251
100
AcDbEntity
  8
0
 62
     0
100
AcDbLine
 10
6.859458586896415
 20
13.68170572122115
 30
0.0
 11
6.291708586896415
 21
13.68170572122115
 31
0.0
  0
SOLID
  5
135A
330
251
100
AcDbEntity
  8
0
 62
     0
100
AcDbTrace
 10
5.481458586896415
 20
13.71170572122115
 30
0.0
 11
5.481458586896415
 21
13.65170572122115
 31
0.0
 12
5.301458586896416
 22
13.68170572122115
 32
0.0
 13
5.301458586896416
 23
13.68170572122115
 33
0.0
  0
SOLID
  5
135B
330
251
100
AcDbEntity
  8
0
 62
     0
100
AcDbTrace
 10
6.859458586896415
 20
13.71170572122115
 30
0.0
 11
6.859458586896415
 21
13.65170572122115
 31
0.0
 12
7.039458586896414
 22
13.68170572122115
 32
0.0
 13
7.039458586896414
 23
13.68170572122115
 33
0.0
  0
MTEXT
  5
135C
330
251
100
AcDbEntity
  8
0
 62
     0
100
AcDbMText
 10
6.170458586896415
 20
13.68170572122115
 30
0.0
 40
0.125
 41
0.0
 71
     5
 72
     1
  1
\A1;B
1001
ACAD
1000
MTEXTBEGIN
1070
    73
1070
     1
1070
    44
1040
1.0
1070
    74
1070
     0
1000
MTEXTEND
  0
POINT
  5
135D
330
251
100
AcDbEntity
  8
DEFPOINTS
 62
     0
100
AcDbPoint
 10
5.301458586896416
 20
13.27466629958272
 30
0.0
  0
POINT
  5
135E
330
251
100
AcDbEntity
  8
DEFPOINTS
 62
     0
100
AcDbPoint
 10
7.039458586896414
 20
13.27466629958272
 30
0.0
  0
POINT
  5
135F
330
251
100
AcDbEntity
  8
DEFPOINTS
 62
     0
100
AcDbPoint
 10
7.039458586896414
 20
13.68170572122115
 30
0.0
  0
ENDBLK
  5
25D
330
251
100
AcDbEntity
  8
0
100
AcDbBlockEnd
  0
BLOCK
  5
269
330
25E
100
AcDbEntity
  8
0
100
AcDbBlockBegin
  2
*D9
 70
     1
 10
0.0
 20
0.0
 30
0.0
  3
*D9
  1

  0
LINE
  5
1297
330
25E
100
AcDbEntity
  8
0
 62
     0
100
AcDbLine
 10
5.238458586896416
 20
13.27466629958272
 30
0.0
 11
4.730897081778357
 21
13.27466629958272
 31
0.0
  0
LINE
  5
1298
330
25E
100
AcDbEntity
  8
0
 62
     0
100
AcDbLine
 10
5.238458586896416
 20
12.03666629958272
 30
0.0
 11
4.730897081778357
 21
12.03666629958272
 31
0.0
  0
LINE
  5
1299
330
25E
100
AcDbEntity
  8
0
 62
     0
100
AcDbLine
 10
4.823897081778357
 20
13.09466629958272
 30
0.0
 11
4.823897081778357
 21
12.80816629958271
 31
0.0
  0
LINE
  5
129A
330
25E
100
AcDbEntity
  8
0
 62
     0
100
AcDbLine
 10
4.823897081778357
 20
12.21666629958272
 30
0.0
 11
4.823897081778357
 21
12.50316629958271
 31
0.0
  0
SOLID
  5
129B
330
25E
100
AcDbEntity
  8
0
 62
     0
100
AcDbTrace
 10
4.793897081778357
 20
13.09466629958272
 30
0.0
 11
4.853897081778358
 21
13.09466629958272
 31
0.0
 12
4.823897081778357
 22
13.27466629958272
 32
0.0
 13
4.823897081778357
 23
13.27466629958272
 33
0.0
  0
SOLID
  5
129C
330
25E
100
AcDbEntity
  8
0
 62
     0
100
AcDbTrace
 10
4.793897081778357
 20
12.21666629958272
 30
0.0
 11
4.853897081778358
 21
12.21666629958272
 31
0.0
 12
4.823897081778357
 22
12.03666629958272
 32
0.0
 13
4.823897081778357
 23
12.03666629958272
 33
0.0
  0
MTEXT
  5
129D
330
25E
100
AcDbEntity
  8
0
 62
     0
100
AcDbMText
 10
4.823897081778356
 20
12.65566629958272
 30
0.0
 40
0.125
 41
0.0
 71
     5
 72
     1
  1
\A1;D
1001
ACAD
1000
MTEXTBEGIN
1070
    73
1070
     1
1070
    44
1040
1.0
1070
    74
1070
     0
1000
MTEXTEND
  0
POINT
  5
129E
330
25E
100
AcDbEntity
  8
DEFPOINTS
 62
     0
100
AcDbPoint
 10
5.301458586896416
 20
13.27466629958272
 30
0.0
  0
POINT
  5
129F
330
25E
100
AcDbEntity
  8
DEFPOINTS
 62
     0
100
AcDbPoint
 10
5.301458586896416
 20
12.03666629958272
 30
0.0
  0
POINT
  5
12A0
330
25E
100
AcDbEntity
  8
DEFPOINTS
 62
     0
100
AcDbPoint
 10
4.823897081778357
 20
12.03666629958272
 30
0.0
  0
ENDBLK
  5
26A
330
25E
100
AcDbEntity
  8
0
100
AcDbBlockEnd
  0
BLOCK
  5
276
330
26B
100
AcDbEntity
  8
0
100
AcDbBlockBegin
  2
*D10
 70
     1
 10
0.0
 20
0.0
 30
0.0
  3
*D10
  1

  0
LINE
  5
1310
330
26B
100
AcDbEntity
  8
0
 62
     0
100
AcDbLine
 10
8.404585237262473
 20
11.91066629958271
 30
0.0
 11
8.404585237262473
 21
11.53075317312149
 31
0.0
  0
LINE
  5
1311
330
26B
100
AcDbEntity
  8
0
 62
     0
100
AcDbLine
 10
8.342585237262472
 20
12.16066629958271
 30
0.0
 11
8.342585237262472
 21
11.53075317312149
 31
0.0
  0
LINE
  5
1312
330
26B
100
AcDbEntity
  8
0
 62
     0
100
AcDbLine
 10
8.584585237262473
 20
11.6237531731215
 30
0.0
 11
8.764585237262473
 21
11.6237531731215
 31
0.0
  0
LINE
  5
1313
330
26B
100
AcDbEntity
  8
0
 62
     0
100
AcDbLine
 10
8.162585237262472
 20
11.6237531731215
 30
0.0
 11
7.982585237262472
 21
11.6237531731215
 31
0.0
  0
SOLID
  5
1314
330
26B
100
AcDbEntity
  8
0
 62
     0
100
AcDbTrace
 10
8.584585237262473
 20
11.65375317312149
 30
0.0
 11
8.584585237262473
 21
11.5937531731215
 31
0.0
 12
8.404585237262473
 22
11.6237531731215
 32
0.0
 13
8.404585237262473
 23
11.6237531731215
 33
0.0
  0
SOLID
  5
1315
330
26B
100
AcDbEntity
  8
0
 62
     0
100
AcDbTrace
 10
8.162585237262472
 20
11.65375317312149
 30
0.0
 11
8.162585237262472
 21
11.5937531731215
 31
0.0
 12
8.342585237262472
 22
11.6237531731215
 32
0.0
 13
8.342585237262472
 23
11.6237531731215
 33
0.0
  0
MTEXT
  5
1316
330
26B
100
AcDbEntity
  8
0
 62
     0
100
AcDbMText
 10
7.861335237262472
 20
11.6237531731215
 30
0.0
 40
0.125
 41
0.0
 71
     5
 72
     1
  1
\A1;L
1001
ACAD
1000
MTEXTBEGIN
1070
    73
1070
     1
1070
    44
1040
1.0
1070
    74
1070
     0
1000
MTEXTEND
  0
POINT
  5
1317
330
26B
100
AcDbEntity
  8
DEFPOINTS
 62
     0
100
AcDbPoint
 10
8.404585237262473
 20
11.97366629958271
 30
0.0
  0
POINT
  5
1318
330
26B
100
AcDbEntity
  8
DEFPOINTS
 62
     0
100
AcDbPoint
 10
8.342585237262472
 20
12.22366629958272
 30
0.0
  0
POINT
  5
1319
330
26B
100
AcDbEntity
  8
DEFPOINTS
 62
     0
100
AcDbPoint
 10
8.342585237262472
 20
11.6237531731215
 30
0.0
  0
ENDBLK
  5
277
330
26B
100
AcDbEntity
  8
0
100
AcDbBlockEnd
  0
BLOCK
  5
47B
330
470
100
AcDbEntity
  8
0
100
AcDbBlockBegin
  2
*D11
 70
     1
 10
0.0
 20
0.0
 30
0.0
  3
*D11
  1

  0
LINE
  5
12C0
330
470
100
AcDbEntity
  8
0
 62
     0
100
AcDbLine
 10
5.480265775896391
 20
7.790564765178334
 30
0.0
 11
5.480265775896391
 21
8.174467815568331
 31
0.0
  0
LINE
  5
12C1
330
470
100
AcDbEntity
  8
0
 62
     0
100
AcDbLine
 10
7.462265775896392
 20
7.790564765178338
 30
0.0
 11
7.462265775896392
 21
8.174467815568331
 31
0.0
  0
LINE
  5
12C2
330
470
100
AcDbEntity
  8
0
 62
     0
100
AcDbLine
 10
5.660265775896391
 20
8.081467815568331
 30
0.0
 11
6.350015775896392
 21
8.081467815568331
 31
0.0
  0
LINE
  5
12C3
330
470
100
AcDbEntity
  8
0
 62
     0
100
AcDbLine
 10
7.282265775896393
 20
8.081467815568331
 30
0.0
 11
6.592515775896392
 21
8.081467815568331
 31
0.0
  0
SOLID
  5
12C4
330
470
100
AcDbEntity
  8
0
 62
     0
100
AcDbTrace
 10
5.660265775896391
 20
8.11146781556833
 30
0.0
 11
5.660265775896391
 21
8.051467815568331
 31
0.0
 12
5.480265775896391
 22
8.081467815568331
 32
0.0
 13
5.480265775896391
 23
8.081467815568331
 33
0.0
  0
SOLID
  5
12C5
330
470
100
AcDbEntity
  8
0
 62
     0
100
AcDbTrace
 10
7.282265775896393
 20
8.11146781556833
 30
0.0
 11
7.282265775896393
 21
8.051467815568331
 31
0.0
 12
7.462265775896392
 22
8.081467815568331
 32
0.0
 13
7.462265775896392
 23
8.081467815568331
 33
0.0
  0
MTEXT
  5
12C6
330
470
100
AcDbEntity
  8
0
 62
     0
100
AcDbMText
 10
6.471265775896392
 20
8.081467815568331
 30
0.0
 40
0.125
 41
0.0
 71
     5
 72
     1
  1
\A1;A
1001
ACAD
1000
MTEXTBEGIN
1070
    73
1070
     1
1070
    44
1040
1.0
1070
    74
1070
     0
1000
MTEXTEND
  0
POINT
  5
12C7
330
470
100
AcDbEntity
  8
DEFPOINTS
 62
     0
100
AcDbPoint
 10
5.480265775896391
 20
7.727564765178335
 30
0.0
  0
POINT
  5
12C8
330
470
100
AcDbEntity
  8
DEFPOINTS
 62
     0
100
AcDbPoint
 10
7.462265775896392
 20
7.727564765178338
 30
0.0
  0
POINT
  5
12C9
330
470
100
AcDbEntity
  8
DEFPOINTS
 62
     0
100
AcDbPoint
 10
7.462265775896392
 20
8.081467815568331
 30
0.0
  0
ENDBLK
  5
47C
330
470
100
AcDbEntity
  8
0
100
AcDbBlockEnd
  0
BLOCK
  5
488
330
47D
100
AcDbEntity
  8
0
100
AcDbBlockBegin
  2
*D12
 70
     1
 10
0.0
 20
0.0
 30
0.0
  3
*D12
  1

  0
LINE
  5
128D
330
47D
100
AcDbEntity
  8
0
 62
     0
100
AcDbLine
 10
5.464265775896391
 20
7.774564765178335
 30
0.0
 11
5.056116471526967
 21
7.774564765178335
 31
0.0
  0
LINE
  5
128E
330
47D
100
AcDbEntity
  8
0
 62
     0
100
AcDbLine
 10
5.464265775896391
 20
6.292564765178332
 30
0.0
 11
5.056116471526967
 21
6.292564765178332
 31
0.0
  0
LINE
  5
128F
330
47D
100
AcDbEntity
  8
0
 62
     0
100
AcDbLine
 10
5.149116471526967
 20
7.594564765178335
 30
0.0
 11
5.149116471526967
 21
7.186064765178334
 31
0.0
  0
LINE
  5
1290
330
47D
100
AcDbEntity
  8
0
 62
     0
100
AcDbLine
 10
5.149116471526967
 20
6.472564765178332
 30
0.0
 11
5.149116471526967
 21
6.881064765178334
 31
0.0
  0
SOLID
  5
1291
330
47D
100
AcDbEntity
  8
0
 62
     0
100
AcDbTrace
 10
5.119116471526966
 20
7.594564765178335
 30
0.0
 11
5.179116471526967
 21
7.594564765178335
 31
0.0
 12
5.149116471526967
 22
7.774564765178335
 32
0.0
 13
5.149116471526967
 23
7.774564765178335
 33
0.0
  0
SOLID
  5
1292
330
47D
100
AcDbEntity
  8
0
 62
     0
100
AcDbTrace
 10
5.119116471526966
 20
6.472564765178332
 30
0.0
 11
5.179116471526967
 21
6.472564765178332
 31
0.0
 12
5.149116471526967
 22
6.292564765178332
 32
0.0
 13
5.149116471526967
 23
6.292564765178332
 33
0.0
  0
MTEXT
  5
1293
330
47D
100
AcDbEntity
  8
0
 62
     0
100
AcDbMText
 10
5.149116471526965
 20
7.033564765178335
 30
0.0
 40
0.125
 41
0.0
 71
     5
 72
     1
  1
\A1;B
1001
ACAD
1000
MTEXTBEGIN
1070
    73
1070
     1
1070
    44
1040
1.0
1070
    74
1070
     0
1000
MTEXTEND
  0
POINT
  5
1294
330
47D
100
AcDbEntity
  8
DEFPOINTS
 62
     0
100
AcDbPoint
 10
5.527265775896391
 20
7.774564765178335
 30
0.0
  0
POINT
  5
1295
330
47D
100
AcDbEntity
  8
DEFPOINTS
 62
     0
100
AcDbPoint
 10
5.527265775896391
 20
6.292564765178332
 30
0.0
  0
POINT
  5
1296
330
47D
100
AcDbEntity
  8
DEFPOINTS
 62
     0
100
AcDbPoint
 10
5.149116471526967
 20
6.292564765178332
 30
0.0
  0
ENDBLK
  5
489
330
47D
100
AcDbEntity
  8
0
100
AcDbBlockEnd
  0
BLOCK
  5
496
330
48A
100
AcDbEntity
  8
0
100
AcDbBlockBegin
  2
*D13
 70
     1
 10
0.0
 20
0.0
 30
0.0
  3
*D13
  1

  0
LINE
  5
1342
330
48A
100
AcDbEntity
  8
0
 62
     0
100
AcDbLine
 10
7.345265775896392
 20
8.644306335371213
 30
0.0
 11
7.345265775896392
 21
8.30022911776113
 31
0.0
  0
LINE
  5
1343
330
48A
100
AcDbEntity
  8
0
 62
     0
100
AcDbLine
 10
7.425265775896392
 20
8.644306335371211
 30
0.0
 11
7.425265775896392
 21
8.30022911776113
 31
0.0
  0
LINE
  5
1344
330
48A
100
AcDbEntity
  8
0
 62
     0
100
AcDbLine
 10
7.605265775896392
 20
8.39322911776113
 30
0.0
 11
7.785265775896393
 21
8.39322911776113
 31
0.0
  0
LINE
  5
1345
330
48A
100
AcDbEntity
  8
0
 62
     0
100
AcDbLine
 10
7.165265775896393
 20
8.39322911776113
 30
0.0
 11
6.985265775896392
 21
8.39322911776113
 31
0.0
  0
SOLID
  5
1346
330
48A
100
AcDbEntity
  8
0
 62
     0
100
AcDbTrace
 10
7.605265775896392
 20
8.423229117761129
 30
0.0
 11
7.605265775896392
 21
8.363229117761131
 31
0.0
 12
7.425265775896392
 22
8.39322911776113
 32
0.0
 13
7.425265775896392
 23
8.39322911776113
 33
0.0
  0
SOLID
  5
1347
330
48A
100
AcDbEntity
  8
0
 62
     0
100
AcDbTrace
 10
7.165265775896393
 20
8.423229117761129
 30
0.0
 11
7.165265775896393
 21
8.363229117761131
 31
0.0
 12
7.345265775896392
 22
8.39322911776113
 32
0.0
 13
7.345265775896392
 23
8.39322911776113
 33
0.0
  0
MTEXT
  5
1348
330
48A
100
AcDbEntity
  8
0
 62
     0
100
AcDbMText
 10
6.864015775896392
 20
8.39322911776113
 30
0.0
 40
0.125
 41
0.0
 71
     5
 72
     1
  1
\A1;E
1001
ACAD
1000
MTEXTBEGIN
1070
    73
1070
     1
1070
    44
1040
1.0
1070
    74
1070
     0
1000
MTEXTEND
  0
POINT
  5
1349
330
48A
100
AcDbEntity
  8
DEFPOINTS
 62
     0
100
AcDbPoint
 10
7.345265775896392
 20
8.707306335371214
 30
0.0
  0
POINT
  5
134A
330
48A
100
AcDbEntity
  8
DEFPOINTS
 62
     0
100
AcDbPoint
 10
7.425265775896392
 20
8.707306335371212
 30
0.0
  0
POINT
  5
134B
330
48A
100
AcDbEntity
  8
DEFPOINTS
 62
     0
100
AcDbPoint
 10
7.425265775896392
 20
8.39322911776113
 30
0.0
  0
ENDBLK
  5
497
330
48A
100
AcDbEntity
  8
0
100
AcDbBlockEnd
  0
BLOCK
  5
4A3
330
498
100
AcDbEntity
  8
0
100
AcDbBlockBegin
  2
*D14
 70
     1
 10
0.0
 20
0.0
 30
0.0
  3
*D14
  1

  0
LINE
  5
1306
330
498
100
AcDbEntity
  8
0
 62
     0
100
AcDbLine
 10
9.078288140444687
 20
6.908564765178335
 30
0.0
 11
8.751684230734113
 21
6.908564765178335
 31
0.0
  0
LINE
  5
1307
330
498
100
AcDbEntity
  8
0
 62
     0
100
AcDbLine
 10
9.078288140444687
 20
7.158564765178332
 30
0.0
 11
8.751684230734113
 21
7.158564765178332
 31
0.0
  0
LINE
  5
1308
330
498
100
AcDbEntity
  8
0
 62
     0
100
AcDbLine
 10
8.844684230734113
 20
6.728564765178336
 30
0.0
 11
8.844684230734113
 21
6.548564765178335
 31
0.0
  0
LINE
  5
1309
330
498
100
AcDbEntity
  8
0
 62
     0
100
AcDbLine
 10
8.844684230734113
 20
7.338564765178332
 30
0.0
 11
8.844684230734113
 21
7.518564765178332
 31
0.0
  0
SOLID
  5
130A
330
498
100
AcDbEntity
  8
0
 62
     0
100
AcDbTrace
 10
8.814684230734114
 20
6.728564765178336
 30
0.0
 11
8.874684230734112
 21
6.728564765178336
 31
0.0
 12
8.844684230734113
 22
6.908564765178335
 32
0.0
 13
8.844684230734113
 23
6.908564765178335
 33
0.0
  0
SOLID
  5
130B
330
498
100
AcDbEntity
  8
0
 62
     0
100
AcDbTrace
 10
8.814684230734114
 20
7.338564765178332
 30
0.0
 11
8.874684230734112
 21
7.338564765178332
 31
0.0
 12
8.844684230734113
 22
7.158564765178332
 32
0.0
 13
8.844684230734113
 23
7.158564765178332
 33
0.0
  0
MTEXT
  5
130C
330
498
100
AcDbEntity
  8
0
 62
     0
100
AcDbMText
 10
8.844684230734111
 20
7.033564765178335
 30
0.0
 40
0.125
 41
0.0
 71
     5
 72
     1
  1
\A1;F
1001
ACAD
1000
MTEXTBEGIN
1070
    73
1070
     1
1070
    44
1040
1.0
1070
    74
1070
     0
1000
MTEXTEND
  0
POINT
  5
130D
330
498
100
AcDbEntity
  8
DEFPOINTS
 62
     0
100
AcDbPoint
 10
9.141288140444688
 20
6.908564765178335
 30
0.0
  0
POINT
  5
130E
330
498
100
AcDbEntity
  8
DEFPOINTS
 62
     0
100
AcDbPoint
 10
9.141288140444688
 20
7.158564765178332
 30
0.0
  0
POINT
  5
130F
330
498
100
AcDbEntity
  8
DEFPOINTS
 62
     0
100
AcDbPoint
 10
8.844684230734113
 20
7.158564765178332
 30
0.0
  0
ENDBLK
  5
4A4
330
498
100
AcDbEntity
  8
0
100
AcDbBlockEnd
  0
BLOCK
  5
4B0
330
4A5
100
AcDbEntity
  8
0
100
AcDbBlockBegin
  2
*D15
 70
     1
 10
0.0
 20
0.0
 30
0.0
  3
*D15
  1

  0
LINE
  5
134C
330
4A5
100
AcDbEntity
  8
0
 62
     0
100
AcDbLine
 10
7.488265775896392
 20
8.707306335371212
 30
0.0
 11
7.949644348245619
 21
8.707306335371212
 31
0.0
  0
LINE
  5
134D
330
4A5
100
AcDbEntity
  8
0
 62
     0
100
AcDbLine
 10
7.525265775896392
 20
8.977306335371212
 30
0.0
 11
7.949644348245619
 21
8.977306335371212
 31
0.0
  0
LINE
  5
134E
330
4A5
100
AcDbEntity
  8
0
 62
     0
100
AcDbLine
 10
7.856644348245619
 20
8.527306335371212
 30
0.0
 11
7.856644348245619
 21
8.347306335371213
 31
0.0
  0
LINE
  5
134F
330
4A5
100
AcDbEntity
  8
0
 62
     0
100
AcDbLine
 10
7.856644348245619
 20
9.157306335371211
 30
0.0
 11
7.856644348245619
 21
9.337306335371211
 31
0.0
  0
SOLID
  5
1350
330
4A5
100
AcDbEntity
  8
0
 62
     0
100
AcDbTrace
 10
7.826644348245618
 20
8.527306335371212
 30
0.0
 11
7.886644348245619
 21
8.527306335371212
 31
0.0
 12
7.856644348245619
 22
8.707306335371212
 32
0.0
 13
7.856644348245619
 23
8.707306335371212
 33
0.0
  0
SOLID
  5
1351
330
4A5
100
AcDbEntity
  8
0
 62
     0
100
AcDbTrace
 10
7.826644348245618
 20
9.157306335371211
 30
0.0
 11
7.886644348245619
 21
9.157306335371211
 31
0.0
 12
7.856644348245619
 22
8.977306335371212
 32
0.0
 13
7.856644348245619
 23
8.977306335371212
 33
0.0
  0
MTEXT
  5
1352
330
4A5
100
AcDbEntity
  8
0
 62
     0
100
AcDbMText
 10
7.856644348245618
 20
8.842306335371214
 30
0.0
 40
0.125
 41
0.0
 71
     5
 72
     1
  1
\A1;D
1001
ACAD
1000
MTEXTBEGIN
1070
    73
1070
     1
1070
    44
1040
1.0
1070
    74
1070
     0
1000
MTEXTEND
  0
POINT
  5
1353
330
4A5
100
AcDbEntity
  8
DEFPOINTS
 62
     0
100
AcDbPoint
 10
7.425265775896392
 20
8.707306335371212
 30
0.0
  0
POINT
  5
1354
330
4A5
100
AcDbEntity
  8
DEFPOINTS
 62
     0
100
AcDbPoint
 10
7.462265775896392
 20
8.977306335371212
 30
0.0
  0
POINT
  5
1355
330
4A5
100
AcDbEntity
  8
DEFPOINTS
 62
     0
100
AcDbPoint
 10
7.856644348245619
 20
8.977306335371212
 30
0.0
  0
ENDBLK
  5
4B1
330
4A5
100
AcDbEntity
  8
0
100
AcDbBlockEnd
  0
BLOCK
  5
4BD
330
4B2
100
AcDbEntity
  8
0
100
AcDbBlockBegin
  2
*D16
 70
     1
 10
0.0
 20
0.0
 30
0.0
  3
*D16
  1

  0
LINE
  5
1282
330
4B2
100
AcDbEntity
  8
0
 62
     0
100
AcDbLine
 10
5.454265775896397
 20
8.902306335371212
 30
0.0
 11
5.056116471526966
 21
8.902306335371212
 31
0.0
  0
LINE
  5
1283
330
4B2
100
AcDbEntity
  8
0
 62
     0
100
AcDbLine
 10
5.417265775896394
 20
8.977306335371212
 30
0.0
 11
5.056116471526966
 21
8.977306335371212
 31
0.0
  0
LINE
  5
1284
330
4B2
100
AcDbEntity
  8
0
 62
     0
100
AcDbLine
 10
5.149116471526966
 20
9.157306335371211
 30
0.0
 11
5.149116471526966
 21
9.337306335371211
 31
0.0
  0
LINE
  5
1285
330
4B2
100
AcDbEntity
  8
0
 62
     0
100
AcDbLine
 10
5.149116471526966
 20
8.722306335371213
 30
0.0
 11
5.149116471526966
 21
8.542306335371213
 31
0.0
  0
LINE
  5
1286
330
4B2
100
AcDbEntity
  8
0
 62
     0
100
AcDbLine
 10
5.149116471526966
 20
8.542306335371213
 30
0.0
 11
4.969116471526966
 21
8.542306335371213
 31
0.0
  0
SOLID
  5
1287
330
4B2
100
AcDbEntity
  8
0
 62
     0
100
AcDbTrace
 10
5.119116471526965
 20
9.157306335371211
 30
0.0
 11
5.179116471526966
 21
9.157306335371211
 31
0.0
 12
5.149116471526966
 22
8.977306335371212
 32
0.0
 13
5.149116471526966
 23
8.977306335371212
 33
0.0
  0
SOLID
  5
1288
330
4B2
100
AcDbEntity
  8
0
 62
     0
100
AcDbTrace
 10
5.119116471526965
 20
8.722306335371213
 30
0.0
 11
5.179116471526966
 21
8.722306335371213
 31
0.0
 12
5.149116471526966
 22
8.902306335371212
 32
0.0
 13
5.149116471526966
 23
8.902306335371212
 33
0.0
  0
MTEXT
  5
1289
330
4B2
100
AcDbEntity
  8
0
 62
     0
100
AcDbMText
 10
4.847866471526964
 20
8.542306335371215
 30
0.0
 40
0.125
 41
0.0
 71
     5
 72
     1
  1
\A1;C
1001
ACAD
1000
MTEXTBEGIN
1070
    73
1070
     1
1070
    44
1040
1.0
1070
    74
1070
     0
1000
MTEXTEND
  0
POINT
  5
128A
330
4B2
100
AcDbEntity
  8
DEFPOINTS
 62
     0
100
AcDbPoint
 10
5.517265775896396
 20
8.902306335371212
 30
0.0
  0
POINT
  5
128B
330
4B2
100
AcDbEntity
  8
DEFPOINTS
 62
     0
100
AcDbPoint
 10
5.480265775896394
 20
8.977306335371212
 30
0.0
  0
POINT
  5
128C
330
4B2
100
AcDbEntity
  8
DEFPOINTS
 62
     0
100
AcDbPoint
 10
5.149116471526966
 20
8.977306335371212
 30
0.0
  0
ENDBLK
  5
4BE
330
4B2
100
AcDbEntity
  8
0
100
AcDbBlockEnd
  0
BLOCK
  5
4CB
330
4BF
100
AcDbEntity
  8
0
100
AcDbBlockBegin
  2
*D17
 70
     1
 10
0.0
 20
0.0
 30
0.0
  3
*D17
  1

  0
LINE
  5
12CA
330
4BF
100
AcDbEntity
  8
0
 62
     0
100
AcDbLine
 10
7.425265775896394
 20
6.484246849749852
 30
0.0
 11
7.425265775896394
 21
6.441238834507441
 31
0.0
  0
LINE
  5
12CB
330
4BF
100
AcDbEntity
  8
0
 62
     0
100
AcDbLine
 10
7.462265775896392
 20
6.484246849749852
 30
0.0
 11
7.462265775896392
 21
6.441238834507441
 31
0.0
  0
LINE
  5
12CC
330
4BF
100
AcDbEntity
  8
0
 62
     0
100
AcDbLine
 10
7.245265775896394
 20
6.534238834507441
 30
0.0
 11
7.065265775896394
 21
6.534238834507441
 31
0.0
  0
LINE
  5
12CD
330
4BF
100
AcDbEntity
  8
0
 62
     0
100
AcDbLine
 10
7.642265775896392
 20
6.534238834507441
 30
0.0
 11
7.822265775896392
 21
6.534238834507441
 31
0.0
  0
SOLID
  5
12CE
330
4BF
100
AcDbEntity
  8
0
 62
     0
100
AcDbTrace
 10
7.245265775896394
 20
6.564238834507441
 30
0.0
 11
7.245265775896394
 21
6.50423883450744
 31
0.0
 12
7.425265775896394
 22
6.534238834507441
 32
0.0
 13
7.425265775896394
 23
6.534238834507441
 33
0.0
  0
SOLID
  5
12CF
330
4BF
100
AcDbEntity
  8
0
 62
     0
100
AcDbTrace
 10
7.642265775896392
 20
6.564238834507441
 30
0.0
 11
7.642265775896392
 21
6.50423883450744
 31
0.0
 12
7.462265775896392
 22
6.534238834507441
 32
0.0
 13
7.462265775896392
 23
6.534238834507441
 33
0.0
  0
MTEXT
  5
12D0
330
4BF
100
AcDbEntity
  8
0
 62
     0
100
AcDbMText
 10
8.287265775896392
 20
6.534238834507441
 30
0.0
 40
0.125
 41
0.0
 71
     5
 72
     1
  1
\A1;0.037 TYP.
1001
ACAD
1000
MTEXTBEGIN
1070
    73
1070
     1
1070
    44
1040
1.0
1070
    74
1070
     0
1000
MTEXTEND
  0
POINT
  5
12D1
330
4BF
100
AcDbEntity
  8
DEFPOINTS
 62
     0
100
AcDbPoint
 10
7.425265775896394
 20
6.547246849749852
 30
0.0
  0
POINT
  5
12D2
330
4BF
100
AcDbEntity
  8
DEFPOINTS
 62
     0
100
AcDbPoint
 10
7.462265775896392
 20
6.547246849749852
 30
0.0
  0
POINT
  5
12D3
330
4BF
100
AcDbEntity
  8
DEFPOINTS
 62
     0
100
AcDbPoint
 10
7.462265775896392
 20
6.534238834507441
 30
0.0
  0
ENDBLK
  5
4CC
330
4BF
100
AcDbEntity
  8
0
100
AcDbBlockEnd
  0
BLOCK
  5
CA1
330
C96
100
AcDbEntity
  8
0
100
AcDbBlockBegin
  2
*D18
 70
     1
 10
0.0
 20
0.0
 30
0.0
  3
*D18
  1

  0
LINE
  5
12F2
330
C96
100
AcDbEntity
  8
0
 62
     0
100
AcDbLine
 10
6.510550417944878
 20
2.276066247148375
 30
0.0
 11
6.510550417944878
 21
2.58086927412314
 31
0.0
  0
LINE
  5
12F3
330
C96
100
AcDbEntity
  8
0
 62
     0
100
AcDbLine
 10
5.500550417944874
 20
2.276066247148375
 30
0.0
 11
5.500550417944874
 21
2.58086927412314
 31
0.0
  0
LINE
  5
12F4
330
C96
100
AcDbEntity
  8
0
 62
     0
100
AcDbLine
 10
6.330550417944878
 20
2.48786927412314
 30
0.0
 11
6.126800417944876
 21
2.48786927412314
 31
0.0
  0
LINE
  5
12F5
330
C96
100
AcDbEntity
  8
0
 62
     0
100
AcDbLine
 10
5.680550417944874
 20
2.48786927412314
 30
0.0
 11
5.884300417944876
 21
2.48786927412314
 31
0.0
  0
SOLID
  5
12F6
330
C96
100
AcDbEntity
  8
0
 62
     0
100
AcDbTrace
 10
6.330550417944878
 20
2.517869274123139
 30
0.0
 11
6.330550417944878
 21
2.45786927412314
 31
0.0
 12
6.510550417944878
 22
2.48786927412314
 32
0.0
 13
6.510550417944878
 23
2.48786927412314
 33
0.0
  0
SOLID
  5
12F7
330
C96
100
AcDbEntity
  8
0
 62
     0
100
AcDbTrace
 10
5.680550417944874
 20
2.517869274123139
 30
0.0
 11
5.680550417944874
 21
2.45786927412314
 31
0.0
 12
5.500550417944874
 22
2.48786927412314
 32
0.0
 13
5.500550417944874
 23
2.48786927412314
 33
0.0
  0
MTEXT
  5
12F8
330
C96
100
AcDbEntity
  8
0
 62
     0
100
AcDbMText
 10
6.005550417944876
 20
2.48786927412314
 30
0.0
 40
0.125
 41
0.0
 71
     5
 72
     1
  1
\A1;A
1001
ACAD
1000
MTEXTBEGIN
1070
    73
1070
     1
1070
    44
1040
1.0
1070
    74
1070
     0
1000
MTEXTEND
  0
POINT
  5
12F9
330
C96
100
AcDbEntity
  8
DEFPOINTS
 62
     0
100
AcDbPoint
 10
6.510550417944878
 20
2.213066247148375
 30
0.0
  0
POINT
  5
12FA
330
C96
100
AcDbEntity
  8
DEFPOINTS
 62
     0
100
AcDbPoint
 10
5.500550417944874
 20
2.213066247148375
 30
0.0
  0
POINT
  5
12FB
330
C96
100
AcDbEntity
  8
DEFPOINTS
 62
     0
100
AcDbPoint
 10
5.500550417944874
 20
2.48786927412314
 30
0.0
  0
ENDBLK
  5
CA2
330
C96
100
AcDbEntity
  8
0
100
AcDbBlockEnd
  0
BLOCK
  5
CAE
330
CA3
100
AcDbEntity
  8
0
100
AcDbBlockBegin
  2
*D19
 70
     1
 10
0.0
 20
0.0
 30
0.0
  3
*D19
  1

  0
LINE
  5
1278
330
CA3
100
AcDbEntity
  8
0
 62
     0
100
AcDbLine
 10
5.468550417944878
 20
2.244066247148372
 30
0.0
 11
5.080717646400402
 21
2.244066247148372
 31
0.0
  0
LINE
  5
1279
330
CA3
100
AcDbEntity
  8
0
 62
     0
100
AcDbLine
 10
5.468550417944878
 20
1.234066247148371
 30
0.0
 11
5.080717646400401
 21
1.234066247148371
 31
0.0
  0
LINE
  5
127A
330
CA3
100
AcDbEntity
  8
0
 62
     0
100
AcDbLine
 10
5.173717646400402
 20
2.064066247148372
 30
0.0
 11
5.173717646400401
 21
1.891566247148372
 31
0.0
  0
LINE
  5
127B
330
CA3
100
AcDbEntity
  8
0
 62
     0
100
AcDbLine
 10
5.173717646400401
 20
1.414066247148371
 30
0.0
 11
5.173717646400401
 21
1.586566247148371
 31
0.0
  0
SOLID
  5
127C
330
CA3
100
AcDbEntity
  8
0
 62
     0
100
AcDbTrace
 10
5.143717646400402
 20
2.064066247148372
 30
0.0
 11
5.203717646400402
 21
2.064066247148372
 31
0.0
 12
5.173717646400402
 22
2.244066247148372
 32
0.0
 13
5.173717646400402
 23
2.244066247148372
 33
0.0
  0
SOLID
  5
127D
330
CA3
100
AcDbEntity
  8
0
 62
     0
100
AcDbTrace
 10
5.143717646400401
 20
1.414066247148371
 30
0.0
 11
5.203717646400401
 21
1.414066247148371
 31
0.0
 12
5.173717646400401
 22
1.234066247148371
 32
0.0
 13
5.173717646400401
 23
1.234066247148371
 33
0.0
  0
MTEXT
  5
127E
330
CA3
100
AcDbEntity
  8
0
 62
     0
100
AcDbMText
 10
5.173717646400401
 20
1.739066247148372
 30
0.0
 40
0.125
 41
0.0
 71
     5
 72
     1
  1
\A1;B
1001
ACAD
1000
MTEXTBEGIN
1070
    73
1070
     1
1070
    44
1040
1.0
1070
    74
1070
     0
1000
MTEXTEND
  0
POINT
  5
127F
330
CA3
100
AcDbEntity
  8
DEFPOINTS
 62
     0
100
AcDbPoint
 10
5.531550417944878
 20
2.244066247148372
 30
0.0
  0
POINT
  5
1280
330
CA3
100
AcDbEntity
  8
DEFPOINTS
 62
     0
100
AcDbPoint
 10
5.531550417944878
 20
1.23406624714837
 30
0.0
  0
POINT
  5
1281
330
CA3
100
AcDbEntity
  8
DEFPOINTS
 62
     0
100
AcDbPoint
 10
5.173717646400401
 20
1.234066247148371
 30
0.0
  0
ENDBLK
  5
CAF
330
CA3
100
AcDbEntity
  8
0
100
AcDbBlockEnd
  0
BLOCK
  5
CD6
330
CCA
100
AcDbEntity
  8
0
100
AcDbBlockBegin
  2
*D20
 70
     1
 10
0.0
 20
0.0
 30
0.0
  3
*D20
  1

  0
LINE
  5
12FC
330
CCA
100
AcDbEntity
  8
0
 62
     0
100
AcDbLine
 10
7.931554835233997
 20
1.646566247148371
 30
0.0
 11
7.575716473347933
 21
1.646566247148371
 31
0.0
  0
LINE
  5
12FD
330
CCA
100
AcDbEntity
  8
0
 62
     0
100
AcDbLine
 10
7.931554835233997
 20
1.831566247148371
 30
0.0
 11
7.575716473347933
 21
1.831566247148371
 31
0.0
  0
LINE
  5
12FE
330
CCA
100
AcDbEntity
  8
0
 62
     0
100
AcDbLine
 10
7.668716473347933
 20
1.466566247148372
 30
0.0
 11
7.668716473347933
 21
1.286566247148372
 31
0.0
  0
LINE
  5
12FF
330
CCA
100
AcDbEntity
  8
0
 62
     0
100
AcDbLine
 10
7.668716473347934
 20
2.011566247148372
 30
0.0
 11
7.668716473347934
 21
2.191566247148371
 31
0.0
  0
SOLID
  5
1300
330
CCA
100
AcDbEntity
  8
0
 62
     0
100
AcDbTrace
 10
7.638716473347932
 20
1.466566247148372
 30
0.0
 11
7.698716473347933
 21
1.466566247148372
 31
0.0
 12
7.668716473347933
 22
1.646566247148371
 32
0.0
 13
7.668716473347933
 23
1.646566247148371
 33
0.0
  0
SOLID
  5
1301
330
CCA
100
AcDbEntity
  8
0
 62
     0
100
AcDbTrace
 10
7.638716473347933
 20
2.011566247148372
 30
0.0
 11
7.698716473347934
 21
2.011566247148372
 31
0.0
 12
7.668716473347933
 22
1.831566247148371
 32
0.0
 13
7.668716473347933
 23
1.831566247148371
 33
0.0
  0
MTEXT
  5
1302
330
CCA
100
AcDbEntity
  8
0
 62
     0
100
AcDbMText
 10
7.668716473347933
 20
1.739066247148373
 30
0.0
 40
0.125
 41
0.0
 71
     5
 72
     1
  1
\A1;F
1001
ACAD
1000
MTEXTBEGIN
1070
    73
1070
     1
1070
    44
1040
1.0
1070
    74
1070
     0
1000
MTEXTEND
  0
POINT
  5
1303
330
CCA
100
AcDbEntity
  8
DEFPOINTS
 62
     0
100
AcDbPoint
 10
7.994554835233997
 20
1.646566247148371
 30
0.0
  0
POINT
  5
1304
330
CCA
100
AcDbEntity
  8
DEFPOINTS
 62
     0
100
AcDbPoint
 10
7.994554835233997
 20
1.831566247148371
 30
0.0
  0
POINT
  5
1305
330
CCA
100
AcDbEntity
  8
DEFPOINTS
 62
     0
100
AcDbPoint
 10
7.668716473347933
 20
1.831566247148371
 30
0.0
  0
ENDBLK
  5
CD7
330
CCA
100
AcDbEntity
  8
0
100
AcDbBlockEnd
  0
BLOCK
  5
CE3
330
CD8
100
AcDbEntity
  8
0
100
AcDbBlockBegin
  2
*D21
 70
     1
 10
0.0
 20
0.0
 30
0.0
  3
*D21
  1

  0
LINE
  5
12DE
330
CD8
100
AcDbEntity
  8
0
 62
     0
100
AcDbLine
 10
6.419550417944877
 20
3.004568029473471
 30
0.0
 11
6.419550417944877
 21
2.732909789887908
 31
0.0
  0
LINE
  5
12DF
330
CD8
100
AcDbEntity
  8
0
 62
     0
100
AcDbLine
 10
6.479550417944878
 20
3.004568029473471
 30
0.0
 11
6.479550417944878
 21
2.732909789887908
 31
0.0
  0
LINE
  5
12E0
330
CD8
100
AcDbEntity
  8
0
 62
     0
100
AcDbLine
 10
6.659550417944878
 20
2.825909789887908
 30
0.0
 11
6.839550417944878
 21
2.825909789887908
 31
0.0
  0
LINE
  5
12E1
330
CD8
100
AcDbEntity
  8
0
 62
     0
100
AcDbLine
 10
6.239550417944878
 20
2.825909789887908
 30
0.0
 11
6.031977030890817
 21
2.825909789887908
 31
0.0
  0
SOLID
  5
12E2
330
CD8
100
AcDbEntity
  8
0
 62
     0
100
AcDbTrace
 10
6.659550417944878
 20
2.855909789887908
 30
0.0
 11
6.659550417944878
 21
2.795909789887908
 31
0.0
 12
6.479550417944878
 22
2.825909789887908
 32
0.0
 13
6.479550417944878
 23
2.825909789887908
 33
0.0
  0
SOLID
  5
12E3
330
CD8
100
AcDbEntity
  8
0
 62
     0
100
AcDbTrace
 10
6.239550417944878
 20
2.855909789887908
 30
0.0
 11
6.239550417944878
 21
2.795909789887908
 31
0.0
 12
6.419550417944877
 22
2.825909789887908
 32
0.0
 13
6.419550417944877
 23
2.825909789887908
 33
0.0
  0
MTEXT
  5
12E4
330
CD8
100
AcDbEntity
  8
0
 62
     0
100
AcDbMText
 10
5.910727030890817
 20
2.825909789887908
 30
0.0
 40
0.125
 41
0.0
 71
     5
 72
     1
  1
\A1;E
1001
ACAD
1000
MTEXTBEGIN
1070
    73
1070
     1
1070
    44
1040
1.0
1070
    74
1070
     0
1000
MTEXTEND
  0
POINT
  5
12E5
330
CD8
100
AcDbEntity
  8
DEFPOINTS
 62
     0
100
AcDbPoint
 10
6.419550417944877
 20
3.067568029473471
 30
0.0
  0
POINT
  5
12E6
330
CD8
100
AcDbEntity
  8
DEFPOINTS
 62
     0
100
AcDbPoint
 10
6.479550417944878
 20
3.067568029473471
 30
0.0
  0
POINT
  5
12E7
330
CD8
100
AcDbEntity
  8
DEFPOINTS
 62
     0
100
AcDbPoint
 10
6.479550417944878
 20
2.825909789887908
 30
0.0
  0
ENDBLK
  5
CE4
330
CD8
100
AcDbEntity
  8
0
100
AcDbBlockEnd
  0
BLOCK
  5
E07
330
DFC
100
AcDbEntity
  8
0
100
AcDbBlockBegin
  2
*D22
 70
     1
 10
0.0
 20
0.0
 30
0.0
  3
*D22
  1

  0
LINE
  5
126D
330
DFC
100
AcDbEntity
  8
0
 62
     0
100
AcDbLine
 10
5.437550417944875
 20
3.317568029473473
 30
0.0
 11
5.080717646400402
 21
3.317568029473473
 31
0.0
  0
LINE
  5
126E
330
DFC
100
AcDbEntity
  8
0
 62
     0
100
AcDbLine
 10
5.467550417944876
 20
3.257568029473471
 30
0.0
 11
5.080717646400402
 21
3.257568029473471
 31
0.0
  0
LINE
  5
126F
330
DFC
100
AcDbEntity
  8
0
 62
     0
100
AcDbLine
 10
5.173717646400402
 20
3.497568029473473
 30
0.0
 11
5.173717646400402
 21
3.677568029473473
 31
0.0
  0
LINE
  5
1270
330
DFC
100
AcDbEntity
  8
0
 62
     0
100
AcDbLine
 10
5.173717646400402
 20
3.077568029473471
 30
0.0
 11
5.173717646400402
 21
2.897568029473471
 31
0.0
  0
LINE
  5
1271
330
DFC
100
AcDbEntity
  8
0
 62
     0
100
AcDbLine
 10
5.173717646400402
 20
2.897568029473471
 30
0.0
 11
4.993717646400402
 21
2.897568029473472
 31
0.0
  0
SOLID
  5
1272
330
DFC
100
AcDbEntity
  8
0
 62
     0
100
AcDbTrace
 10
5.143717646400402
 20
3.497568029473473
 30
0.0
 11
5.203717646400402
 21
3.497568029473473
 31
0.0
 12
5.173717646400402
 22
3.317568029473473
 32
0.0
 13
5.173717646400402
 23
3.317568029473473
 33
0.0
  0
SOLID
  5
1273
330
DFC
100
AcDbEntity
  8
0
 62
     0
100
AcDbTrace
 10
5.143717646400402
 20
3.077568029473471
 30
0.0
 11
5.203717646400402
 21
3.077568029473471
 31
0.0
 12
5.173717646400402
 22
3.257568029473471
 32
0.0
 13
5.173717646400402
 23
3.257568029473471
 33
0.0
  0
MTEXT
  5
1274
330
DFC
100
AcDbEntity
  8
0
 62
     0
100
AcDbMText
 10
4.872467646400401
 20
2.897568029473472
 30
0.0
 40
0.125
 41
0.0
 71
     5
 72
     1
  1
\A1;C
1001
ACAD
1000
MTEXTBEGIN
1070
    73
1070
     1
1070
    44
1040
1.0
1070
    74
1070
     0
1000
MTEXTEND
  0
POINT
  5
1275
330
DFC
100
AcDbEntity
  8
DEFPOINTS
 62
     0
100
AcDbPoint
 10
5.500550417944874
 20
3.317568029473473
 30
0.0
  0
POINT
  5
1276
330
DFC
100
AcDbEntity
  8
DEFPOINTS
 62
     0
100
AcDbPoint
 10
5.530550417944875
 20
3.257568029473471
 30
0.0
  0
POINT
  5
1277
330
DFC
100
AcDbEntity
  8
DEFPOINTS
 62
     0
100
AcDbPoint
 10
5.173717646400402
 20
3.257568029473471
 30
0.0
  0
ENDBLK
  5
E08
330
DFC
100
AcDbEntity
  8
0
100
AcDbBlockEnd
  0
BLOCK
  5
E6D
330
E61
100
AcDbEntity
  8
0
100
AcDbBlockBegin
  2
*D23
 70
     1
 10
0.0
 20
0.0
 30
0.0
  3
*D23
  1

  0
LINE
  5
12D4
330
E61
100
AcDbEntity
  8
0
 62
     0
100
AcDbLine
 10
6.542550417944878
 20
3.067568029473471
 30
0.0
 11
7.00992822373551
 21
3.067568029473471
 31
0.0
  0
LINE
  5
12D5
330
E61
100
AcDbEntity
  8
0
 62
     0
100
AcDbLine
 10
6.573550417944877
 20
3.31756802947347
 30
0.0
 11
7.00992822373551
 21
3.31756802947347
 31
0.0
  0
LINE
  5
12D6
330
E61
100
AcDbEntity
  8
0
 62
     0
100
AcDbLine
 10
6.91692822373551
 20
2.887568029473471
 30
0.0
 11
6.91692822373551
 21
2.707568029473471
 31
0.0
  0
LINE
  5
12D7
330
E61
100
AcDbEntity
  8
0
 62
     0
100
AcDbLine
 10
6.91692822373551
 20
3.497568029473471
 30
0.0
 11
6.91692822373551
 21
3.67756802947347
 31
0.0
  0
SOLID
  5
12D8
330
E61
100
AcDbEntity
  8
0
 62
     0
100
AcDbTrace
 10
6.88692822373551
 20
2.887568029473471
 30
0.0
 11
6.94692822373551
 21
2.887568029473471
 31
0.0
 12
6.91692822373551
 22
3.067568029473471
 32
0.0
 13
6.91692822373551
 23
3.067568029473471
 33
0.0
  0
SOLID
  5
12D9
330
E61
100
AcDbEntity
  8
0
 62
     0
100
AcDbTrace
 10
6.88692822373551
 20
3.497568029473471
 30
0.0
 11
6.94692822373551
 21
3.497568029473471
 31
0.0
 12
6.91692822373551
 22
3.31756802947347
 32
0.0
 13
6.91692822373551
 23
3.31756802947347
 33
0.0
  0
MTEXT
  5
12DA
330
E61
100
AcDbEntity
  8
0
 62
     0
100
AcDbMText
 10
6.916928223735509
 20
3.192568029473472
 30
0.0
 40
0.125
 41
0.0
 71
     5
 72
     1
  1
\A1;D
1001
ACAD
1000
MTEXTBEGIN
1070
    73
1070
     1
1070
    44
1040
1.0
1070
    74
1070
     0
1000
MTEXTEND
  0
POINT
  5
12DB
330
E61
100
AcDbEntity
  8
DEFPOINTS
 62
     0
100
AcDbPoint
 10
6.479550417944878
 20
3.067568029473471
 30
0.0
  0
POINT
  5
12DC
330
E61
100
AcDbEntity
  8
DEFPOINTS
 62
     0
100
AcDbPoint
 10
6.510550417944878
 20
3.31756802947347
 30
0.0
  0
POINT
  5
12DD
330
E61
100
AcDbEntity
  8
DEFPOINTS
 62
     0
100
AcDbPoint
 10
6.91692822373551
 20
3.31756802947347
 30
0.0
  0
ENDBLK
  5
E6E
330
E61
100
AcDbEntity
  8
0
100
AcDbBlockEnd
  0
BLOCK
  5
EE0
330
ED5
100
AcDbEntity
  8
0
100
AcDbBlockBegin
  2
*D24
 70
     1
 10
0.0
 20
0.0
 30
0.0
  3
*D24
  1

  0
LINE
  5
12E8
330
ED5
100
AcDbEntity
  8
0
 62
     0
100
AcDbLine
 10
6.480550417944878
 20
1.389216817085133
 30
0.0
 11
6.480550417944878
 21
1.350329760429139
 31
0.0
  0
LINE
  5
12E9
330
ED5
100
AcDbEntity
  8
0
 62
     0
100
AcDbLine
 10
6.510550417944878
 20
1.389216817085133
 30
0.0
 11
6.510550417944878
 21
1.350329760429139
 31
0.0
  0
LINE
  5
12EA
330
ED5
100
AcDbEntity
  8
0
 62
     0
100
AcDbLine
 10
6.300550417944879
 20
1.443329760429139
 30
0.0
 11
6.120550417944878
 21
1.443329760429139
 31
0.0
  0
LINE
  5
12EB
330
ED5
100
AcDbEntity
  8
0
 62
     0
100
AcDbLine
 10
6.690550417944877
 20
1.443329760429139
 30
0.0
 11
6.870550417944878
 21
1.443329760429139
 31
0.0
  0
SOLID
  5
12EC
330
ED5
100
AcDbEntity
  8
0
 62
     0
100
AcDbTrace
 10
6.300550417944879
 20
1.473329760429139
 30
0.0
 11
6.300550417944879
 21
1.413329760429139
 31
0.0
 12
6.480550417944878
 22
1.443329760429139
 32
0.0
 13
6.480550417944878
 23
1.443329760429139
 33
0.0
  0
SOLID
  5
12ED
330
ED5
100
AcDbEntity
  8
0
 62
     0
100
AcDbTrace
 10
6.690550417944877
 20
1.473329760429139
 30
0.0
 11
6.690550417944877
 21
1.413329760429139
 31
0.0
 12
6.510550417944878
 22
1.443329760429139
 32
0.0
 13
6.510550417944878
 23
1.443329760429139
 33
0.0
  0
MTEXT
  5
12EE
330
ED5
100
AcDbEntity
  8
0
 62
     0
100
AcDbMText
 10
7.257425417944878
 20
1.443329760429139
 30
0.0
 40
0.125
 41
0.0
 71
     5
 72
     1
  1
\A1;G (TYP.)
1001
ACAD
1000
MTEXTBEGIN
1070
    73
1070
     1
1070
    44
1040
1.0
1070
    74
1070
     0
1000
MTEXTEND
  0
POINT
  5
12EF
330
ED5
100
AcDbEntity
  8
DEFPOINTS
 62
     0
100
AcDbPoint
 10
6.480550417944878
 20
1.452216817085133
 30
0.0
  0
POINT
  5
12F0
330
ED5
100
AcDbEntity
  8
DEFPOINTS
 62
     0
100
AcDbPoint
 10
6.510550417944878
 20
1.452216817085133
 30
0.0
  0
POINT
  5
12F1
330
ED5
100
AcDbEntity
  8
DEFPOINTS
 62
     0
100
AcDbPoint
 10
6.510550417944878
 20
1.443329760429139
 30
0.0
  0
ENDBLK
  5
EE1
330
ED5
100
AcDbEntity
  8
0
100
AcDbBlockEnd
  0
ENDSEC
  0
SECTION
  2
ENTITIES
  0
TEXT
  5
2A
330
1E
100
AcDbEntity
  8
0
100
AcDbText
 10
0.2078333333333363
 20
15.22007919564008
 30
0.0
 40
0.125
  1
NAME
 72
     1
 11
0.4370000000000031
 21
15.22007919564008
 31
0.0
100
AcDbText
  0
TEXT
  5
2C
330
1E
100
AcDbEntity
  8
0
100
AcDbText
 10
0.2078333333333363
 20
15.42841252897341
 30
0.0
 40
0.125
  1
PART
 72
     1
 11
0.4370000000000031
 21
15.42841252897341
 31
0.0
100
AcDbText
  0
LINE
  5
32
330
1E
100
AcDbEntity
  8
0
100
AcDbLine
 10
0.8120000000000029
 20
15.17999999999999
 30
0.0
 11
0.8120000000000009
 21
15.598
 31
0.0
  0
LINE
  5
33
330
1E
100
AcDbEntity
  8
0
100
AcDbLine
 10
0.0620000000000012
 20
15.17999999999999
 30
0.0
 11
10.538
 21
15.17999999999999
 31
0.0
  0
LINE
  5
34
330
1E
100
AcDbEntity
  8
0
100
AcDbLine
 10
10.538
 20
0.0619999999999994
 30
0.0
 11
0.0619999999999976
 21
0.0620000000000012
 31
0.0
  0
LINE
  5
35
330
1E
100
AcDbEntity
  8
0
100
AcDbLine
 10
10.538
 20
15.598
 30
0.0
 11
10.538
 21
9.972609752875355
 31
0.0
  0
LINE
  5
36
330
1E
100
AcDbEntity
  8
0
100
AcDbLine
 10
0.0620000000000012
 20
15.598
 30
0.0
 11
10.538
 21
15.598
 31
0.0
  0
LINE
  5
37
330
1E
100
AcDbEntity
  8
0
100
AcDbLine
 10
0.0619999999999976
 20
0.0620000000000012
 30
0.0
 11
0.0619999999999994
 21
9.910609752875362
 31
0.0
  0
LINE
  5
38
330
1E
100
AcDbEntity
  8
0
100
AcDbLine
 10
0.0
 20
0.0
 30
0.0
 11
0.0
 21
15.66
 31
0.0
  0
LINE
  5
39
330
1E
100
AcDbEntity
  8
0
100
AcDbLine
 10
10.6
 20
-0.0000000000000018
 30
0.0
 11
0.0
 21
0.0
 31
0.0
  0
LINE
  5
3A
330
1E
100
AcDbEntity
  8
0
100
AcDbLine
 10
10.6
 20
15.65999999999999
 30
0.0
 11
10.6
 21
-0.0000000000000018
 31
0.0
  0
LINE
  5
3B
330
1E
100
AcDbEntity
  8
0
100
AcDbLine
 10
0.0
 20
15.66
 30
0.0
 11
10.6
 21
15.65999999999999
 31
0.0
  0
LINE
  5
1A9
330
1E
100
AcDbEntity
  8
0
100
AcDbLine
 10
5.220458586896413
 20
11.90566629958271
 30
0.0
 11
7.120458586896415
 21
11.90566629958271
 31
0.0
  0
LINE
  5
1AA
330
1E
100
AcDbEntity
  8
0
100
AcDbLine
 10
7.170458586896412
 20
11.95566629958272
 30
0.0
 11
7.170458586896412
 21
13.35566629958272
 31
0.0
  0
LINE
  5
1AB
330
1E
100
AcDbEntity
  8
0
100
AcDbLine
 10
7.120458586896415
 20
13.40566629958272
 30
0.0
 11
5.220458586896413
 21
13.40566629958272
 31
0.0
  0
LINE
  5
1AC
330
1E
100
AcDbEntity
  8
0
100
AcDbLine
 10
5.170458586896415
 20
13.35566629958272
 30
0.0
 11
5.170458586896415
 21
11.95566629958272
 31
0.0
  0
LINE
  5
1AD
330
1E
100
AcDbEntity
  8
0
100
AcDbLine
 10
5.238458586896412
 20
11.97366629958271
 30
0.0
 11
7.102458586896413
 21
11.97366629958271
 31
0.0
  0
LINE
  5
1AE
330
1E
100
AcDbEntity
  8
0
100
AcDbLine
 10
7.102458586896413
 20
11.97366629958271
 30
0.0
 11
7.102458586896413
 21
13.33766629958271
 31
0.0
  0
LINE
  5
1AF
330
1E
100
AcDbEntity
  8
0
100
AcDbLine
 10
5.238458586896412
 20
13.33766629958271
 30
0.0
 11
5.238458586896412
 21
11.97366629958271
 31
0.0
  0
LINE
  5
1B0
330
1E
100
AcDbEntity
  8
0
100
AcDbLine
 10
7.102458586896413
 20
13.33766629958271
 30
0.0
 11
5.238458586896412
 21
13.33766629958271
 31
0.0
  0
LINE
  5
1B1
330
1E
100
AcDbEntity
  8
0
100
AcDbLine
 10
7.039458586896414
 20
13.27466629958272
 30
0.0
 11
5.301458586896416
 21
13.27466629958272
 31
0.0
  0
LINE
  5
1B2
330
1E
100
AcDbEntity
  8
0
100
AcDbLine
 10
7.039458586896412
 20
12.03666629958272
 30
0.0
 11
7.039458586896412
 21
12.22366629958272
 31
0.0
  0
LINE
  5
1B3
330
1E
100
AcDbEntity
  8
0
100
AcDbLine
 10
5.301458586896416
 20
12.03666629958272
 30
0.0
 11
7.039458586896412
 21
12.03666629958272
 31
0.0
  0
LINE
  5
1B4
330
1E
100
AcDbEntity
  8
0
100
AcDbLine
 10
5.301458586896416
 20
13.27466629958272
 30
0.0
 11
5.301458586896416
 21
12.03666629958272
 31
0.0
  0
ARC
  5
1B5
330
1E
100
AcDbEntity
  8
0
100
AcDbCircle
 10
7.120458586896415
 20
13.35566629958272
 30
0.0
 40
0.05
100
AcDbArc
 50
0.0
 51
90.0
  0
ARC
  5
1B6
330
1E
100
AcDbEntity
  8
0
100
AcDbCircle
 10
7.120458586896415
 20
11.95566629958272
 30
0.0
 40
0.05
100
AcDbArc
 50
270.0
 51
0.0
  0
ARC
  5
1B7
330
1E
100
AcDbEntity
  8
0
100
AcDbCircle
 10
5.220458586896413
 20
11.95566629958272
 30
0.0
 40
0.05
100
AcDbArc
 50
180.0
 51
270.0
  0
ARC
  5
1B8
330
1E
100
AcDbEntity
  8
0
100
AcDbCircle
 10
5.220458586896413
 20
13.35566629958272
 30
0.0
 40
0.05
100
AcDbArc
 50
90.0
 51
180.0
  0
LINE
  5
1B9
330
1E
100
AcDbEntity
  8
0
100
AcDbLine
 10
7.017458586896412
 20
12.22366629958272
 30
0.0
 11
7.102458586896413
 21
12.22366629958272
 31
0.0
  0
LINE
  5
1BA
330
1E
100
AcDbEntity
  8
0
100
AcDbLine
 10
7.017458586896412
 20
12.72366629958272
 30
0.0
 11
7.102458586896413
 21
12.72366629958272
 31
0.0
  0
LINE
  5
1BB
330
1E
100
AcDbEntity
  8
0
100
AcDbLine
 10
7.017458586896412
 20
12.22366629958272
 30
0.0
 11
7.017458586896412
 21
12.72366629958272
 31
0.0
  0
LINE
  5
1BC
330
1E
100
AcDbEntity
  8
0
100
AcDbLine
 10
7.039458586896412
 20
12.72366629958272
 30
0.0
 11
7.039458586896414
 21
13.27466629958272
 31
0.0
  0
LINE
  5
1BD
330
1E
100
AcDbEntity
  8
0
100
AcDbLine
 10
8.517585237262471
 20
13.40566629958272
 30
0.0
 11
8.504585237262471
 21
13.40566629958272
 31
0.0
  0
LINE
  5
1BE
330
1E
100
AcDbEntity
  8
0
100
AcDbLine
 10
8.504585237262473
 20
11.90566629958271
 30
0.0
 11
8.517585237262473
 21
11.90566629958271
 31
0.0
  0
LINE
  5
1BF
330
1E
100
AcDbEntity
  8
0
100
AcDbLine
 10
8.504585237262471
 20
13.33766629958271
 30
0.0
 11
8.404585237262471
 21
13.33766629958271
 31
0.0
  0
LINE
  5
1C0
330
1E
100
AcDbEntity
  8
0
100
AcDbLine
 10
8.404585237262473
 20
11.97366629958271
 30
0.0
 11
8.504585237262473
 21
11.97366629958271
 31
0.0
  0
LINE
  5
1C1
330
1E
100
AcDbEntity
  8
0
100
AcDbLine
 10
8.342585237262472
 20
12.22366629958272
 30
0.0
 11
8.342585237262472
 21
12.72366629958272
 31
0.0
  0
LINE
  5
1C2
330
1E
100
AcDbEntity
  8
0
100
AcDbLine
 10
8.342585237262472
 20
12.22366629958272
 30
0.0
 11
8.404585237262473
 21
12.22366629958272
 31
0.0
  0
LINE
  5
1C3
330
1E
100
AcDbEntity
  8
0
100
AcDbLine
 10
8.342585237262472
 20
12.72366629958272
 30
0.0
 11
8.404585237262471
 21
12.72366629958272
 31
0.0
  0
LINE
  5
1C4
330
1E
100
AcDbEntity
  8
0
100
AcDbLine
 10
8.567585237262473
 20
11.95566629958272
 30
0.0
 11
8.56758523726247
 21
13.35566629958272
 31
0.0
  0
LINE
  5
1C5
330
1E
100
AcDbEntity
  8
0
100
AcDbLine
 10
8.404585237262473
 20
11.97366629958271
 30
0.0
 11
8.404585237262471
 21
13.33766629958271
 31
0.0
  0
LINE
  5
1C6
330
1E
100
AcDbEntity
  8
0
100
AcDbLine
 10
8.504585237262473
 20
11.90566629958271
 30
0.0
 11
8.504585237262471
 21
13.40566629958272
 31
0.0
  0
LINE
  5
1C7
330
1E
100
AcDbEntity
  8
0
100
AcDbLine
 10
7.017458586896412
 20
14.59172547210568
 30
0.0
 11
7.017458586896412
 21
14.65372547210568
 31
0.0
  0
LINE
  5
1C8
330
1E
100
AcDbEntity
  8
0
100
AcDbLine
 10
5.220458586896413
 20
14.81672547210568
 30
0.0
 11
7.12045858689641
 21
14.81672547210568
 31
0.0
  0
LINE
  5
1C9
330
1E
100
AcDbEntity
  8
0
100
AcDbLine
 10
5.170458586896415
 20
14.75372547210569
 30
0.0
 11
7.170458586896412
 21
14.75372547210568
 31
0.0
  0
LINE
  5
1CA
330
1E
100
AcDbEntity
  8
0
100
AcDbLine
 10
7.017458586896412
 20
14.59172547210568
 30
0.0
 11
7.10245858689641
 21
14.59172547210568
 31
0.0
  0
LINE
  5
1CB
330
1E
100
AcDbEntity
  8
0
100
AcDbLine
 10
5.238458586896412
 20
14.65372547210568
 30
0.0
 11
7.10245858689641
 21
14.65372547210568
 31
0.0
  0
LINE
  5
1CC
330
1E
100
AcDbEntity
  8
0
100
AcDbLine
 10
5.170458586896415
 20
14.75372547210569
 30
0.0
 11
5.170458586896415
 21
14.76672547210569
 31
0.0
  0
LINE
  5
1CD
330
1E
100
AcDbEntity
  8
0
100
AcDbLine
 10
5.238458586896412
 20
14.65372547210568
 30
0.0
 11
5.238458586896412
 21
14.75372547210569
 31
0.0
  0
LINE
  5
1CE
330
1E
100
AcDbEntity
  8
0
100
AcDbLine
 10
7.10245858689641
 20
14.75372547210568
 30
0.0
 11
7.10245858689641
 21
14.59172547210568
 31
0.0
  0
LINE
  5
1CF
330
1E
100
AcDbEntity
  8
0
100
AcDbLine
 10
7.170458586896412
 20
14.76672547210569
 30
0.0
 11
7.170458586896412
 21
14.75372547210568
 31
0.0
  0
ARC
  5
1D7
330
1E
100
AcDbEntity
  8
0
100
AcDbCircle
 10
7.12045858689641
 20
14.76672547210569
 30
0.0
 40
0.05
100
AcDbArc
 50
0.0
 51
89.99999999999991
  0
ARC
  5
1D8
330
1E
100
AcDbEntity
  8
0
100
AcDbCircle
 10
5.220458586896413
 20
14.76672547210569
 30
0.0
 40
0.05
100
AcDbArc
 50
89.99999999999991
 51
180.0
  0
ARC
  5
1D9
330
1E
100
AcDbEntity
  8
0
100
AcDbCircle
 10
8.517585237262473
 20
11.95566629958272
 30
0.0
 40
0.05
100
AcDbArc
 50
270.0
 51
0.0000000000000579
  0
ARC
  5
1DA
330
1E
100
AcDbEntity
  8
0
100
AcDbCircle
 10
8.517585237262471
 20
13.35566629958272
 30
0.0
 40
0.05
100
AcDbArc
 50
0.0000000000001088
 51
90.0000000000004
  0
DIMENSION
  5
1DB
330
1E
100
AcDbEntity
  8
0
100
AcDbDimension
  2
*D0
 10
4.434705339745998
 20
11.90566629958271
 30
0.0
 11
4.434705339745996
 21
12.65566629958272
 31
0.0
 70
    32
  1
C
  3
STD
100
AcDbAlignedDimension
 13
5.220458586896413
 23
13.40566629958272
 33
0.0
 14
5.220458586896413
 24
11.90566629958271
 34
0.0
 50
90.0
100
AcDbRotatedDimension
  0
DIMENSION
  5
1DC
330
1E
100
AcDbEntity
  8
0
100
AcDbDimension
  2
*D1
 10
7.170458586896412
 20
13.96544554160463
 30
0.0
 11
6.170458586896414
 21
13.96544554160463
 31
0.0
 70
    32
  1
A
  3
STD
100
AcDbAlignedDimension
 13
5.170458586896415
 23
13.35566629958272
 33
0.0
 14
7.170458586896412
 24
13.35566629958272
 34
0.0
100
AcDbRotatedDimension
  0
DIMENSION
  5
1DD
330
1E
100
AcDbEntity
  8
0
100
AcDbDimension
  2
*D2
 10
8.404585237262471
 20
13.99042091662632
 30
0.0
 11
7.923335237262471
 21
13.99042091662632
 31
0.0
 70
    32
  1
K
  3
STD
100
AcDbAlignedDimension
 13
8.56758523726247
 23
13.35566629958272
 33
0.0
 14
8.404585237262471
 24
13.33766629958271
 34
0.0
 50
180.0
100
AcDbRotatedDimension
  0
DIMENSION
  5
1DE
330
1E
100
AcDbEntity
  8
0
100
AcDbDimension
  2
*D3
 10
8.504585237262471
 20
13.68170572122115
 30
0.0
 11
8.023335237262472
 21
13.68170572122115
 31
0.0
 70
    32
  1
J
  3
STD
100
AcDbAlignedDimension
 13
8.56758523726247
 23
13.35566629958272
 33
0.0
 14
8.504585237262471
 24
13.40566629958272
 34
0.0
 50
180.0
100
AcDbRotatedDimension
  0
DIMENSION
  5
1DF
330
1E
100
AcDbEntity
  8
0
100
AcDbDimension
  2
*D4
 10
5.671304640235734
 20
11.97366629958271
 30
0.0
 11
5.057554640235733
 21
11.61366629958272
 31
0.0
 70
    32
  1
E  (TYP.)
  3
STD
100
AcDbAlignedDimension
 13
5.639454265601422
 23
12.03666629958272
 33
0.0
 14
5.639454265601422
 24
11.97366629958271
 34
0.0
 50
90.0
100
AcDbRotatedDimension
  0
DIMENSION
  5
1E2
330
1E
100
AcDbEntity
  8
0
100
AcDbDimension
  2
*D5
 10
7.643812224535522
 20
13.33766629958271
 30
0.0
 11
7.64381222453552
 21
13.03066629958272
 31
0.0
 70
    32
  1
G
  3
STD
100
AcDbAlignedDimension
 13
8.342585237262472
 23
12.72366629958272
 33
0.0
 14
8.404585237262471
 24
13.33766629958271
 34
0.0
 50
90.0
100
AcDbRotatedDimension
  0
DIMENSION
  5
1E3
330
1E
100
AcDbEntity
  8
0
100
AcDbDimension
  2
*D6
 10
8.003186553010602
 20
12.22366629958272
 30
0.0
 11
8.003186553010598
 21
12.47366629958272
 31
0.0
 70
    32
  1
H
  3
STD
100
AcDbAlignedDimension
 13
8.342585237262472
 23
12.72366629958272
 33
0.0
 14
8.342585237262472
 24
12.22366629958272
 34
0.0
 50
90.0
100
AcDbRotatedDimension
  0
DIMENSION
  5
1E4
330
1E
100
AcDbEntity
  8
0
100
AcDbDimension
  2
*D7
 10
7.10245858689641
 20
14.29988063453834
 30
0.0
 11
7.58370858689641
 21
14.29988063453834
 31
0.0
 70
    32
  1
F
  3
STD
100
AcDbAlignedDimension
 13
7.017458586896412
 23
14.59172547210568
 33
0.0
 14
7.10245858689641
 24
14.59172547210568
 34
0.0
100
AcDbRotatedDimension
  0
DIMENSION
  5
1E5
330
1E
100
AcDbEntity
  8
0
100
AcDbDimension
  2
*D8
 10
7.039458586896414
 20
13.68170572122115
 30
0.0
 11
6.170458586896415
 21
13.68170572122115
 31
0.0
 70
    32
  1
B
  3
STD
100
AcDbAlignedDimension
 13
5.301458586896416
 23
13.27466629958272
 33
0.0
 14
7.039458586896414
 24
13.27466629958272
 34
0.0
100
AcDbRotatedDimension
  0
DIMENSION
  5
1E6
330
1E
100
AcDbEntity
  8
0
100
AcDbDimension
  2
*D9
 10
4.823897081778357
 20
12.03666629958272
 30
0.0
 11
4.823897081778356
 21
12.65566629958272
 31
0.0
 70
    32
  1
D
  3
STD
100
AcDbAlignedDimension
 13
5.301458586896416
 23
13.27466629958272
 33
0.0
 14
5.301458586896416
 24
12.03666629958272
 34
0.0
 50
90.0
100
AcDbRotatedDimension
  0
DIMENSION
  5
1E7
330
1E
100
AcDbEntity
  8
0
100
AcDbDimension
  2
*D10
 10
8.342585237262472
 20
11.6237531731215
 30
0.0
 11
7.861335237262472
 21
11.6237531731215
 31
0.0
 70
    32
  1
L
  3
STD
100
AcDbAlignedDimension
 13
8.404585237262473
 23
11.97366629958271
 33
0.0
 14
8.342585237262472
 24
12.22366629958272
 34
0.0
 50
180.0
100
AcDbRotatedDimension
  0
LINE
  5
2E8
330
1E
100
AcDbEntity
  8
0
100
AcDbLine
 10
0.0619999999999994
 20
9.972609752875364
 30
0.0
 11
10.538
 21
9.972609752875355
 31
0.0
  0
LINE
  5
2E9
330
1E
100
AcDbEntity
  8
0
100
AcDbLine
 10
0.0620000000000012
 20
9.910609752875359
 30
0.0
 11
10.538
 21
9.910609752875359
 31
0.0
  0
LINE
  5
2EA
330
1E
100
AcDbEntity
  8
0
100
AcDbLine
 10
0.0620000000000012
 20
9.492609752875358
 30
0.0
 11
10.538
 21
9.492609752875358
 31
0.0
  0
TEXT
  5
2EB
330
1E
100
AcDbEntity
  8
0
100
AcDbText
 10
0.2078333333333363
 20
9.741022281848774
 30
0.0
 40
0.125
  1
PART
 72
     1
 11
0.4370000000000031
 21
9.741022281848774
 31
0.0
100
AcDbText
  0
TEXT
  5
2EC
330
1E
100
AcDbEntity
  8
0
100
AcDbText
 10
0.2078333333333363
 20
9.532688948515444
 30
0.0
 40
0.125
  1
NAME
 72
     1
 11
0.4370000000000031
 21
9.532688948515444
 31
0.0
100
AcDbText
  0
LINE
  5
2ED
330
1E
100
AcDbEntity
  8
0
100
AcDbLine
 10
0.8120000000000029
 20
9.492609752875358
 30
0.0
 11
0.8120000000000009
 21
9.910609752875359
 31
0.0
  0
LINE
  5
394
330
1E
100
AcDbEntity
  8
0
100
AcDbLine
 10
0.0619999999999995
 20
10.18060975287536
 30
0.0
 11
10.538
 21
10.18060975287535
 31
0.0
  0
LINE
  5
395
330
1E
100
AcDbEntity
  8
0
100
AcDbLine
 10
0.0619999999999995
 20
10.38860975287535
 30
0.0
 11
10.538
 21
10.38860975287535
 31
0.0
  0
LINE
  5
396
330
1E
100
AcDbEntity
  8
0
100
AcDbLine
 10
0.0619999999999996
 20
10.59660975287535
 30
0.0
 11
10.538
 21
10.59660975287535
 31
0.0
  0
LINE
  5
397
330
1E
100
AcDbEntity
  8
0
100
AcDbLine
 10
0.0619999999999996
 20
10.80460975287536
 30
0.0
 11
10.538
 21
10.80460975287534
 31
0.0
  0
LINE
  5
398
330
1E
100
AcDbEntity
  8
0
100
AcDbLine
 10
0.0619999999999996
 20
11.01260975287535
 30
0.0
 11
10.538
 21
11.01260975287534
 31
0.0
  0
LINE
  5
399
330
1E
100
AcDbEntity
  8
0
100
AcDbLine
 10
0.0619999999999997
 20
11.22060975287536
 30
0.0
 11
10.538
 21
11.22060975287535
 31
0.0
  0
TEXT
  5
39B
330
1E
100
AcDbEntity
  8
0
100
AcDbText
 10
1.412882216486368
 20
15.28884647282516
 30
0.0
 40
0.188
  1
POTTING BOX COVER
 41
0.75
 72
     1
 11
2.587882216486368
 21
15.28884647282516
 31
0.0
100
AcDbText
  0
TEXT
  5
39C
330
1E
100
AcDbEntity
  8
0
100
AcDbText
 10
5.867961016344471
 20
15.22020272507755
 30
0.0
 40
0.125
  1
PBC-1576-CN  PBC-1577-CN
 41
0.75
 72
     1
 11
6.946086016344471
 21
15.22020272507755
 31
0.0
100
AcDbText
  0
TEXT
  5
39E
330
1E
100
AcDbEntity
  8
0
100
AcDbText
 10
5.821086016344471
 20
15.4089730505478
 30
0.0
 40
0.125
  1
PBC-1558-C    PBC-1574-CN
 41
0.75
 72
     1
 11
6.946086016344471
 21
15.4089730505478
 31
0.0
100
AcDbText
  0
LINE
  5
43A
330
1E
100
AcDbEntity
  8
0
100
AcDbLine
 10
9.411288140444687
 20
7.774564765178335
 30
0.0
 11
9.411288140444687
 21
6.292564765178338
 31
0.0
  0
LINE
  5
43B
330
1E
100
AcDbEntity
  8
0
100
AcDbLine
 10
9.336288140444684
 20
7.737564765178332
 30
0.0
 11
9.336288140444684
 21
7.158564765178335
 31
0.0
  0
LINE
  5
43C
330
1E
100
AcDbEntity
  8
0
100
AcDbLine
 10
9.411288140444687
 20
7.774564765178335
 30
0.0
 11
9.351288140444687
 21
7.774564765178335
 31
0.0
  0
LINE
  5
43D
330
1E
100
AcDbEntity
  8
0
100
AcDbLine
 10
9.411288140444687
 20
6.292564765178338
 30
0.0
 11
9.351288140444687
 21
6.292564765178332
 31
0.0
  0
LINE
  5
43E
330
1E
100
AcDbEntity
  8
0
100
AcDbLine
 10
9.351288140444687
 20
7.774564765178335
 30
0.0
 11
9.351288140444687
 21
6.292564765178338
 31
0.0
  0
LINE
  5
43F
330
1E
100
AcDbEntity
  8
0
100
AcDbLine
 10
9.351288140444687
 20
7.737564765178332
 30
0.0
 11
9.336288140444684
 21
7.737564765178332
 31
0.0
  0
LINE
  5
440
330
1E
100
AcDbEntity
  8
0
100
AcDbLine
 10
9.351288140444687
 20
6.329564765178337
 30
0.0
 11
9.336288140444684
 21
6.329564765178337
 31
0.0
  0
LINE
  5
441
330
1E
100
AcDbEntity
  8
0
100
AcDbLine
 10
9.141288140444688
 20
7.158564765178332
 30
0.0
 11
9.141288140444688
 21
6.908564765178339
 31
0.0
  0
LINE
  5
442
330
1E
100
AcDbEntity
  8
0
100
AcDbLine
 10
9.336288140444684
 20
7.158564765178335
 30
0.0
 11
9.141288140444688
 21
7.158564765178332
 31
0.0
  0
LINE
  5
443
330
1E
100
AcDbEntity
  8
0
100
AcDbLine
 10
9.336288140444684
 20
6.908564765178339
 30
0.0
 11
9.141288140444688
 21
6.908564765178339
 31
0.0
  0
LINE
  5
444
330
1E
100
AcDbEntity
  8
0
100
AcDbLine
 10
9.336288140444684
 20
6.908564765178339
 30
0.0
 11
9.336288140444684
 21
6.329564765178337
 31
0.0
  0
LINE
  5
445
330
1E
100
AcDbEntity
  8
0
100
AcDbLine
 10
5.480265775896394
 20
8.917306335371213
 30
0.0
 11
7.462265775896392
 21
8.917306335371213
 31
0.0
  0
LINE
  5
446
330
1E
100
AcDbEntity
  8
0
100
AcDbLine
 10
5.480265775896394
 20
8.977306335371212
 30
0.0
 11
7.462265775896392
 21
8.977306335371212
 31
0.0
  0
LINE
  5
447
330
1E
100
AcDbEntity
  8
0
100
AcDbLine
 10
5.517265775896396
 20
8.902306335371212
 30
0.0
 11
7.425265775896392
 21
8.902306335371212
 31
0.0
  0
LINE
  5
448
330
1E
100
AcDbEntity
  8
0
100
AcDbLine
 10
5.480265775896394
 20
8.977306335371212
 30
0.0
 11
5.480265775896394
 21
8.917306335371213
 31
0.0
  0
LINE
  5
449
330
1E
100
AcDbEntity
  8
0
100
AcDbLine
 10
5.517265775896393
 20
8.917306335371213
 30
0.0
 11
5.517265775896393
 21
8.902306335371212
 31
0.0
  0
LINE
  5
44A
330
1E
100
AcDbEntity
  8
0
100
AcDbLine
 10
7.345265775896392
 20
8.707306335371214
 30
0.0
 11
7.425265775896392
 21
8.707306335371212
 31
0.0
  0
LINE
  5
44B
330
1E
100
AcDbEntity
  8
0
100
AcDbLine
 10
7.345265775896392
 20
8.902306335371212
 30
0.0
 11
7.345265775896392
 21
8.707306335371214
 31
0.0
  0
LINE
  5
44C
330
1E
100
AcDbEntity
  8
0
100
AcDbLine
 10
7.425265775896392
 20
8.917306335371213
 30
0.0
 11
7.425265775896392
 21
8.707306335371212
 31
0.0
  0
LINE
  5
44D
330
1E
100
AcDbEntity
  8
0
100
AcDbLine
 10
7.462265775896392
 20
8.977306335371212
 30
0.0
 11
7.462265775896392
 21
8.917306335371213
 31
0.0
  0
LWPOLYLINE
  5
44E
330
1E
100
AcDbEntity
  8
0
100
AcDbPolyline
 90
        8
 70
     1
 43
0.0
 10
5.527265775896391
 20
7.774564765178335
 10
7.415265775896393
 20
7.774564765178335
 42
-0.4142135623730951
 10
7.462265775896392
 20
7.727564765178335
 10
7.462265775896392
 20
6.339564765178329
 42
-0.4142135623730953
 10
7.415265775896393
 20
6.292564765178332
 10
5.527265775896391
 20
6.292564765178332
 42
-0.4142135623730945
 10
5.480265775896391
 20
6.339564765178333
 10
5.480265775896391
 20
7.727564765178335
 42
-0.4142135623730951
  0
LWPOLYLINE
  5
44F
330
1E
100
AcDbEntity
  8
0
100
AcDbPolyline
 90
        8
 70
     1
 43
0.0
 10
5.527265775896391
 20
7.737564765178332
 10
7.415265775896393
 20
7.737564765178332
 42
-0.4142135623730609
 10
7.425265775896394
 20
7.727564765178335
 10
7.425265775896394
 20
6.339564765178329
 42
-0.4142135623730871
 10
7.415265775896393
 20
6.329564765178332
 10
5.527265775896391
 20
6.329564765178332
 42
-0.4142135623730577
 10
5.517265775896389
 20
6.339564765178333
 10
5.517265775896389
 20
7.727564765178335
 42
-0.4142135623730806
  0
LINE
  5
450
330
1E
100
AcDbEntity
  8
0
100
AcDbLine
 10
7.345265775896392
 20
7.158564765178328
 30
0.0
 11
7.345265775896398
 21
6.908564765178339
 31
0.0
  0
LINE
  5
451
330
1E
100
AcDbEntity
  8
0
100
AcDbLine
 10
7.425265775896394
 20
7.158564765178328
 30
0.0
 11
7.345265775896392
 21
7.158564765178328
 31
0.0
  0
LINE
  5
452
330
1E
100
AcDbEntity
  8
0
100
AcDbLine
 10
7.425265775896394
 20
6.908564765178339
 30
0.0
 11
7.345265775896398
 21
6.908564765178339
 31
0.0
  0
DIMENSION
  5
469
330
1E
100
AcDbEntity
  8
0
100
AcDbDimension
  2
*D11
 10
7.462265775896392
 20
8.081467815568331
 30
0.0
 11
6.471265775896392
 21
8.081467815568331
 31
0.0
 70
    32
  1
A
  3
STD
100
AcDbAlignedDimension
 13
5.480265775896391
 23
7.727564765178335
 33
0.0
 14
7.462265775896392
 24
7.727564765178338
 34
0.0
 50
180.0
100
AcDbRotatedDimension
  0
DIMENSION
  5
46A
330
1E
100
AcDbEntity
  8
0
100
AcDbDimension
  2
*D12
 10
5.149116471526967
 20
6.292564765178332
 30
0.0
 11
5.149116471526965
 21
7.033564765178335
 31
0.0
 70
    32
  1
B
  3
STD
100
AcDbAlignedDimension
 13
5.527265775896391
 23
7.774564765178335
 33
0.0
 14
5.527265775896391
 24
6.292564765178332
 34
0.0
 50
90.0
100
AcDbRotatedDimension
  0
DIMENSION
  5
46B
330
1E
100
AcDbEntity
  8
0
100
AcDbDimension
  2
*D13
 10
7.425265775896392
 20
8.39322911776113
 30
0.0
 11
6.864015775896392
 21
8.39322911776113
 31
0.0
 70
   160
  1
E
  3
STD
100
AcDbAlignedDimension
 13
7.345265775896392
 23
8.707306335371214
 33
0.0
 14
7.425265775896392
 24
8.707306335371212
 34
0.0
100
AcDbRotatedDimension
  0
DIMENSION
  5
46C
330
1E
100
AcDbEntity
  8
0
100
AcDbDimension
  2
*D14
 10
8.844684230734113
 20
7.158564765178332
 30
0.0
 11
8.844684230734111
 21
7.033564765178335
 31
0.0
 70
    32
  1
F
  3
DIM
100
AcDbAlignedDimension
 13
9.141288140444688
 23
6.908564765178335
 33
0.0
 14
9.141288140444688
 24
7.158564765178332
 34
0.0
 50
270.0
100
AcDbRotatedDimension
  0
DIMENSION
  5
46D
330
1E
100
AcDbEntity
  8
0
100
AcDbDimension
  2
*D15
 10
7.856644348245619
 20
8.977306335371212
 30
0.0
 11
7.856644348245618
 21
8.842306335371214
 31
0.0
 70
    32
  1
D
  3
DIM
100
AcDbAlignedDimension
 13
7.425265775896392
 23
8.707306335371212
 33
0.0
 14
7.462265775896392
 24
8.977306335371212
 34
0.0
 50
270.0
100
AcDbRotatedDimension
  0
DIMENSION
  5
46E
330
1E
100
AcDbEntity
  8
0
100
AcDbDimension
  2
*D16
 10
5.149116471526966
 20
8.977306335371212
 30
0.0
 11
4.847866471526964
 21
8.542306335371215
 31
0.0
 70
   160
  1
C
  3
STD
100
AcDbAlignedDimension
 13
5.517265775896396
 23
8.902306335371212
 33
0.0
 14
5.480265775896394
 24
8.977306335371212
 34
0.0
 50
270.0
100
AcDbRotatedDimension
  0
DIMENSION
  5
46F
330
1E
100
AcDbEntity
  8
0
100
AcDbDimension
  2
*D17
 10
7.462265775896392
 20
6.534238834507441
 30
0.0
 11
8.287265775896392
 21
6.534238834507441
 31
0.0
 70
    32
  1
<> TYP.
  3
STD
100
AcDbAlignedDimension
 13
7.425265775896394
 23
6.547246849749852
 33
0.0
 14
7.462265775896392
 24
6.547246849749852
 34
0.0
100
AcDbRotatedDimension
  0
LINE
  5
516
330
1E
100
AcDbEntity
  8
0
100
AcDbLine
 10
10.538
 20
4.538972500336829
 30
0.0
 11
0.0619999999999976
 21
4.538972500336829
 31
0.0
  0
LINE
  5
517
330
1E
100
AcDbEntity
  8
0
100
AcDbLine
 10
10.538
 20
4.746972500336829
 30
0.0
 11
0.0619999999999976
 21
4.746972500336831
 31
0.0
  0
LINE
  5
518
330
1E
100
AcDbEntity
  8
0
100
AcDbLine
 10
10.538
 20
4.954972500336828
 30
0.0
 11
0.0619999999999976
 21
4.954972500336831
 31
0.0
  0
LINE
  5
519
330
1E
100
AcDbEntity
  8
0
100
AcDbLine
 10
10.538
 20
5.162972500336827
 30
0.0
 11
0.0619999999999976
 21
5.162972500336829
 31
0.0
  0
LINE
  5
51A
330
1E
100
AcDbEntity
  8
0
100
AcDbLine
 10
10.538
 20
5.370972500336828
 30
0.0
 11
0.0619999999999976
 21
5.37097250033683
 31
0.0
  0
LINE
  5
51B
330
1E
100
AcDbEntity
  8
0
100
AcDbLine
 10
10.538
 20
5.578972500336829
 30
0.0
 11
0.0619999999999976
 21
5.57897250033683
 31
0.0
  0
LINE
  5
51C
330
1E
100
AcDbEntity
  8
0
100
AcDbLine
 10
10.538
 20
5.786972500336826
 30
0.0
 11
0.0619999999999976
 21
5.78697250033683
 31
0.0
  0
LINE
  5
51D
330
1E
100
AcDbEntity
  8
0
100
AcDbLine
 10
10.538
 20
5.994972500336826
 30
0.0
 11
0.0619999999999976
 21
5.99497250033683
 31
0.0
  0
TEXT
  5
5DB
330
1E
100
AcDbEntity
  8
0
100
AcDbText
 10
0.3505281981447954
 20
13.86681467490745
 30
0.0
 40
0.125
  1
FINISH: SURFACES ARE SMOOTH.
 41
0.75
100
AcDbText
  0
TEXT
  5
5DC
330
1E
100
AcDbEntity
  8
0
100
AcDbText
 10
0.574105337734693
 20
14.48625762149666
 30
0.0
 40
0.125
  1
"M"  INCHES THICKNESS & CONTINUOUS
 41
0.75
100
AcDbText
  0
TEXT
  5
5DD
330
1E
100
AcDbEntity
  8
0
100
AcDbText
 10
0.574105337734693
 20
14.69459095482999
 30
0.0
 40
0.125
  1
(FLAMMABILITY RATING OF 94V-O AT
 41
0.75
100
AcDbText
  0
TEXT
  5
5DE
330
1E
100
AcDbEntity
  8
0
100
AcDbText
 10
0.3505281981447954
 20
14.90292428816334
 30
0.0
 40
0.125
  1
MATERIAL: ABS THERMOPLASTIC (CHI MEI POLYLAC PA-765)
 41
0.75
100
AcDbText
  0
TEXT
  5
5DF
330
1E
100
AcDbEntity
  8
0
100
AcDbText
 10
0.3505281981447954
 20
13.01755862090161
 30
0.0
 40
0.125
  1
COVER REDUCES INSIDE HEIGHT
 41
0.75
100
AcDbText
  0
TEXT
  5
5E0
330
1E
100
AcDbEntity
  8
0
100
AcDbText
 10
0.6381183455781674
 20
12.80922528756827
 30
0.0
 40
0.125
  1
OF BOX BY  "N"  INCHES.
 41
0.75
100
AcDbText
  0
TEXT
  5
5E1
330
1E
100
AcDbEntity
  8
0
100
AcDbText
 10
0.3505281981447954
 20
13.44218664790453
 30
0.0
 40
0.125
  1
COLOR: BLACK
 41
0.75
100
AcDbText
  0
TEXT
  5
5E2
330
1E
100
AcDbEntity
  8
0
100
AcDbText
 10
0.574105337734693
 20
14.27792428816334
 30
0.0
 40
0.125
  1
USE TEMPERATURE OF 70%%D C.)
 41
0.75
100
AcDbText
  0
LINE
  5
786
330
1E
100
AcDbEntity
  8
0
100
AcDbLine
 10
1.060514403886694
 20
9.972609752875364
 30
0.0
 11
1.060514403886694
 21
11.22060975287536
 31
0.0
  0
TEXT
  5
787
330
1E
100
AcDbEntity
  8
0
100
AcDbText
 10
0.1180054232641013
 20
10.84058547275561
 30
0.0
 40
0.125
  1
PBC-1558-C
 41
0.75
 72
     1
 11
0.5555054232641014
 21
10.84058547275561
 31
0.0
100
AcDbText
  0
TEXT
  5
788
330
1E
100
AcDbEntity
  8
0
100
AcDbText
 10
0.2273804232641013
 20
11.04858547275561
 30
0.0
 40
0.125
  1
PART No.
 41
0.75
 72
     1
 11
0.5555054232641014
 21
11.04858547275561
 31
0.0
100
AcDbText
  0
TEXT
  5
78D
330
1E
100
AcDbEntity
  8
0
100
AcDbText
 10
9.541160277835404
 20
11.04858547275561
 30
0.0
 40
0.125
  1
FITS BOX:
 41
0.75
 72
     1
 11
9.900535277835404
 21
11.04858547275561
 31
0.0
100
AcDbText
  0
TEXT
  5
78E
330
1E
100
AcDbEntity
  8
0
100
AcDbText
 10
9.463035277835404
 20
10.84058547275561
 30
0.0
 40
0.125
  1
PB-1558-BF
 41
0.75
 72
     1
 11
9.900535277835404
 21
10.84058547275561
 31
0.0
100
AcDbText
  0
LINE
  5
78F
330
1E
100
AcDbEntity
  8
0
100
AcDbLine
 10
9.252498272753122
 20
9.972609752875357
 30
0.0
 11
9.252498272753122
 21
11.22060975287536
 31
0.0
  0
TEXT
  5
791
330
1E
100
AcDbEntity
  8
0
100
AcDbText
 10
9.463035277835404
 20
10.42458547275562
 30
0.0
 40
0.125
  1
PB-1574-BF
 41
0.75
 72
     1
 11
9.900535277835404
 21
10.42458547275562
 31
0.0
100
AcDbText
  0
TEXT
  5
792
330
1E
100
AcDbEntity
  8
0
100
AcDbText
 10
9.463035277835404
 20
10.00858547275562
 30
0.0
 40
0.125
  1
PB-1577-BF
 41
0.75
 72
     1
 11
9.900535277835404
 21
10.00858547275562
 31
0.0
100
AcDbText
  0
TEXT
  5
794
330
1E
100
AcDbEntity
  8
0
100
AcDbText
 10
9.304332383641662
 20
10.22044929992166
 30
0.0
 40
0.125
  1
PB-1549, 76-BF
 41
0.743127959217592
 72
     5
 11
10.49643348488655
 21
10.22044929992166
 31
0.0
100
AcDbText
  0
LINE
  5
7A4
330
1E
100
AcDbEntity
  8
0
100
AcDbLine
 10
1.690514403886693
 20
9.972609752875364
 30
0.0
 11
1.690514403886695
 21
11.22060975287536
 31
0.0
  0
LINE
  5
7A5
330
1E
100
AcDbEntity
  8
0
100
AcDbLine
 10
2.320514403886693
 20
9.972609752875364
 30
0.0
 11
2.320514403886693
 21
11.22060975287536
 31
0.0
  0
LINE
  5
7A6
330
1E
100
AcDbEntity
  8
0
100
AcDbLine
 10
2.950514403886693
 20
9.972609752875364
 30
0.0
 11
2.950514403886693
 21
11.22060975287536
 31
0.0
  0
LINE
  5
7A7
330
1E
100
AcDbEntity
  8
0
100
AcDbLine
 10
3.580514403886693
 20
9.972609752875364
 30
0.0
 11
3.580514403886693
 21
11.22060975287536
 31
0.0
  0
LINE
  5
7A8
330
1E
100
AcDbEntity
  8
0
100
AcDbLine
 10
4.210514403886693
 20
9.972609752875364
 30
0.0
 11
4.210514403886693
 21
11.22060975287536
 31
0.0
  0
LINE
  5
7A9
330
1E
100
AcDbEntity
  8
0
100
AcDbLine
 10
4.840514403886695
 20
9.972609752875364
 30
0.0
 11
4.840514403886695
 21
11.22060975287536
 31
0.0
  0
LINE
  5
7AA
330
1E
100
AcDbEntity
  8
0
100
AcDbLine
 10
5.470514403886693
 20
9.972609752875364
 30
0.0
 11
5.470514403886695
 21
11.22060975287536
 31
0.0
  0
LINE
  5
7AB
330
1E
100
AcDbEntity
  8
0
100
AcDbLine
 10
6.100514403886695
 20
9.972609752875364
 30
0.0
 11
6.100514403886695
 21
11.22060975287536
 31
0.0
  0
LINE
  5
7AC
330
1E
100
AcDbEntity
  8
0
100
AcDbLine
 10
6.730514403886693
 20
9.972609752875364
 30
0.0
 11
6.730514403886695
 21
11.22060975287536
 31
0.0
  0
LINE
  5
7AD
330
1E
100
AcDbEntity
  8
0
100
AcDbLine
 10
7.360514403886694
 20
9.972609752875364
 30
0.0
 11
7.360514403886694
 21
11.22060975287536
 31
0.0
  0
LINE
  5
7AE
330
1E
100
AcDbEntity
  8
0
100
AcDbLine
 10
7.990514403886692
 20
9.972609752875364
 30
0.0
 11
7.990514403886693
 21
11.22060975287536
 31
0.0
  0
LINE
  5
7AF
330
1E
100
AcDbEntity
  8
0
100
AcDbLine
 10
8.620514403886692
 20
9.972609752875364
 30
0.0
 11
8.620514403886692
 21
11.22060975287536
 31
0.0
  0
TEXT
  5
7B5
330
1E
100
AcDbEntity
  8
0
100
AcDbText
 10
1.348220574811469
 20
11.04858547275561
 30
0.0
 40
0.125
  1
A
 41
0.75
 72
     1
 11
1.379470574811469
 21
11.04858547275561
 31
0.0
100
AcDbText
  0
TEXT
  5
7B6
330
1E
100
AcDbEntity
  8
0
100
AcDbText
 10
1.215408074811469
 20
10.84058547275561
 30
0.0
 40
0.125
  1
2.000
 41
0.75
 72
     1
 11
1.379470574811469
 21
10.84058547275561
 31
0.0
100
AcDbText
  0
TEXT
  5
7B8
330
1E
100
AcDbEntity
  8
0
100
AcDbText
 10
1.215408074811469
 20
10.42458547275562
 30
0.0
 40
0.125
  1
2.000
 41
0.75
 72
     1
 11
1.379470574811469
 21
10.42458547275562
 31
0.0
100
AcDbText
  0
TEXT
  5
7B9
330
1E
100
AcDbEntity
  8
0
100
AcDbText
 10
1.215408074811469
 20
10.21658547275561
 30
0.0
 40
0.125
  1
3.000
 41
0.75
 72
     1
 11
1.379470574811469
 21
10.21658547275561
 31
0.0
100
AcDbText
  0
TEXT
  5
7BA
330
1E
100
AcDbEntity
  8
0
100
AcDbText
 10
1.231033074811469
 20
10.00858547275562
 30
0.0
 40
0.125
  1
1.000
 41
0.75
 72
     1
 11
1.379470574811469
 21
10.00858547275562
 31
0.0
100
AcDbText
  0
TEXT
  5
7BC
330
1E
100
AcDbEntity
  8
0
100
AcDbText
 10
0.1071293424701949
 20
10.42629024425637
 30
0.0
 40
0.125
  1
PBC-1574-CN
 41
0.6928776546403085
 72
     5
 11
1.002096313047259
 21
10.42629024425637
 31
0.0
100
AcDbText
  0
TEXT
  5
7BE
330
1E
100
AcDbEntity
  8
0
100
AcDbText
 10
0.1071293424701949
 20
10.21829024425638
 30
0.0
 40
0.125
  1
PBC-1576-CN
 41
0.6928776546403085
 72
     5
 11
1.002096313047259
 21
10.21829024425638
 31
0.0
100
AcDbText
  0
TEXT
  5
7BF
330
1E
100
AcDbEntity
  8
0
100
AcDbText
 10
0.1071293424701949
 20
10.01029024425638
 30
0.0
 40
0.125
  1
PBC-1577-CN
 41
0.6928776546403088
 72
     5
 11
1.002096313047259
 21
10.01029024425638
 31
0.0
100
AcDbText
  0
TEXT
  5
7C0
330
1E
100
AcDbEntity
  8
0
100
AcDbText
 10
1.829783074811468
 20
10.00858547275562
 30
0.0
 40
0.125
  1
0.828
 41
0.75
 72
     1
 11
2.009470574811468
 21
10.00858547275562
 31
0.0
100
AcDbText
  0
TEXT
  5
7C1
330
1E
100
AcDbEntity
  8
0
100
AcDbText
 10
1.821970574811469
 20
10.21658547275561
 30
0.0
 40
0.125
  1
2.735
 41
0.75
 72
     1
 11
2.009470574811469
 21
10.21658547275561
 31
0.0
100
AcDbText
  0
TEXT
  5
7C2
330
1E
100
AcDbEntity
  8
0
100
AcDbText
 10
1.845408074811469
 20
10.42458547275562
 30
0.0
 40
0.125
  1
1.750
 41
0.75
 72
     1
 11
2.009470574811469
 21
10.42458547275562
 31
0.0
100
AcDbText
  0
TEXT
  5
7C4
330
1E
100
AcDbEntity
  8
0
100
AcDbText
 10
1.978220574811469
 20
11.04858547275561
 30
0.0
 40
0.125
  1
B
 41
0.75
 72
     1
 11
2.009470574811469
 21
11.04858547275561
 31
0.0
100
AcDbText
  0
TEXT
  5
7C5
330
1E
100
AcDbEntity
  8
0
100
AcDbText
 10
1.837595574811469
 20
10.84058547275561
 30
0.0
 40
0.125
  1
1.738
 41
0.75
 72
     1
 11
2.009470574811469
 21
10.84058547275561
 31
0.0
100
AcDbText
  0
TEXT
  5
7C6
330
1E
100
AcDbEntity
  8
0
100
AcDbText
 10
2.48322057481147
 20
10.84058547275561
 30
0.0
 40
0.125
  1
1.500
 41
0.75
 72
     1
 11
2.63947057481147
 21
10.84058547275561
 31
0.0
100
AcDbText
  0
TEXT
  5
7C8
330
1E
100
AcDbEntity
  8
0
100
AcDbText
 10
2.47540807481147
 20
10.42458547275562
 30
0.0
 40
0.125
  1
2.000
 41
0.75
 72
     1
 11
2.63947057481147
 21
10.42458547275562
 31
0.0
100
AcDbText
  0
TEXT
  5
7C9
330
1E
100
AcDbEntity
  8
0
100
AcDbText
 10
2.47540807481147
 20
10.21658547275561
 30
0.0
 40
0.125
  1
3.000
 41
0.75
 72
     1
 11
2.63947057481147
 21
10.21658547275561
 31
0.0
100
AcDbText
  0
TEXT
  5
7CA
330
1E
100
AcDbEntity
  8
0
100
AcDbText
 10
2.491033074811469
 20
10.00858547275562
 30
0.0
 40
0.125
  1
1.000
 41
0.75
 72
     1
 11
2.639470574811469
 21
10.00858547275562
 31
0.0
100
AcDbText
  0
TEXT
  5
7CB
330
1E
100
AcDbEntity
  8
0
100
AcDbText
 10
2.60822057481147
 20
11.04858547275561
 30
0.0
 40
0.125
  1
C
 41
0.75
 72
     1
 11
2.63947057481147
 21
11.04858547275561
 31
0.0
100
AcDbText
  0
TEXT
  5
7CC
330
1E
100
AcDbEntity
  8
0
100
AcDbText
 10
3.089783074811468
 20
10.00858547275562
 30
0.0
 40
0.125
  1
0.828
 41
0.75
 72
     1
 11
3.269470574811468
 21
10.00858547275562
 31
0.0
100
AcDbText
  0
TEXT
  5
7CD
330
1E
100
AcDbEntity
  8
0
100
AcDbText
 10
3.081970574811468
 20
10.21658547275561
 30
0.0
 40
0.125
  1
2.735
 41
0.75
 72
     1
 11
3.269470574811468
 21
10.21658547275561
 31
0.0
100
AcDbText
  0
TEXT
  5
7CE
330
1E
100
AcDbEntity
  8
0
100
AcDbText
 10
3.10540807481147
 20
10.42458547275562
 30
0.0
 40
0.125
  1
1.750
 41
0.75
 72
     1
 11
3.26947057481147
 21
10.42458547275562
 31
0.0
100
AcDbText
  0
TEXT
  5
7D0
330
1E
100
AcDbEntity
  8
0
100
AcDbText
 10
3.09759557481147
 20
10.84058547275561
 30
0.0
 40
0.125
  1
1.238
 41
0.75
 72
     1
 11
3.26947057481147
 21
10.84058547275561
 31
0.0
100
AcDbText
  0
TEXT
  5
7D1
330
1E
100
AcDbEntity
  8
0
100
AcDbText
 10
3.23822057481147
 20
11.04858547275561
 30
0.0
 40
0.125
  1
D
 41
0.75
 72
     1
 11
3.26947057481147
 21
11.04858547275561
 31
0.0
100
AcDbText
  0
TEXT
  5
7D2
330
1E
100
AcDbEntity
  8
0
100
AcDbText
 10
3.72759557481147
 20
10.84058547275561
 30
0.0
 40
0.125
  1
0.063
 41
0.75
 72
     1
 11
3.89947057481147
 21
10.84058547275561
 31
0.0
100
AcDbText
  0
TEXT
  5
7D4
330
1E
100
AcDbEntity
  8
0
100
AcDbText
 10
3.73540807481147
 20
10.42458547275562
 30
0.0
 40
0.125
  1
0.060
 41
0.75
 72
     1
 11
3.89947057481147
 21
10.42458547275562
 31
0.0
100
AcDbText
  0
TEXT
  5
7D5
330
1E
100
AcDbEntity
  8
0
100
AcDbText
 10
3.73540807481147
 20
10.21658547275561
 30
0.0
 40
0.125
  1
0.070
 41
0.75
 72
     1
 11
3.89947057481147
 21
10.21658547275561
 31
0.0
100
AcDbText
  0
TEXT
  5
7D6
330
1E
100
AcDbEntity
  8
0
100
AcDbText
 10
3.735408074811468
 20
10.00858547275562
 30
0.0
 40
0.125
  1
0.050
 41
0.75
 72
     1
 11
3.899470574811468
 21
10.00858547275562
 31
0.0
100
AcDbText
  0
TEXT
  5
7D7
330
1E
100
AcDbEntity
  8
0
100
AcDbText
 10
3.86822057481147
 20
11.04858547275561
 30
0.0
 40
0.125
  1
E
 41
0.75
 72
     1
 11
3.89947057481147
 21
11.04858547275561
 31
0.0
100
AcDbText
  0
TEXT
  5
7DA
330
1E
100
AcDbEntity
  8
0
100
AcDbText
 10
4.36540807481147
 20
10.00858547275562
 30
0.0
 40
0.125
  1
0.050
 41
0.75
 72
     1
 11
4.52947057481147
 21
10.00858547275562
 31
0.0
100
AcDbText
  0
TEXT
  5
7DB
330
1E
100
AcDbEntity
  8
0
100
AcDbText
 10
4.357595574811472
 20
10.21658547275561
 30
0.0
 40
0.125
  1
0.082
 41
0.75
 72
     1
 11
4.529470574811472
 21
10.21658547275561
 31
0.0
100
AcDbText
  0
TEXT
  5
7DC
330
1E
100
AcDbEntity
  8
0
100
AcDbText
 10
4.357595574811472
 20
10.42458547275562
 30
0.0
 40
0.125
  1
0.077
 41
0.75
 72
     1
 11
4.529470574811472
 21
10.42458547275562
 31
0.0
100
AcDbText
  0
TEXT
  5
7DE
330
1E
100
AcDbEntity
  8
0
100
AcDbText
 10
4.357595574811472
 20
10.84058547275561
 30
0.0
 40
0.125
  1
0.085
 41
0.75
 72
     1
 11
4.529470574811472
 21
10.84058547275561
 31
0.0
100
AcDbText
  0
TEXT
  5
7DF
330
1E
100
AcDbEntity
  8
0
100
AcDbText
 10
4.498220574811472
 20
11.04858547275561
 30
0.0
 40
0.125
  1
F
 41
0.75
 72
     1
 11
4.529470574811472
 21
11.04858547275561
 31
0.0
100
AcDbText
  0
TEXT
  5
7EC
330
1E
100
AcDbEntity
  8
0
100
AcDbText
 10
4.995408074811471
 20
10.4245854727556
 30
0.0
 40
0.125
  1
0.812
 41
0.75
 72
     1
 11
5.159470574811471
 21
10.4245854727556
 31
0.0
100
AcDbText
  0
TEXT
  5
7ED
330
1E
100
AcDbEntity
  8
0
100
AcDbText
 10
5.011033074811471
 20
10.21658547275561
 30
0.0
 40
0.125
  1
1.310
 41
0.75
 72
     1
 11
5.159470574811471
 21
10.21658547275561
 31
0.0
100
AcDbText
  0
TEXT
  5
7EE
330
1E
100
AcDbEntity
  8
0
100
AcDbText
 10
4.97978307481147
 20
10.0085854727556
 30
0.0
 40
0.125
  1
0.368
 41
0.75
 72
     1
 11
5.15947057481147
 21
10.0085854727556
 31
0.0
100
AcDbText
  0
TEXT
  5
7EF
330
1E
100
AcDbEntity
  8
0
100
AcDbText
 10
5.128220574811471
 20
11.0485854727556
 30
0.0
 40
0.125
  1
G
 41
0.75
 72
     1
 11
5.159470574811471
 21
11.0485854727556
 31
0.0
100
AcDbText
  0
TEXT
  5
7F0
330
1E
100
AcDbEntity
  8
0
100
AcDbText
 10
4.995408074811471
 20
10.8405854727556
 30
0.0
 40
0.125
  1
0.614
 41
0.75
 72
     1
 11
5.159470574811471
 21
10.8405854727556
 31
0.0
100
AcDbText
  0
TEXT
  5
7F3
330
1E
100
AcDbEntity
  8
0
100
AcDbText
 10
5.625408074811471
 20
10.8405854727556
 30
0.0
 40
0.125
  1
0.500
 41
0.75
 72
     1
 11
5.789470574811471
 21
10.8405854727556
 31
0.0
100
AcDbText
  0
TEXT
  5
7F4
330
1E
100
AcDbEntity
  8
0
100
AcDbText
 10
5.625408074811469
 20
10.0085854727556
 30
0.0
 40
0.125
  1
0.187
 41
0.75
 72
     1
 11
5.789470574811469
 21
10.0085854727556
 31
0.0
100
AcDbText
  0
TEXT
  5
7F5
330
1E
100
AcDbEntity
  8
0
100
AcDbText
 10
5.625408074811471
 20
10.21658547275561
 30
0.0
 40
0.125
  1
0.500
 41
0.75
 72
     1
 11
5.789470574811471
 21
10.21658547275561
 31
0.0
100
AcDbText
  0
TEXT
  5
7F6
330
1E
100
AcDbEntity
  8
0
100
AcDbText
 10
5.625408074811471
 20
10.4245854727556
 30
0.0
 40
0.125
  1
0.515
 41
0.75
 72
     1
 11
5.789470574811471
 21
10.4245854727556
 31
0.0
100
AcDbText
  0
TEXT
  5
7F7
330
1E
100
AcDbEntity
  8
0
100
AcDbText
 10
5.758220574811471
 20
11.0485854727556
 30
0.0
 40
0.125
  1
H
 41
0.75
 72
     1
 11
5.789470574811471
 21
11.0485854727556
 31
0.0
100
AcDbText
  0
TEXT
  5
7F8
330
1E
100
AcDbEntity
  8
0
100
AcDbText
 10
6.247595574811469
 20
10.4245854727556
 30
0.0
 40
0.125
  1
0.062
 41
0.75
 72
     1
 11
6.419470574811469
 21
10.4245854727556
 31
0.0
100
AcDbText
  0
TEXT
  5
7F9
330
1E
100
AcDbEntity
  8
0
100
AcDbText
 10
6.247595574811469
 20
10.21658547275561
 30
0.0
 40
0.125
  1
0.062
 41
0.75
 72
     1
 11
6.419470574811469
 21
10.21658547275561
 31
0.0
100
AcDbText
  0
TEXT
  5
7FA
330
1E
100
AcDbEntity
  8
0
100
AcDbText
 10
6.247595574811469
 20
10.0085854727556
 30
0.0
 40
0.125
  1
0.068
 41
0.75
 72
     1
 11
6.419470574811469
 21
10.0085854727556
 31
0.0
100
AcDbText
  0
TEXT
  5
7FB
330
1E
100
AcDbEntity
  8
0
100
AcDbText
 10
6.247595574811469
 20
10.8405854727556
 30
0.0
 40
0.125
  1
0.063
 41
0.75
 72
     1
 11
6.419470574811469
 21
10.8405854727556
 31
0.0
100
AcDbText
  0
TEXT
  5
7FD
330
1E
100
AcDbEntity
  8
0
100
AcDbText
 10
6.388220574811469
 20
11.0485854727556
 30
0.0
 40
0.125
  1
J
 41
0.75
 72
     1
 11
6.419470574811469
 21
11.0485854727556
 31
0.0
100
AcDbText
  0
TEXT
  5
7FF
330
1E
100
AcDbEntity
  8
0
100
AcDbText
 10
6.885408074811468
 20
10.8405854727556
 30
0.0
 40
0.125
  1
0.163
 41
0.75
 72
     1
 11
7.049470574811468
 21
10.8405854727556
 31
0.0
100
AcDbText
  0
TEXT
  5
800
330
1E
100
AcDbEntity
  8
0
100
AcDbText
 10
6.885408074811468
 20
10.0085854727556
 30
0.0
 40
0.125
  1
0.146
 41
0.75
 72
     1
 11
7.049470574811468
 21
10.0085854727556
 31
0.0
100
AcDbText
  0
TEXT
  5
801
330
1E
100
AcDbEntity
  8
0
100
AcDbText
 10
6.885408074811468
 20
10.21658547275561
 30
0.0
 40
0.125
  1
0.156
 41
0.75
 72
     1
 11
7.049470574811468
 21
10.21658547275561
 31
0.0
100
AcDbText
  0
TEXT
  5
802
330
1E
100
AcDbEntity
  8
0
100
AcDbText
 10
6.885408074811468
 20
10.4245854727556
 30
0.0
 40
0.125
  1
0.156
 41
0.75
 72
     1
 11
7.049470574811468
 21
10.4245854727556
 31
0.0
100
AcDbText
  0
TEXT
  5
803
330
1E
100
AcDbEntity
  8
0
100
AcDbText
 10
7.018220574811468
 20
11.0485854727556
 30
0.0
 40
0.125
  1
K
 41
0.75
 72
     1
 11
7.049470574811468
 21
11.0485854727556
 31
0.0
100
AcDbText
  0
TEXT
  5
804
330
1E
100
AcDbEntity
  8
0
100
AcDbText
 10
7.507595574811468
 20
10.4245854727556
 30
0.0
 40
0.125
  1
0.066
 41
0.75
 72
     1
 11
7.679470574811468
 21
10.4245854727556
 31
0.0
100
AcDbText
  0
TEXT
  5
805
330
1E
100
AcDbEntity
  8
0
100
AcDbText
 10
7.507595574811468
 20
10.21658547275561
 30
0.0
 40
0.125
  1
0.066
 41
0.75
 72
     1
 11
7.679470574811468
 21
10.21658547275561
 31
0.0
100
AcDbText
  0
TEXT
  5
806
330
1E
100
AcDbEntity
  8
0
100
AcDbText
 10
7.523220574811468
 20
10.0085854727556
 30
0.0
 40
0.125
  1
0.051
 41
0.75
 72
     1
 11
7.679470574811468
 21
10.0085854727556
 31
0.0
100
AcDbText
  0
TEXT
  5
807
330
1E
100
AcDbEntity
  8
0
100
AcDbText
 10
7.507595574811468
 20
10.8405854727556
 30
0.0
 40
0.125
  1
0.062
 41
0.75
 72
     1
 11
7.679470574811468
 21
10.8405854727556
 31
0.0
100
AcDbText
  0
TEXT
  5
809
330
1E
100
AcDbEntity
  8
0
100
AcDbText
 10
7.648220574811468
 20
11.0485854727556
 30
0.0
 40
0.125
  1
L
 41
0.75
 72
     1
 11
7.679470574811468
 21
11.0485854727556
 31
0.0
100
AcDbText
  0
TEXT
  5
80A
330
1E
100
AcDbEntity
  8
0
100
AcDbText
 10
8.145408074811468
 20
10.0085854727556
 30
0.0
 40
0.125
  1
0.070
 41
0.75
 72
     1
 11
8.309470574811468
 21
10.0085854727556
 31
0.0
100
AcDbText
  0
TEXT
  5
80B
330
1E
100
AcDbEntity
  8
0
100
AcDbText
 10
8.145408074811468
 20
10.21658547275561
 30
0.0
 40
0.125
  1
0.070
 41
0.75
 72
     1
 11
8.309470574811468
 21
10.21658547275561
 31
0.0
100
AcDbText
  0
TEXT
  5
80C
330
1E
100
AcDbEntity
  8
0
100
AcDbText
 10
8.145408074811468
 20
10.4245854727556
 30
0.0
 40
0.125
  1
0.070
 41
0.75
 72
     1
 11
8.309470574811468
 21
10.4245854727556
 31
0.0
100
AcDbText
  0
TEXT
  5
80D
330
1E
100
AcDbEntity
  8
0
100
AcDbText
 10
8.278220574811468
 20
11.0485854727556
 30
0.0
 40
0.125
  1
M
 41
0.75
 72
     1
 11
8.309470574811468
 21
11.0485854727556
 31
0.0
100
AcDbText
  0
TEXT
  5
80F
330
1E
100
AcDbEntity
  8
0
100
AcDbText
 10
8.137595574811468
 20
10.8405854727556
 30
0.0
 40
0.125
  1
0.063
 41
0.75
 72
     1
 11
8.309470574811468
 21
10.8405854727556
 31
0.0
100
AcDbText
  0
TEXT
  5
810
330
1E
100
AcDbEntity
  8
0
100
AcDbText
 10
8.793016943677898
 20
10.8405854727556
 30
0.0
 40
0.125
  1
0.100
 41
0.75
 72
     1
 11
8.941454443677898
 21
10.8405854727556
 31
0.0
100
AcDbText
  0
TEXT
  5
812
330
1E
100
AcDbEntity
  8
0
100
AcDbText
 10
8.910204443677898
 20
11.0485854727556
 30
0.0
 40
0.125
  1
N
 41
0.75
 72
     1
 11
8.941454443677898
 21
11.0485854727556
 31
0.0
100
AcDbText
  0
TEXT
  5
813
330
1E
100
AcDbEntity
  8
0
100
AcDbText
 10
8.769579443677898
 20
10.4245854727556
 30
0.0
 40
0.125
  1
0.094
 41
0.75
 72
     1
 11
8.941454443677898
 21
10.4245854727556
 31
0.0
100
AcDbText
  0
TEXT
  5
814
330
1E
100
AcDbEntity
  8
0
100
AcDbText
 10
8.769579443677898
 20
10.21658547275561
 30
0.0
 40
0.125
  1
0.094
 41
0.75
 72
     1
 11
8.941454443677898
 21
10.21658547275561
 31
0.0
100
AcDbText
  0
TEXT
  5
815
330
1E
100
AcDbEntity
  8
0
100
AcDbText
 10
8.769579443677898
 20
10.0085854727556
 30
0.0
 40
0.125
  1
0.078
 41
0.75
 72
     1
 11
8.941454443677898
 21
10.0085854727556
 31
0.0
100
AcDbText
  0
TEXT
  5
817
330
1E
100
AcDbEntity
  8
0
100
AcDbText
 10
1.196154017916301
 20
9.601456225700523
 30
0.0
 40
0.188
  1
POTTING BOX COVER
 41
0.75
 72
     1
 11
2.371154017916301
 21
9.601456225700523
 31
0.0
100
AcDbText
  0
TEXT
  5
818
330
1E
100
AcDbEntity
  8
0
100
AcDbText
 10
4.985126505429965
 20
9.721582803423164
 30
0.0
 40
0.125
  1
PBC-1558-CN  PBC-1574-C  TO  PBC-1576-C
 41
0.75
 72
     1
 11
6.750751505429965
 21
9.721582803423164
 31
0.0
100
AcDbText
  0
TEXT
  5
819
330
1E
100
AcDbEntity
  8
0
100
AcDbText
 10
5.586689005429965
 20
9.532812477952914
 30
0.0
 40
0.125
  1
PBC-1578-C  TO  PBC-1580-C
 41
0.75
 72
     1
 11
6.750751505429965
 21
9.532812477952914
 31
0.0
100
AcDbText
  0
TEXT
  5
81B
330
1E
100
AcDbEntity
  8
0
100
AcDbText
 10
0.574105337734693
 20
8.510293896329846
 30
0.0
 40
0.125
  1
USE TEMPERATURE OF 70%%D C.)
 41
0.75
100
AcDbText
  0
TEXT
  5
81C
330
1E
100
AcDbEntity
  8
0
100
AcDbText
 10
0.6381183455781674
 20
7.04159489573479
 30
0.0
 40
0.125
  1
OF BOX BY  "H"  INCHES.
 41
0.75
100
AcDbText
  0
TEXT
  5
81D
330
1E
100
AcDbEntity
  8
0
100
AcDbText
 10
0.3505281981447954
 20
7.249928229068121
 30
0.0
 40
0.125
  1
COVER REDUCES INSIDE HEIGHT
 41
0.75
100
AcDbText
  0
TEXT
  5
81F
330
1E
100
AcDbEntity
  8
0
100
AcDbText
 10
0.574105337734693
 20
8.92696056299651
 30
0.0
 40
0.125
  1
(FLAMMABILITY RATING OF 94V-O AT
 41
0.75
100
AcDbText
  0
TEXT
  5
820
330
1E
100
AcDbEntity
  8
0
100
AcDbText
 10
0.574105337734693
 20
8.718627229663177
 30
0.0
 40
0.125
  1
"G"  INCHES THICKNESS & CONTINUOUS
 41
0.75
100
AcDbText
  0
TEXT
  5
821
330
1E
100
AcDbEntity
  8
0
100
AcDbText
 10
0.3505281981447954
 20
8.099184283073965
 30
0.0
 40
0.125
  1
FINISH: SURFACES ARE SMOOTH.
 41
0.75
100
AcDbText
  0
TEXT
  5
822
330
1E
100
AcDbEntity
  8
0
100
AcDbText
 10
0.3505281981447954
 20
7.674556256071044
 30
0.0
 40
0.125
  1
COLOR: BLACK
 41
0.75
100
AcDbText
  0
TEXT
  5
928
330
1E
100
AcDbEntity
  8
0
100
AcDbText
 10
0.2255406732475343
 20
5.406948220217093
 30
0.0
 40
0.125
  1
PBC-1574-C
 41
0.75
 72
     1
 11
0.6630406732475344
 21
5.406948220217093
 31
0.0
100
AcDbText
  0
TEXT
  5
929
330
1E
100
AcDbEntity
  8
0
100
AcDbText
 10
0.3349156732475343
 20
5.827707912016856
 30
0.0
 40
0.125
  1
PART No.
 41
0.75
 72
     1
 11
0.6630406732475344
 21
5.827707912016856
 31
0.0
100
AcDbText
  0
TEXT
  5
92A
330
1E
100
AcDbEntity
  8
0
100
AcDbText
 10
0.1786656732475344
 20
5.614948220217093
 30
0.0
 40
0.125
  1
PBC-1558-CN
 41
0.75
 72
     1
 11
0.6630406732475344
 21
5.614948220217093
 31
0.0
100
AcDbText
  0
LINE
  5
92B
330
1E
100
AcDbEntity
  8
0
100
AcDbLine
 10
1.261742384950061
 20
4.330972500336829
 30
0.0
 11
1.261742384950061
 21
5.99497250033683
 31
0.0
  0
LINE
  5
92C
330
1E
100
AcDbEntity
  8
0
100
AcDbLine
 10
7.479987333240906
 20
4.330972500336829
 30
0.0
 11
7.479987333240906
 21
5.99497250033683
 31
0.0
  0
TEXT
  5
92F
330
1E
100
AcDbEntity
  8
0
100
AcDbText
 10
7.560149360553153
 20
5.203436724173791
 30
0.0
 40
0.125
  1
PB-1559, PB-1559-TF, PB-1575, PB-1575-TF
 41
0.634046672681794
 72
     5
 11
10.47940591602558
 21
5.203436724173791
 31
0.0
100
AcDbText
  0
TEXT
  5
932
330
1E
100
AcDbEntity
  8
0
100
AcDbText
 10
0.2255406732475343
 20
5.198948220217094
 30
0.0
 40
0.125
  1
PBC-1575-C
 41
0.75
 72
     1
 11
0.6630406732475344
 21
5.198948220217094
 31
0.0
100
AcDbText
  0
TEXT
  5
933
330
1E
100
AcDbEntity
  8
0
100
AcDbText
 10
0.2255406732475343
 20
4.990948220217092
 30
0.0
 40
0.125
  1
PBC-1576-C
 41
0.75
 72
     1
 11
0.6630406732475344
 21
4.990948220217092
 31
0.0
100
AcDbText
  0
TEXT
  5
934
330
1E
100
AcDbEntity
  8
0
100
AcDbText
 10
0.2333531732475343
 20
4.366948220217094
 30
0.0
 40
0.125
  1
PBC-1580-C
 41
0.75
 72
     1
 11
0.6630406732475344
 21
4.366948220217094
 31
0.0
100
AcDbText
  0
TEXT
  5
935
330
1E
100
AcDbEntity
  8
0
100
AcDbText
 10
0.2255406732475343
 20
4.574948220217093
 30
0.0
 40
0.125
  1
PBC-1579-C
 41
0.75
 72
     1
 11
0.6630406732475344
 21
4.574948220217093
 31
0.0
100
AcDbText
  0
TEXT
  5
936
330
1E
100
AcDbEntity
  8
0
100
AcDbText
 10
0.2255406732475343
 20
4.782948220217093
 30
0.0
 40
0.125
  1
PBC-1578-C
 41
0.75
 72
     1
 11
0.6630406732475344
 21
4.782948220217093
 31
0.0
100
AcDbText
  0
TEXT
  5
938
330
1E
100
AcDbEntity
  8
0
100
AcDbText
 10
7.560149360553153
 20
4.787436724173793
 30
0.0
 40
0.125
  1
PB-1578, PB-1578-TF, PB-1582, PB-1582-TF
 41
0.6340466726817941
 72
     5
 11
10.47940591602558
 21
4.787436724173793
 31
0.0
100
AcDbText
  0
TEXT
  5
939
330
1E
100
AcDbEntity
  8
0
100
AcDbText
 10
7.556775489665616
 20
5.614948220217091
 30
0.0
 40
0.125
  1
PB-1558,  PB-1558-TF
 41
0.75
100
AcDbText
  0
TEXT
  5
93A
330
1E
100
AcDbEntity
  8
0
100
AcDbText
 10
8.635594942953748
 20
5.827667585842471
 30
0.0
 40
0.125
  1
FITS BOX:
 41
0.75
 72
     1
 11
8.994969942953748
 21
5.827667585842471
 31
0.0
100
AcDbText
  0
TEXT
  5
93B
330
1E
100
AcDbEntity
  8
0
100
AcDbText
 10
7.556775489665616
 20
5.406948220217093
 30
0.0
 40
0.125
  1
PB-1574,  PB-1574-TF
 41
0.75
100
AcDbText
  0
TEXT
  5
93C
330
1E
100
AcDbEntity
  8
0
100
AcDbText
 10
7.556775489665616
 20
4.990948220217092
 30
0.0
 40
0.125
  1
PB-1576,  PB-1576-TF
 41
0.75
100
AcDbText
  0
TEXT
  5
93D
330
1E
100
AcDbEntity
  8
0
100
AcDbText
 10
7.556775489665616
 20
4.574948220217092
 30
0.0
 40
0.125
  1
PB-1579,  PB-1579-TF
 41
0.75
100
AcDbText
  0
TEXT
  5
93E
330
1E
100
AcDbEntity
  8
0
100
AcDbText
 10
7.556775489665616
 20
4.366948220217093
 30
0.0
 40
0.125
  1
PB-1580,  PB-1580-TF
 41
0.75
100
AcDbText
  0
LINE
  5
950
330
1E
100
AcDbEntity
  8
0
100
AcDbLine
 10
2.038992384950061
 20
4.330972500336829
 30
0.0
 11
2.038992384950061
 21
5.99497250033683
 31
0.0
  0
LINE
  5
951
330
1E
100
AcDbEntity
  8
0
100
AcDbLine
 10
2.81624238495006
 20
4.330972500336829
 30
0.0
 11
2.81624238495006
 21
5.99497250033683
 31
0.0
  0
LINE
  5
952
330
1E
100
AcDbEntity
  8
0
100
AcDbLine
 10
3.59349238495006
 20
4.330972500336829
 30
0.0
 11
3.59349238495006
 21
5.99497250033683
 31
0.0
  0
LINE
  5
953
330
1E
100
AcDbEntity
  8
0
100
AcDbLine
 10
4.370742384950061
 20
4.330972500336829
 30
0.0
 11
4.370742384950061
 21
5.99497250033683
 31
0.0
  0
LINE
  5
954
330
1E
100
AcDbEntity
  8
0
100
AcDbLine
 10
5.147992384950061
 20
4.330972500336829
 30
0.0
 11
5.147992384950061
 21
5.99497250033683
 31
0.0
  0
LINE
  5
955
330
1E
100
AcDbEntity
  8
0
100
AcDbLine
 10
5.925242384950061
 20
4.330972500336829
 30
0.0
 11
5.925242384950061
 21
5.99497250033683
 31
0.0
  0
LINE
  5
956
330
1E
100
AcDbEntity
  8
0
100
AcDbLine
 10
6.702492384950062
 20
4.330972500336829
 30
0.0
 11
6.702492384950062
 21
5.99497250033683
 31
0.0
  0
TEXT
  5
957
330
1E
100
AcDbEntity
  8
0
100
AcDbText
 10
1.466121496881923
 20
5.614948220217093
 30
0.0
 40
0.125
  1
1.982
 41
0.75
 72
     1
 11
1.637996496881923
 21
5.614948220217093
 31
0.0
100
AcDbText
  0
TEXT
  5
958
330
1E
100
AcDbEntity
  8
0
100
AcDbText
 10
1.473933996881923
 20
5.406948220217093
 30
0.0
 40
0.125
  1
2.000
 41
0.75
 72
     1
 11
1.637996496881923
 21
5.406948220217093
 31
0.0
100
AcDbText
  0
TEXT
  5
959
330
1E
100
AcDbEntity
  8
0
100
AcDbText
 10
1.473933996881923
 20
5.198948220217094
 30
0.0
 40
0.125
  1
3.000
 41
0.75
 72
     1
 11
1.637996496881923
 21
5.198948220217094
 31
0.0
100
AcDbText
  0
TEXT
  5
95A
330
1E
100
AcDbEntity
  8
0
100
AcDbText
 10
1.473933996881923
 20
4.990948220217092
 30
0.0
 40
0.125
  1
3.000
 41
0.75
 72
     1
 11
1.637996496881923
 21
4.990948220217092
 31
0.0
100
AcDbText
  0
TEXT
  5
95B
330
1E
100
AcDbEntity
  8
0
100
AcDbText
 10
1.473933996881923
 20
4.782948220217093
 30
0.0
 40
0.125
  1
2.160
 41
0.75
 72
     1
 11
1.637996496881923
 21
4.782948220217093
 31
0.0
100
AcDbText
  0
TEXT
  5
95C
330
1E
100
AcDbEntity
  8
0
100
AcDbText
 10
1.466121496881923
 20
4.574948220217093
 30
0.0
 40
0.125
  1
1.472
 41
0.75
 72
     1
 11
1.637996496881923
 21
4.574948220217093
 31
0.0
100
AcDbText
  0
TEXT
  5
95D
330
1E
100
AcDbEntity
  8
0
100
AcDbText
 10
1.473933996881923
 20
4.366948220217094
 30
0.0
 40
0.125
  1
4.000
 41
0.75
 72
     1
 11
1.637996496881923
 21
4.366948220217094
 31
0.0
100
AcDbText
  0
TEXT
  5
95E
330
1E
100
AcDbEntity
  8
0
100
AcDbText
 10
1.606746496881923
 20
5.827707912016856
 30
0.0
 40
0.125
  1
A
 41
0.75
 72
     1
 11
1.637996496881923
 21
5.827707912016856
 31
0.0
100
AcDbText
  0
TEXT
  5
95F
330
1E
100
AcDbEntity
  8
0
100
AcDbText
 10
2.251183996881922
 20
4.366948220217094
 30
0.0
 40
0.125
  1
1.750
 41
0.75
 72
     1
 11
2.415246496881922
 21
4.366948220217094
 31
0.0
100
AcDbText
  0
TEXT
  5
960
330
1E
100
AcDbEntity
  8
0
100
AcDbText
 10
2.243371496881922
 20
4.574948220217093
 30
0.0
 40
0.125
  1
1.222
 41
0.75
 72
     1
 11
2.415246496881922
 21
4.574948220217093
 31
0.0
100
AcDbText
  0
TEXT
  5
961
330
1E
100
AcDbEntity
  8
0
100
AcDbText
 10
2.243371496881922
 20
4.782948220217093
 30
0.0
 40
0.125
  1
4.030
 41
0.75
 72
     1
 11
2.415246496881922
 21
4.782948220217093
 31
0.0
100
AcDbText
  0
TEXT
  5
962
330
1E
100
AcDbEntity
  8
0
100
AcDbText
 10
2.251183996881922
 20
4.990948220217092
 30
0.0
 40
0.125
  1
3.000
 41
0.75
 72
     1
 11
2.415246496881922
 21
4.990948220217092
 31
0.0
100
AcDbText
  0
TEXT
  5
963
330
1E
100
AcDbEntity
  8
0
100
AcDbText
 10
2.251183996881922
 20
5.198948220217094
 30
0.0
 40
0.125
  1
2.000
 41
0.75
 72
     1
 11
2.415246496881922
 21
5.198948220217094
 31
0.0
100
AcDbText
  0
TEXT
  5
964
330
1E
100
AcDbEntity
  8
0
100
AcDbText
 10
2.251183996881922
 20
5.406948220217093
 30
0.0
 40
0.125
  1
2.000
 41
0.75
 72
     1
 11
2.415246496881922
 21
5.406948220217093
 31
0.0
100
AcDbText
  0
TEXT
  5
965
330
1E
100
AcDbEntity
  8
0
100
AcDbText
 10
2.243371496881922
 20
5.614948220217093
 30
0.0
 40
0.125
  1
1.482
 41
0.75
 72
     1
 11
2.415246496881922
 21
5.614948220217093
 31
0.0
100
AcDbText
  0
TEXT
  5
966
330
1E
100
AcDbEntity
  8
0
100
AcDbText
 10
2.383996496881922
 20
5.827707912016856
 30
0.0
 40
0.125
  1
B
 41
0.75
 72
     1
 11
2.415246496881922
 21
5.827707912016856
 31
0.0
100
AcDbText
  0
TEXT
  5
967
330
1E
100
AcDbEntity
  8
0
100
AcDbText
 10
3.020621496881922
 20
4.366948220217094
 30
0.0
 40
0.125
  1
0.075
 41
0.75
 72
     1
 11
3.192496496881922
 21
4.366948220217094
 31
0.0
100
AcDbText
  0
TEXT
  5
968
330
1E
100
AcDbEntity
  8
0
100
AcDbText
 10
3.020621496881922
 20
4.574948220217093
 30
0.0
 40
0.125
  1
0.075
 41
0.75
 72
     1
 11
3.192496496881922
 21
4.574948220217093
 31
0.0
100
AcDbText
  0
TEXT
  5
969
330
1E
100
AcDbEntity
  8
0
100
AcDbText
 10
3.020621496881922
 20
4.782948220217093
 30
0.0
 40
0.125
  1
0.085
 41
0.75
 72
     1
 11
3.192496496881922
 21
4.782948220217093
 31
0.0
100
AcDbText
  0
TEXT
  5
96A
330
1E
100
AcDbEntity
  8
0
100
AcDbText
 10
3.020621496881922
 20
4.990948220217092
 30
0.0
 40
0.125
  1
0.075
 41
0.75
 72
     1
 11
3.192496496881922
 21
4.990948220217092
 31
0.0
100
AcDbText
  0
TEXT
  5
96B
330
1E
100
AcDbEntity
  8
0
100
AcDbText
 10
3.020621496881922
 20
5.198948220217094
 30
0.0
 40
0.125
  1
0.075
 41
0.75
 72
     1
 11
3.192496496881922
 21
5.198948220217094
 31
0.0
100
AcDbText
  0
TEXT
  5
96C
330
1E
100
AcDbEntity
  8
0
100
AcDbText
 10
3.020621496881922
 20
5.406948220217093
 30
0.0
 40
0.125
  1
0.075
 41
0.75
 72
     1
 11
3.192496496881922
 21
5.406948220217093
 31
0.0
100
AcDbText
  0
TEXT
  5
96D
330
1E
100
AcDbEntity
  8
0
100
AcDbText
 10
3.020621496881922
 20
5.614948220217093
 30
0.0
 40
0.125
  1
0.075
 41
0.75
 72
     1
 11
3.192496496881922
 21
5.614948220217093
 31
0.0
100
AcDbText
  0
TEXT
  5
96E
330
1E
100
AcDbEntity
  8
0
100
AcDbText
 10
3.161246496881922
 20
5.827707912016856
 30
0.0
 40
0.125
  1
C
 41
0.75
 72
     1
 11
3.192496496881922
 21
5.827707912016856
 31
0.0
100
AcDbText
  0
TEXT
  5
96F
330
1E
100
AcDbEntity
  8
0
100
AcDbText
 10
3.797871496881922
 20
4.366948220217094
 30
0.0
 40
0.125
  1
0.270
 41
0.75
 72
     1
 11
3.969746496881922
 21
4.366948220217094
 31
0.0
100
AcDbText
  0
TEXT
  5
970
330
1E
100
AcDbEntity
  8
0
100
AcDbText
 10
3.797871496881922
 20
4.574948220217093
 30
0.0
 40
0.125
  1
0.270
 41
0.75
 72
     1
 11
3.969746496881922
 21
4.574948220217093
 31
0.0
100
AcDbText
  0
TEXT
  5
971
330
1E
100
AcDbEntity
  8
0
100
AcDbText
 10
3.790058996881922
 20
4.782948220217093
 30
0.0
 40
0.125
  1
0.287
 41
0.75
 72
     1
 11
3.969746496881922
 21
4.782948220217093
 31
0.0
100
AcDbText
  0
TEXT
  5
972
330
1E
100
AcDbEntity
  8
0
100
AcDbText
 10
3.797871496881922
 20
4.990948220217092
 30
0.0
 40
0.125
  1
0.270
 41
0.75
 72
     1
 11
3.969746496881922
 21
4.990948220217092
 31
0.0
100
AcDbText
  0
TEXT
  5
973
330
1E
100
AcDbEntity
  8
0
100
AcDbText
 10
3.797871496881922
 20
5.198948220217094
 30
0.0
 40
0.125
  1
0.270
 41
0.75
 72
     1
 11
3.969746496881922
 21
5.198948220217094
 31
0.0
100
AcDbText
  0
TEXT
  5
974
330
1E
100
AcDbEntity
  8
0
100
AcDbText
 10
3.797871496881922
 20
5.406948220217093
 30
0.0
 40
0.125
  1
0.270
 41
0.75
 72
     1
 11
3.969746496881922
 21
5.406948220217093
 31
0.0
100
AcDbText
  0
TEXT
  5
975
330
1E
100
AcDbEntity
  8
0
100
AcDbText
 10
3.797871496881922
 20
5.614948220217093
 30
0.0
 40
0.125
  1
0.270
 41
0.75
 72
     1
 11
3.969746496881922
 21
5.614948220217093
 31
0.0
100
AcDbText
  0
TEXT
  5
976
330
1E
100
AcDbEntity
  8
0
100
AcDbText
 10
3.938496496881922
 20
5.827707912016856
 30
0.0
 40
0.125
  1
D
 41
0.75
 72
     1
 11
3.969746496881922
 21
5.827707912016856
 31
0.0
100
AcDbText
  0
TEXT
  5
977
330
1E
100
AcDbEntity
  8
0
100
AcDbText
 10
4.582933996881923
 20
4.366948220217094
 30
0.0
 40
0.125
  1
0.080
 41
0.75
 72
     1
 11
4.746996496881923
 21
4.366948220217094
 31
0.0
100
AcDbText
  0
TEXT
  5
978
330
1E
100
AcDbEntity
  8
0
100
AcDbText
 10
4.582933996881923
 20
4.574948220217093
 30
0.0
 40
0.125
  1
0.080
 41
0.75
 72
     1
 11
4.746996496881923
 21
4.574948220217093
 31
0.0
100
AcDbText
  0
TEXT
  5
979
330
1E
100
AcDbEntity
  8
0
100
AcDbText
 10
4.590746496881923
 20
4.782948220217093
 30
0.0
 40
0.125
  1
0.109
 41
0.75
 72
     1
 11
4.746996496881923
 21
4.782948220217093
 31
0.0
100
AcDbText
  0
TEXT
  5
97A
330
1E
100
AcDbEntity
  8
0
100
AcDbText
 10
4.582933996881923
 20
4.990948220217092
 30
0.0
 40
0.125
  1
0.080
 41
0.75
 72
     1
 11
4.746996496881923
 21
4.990948220217092
 31
0.0
100
AcDbText
  0
TEXT
  5
97B
330
1E
100
AcDbEntity
  8
0
100
AcDbText
 10
4.582933996881923
 20
5.198948220217094
 30
0.0
 40
0.125
  1
0.080
 41
0.75
 72
     1
 11
4.746996496881923
 21
5.198948220217094
 31
0.0
100
AcDbText
  0
TEXT
  5
97C
330
1E
100
AcDbEntity
  8
0
100
AcDbText
 10
4.582933996881923
 20
5.406948220217093
 30
0.0
 40
0.125
  1
0.080
 41
0.75
 72
     1
 11
4.746996496881923
 21
5.406948220217093
 31
0.0
100
AcDbText
  0
TEXT
  5
97D
330
1E
100
AcDbEntity
  8
0
100
AcDbText
 10
4.582933996881923
 20
5.614948220217093
 30
0.0
 40
0.125
  1
0.080
 41
0.75
 72
     1
 11
4.746996496881923
 21
5.614948220217093
 31
0.0
100
AcDbText
  0
TEXT
  5
97E
330
1E
100
AcDbEntity
  8
0
100
AcDbText
 10
4.715746496881923
 20
5.827707912016856
 30
0.0
 40
0.125
  1
E
 41
0.75
 72
     1
 11
4.746996496881923
 21
5.827707912016856
 31
0.0
100
AcDbText
  0
TEXT
  5
97F
330
1E
100
AcDbEntity
  8
0
100
AcDbText
 10
5.352371496881921
 20
4.366948220217094
 30
0.0
 40
0.125
  1
0.250
 41
0.75
 72
     1
 11
5.524246496881921
 21
4.366948220217094
 31
0.0
100
AcDbText
  0
TEXT
  5
980
330
1E
100
AcDbEntity
  8
0
100
AcDbText
 10
5.352371496881921
 20
4.574948220217093
 30
0.0
 40
0.125
  1
0.250
 41
0.75
 72
     1
 11
5.524246496881921
 21
4.574948220217093
 31
0.0
100
AcDbText
  0
TEXT
  5
981
330
1E
100
AcDbEntity
  8
0
100
AcDbText
 10
5.344558996881921
 20
4.782948220217093
 30
0.0
 40
0.125
  1
0.278
 41
0.75
 72
     1
 11
5.524246496881921
 21
4.782948220217093
 31
0.0
100
AcDbText
  0
TEXT
  5
982
330
1E
100
AcDbEntity
  8
0
100
AcDbText
 10
5.352371496881921
 20
4.990948220217092
 30
0.0
 40
0.125
  1
0.250
 41
0.75
 72
     1
 11
5.524246496881921
 21
4.990948220217092
 31
0.0
100
AcDbText
  0
TEXT
  5
983
330
1E
100
AcDbEntity
  8
0
100
AcDbText
 10
5.352371496881921
 20
5.198948220217094
 30
0.0
 40
0.125
  1
0.250
 41
0.75
 72
     1
 11
5.524246496881921
 21
5.198948220217094
 31
0.0
100
AcDbText
  0
TEXT
  5
984
330
1E
100
AcDbEntity
  8
0
100
AcDbText
 10
5.352371496881921
 20
5.406948220217093
 30
0.0
 40
0.125
  1
0.250
 41
0.75
 72
     1
 11
5.524246496881921
 21
5.406948220217093
 31
0.0
100
AcDbText
  0
TEXT
  5
985
330
1E
100
AcDbEntity
  8
0
100
AcDbText
 10
5.352371496881921
 20
5.614948220217093
 30
0.0
 40
0.125
  1
0.250
 41
0.75
 72
     1
 11
5.524246496881921
 21
5.614948220217093
 31
0.0
100
AcDbText
  0
TEXT
  5
986
330
1E
100
AcDbEntity
  8
0
100
AcDbText
 10
5.492996496881921
 20
5.827707912016856
 30
0.0
 40
0.125
  1
F
 41
0.75
 72
     1
 11
5.524246496881921
 21
5.827707912016856
 31
0.0
100
AcDbText
  0
TEXT
  5
987
330
1E
100
AcDbEntity
  8
0
100
AcDbText
 10
6.129621496881922
 20
4.366948220217094
 30
0.0
 40
0.125
  1
0.063
 41
0.75
 72
     1
 11
6.301496496881922
 21
4.366948220217094
 31
0.0
100
AcDbText
  0
TEXT
  5
988
330
1E
100
AcDbEntity
  8
0
100
AcDbText
 10
6.129621496881922
 20
4.574948220217093
 30
0.0
 40
0.125
  1
0.063
 41
0.75
 72
     1
 11
6.301496496881922
 21
4.574948220217093
 31
0.0
100
AcDbText
  0
TEXT
  5
989
330
1E
100
AcDbEntity
  8
0
100
AcDbText
 10
6.137433996881922
 20
4.782948220217093
 30
0.0
 40
0.125
  1
0.070
 41
0.75
 72
     1
 11
6.301496496881922
 21
4.782948220217093
 31
0.0
100
AcDbText
  0
TEXT
  5
98A
330
1E
100
AcDbEntity
  8
0
100
AcDbText
 10
6.129621496881922
 20
4.990948220217092
 30
0.0
 40
0.125
  1
0.063
 41
0.75
 72
     1
 11
6.301496496881922
 21
4.990948220217092
 31
0.0
100
AcDbText
  0
TEXT
  5
98B
330
1E
100
AcDbEntity
  8
0
100
AcDbText
 10
6.129621496881922
 20
5.198948220217094
 30
0.0
 40
0.125
  1
0.063
 41
0.75
 72
     1
 11
6.301496496881922
 21
5.198948220217094
 31
0.0
100
AcDbText
  0
TEXT
  5
98C
330
1E
100
AcDbEntity
  8
0
100
AcDbText
 10
6.129621496881922
 20
5.406948220217093
 30
0.0
 40
0.125
  1
0.063
 41
0.75
 72
     1
 11
6.301496496881922
 21
5.406948220217093
 31
0.0
100
AcDbText
  0
TEXT
  5
98D
330
1E
100
AcDbEntity
  8
0
100
AcDbText
 10
6.129621496881922
 20
5.614948220217093
 30
0.0
 40
0.125
  1
0.063
 41
0.75
 72
     1
 11
6.301496496881922
 21
5.614948220217093
 31
0.0
100
AcDbText
  0
TEXT
  5
98E
330
1E
100
AcDbEntity
  8
0
100
AcDbText
 10
6.270246496881922
 20
5.827707912016856
 30
0.0
 40
0.125
  1
G
 41
0.75
 72
     1
 11
6.301496496881922
 21
5.827707912016856
 31
0.0
100
AcDbText
  0
TEXT
  5
98F
330
1E
100
AcDbEntity
  8
0
100
AcDbText
 10
6.906871496881922
 20
4.366948220217094
 30
0.0
 40
0.125
  1
0.075
 41
0.75
 72
     1
 11
7.078746496881922
 21
4.366948220217094
 31
0.0
100
AcDbText
  0
TEXT
  5
990
330
1E
100
AcDbEntity
  8
0
100
AcDbText
 10
6.906871496881922
 20
4.574948220217093
 30
0.0
 40
0.125
  1
0.075
 41
0.75
 72
     1
 11
7.078746496881922
 21
4.574948220217093
 31
0.0
100
AcDbText
  0
TEXT
  5
991
330
1E
100
AcDbEntity
  8
0
100
AcDbText
 10
6.906871496881922
 20
4.782948220217093
 30
0.0
 40
0.125
  1
0.085
 41
0.75
 72
     1
 11
7.078746496881922
 21
4.782948220217093
 31
0.0
100
AcDbText
  0
TEXT
  5
992
330
1E
100
AcDbEntity
  8
0
100
AcDbText
 10
6.906871496881922
 20
4.990948220217092
 30
0.0
 40
0.125
  1
0.075
 41
0.75
 72
     1
 11
7.078746496881922
 21
4.990948220217092
 31
0.0
100
AcDbText
  0
TEXT
  5
993
330
1E
100
AcDbEntity
  8
0
100
AcDbText
 10
6.906871496881922
 20
5.198948220217094
 30
0.0
 40
0.125
  1
0.075
 41
0.75
 72
     1
 11
7.078746496881922
 21
5.198948220217094
 31
0.0
100
AcDbText
  0
TEXT
  5
994
330
1E
100
AcDbEntity
  8
0
100
AcDbText
 10
6.906871496881922
 20
5.406948220217093
 30
0.0
 40
0.125
  1
0.075
 41
0.75
 72
     1
 11
7.078746496881922
 21
5.406948220217093
 31
0.0
100
AcDbText
  0
TEXT
  5
995
330
1E
100
AcDbEntity
  8
0
100
AcDbText
 10
6.906871496881922
 20
5.614948220217093
 30
0.0
 40
0.125
  1
0.075
 41
0.75
 72
     1
 11
7.078746496881922
 21
5.614948220217093
 31
0.0
100
AcDbText
  0
TEXT
  5
996
330
1E
100
AcDbEntity
  8
0
100
AcDbText
 10
7.047496496881922
 20
5.827707912016856
 30
0.0
 40
0.125
  1
H
 41
0.75
 72
     1
 11
7.078746496881922
 21
5.827707912016856
 31
0.0
100
AcDbText
  0
LINE
  5
9A3
330
1E
100
AcDbEntity
  8
0
100
AcDbLine
 10
0.0619999999999994
 20
9.972609752875364
 30
0.0
 11
0.0620000000000012
 21
15.598
 31
0.0
  0
LINE
  5
9A4
330
1E
100
AcDbEntity
  8
0
100
AcDbLine
 10
10.538
 20
9.910609752875362
 30
0.0
 11
10.538
 21
0.0619999999999994
 31
0.0
  0
LINE
  5
C61
330
1E
100
AcDbEntity
  8
0
100
AcDbLine
 10
6.510550417944878
 20
3.31756802947347
 30
0.0
 11
5.500550417944874
 21
3.317568029473473
 31
0.0
  0
LINE
  5
C62
330
1E
100
AcDbEntity
  8
0
100
AcDbLine
 10
6.510550417944878
 20
3.267568029473471
 30
0.0
 11
5.500550417944874
 21
3.267568029473473
 31
0.0
  0
LINE
  5
C63
330
1E
100
AcDbEntity
  8
0
100
AcDbLine
 10
6.510550417944878
 20
3.267568029473471
 30
0.0
 11
6.510550417944878
 21
3.31756802947347
 31
0.0
  0
LINE
  5
C64
330
1E
100
AcDbEntity
  8
0
100
AcDbLine
 10
5.500550417944874
 20
3.267568029473473
 30
0.0
 11
5.500550417944874
 21
3.317568029473473
 31
0.0
  0
LWPOLYLINE
  5
C65
330
1E
100
AcDbEntity
  8
0
100
AcDbPolyline
 90
        8
 70
     1
 43
0.0
 10
5.531550417944878
 20
1.23406624714837
 10
6.479550417944878
 20
1.234066247148372
 42
0.4142135623730957
 10
6.510550417944878
 20
1.265066247148372
 10
6.510550417944878
 20
2.213066247148375
 42
0.4142135623730949
 10
6.479550417944878
 20
2.244066247148372
 10
5.531550417944878
 20
2.244066247148372
 42
0.4142135623730951
 10
5.500550417944874
 20
2.213066247148375
 10
5.500550417944874
 20
1.265066247148372
 42
0.4142135623730951
  0
LWPOLYLINE
  5
C7B
330
1E
100
AcDbEntity
  8
0
100
AcDbPolyline
 90
        8
 70
     1
 43
0.0
 10
5.531550417944878
 20
1.26406624714837
 10
6.479550417944878
 20
1.264066247148373
 42
0.4142135623732088
 10
6.480550417944878
 20
1.265066247148372
 10
6.480550417944876
 20
2.213066247148374
 42
0.4142135623730789
 10
6.479550417944878
 20
2.214066247148373
 10
5.531550417944873
 20
2.214066247148373
 42
0.4142135623729489
 10
5.530550417944875
 20
2.213066247148374
 10
5.530550417944875
 20
1.265066247148372
 42
0.4142135623730789
  0
LINE
  5
C7C
330
1E
100
AcDbEntity
  8
0
100
AcDbLine
 10
6.479550417944878
 20
3.257568029473471
 30
0.0
 11
5.530550417944875
 21
3.257568029473471
 31
0.0
  0
LINE
  5
C7D
330
1E
100
AcDbEntity
  8
0
100
AcDbLine
 10
6.479550417944878
 20
3.267568029473471
 30
0.0
 11
6.479550417944878
 21
3.067568029473471
 31
0.0
  0
LINE
  5
C7E
330
1E
100
AcDbEntity
  8
0
100
AcDbLine
 10
5.530550417944875
 20
3.267568029473473
 30
0.0
 11
5.530550417944875
 21
3.257568029473471
 31
0.0
  0
LINE
  5
C7F
330
1E
100
AcDbEntity
  8
0
100
AcDbLine
 10
6.479550417944878
 20
3.067568029473471
 30
0.0
 11
6.419550417944877
 21
3.067568029473471
 31
0.0
  0
LINE
  5
C80
330
1E
100
AcDbEntity
  8
0
100
AcDbLine
 10
6.419550417944877
 20
3.257568029473471
 30
0.0
 11
6.419550417944877
 21
3.067568029473471
 31
0.0
  0
LINE
  5
C81
330
1E
100
AcDbEntity
  8
0
100
AcDbLine
 10
6.480550417944876
 20
1.646566247148371
 30
0.0
 11
6.420550417944879
 21
1.646566247148371
 31
0.0
  0
LINE
  5
C82
330
1E
100
AcDbEntity
  8
0
100
AcDbLine
 10
6.420550417944879
 20
1.646566247148371
 30
0.0
 11
6.420550417944879
 21
1.831566247148371
 31
0.0
  0
LINE
  5
C83
330
1E
100
AcDbEntity
  8
0
100
AcDbLine
 10
6.480550417944876
 20
1.831566247148371
 30
0.0
 11
6.420550417944879
 21
1.831566247148371
 31
0.0
  0
LINE
  5
C84
330
1E
100
AcDbEntity
  8
0
100
AcDbLine
 10
8.102054835234003
 20
2.244066247148373
 30
0.0
 11
8.152054835233998
 21
2.244066247148373
 31
0.0
  0
LINE
  5
C85
330
1E
100
AcDbEntity
  8
0
100
AcDbLine
 10
8.102054835234
 20
1.23406624714837
 30
0.0
 11
8.152054835233998
 21
1.23406624714837
 31
0.0
  0
LINE
  5
C86
330
1E
100
AcDbEntity
  8
0
100
AcDbLine
 10
8.102054835234
 20
1.23406624714837
 30
0.0
 11
8.102054835234003
 21
2.244066247148373
 31
0.0
  0
LINE
  5
C87
330
1E
100
AcDbEntity
  8
0
100
AcDbLine
 10
8.092054835234003
 20
1.26506624714837
 30
0.0
 11
8.092054835234003
 21
1.646566247148371
 31
0.0
  0
LINE
  5
C88
330
1E
100
AcDbEntity
  8
0
100
AcDbLine
 10
8.102054835234003
 20
2.214066247148373
 30
0.0
 11
8.092054835234003
 21
2.214066247148373
 31
0.0
  0
LINE
  5
C89
330
1E
100
AcDbEntity
  8
0
100
AcDbLine
 10
8.152054835233998
 20
1.23406624714837
 30
0.0
 11
8.152054835233998
 21
2.244066247148373
 31
0.0
  0
LINE
  5
C8A
330
1E
100
AcDbEntity
  8
0
100
AcDbLine
 10
8.102054835234
 20
1.26506624714837
 30
0.0
 11
8.092054835234003
 21
1.26506624714837
 31
0.0
  0
LINE
  5
C8B
330
1E
100
AcDbEntity
  8
0
100
AcDbLine
 10
8.092054835234003
 20
1.831566247148373
 30
0.0
 11
8.092054835234003
 21
2.214066247148373
 31
0.0
  0
DIMENSION
  5
C8C
330
1E
100
AcDbEntity
  8
0
100
AcDbDimension
  2
*D18
 10
5.500550417944874
 20
2.48786927412314
 30
0.0
 11
6.005550417944876
 21
2.48786927412314
 31
0.0
 70
    32
  1
A
  3
STD
100
AcDbAlignedDimension
 13
6.510550417944878
 23
2.213066247148375
 33
0.0
 14
5.500550417944874
 24
2.213066247148375
 34
0.0
 50
180.0
100
AcDbRotatedDimension
  0
DIMENSION
  5
C8D
330
1E
100
AcDbEntity
  8
0
100
AcDbDimension
  2
*D19
 10
5.173717646400401
 20
1.234066247148371
 30
0.0
 11
5.173717646400401
 21
1.739066247148372
 31
0.0
 70
    32
  1
B
  3
STD
100
AcDbAlignedDimension
 13
5.531550417944878
 23
2.244066247148372
 33
0.0
 14
5.531550417944878
 24
1.23406624714837
 34
0.0
 50
90.0
100
AcDbRotatedDimension
  0
DIMENSION
  5
C90
330
1E
100
AcDbEntity
  8
0
100
AcDbDimension
  2
*D20
 10
7.668716473347933
 20
1.831566247148371
 30
0.0
 11
7.668716473347933
 21
1.739066247148373
 31
0.0
 70
    32
  1
F
  3
DIM
100
AcDbAlignedDimension
 13
7.994554835233997
 23
1.646566247148371
 33
0.0
 14
7.994554835233997
 24
1.831566247148371
 34
0.0
 50
90.0
100
AcDbRotatedDimension
  0
DIMENSION
  5
C91
330
1E
100
AcDbEntity
  8
0
100
AcDbDimension
  2
*D21
 10
6.479550417944878
 20
2.825909789887908
 30
0.0
 11
5.910727030890817
 21
2.825909789887908
 31
0.0
 70
   160
  1
E
  3
STD
100
AcDbAlignedDimension
 13
6.419550417944877
 23
3.067568029473471
 33
0.0
 14
6.479550417944878
 24
3.067568029473471
 34
0.0
 50
180.0
100
AcDbRotatedDimension
  0
LINE
  5
C93
330
1E
100
AcDbEntity
  8
0
100
AcDbLine
 10
8.092054835234003
 20
1.831566247148373
 30
0.0
 11
7.994554835233997
 21
1.831566247148371
 31
0.0
  0
LINE
  5
C94
330
1E
100
AcDbEntity
  8
0
100
AcDbLine
 10
8.092054835234003
 20
1.646566247148371
 30
0.0
 11
7.994554835233997
 21
1.646566247148371
 31
0.0
  0
ARC
  5
C95
330
1E
100
AcDbEntity
  8
0
100
AcDbCircle
 10
7.994554835233997
 20
1.739066247148373
 30
0.0
 40
0.0924999999999994
100
AcDbArc
 50
90.0
 51
270.0
  0
LINE
  5
D3B
330
1E
100
AcDbEntity
  8
0
100
AcDbLine
 10
0.0619999999999993
 20
3.850972500336829
 30
0.0
 11
10.538
 21
3.850972500336829
 31
0.0
  0
TEXT
  5
D3C
330
1E
100
AcDbEntity
  8
0
100
AcDbText
 10
1.40010910562384
 20
3.95981897316199
 30
0.0
 40
0.188
  1
POTTING BOX COVER
 41
0.75
 72
     1
 11
2.575109105623841
 21
3.95981897316199
 31
0.0
100
AcDbText
  0
TEXT
  5
D3D
330
1E
100
AcDbEntity
  8
0
100
AcDbText
 10
0.2078333333333345
 20
3.891051695976909
 30
0.0
 40
0.125
  1
NAME
 72
     1
 11
0.4370000000000011
 21
3.891051695976909
 31
0.0
100
AcDbText
  0
TEXT
  5
D3E
330
1E
100
AcDbEntity
  8
0
100
AcDbText
 10
0.2078333333333345
 20
4.099385029310243
 30
0.0
 40
0.125
  1
PART
 72
     1
 11
0.4370000000000011
 21
4.099385029310243
 31
0.0
100
AcDbText
  0
LINE
  5
D3F
330
1E
100
AcDbEntity
  8
0
100
AcDbLine
 10
0.8120000000000009
 20
3.850972500336829
 30
0.0
 11
0.8119999999999992
 21
4.268972500336828
 31
0.0
  0
TEXT
  5
D41
330
1E
100
AcDbEntity
  8
0
100
AcDbText
 10
5.355344755138435
 20
3.987063290803408
 30
0.0
 40
0.125
  1
PBC-1577-C   PBC-1581-C   PBC-1583-C
 41
0.75
 72
     1
 11
6.964719755138435
 21
3.987063290803408
 31
0.0
100
AcDbText
  0
LINE
  5
D47
330
1E
100
AcDbEntity
  8
0
100
AcDbLine
 10
0.0619999999999993
 20
4.268972500336828
 30
0.0
 11
10.538
 21
4.268972500336828
 31
0.0
  0
LINE
  5
D48
330
1E
100
AcDbEntity
  8
0
100
AcDbLine
 10
0.0619999999999976
 20
4.330972500336829
 30
0.0
 11
10.53799999999998
 21
4.330972500336825
 31
0.0
  0
LINE
  5
D49
330
1E
100
AcDbEntity
  8
0
100
AcDbLine
 10
0.0619999999999978
 20
0.8940000000000019
 30
0.0
 11
10.53799999999998
 21
0.8939999999999963
 31
0.0
  0
LINE
  5
D4A
330
1E
100
AcDbEntity
  8
0
100
AcDbLine
 10
0.0619999999999978
 20
0.6860000000000018
 30
0.0
 11
10.53799999999998
 21
0.6859999999999964
 31
0.0
  0
LINE
  5
D4B
330
1E
100
AcDbEntity
  8
0
100
AcDbLine
 10
0.0619999999999977
 20
0.4780000000000017
 30
0.0
 11
10.53799999999998
 21
0.477999999999998
 31
0.0
  0
LINE
  5
D4C
330
1E
100
AcDbEntity
  8
0
100
AcDbLine
 10
0.0619999999999977
 20
0.2700000000000013
 30
0.0
 11
10.53799999999998
 21
0.269999999999996
 31
0.0
  0
TEXT
  5
D95
330
1E
100
AcDbEntity
  8
0
100
AcDbText
 10
0.3505281981447936
 20
1.60829097652959
 30
0.0
 40
0.125
  1
COVER REDUCES INSIDE HEIGHT
 41
0.75
100
AcDbText
  0
TEXT
  5
D96
330
1E
100
AcDbEntity
  8
0
100
AcDbText
 10
0.6381183455781656
 20
1.399957643196259
 30
0.0
 40
0.125
  1
OF BOX BY  "J"  INCHES.
 41
0.75
100
AcDbText
  0
TEXT
  5
D97
330
1E
100
AcDbEntity
  8
0
100
AcDbText
 10
0.3505281981447936
 20
2.032919003532511
 30
0.0
 40
0.125
  1
COLOR: BLACK
 41
0.75
100
AcDbText
  0
TEXT
  5
D98
330
1E
100
AcDbEntity
  8
0
100
AcDbText
 10
0.3505281981447936
 20
2.457547030535432
 30
0.0
 40
0.125
  1
FINISH: SURFACES ARE SMOOTH.
 41
0.75
100
AcDbText
  0
TEXT
  5
D99
330
1E
100
AcDbEntity
  8
0
100
AcDbText
 10
0.5741053377346912
 20
3.076989977124646
 30
0.0
 40
0.125
  1
"H"  INCHES THICKNESS & CONTINUOUS
 41
0.75
100
AcDbText
  0
TEXT
  5
D9A
330
1E
100
AcDbEntity
  8
0
100
AcDbText
 10
0.5741053377346912
 20
3.285323310457978
 30
0.0
 40
0.125
  1
(FLAMMABILITY RATING OF 94V-O AT
 41
0.75
100
AcDbText
  0
TEXT
  5
D9C
330
1E
100
AcDbEntity
  8
0
100
AcDbText
 10
0.5741053377346912
 20
2.868656643791315
 30
0.0
 40
0.125
  1
USE TEMPERATURE OF 70%%D C.)
 41
0.75
100
AcDbText
  0
DIMENSION
  5
DFB
330
1E
100
AcDbEntity
  8
0
100
AcDbDimension
  2
*D22
 10
5.173717646400402
 20
3.257568029473471
 30
0.0
 11
4.872467646400401
 21
2.897568029473472
 31
0.0
 70
    32
  1
C
  3
STD
100
AcDbAlignedDimension
 13
5.500550417944874
 23
3.317568029473473
 33
0.0
 14
5.530550417944875
 24
3.257568029473471
 34
0.0
 50
90.0
100
AcDbRotatedDimension
  0
DIMENSION
  5
E60
330
1E
100
AcDbEntity
  8
0
100
AcDbDimension
  2
*D23
 10
6.91692822373551
 20
3.31756802947347
 30
0.0
 11
6.916928223735509
 21
3.192568029473472
 31
0.0
 70
    32
  1
D
  3
DIM
100
AcDbAlignedDimension
 13
6.479550417944878
 23
3.067568029473471
 33
0.0
 14
6.510550417944878
 24
3.31756802947347
 34
0.0
 50
90.0
100
AcDbRotatedDimension
  0
DIMENSION
  5
ED4
330
1E
100
AcDbEntity
  8
0
100
AcDbDimension
  2
*D24
 10
6.510550417944878
 20
1.443329760429139
 30
0.0
 11
7.257425417944878
 21
1.443329760429139
 31
0.0
 70
    32
  1
G (TYP.)
  3
STD
100
AcDbAlignedDimension
 13
6.480550417944878
 23
1.452216817085133
 33
0.0
 14
6.510550417944878
 24
1.452216817085133
 34
0.0
100
AcDbRotatedDimension
  0
TEXT
  5
F5C
330
1E
100
AcDbEntity
  8
0
100
AcDbText
 10
0.2255406732475383
 20
0.5139757198802686
 30
0.0
 40
0.125
  1
PBC-1577-C
 41
0.75
 72
     1
 11
0.6630406732475384
 21
0.5139757198802686
 31
0.0
100
AcDbText
  0
TEXT
  5
F5D
330
1E
100
AcDbEntity
  8
0
100
AcDbText
 10
0.2411656732475383
 20
0.3059757198802684
 30
0.0
 40
0.125
  1
PBC-1581-C
 41
0.75
 72
     1
 11
0.6630406732475384
 21
0.3059757198802684
 31
0.0
100
AcDbText
  0
TEXT
  5
F5E
330
1E
100
AcDbEntity
  8
0
100
AcDbText
 10
0.2255406732475383
 20
0.0979757198802682
 30
0.0
 40
0.125
  1
PBC-1583-C
 41
0.75
 72
     1
 11
0.6630406732475384
 21
0.0979757198802682
 31
0.0
100
AcDbText
  0
TEXT
  5
F5F
330
1E
100
AcDbEntity
  8
0
100
AcDbText
 10
0.3349156732475383
 20
0.7219757198802679
 30
0.0
 40
0.125
  1
PART No.
 41
0.75
 72
     1
 11
0.6630406732475384
 21
0.7219757198802679
 31
0.0
100
AcDbText
  0
TEXT
  5
F60
330
1E
100
AcDbEntity
  8
0
100
AcDbText
 10
1.481746496881926
 20
0.0979757198802682
 30
0.0
 40
0.125
  1
3.118
 41
0.75
 72
     1
 11
1.637996496881926
 21
0.0979757198802682
 31
0.0
100
AcDbText
  0
TEXT
  5
F61
330
1E
100
AcDbEntity
  8
0
100
AcDbText
 10
1.466121496881926
 20
0.3059757198802684
 30
0.0
 40
0.125
  1
1.222
 41
0.75
 72
     1
 11
1.637996496881926
 21
0.3059757198802684
 31
0.0
100
AcDbText
  0
TEXT
  5
F62
330
1E
100
AcDbEntity
  8
0
100
AcDbText
 10
1.497371496881926
 20
0.5139757198802686
 30
0.0
 40
0.125
  1
1.010
 41
0.75
 72
     1
 11
1.637996496881926
 21
0.5139757198802686
 31
0.0
100
AcDbText
  0
TEXT
  5
F63
330
1E
100
AcDbEntity
  8
0
100
AcDbText
 10
1.606746496881926
 20
0.7219757198802679
 30
0.0
 40
0.125
  1
A
 41
0.75
 72
     1
 11
1.637996496881926
 21
0.7219757198802679
 31
0.0
100
AcDbText
  0
TEXT
  5
F64
330
1E
100
AcDbEntity
  8
0
100
AcDbText
 10
2.383996496881924
 20
0.7219757198802679
 30
0.0
 40
0.125
  1
B
 41
0.75
 72
     1
 11
2.415246496881924
 21
0.7219757198802679
 31
0.0
100
AcDbText
  0
TEXT
  5
F65
330
1E
100
AcDbEntity
  8
0
100
AcDbText
 10
2.274621496881924
 20
0.5139757198802686
 30
0.0
 40
0.125
  1
1.010
 41
0.75
 72
     1
 11
2.415246496881924
 21
0.5139757198802686
 31
0.0
100
AcDbText
  0
TEXT
  5
F66
330
1E
100
AcDbEntity
  8
0
100
AcDbText
 10
2.251183996881924
 20
0.3059757198802684
 30
0.0
 40
0.125
  1
2.019
 41
0.75
 72
     1
 11
2.415246496881924
 21
0.3059757198802684
 31
0.0
100
AcDbText
  0
TEXT
  5
F67
330
1E
100
AcDbEntity
  8
0
100
AcDbText
 10
2.227746496881924
 20
0.0979757198802682
 30
0.0
 40
0.125
  1
4.373
 41
0.75
 72
     1
 11
2.415246496881924
 21
0.0979757198802682
 31
0.0
100
AcDbText
  0
TEXT
  5
F68
330
1E
100
AcDbEntity
  8
0
100
AcDbText
 10
3.161246496881926
 20
0.7219757198802679
 30
0.0
 40
0.125
  1
C
 41
0.75
 72
     1
 11
3.192496496881926
 21
0.7219757198802679
 31
0.0
100
AcDbText
  0
TEXT
  5
F69
330
1E
100
AcDbEntity
  8
0
100
AcDbText
 10
3.028433996881926
 20
0.5139757198802686
 30
0.0
 40
0.125
  1
0.060
 41
0.75
 72
     1
 11
3.192496496881926
 21
0.5139757198802686
 31
0.0
100
AcDbText
  0
TEXT
  5
F6A
330
1E
100
AcDbEntity
  8
0
100
AcDbText
 10
3.020621496881926
 20
0.3059757198802684
 30
0.0
 40
0.125
  1
0.075
 41
0.75
 72
     1
 11
3.192496496881926
 21
0.3059757198802684
 31
0.0
100
AcDbText
  0
TEXT
  5
F6B
330
1E
100
AcDbEntity
  8
0
100
AcDbText
 10
3.044058996881926
 20
0.0979757198802682
 30
0.0
 40
0.125
  1
0.100
 41
0.75
 72
     1
 11
3.192496496881926
 21
0.0979757198802682
 31
0.0
100
AcDbText
  0
TEXT
  5
F6C
330
1E
100
AcDbEntity
  8
0
100
AcDbText
 10
3.938496496881926
 20
0.7219757198802679
 30
0.0
 40
0.125
  1
D
 41
0.75
 72
     1
 11
3.969746496881926
 21
0.7219757198802679
 31
0.0
100
AcDbText
  0
TEXT
  5
F6D
330
1E
100
AcDbEntity
  8
0
100
AcDbText
 10
3.797871496881926
 20
0.5139757198802686
 30
0.0
 40
0.125
  1
0.250
 41
0.75
 72
     1
 11
3.969746496881926
 21
0.5139757198802686
 31
0.0
100
AcDbText
  0
TEXT
  5
F6E
330
1E
100
AcDbEntity
  8
0
100
AcDbText
 10
3.805683996881926
 20
0.3059757198802684
 30
0.0
 40
0.125
  1
0.218
 41
0.75
 72
     1
 11
3.969746496881926
 21
0.3059757198802684
 31
0.0
100
AcDbText
  0
TEXT
  5
F6F
330
1E
100
AcDbEntity
  8
0
100
AcDbText
 10
3.797871496881926
 20
0.0979757198802682
 30
0.0
 40
0.125
  1
0.350
 41
0.75
 72
     1
 11
3.969746496881926
 21
0.0979757198802682
 31
0.0
100
AcDbText
  0
TEXT
  5
F70
330
1E
100
AcDbEntity
  8
0
100
AcDbText
 10
4.715746496881926
 20
0.7219757198802679
 30
0.0
 40
0.125
  1
E
 41
0.75
 72
     1
 11
4.746996496881926
 21
0.7219757198802679
 31
0.0
100
AcDbText
  0
TEXT
  5
F71
330
1E
100
AcDbEntity
  8
0
100
AcDbText
 10
4.582933996881926
 20
0.5139757198802686
 30
0.0
 40
0.125
  1
0.060
 41
0.75
 72
     1
 11
4.746996496881926
 21
0.5139757198802686
 31
0.0
100
AcDbText
  0
TEXT
  5
F72
330
1E
100
AcDbEntity
  8
0
100
AcDbText
 10
4.582933996881926
 20
0.3059757198802684
 30
0.0
 40
0.125
  1
0.070
 41
0.75
 72
     1
 11
4.746996496881926
 21
0.3059757198802684
 31
0.0
100
AcDbText
  0
TEXT
  5
F73
330
1E
100
AcDbEntity
  8
0
100
AcDbText
 10
4.575121496881926
 20
0.0979757198802682
 30
0.0
 40
0.125
  1
0.095
 41
0.75
 72
     1
 11
4.746996496881926
 21
0.0979757198802682
 31
0.0
100
AcDbText
  0
TEXT
  5
F74
330
1E
100
AcDbEntity
  8
0
100
AcDbText
 10
7.047496496881926
 20
0.7219757198802679
 30
0.0
 40
0.125
  1
H
 41
0.75
 72
     1
 11
7.078746496881926
 21
0.7219757198802679
 31
0.0
100
AcDbText
  0
TEXT
  5
F75
330
1E
100
AcDbEntity
  8
0
100
AcDbText
 10
6.914683996881926
 20
0.5139757198802686
 30
0.0
 40
0.125
  1
0.060
 41
0.75
 72
     1
 11
7.078746496881926
 21
0.5139757198802686
 31
0.0
100
AcDbText
  0
TEXT
  5
F76
330
1E
100
AcDbEntity
  8
0
100
AcDbText
 10
6.914683996881926
 20
0.3059757198802684
 30
0.0
 40
0.125
  1
0.070
 41
0.75
 72
     1
 11
7.078746496881926
 21
0.3059757198802684
 31
0.0
100
AcDbText
  0
TEXT
  5
F77
330
1E
100
AcDbEntity
  8
0
100
AcDbText
 10
6.914683996881926
 20
0.0979757198802682
 30
0.0
 40
0.125
  1
0.070
 41
0.75
 72
     1
 11
7.078746496881926
 21
0.0979757198802682
 31
0.0
100
AcDbText
  0
TEXT
  5
F78
330
1E
100
AcDbEntity
  8
0
100
AcDbText
 10
5.367996496881924
 20
0.3059757198802684
 30
0.0
 40
0.125
  1
0.130
 41
0.75
 72
     1
 11
5.524246496881924
 21
0.3059757198802684
 31
0.0
100
AcDbText
  0
TEXT
  5
F79
330
1E
100
AcDbEntity
  8
0
100
AcDbText
 10
5.352371496881924
 20
0.0979757198802682
 30
0.0
 40
0.125
  1
0.250
 41
0.75
 72
     1
 11
5.524246496881924
 21
0.0979757198802682
 31
0.0
100
AcDbText
  0
TEXT
  5
F7A
330
1E
100
AcDbEntity
  8
0
100
AcDbText
 10
5.492996496881924
 20
0.7219757198802679
 30
0.0
 40
0.125
  1
F
 41
0.75
 72
     1
 11
5.524246496881924
 21
0.7219757198802679
 31
0.0
100
AcDbText
  0
TEXT
  5
F7B
330
1E
100
AcDbEntity
  8
0
100
AcDbText
 10
5.360183996881924
 20
0.5139757198802686
 30
0.0
 40
0.125
  1
0.185
 41
0.75
 72
     1
 11
5.524246496881924
 21
0.5139757198802686
 31
0.0
100
AcDbText
  0
TEXT
  5
F7C
330
1E
100
AcDbEntity
  8
0
100
AcDbText
 10
6.129621496881926
 20
0.3059757198802684
 30
0.0
 40
0.125
  1
0.035
 41
0.75
 72
     1
 11
6.301496496881926
 21
0.3059757198802684
 31
0.0
100
AcDbText
  0
TEXT
  5
F7D
330
1E
100
AcDbEntity
  8
0
100
AcDbText
 10
6.129621496881926
 20
0.0979757198802682
 30
0.0
 40
0.125
  1
0.052
 41
0.75
 72
     1
 11
6.301496496881926
 21
0.0979757198802682
 31
0.0
100
AcDbText
  0
TEXT
  5
F7E
330
1E
100
AcDbEntity
  8
0
100
AcDbText
 10
6.270246496881926
 20
0.7219757198802679
 30
0.0
 40
0.125
  1
G
 41
0.75
 72
     1
 11
6.301496496881926
 21
0.7219757198802679
 31
0.0
100
AcDbText
  0
TEXT
  5
F7F
330
1E
100
AcDbEntity
  8
0
100
AcDbText
 10
6.137433996881926
 20
0.5139757198802686
 30
0.0
 40
0.125
  1
0.030
 41
0.75
 72
     1
 11
6.301496496881926
 21
0.5139757198802686
 31
0.0
100
AcDbText
  0
LINE
  5
F80
330
1E
100
AcDbEntity
  8
0
100
AcDbLine
 10
1.261742384950063
 20
0.0620000000000047
 30
0.0
 11
1.261742384950063
 21
0.8940000000000013
 31
0.0
  0
LINE
  5
F81
330
1E
100
AcDbEntity
  8
0
100
AcDbLine
 10
2.038992384950065
 20
0.0620000000000047
 30
0.0
 11
2.038992384950065
 21
0.894000000000001
 31
0.0
  0
LINE
  5
F82
330
1E
100
AcDbEntity
  8
0
100
AcDbLine
 10
2.816242384950065
 20
0.0620000000000047
 30
0.0
 11
2.816242384950065
 21
0.8940000000000003
 31
0.0
  0
LINE
  5
F83
330
1E
100
AcDbEntity
  8
0
100
AcDbLine
 10
3.593492384950065
 20
0.0620000000000047
 30
0.0
 11
3.593492384950065
 21
0.8940000000000001
 31
0.0
  0
LINE
  5
F84
330
1E
100
AcDbEntity
  8
0
100
AcDbLine
 10
4.370742384950063
 20
0.0620000000000047
 30
0.0
 11
4.370742384950063
 21
0.8939999999999997
 31
0.0
  0
LINE
  5
F85
330
1E
100
AcDbEntity
  8
0
100
AcDbLine
 10
5.147992384950065
 20
0.0620000000000047
 30
0.0
 11
5.147992384950065
 21
0.8939999999999994
 31
0.0
  0
LINE
  5
F86
330
1E
100
AcDbEntity
  8
0
100
AcDbLine
 10
5.925242384950065
 20
0.0620000000000047
 30
0.0
 11
5.925242384950066
 21
0.8939999999999987
 31
0.0
  0
LINE
  5
F87
330
1E
100
AcDbEntity
  8
0
100
AcDbLine
 10
6.702492384950065
 20
0.0620000000000047
 30
0.0
 11
6.702492384950066
 21
0.8939999999999987
 31
0.0
  0
LINE
  5
F88
330
1E
100
AcDbEntity
  8
0
100
AcDbLine
 10
7.479987333240909
 20
0.0620000000000047
 30
0.0
 11
7.479987333240909
 21
0.8939999999999981
 31
0.0
  0
TEXT
  5
F89
330
1E
100
AcDbEntity
  8
0
100
AcDbText
 10
7.715371496881926
 20
0.0979757198802681
 30
0.0
 40
0.125
  1
0.110
 41
0.75
 72
     1
 11
7.855996496881926
 21
0.0979757198802681
 31
0.0
100
AcDbText
  0
TEXT
  5
F8A
330
1E
100
AcDbEntity
  8
0
100
AcDbText
 10
7.684121496881926
 20
0.3059757198802683
 30
0.0
 40
0.125
  1
0.075
 41
0.75
 72
     1
 11
7.855996496881926
 21
0.3059757198802683
 31
0.0
100
AcDbText
  0
TEXT
  5
F8B
330
1E
100
AcDbEntity
  8
0
100
AcDbText
 10
7.691933996881926
 20
0.5139757198802685
 30
0.0
 40
0.125
  1
0.060
 41
0.75
 72
     1
 11
7.855996496881926
 21
0.5139757198802685
 31
0.0
100
AcDbText
  0
TEXT
  5
F8C
330
1E
100
AcDbEntity
  8
0
100
AcDbText
 10
7.824746496881926
 20
0.7219757198802678
 30
0.0
 40
0.125
  1
J
 41
0.75
 72
     1
 11
7.855996496881926
 21
0.7219757198802678
 31
0.0
100
AcDbText
  0
LINE
  5
F8D
330
1E
100
AcDbEntity
  8
0
100
AcDbLine
 10
8.25723733324091
 20
0.0620000000000046
 30
0.0
 11
8.257237333240912
 21
0.8939999999999978
 31
0.0
  0
TEXT
  5
F8E
330
1E
100
AcDbEntity
  8
0
100
AcDbText
 10
9.015413862883519
 20
0.7266950855056395
 30
0.0
 40
0.125
  1
FITS BOX:
 41
0.75
 72
     1
 11
9.374788862883519
 21
0.7266950855056395
 31
0.0
100
AcDbText
  0
TEXT
  5
F8F
330
1E
100
AcDbEntity
  8
0
100
AcDbText
 10
8.334025489665622
 20
0.5139757198802606
 30
0.0
 40
0.125
  1
PB-1577,  PB-1577-TF
 41
0.75
100
AcDbText
  0
TEXT
  5
F90
330
1E
100
AcDbEntity
  8
0
100
AcDbText
 10
8.334025489665622
 20
0.3059757198802613
 30
0.0
 40
0.125
  1
PB-1581,  PB-1581-TF
 41
0.75
100
AcDbText
  0
TEXT
  5
F93
330
1E
100
AcDbEntity
  8
0
100
AcDbText
 10
8.33402548966562
 20
0.0979757198802597
 30
0.0
 40
0.125
  1
PB-1583,  PB-1583-TF
 41
0.75
100
AcDbText
  0
TEXT
  5
FB4
330
1E
100
AcDbEntity
  8
0
100
AcDbText
 10
0.2208862909660798
 20
9.133631725654467
 30
0.0
 40
0.125
  1
MATERIAL: ABS THERMOPLASTIC (CHI MEI POLYLAC PA-765)
 41
0.75
100
AcDbText
  0
TEXT
  5
1002
330
1E
100
AcDbEntity
  8
0
100
AcDbText
 10
0.2311949219128468
 20
3.482841497077977
 30
0.0
 40
0.125
  1
MATERIAL: ABS THERMOPLASTIC (CHI MEI POLYLAC PA-765)
 41
0.75
100
AcDbText
  0
LINE
  5
1141
330
1E
100
AcDbEntity
  8
0
100
AcDbLine
 10
5.175190774705685
 20
15.59799999999999
 30
0.0
 11
5.175190774705685
 21
15.17999999999999
 31
0.0
  0
TEXT
  5
1142
330
1E
100
AcDbEntity
  8
0
100
AcDbText
 10
4.675190774705685
 20
15.22007919564007
 30
0.0
 40
0.125
  1
No.
 72
     1
 11
4.800190774705685
 21
15.22007919564007
 31
0.0
100
AcDbText
  0
LINE
  5
1143
330
1E
100
AcDbEntity
  8
0
100
AcDbLine
 10
4.425190774705685
 20
15.59799999999999
 30
0.0
 11
4.425190774705685
 21
15.17999999999999
 31
0.0
  0
LINE
  5
1144
330
1E
100
AcDbEntity
  8
0
100
AcDbLine
 10
4.363190774705687
 20
15.59799999999999
 30
0.0
 11
4.363190774705687
 21
15.17999999999999
 31
0.0
  0
TEXT
  5
1145
330
1E
100
AcDbEntity
  8
0
100
AcDbText
 10
4.571024108039018
 20
15.4284125289734
 30
0.0
 40
0.125
  1
PART
 72
     1
 11
4.800190774705685
 21
15.4284125289734
 31
0.0
100
AcDbText
  0
TEXT
  5
1146
330
1E
100
AcDbEntity
  8
0
100
AcDbText
 10
8.954666666666668
 20
15.4284125289734
 30
0.0
 40
0.125
  1
REV.
 72
     1
 11
9.163000000000002
 21
15.4284125289734
 31
0.0
100
AcDbText
  0
TEXT
  5
1147
330
1E
100
AcDbEntity
  8
0
100
AcDbText
 10
8.933833333333335
 20
15.22007919564007
 30
0.0
 40
0.125
  1
DATE
 72
     1
 11
9.163000000000002
 21
15.22007919564007
 31
0.0
100
AcDbText
  0
LINE
  5
1148
330
1E
100
AcDbEntity
  8
0
100
AcDbLine
 10
8.72599999999999
 20
15.59799999999999
 30
0.0
 11
8.72599999999999
 21
15.17999999999999
 31
0.0
  0
LINE
  5
1149
330
1E
100
AcDbEntity
  8
0
100
AcDbLine
 10
8.788000000000002
 20
15.59799999999999
 30
0.0
 11
8.788000000000002
 21
15.17999999999999
 31
0.0
  0
LINE
  5
114A
330
1E
100
AcDbEntity
  8
0
100
AcDbLine
 10
9.538000000000002
 20
15.59799999999999
 30
0.0
 11
9.538000000000002
 21
15.17999999999999
 31
0.0
  0
TEXT
  5
114B
330
1E
100
AcDbEntity
  8
0
100
AcDbText
 10
9.610037155033381
 20
15.28884647282516
 30
0.0
 40
0.188
  1
9-22-10
 41
0.75
 72
     1
 11
10.04478715503338
 21
15.28884647282516
 31
0.0
100
AcDbText
  0
LINE
  5
114C
330
1E
100
AcDbEntity
  8
0
100
AcDbLine
 10
4.027876386024532
 20
9.910609752875361
 30
0.0
 11
4.027876386024532
 21
9.492609752875361
 31
0.0
  0
LINE
  5
114D
330
1E
100
AcDbEntity
  8
0
100
AcDbLine
 10
3.965876386024534
 20
9.910609752875361
 30
0.0
 11
3.965876386024534
 21
9.492609752875361
 31
0.0
  0
TEXT
  5
114E
330
1E
100
AcDbEntity
  8
0
100
AcDbText
 10
4.277876386024532
 20
9.532688948515442
 30
0.0
 40
0.125
  1
No.
 72
     1
 11
4.402876386024532
 21
9.532688948515442
 31
0.0
100
AcDbText
  0
TEXT
  5
114F
330
1E
100
AcDbEntity
  8
0
100
AcDbText
 10
4.173709719357865
 20
9.741022281848776
 30
0.0
 40
0.125
  1
PART
 72
     1
 11
4.402876386024532
 21
9.741022281848776
 31
0.0
100
AcDbText
  0
LINE
  5
1150
330
1E
100
AcDbEntity
  8
0
100
AcDbLine
 10
4.777876386024532
 20
9.910609752875361
 30
0.0
 11
4.777876386024532
 21
9.492609752875361
 31
0.0
  0
TEXT
  5
1151
330
1E
100
AcDbEntity
  8
0
100
AcDbText
 10
8.933833333333335
 20
9.532688948515442
 30
0.0
 40
0.125
  1
DATE
 72
     1
 11
9.163000000000002
 21
9.532688948515442
 31
0.0
100
AcDbText
  0
TEXT
  5
1152
330
1E
100
AcDbEntity
  8
0
100
AcDbText
 10
8.954666666666668
 20
9.741022281848774
 30
0.0
 40
0.125
  1
REV.
 72
     1
 11
9.163000000000002
 21
9.741022281848774
 31
0.0
100
AcDbText
  0
LINE
  5
1153
330
1E
100
AcDbEntity
  8
0
100
AcDbLine
 10
8.788000000000002
 20
9.910609752875362
 30
0.0
 11
8.788000000000002
 21
9.492609752875363
 31
0.0
  0
LINE
  5
1154
330
1E
100
AcDbEntity
  8
0
100
AcDbLine
 10
8.72599999999999
 20
9.910609752875362
 30
0.0
 11
8.72599999999999
 21
9.492609752875363
 31
0.0
  0
LINE
  5
1155
330
1E
100
AcDbEntity
  8
0
100
AcDbLine
 10
9.538000000000002
 20
9.910609752875362
 30
0.0
 11
9.538000000000002
 21
9.492609752875363
 31
0.0
  0
TEXT
  5
1156
330
1E
100
AcDbEntity
  8
0
100
AcDbText
 10
9.586537155033381
 20
9.601456225700527
 30
0.0
 40
0.188
  1
8-28-06
 41
0.75
 72
     1
 11
10.04478715503338
 21
9.601456225700527
 31
0.0
100
AcDbText
  0
LINE
  5
1158
330
1E
100
AcDbEntity
  8
0
100
AcDbLine
 10
4.425190774705685
 20
4.268972500336833
 30
0.0
 11
4.425190774705685
 21
3.850972500336833
 31
0.0
  0
LINE
  5
1159
330
1E
100
AcDbEntity
  8
0
100
AcDbLine
 10
4.363190774705687
 20
4.268972500336833
 30
0.0
 11
4.363190774705687
 21
3.850972500336833
 31
0.0
  0
TEXT
  5
115A
330
1E
100
AcDbEntity
  8
0
100
AcDbText
 10
4.675190774705685
 20
3.891051695976914
 30
0.0
 40
0.125
  1
No.
 72
     1
 11
4.800190774705685
 21
3.891051695976914
 31
0.0
100
AcDbText
  0
TEXT
  5
115B
330
1E
100
AcDbEntity
  8
0
100
AcDbText
 10
4.571024108039018
 20
4.099385029310248
 30
0.0
 40
0.125
  1
PART
 72
     1
 11
4.800190774705685
 21
4.099385029310248
 31
0.0
100
AcDbText
  0
LINE
  5
115C
330
1E
100
AcDbEntity
  8
0
100
AcDbLine
 10
5.175190774705685
 20
4.268972500336833
 30
0.0
 11
5.175190774705685
 21
3.850972500336833
 31
0.0
  0
TEXT
  5
115D
330
1E
100
AcDbEntity
  8
0
100
AcDbText
 10
8.933833333333335
 20
3.891051695976914
 30
0.0
 40
0.125
  1
DATE
 72
     1
 11
9.163000000000002
 21
3.891051695976914
 31
0.0
100
AcDbText
  0
TEXT
  5
115E
330
1E
100
AcDbEntity
  8
0
100
AcDbText
 10
8.954666666666668
 20
4.099385029310246
 30
0.0
 40
0.125
  1
REV.
 72
     1
 11
9.163000000000002
 21
4.099385029310246
 31
0.0
100
AcDbText
  0
LINE
  5
115F
330
1E
100
AcDbEntity
  8
0
100
AcDbLine
 10
8.788000000000002
 20
4.268972500336834
 30
0.0
 11
8.788000000000002
 21
3.850972500336835
 31
0.0
  0
LINE
  5
1160
330
1E
100
AcDbEntity
  8
0
100
AcDbLine
 10
8.72599999999999
 20
4.268972500336834
 30
0.0
 11
8.72599999999999
 21
3.850972500336835
 31
0.0
  0
LINE
  5
1161
330
1E
100
AcDbEntity
  8
0
100
AcDbLine
 10
9.538000000000002
 20
4.268972500336834
 30
0.0
 11
9.538000000000002
 21
3.850972500336835
 31
0.0
  0
TEXT
  5
1163
330
1E
100
AcDbEntity
  8
0
100
AcDbText
 10
9.586537155033381
 20
3.959818973161999
 30
0.0
 40
0.188
  1
8-28-06
 41
0.75
 72
     1
 11
10.04478715503338
 21
3.959818973161999
 31
0.0
100
AcDbText
  0
ENDSEC
  0
SECTION
  2
OBJECTS
  0
DICTIONARY
  5
C
330
0
100
AcDbDictionary
  3
ACAD_GROUP
350
D
  3
ACAD_LAYOUT
350
19
  3
ACAD_MLINESTYLE
350
16
  3
ACAD_PLOTSETTINGS
350
18
  3
ACAD_PLOTSTYLENAME
350
E
  3
ACDBHEADERROUNDTRIPXREC
350
136B
  0
DICTIONARY
  5
138E
330
1E
100
AcDbDictionary
280
     1
  3
ACAD_LAYOUTSELFREF
360
138F
  0
DICTIONARY
  5
138C
330
1A
100
AcDbDictionary
280
     1
  3
ACAD_LAYOUTSELFREF
360
138D
  0
DICTIONARY
  5
D
102
{ACAD_REACTORS
330
C
102
}
330
C
100
AcDbDictionary
  0
DICTIONARY
  5
19
102
{ACAD_REACTORS
330
C
102
}
330
C
100
AcDbDictionary
  0
DICTIONARY
  5
16
102
{ACAD_REACTORS
330
C
102
}
330
C
100
AcDbDictionary
  3
STANDARD
350
17
  0
DICTIONARY
  5
18
102
{ACAD_REACTORS
330
C
102
}
330
C
100
AcDbDictionary
  0
ACDBDICTIONARYWDFLT
  5
E
102
{ACAD_REACTORS
330
C
102
}
330
C
100
AcDbDictionary
281
     1
  3
Normal
350
F
100
AcDbDictionaryWithDefault
340
F
  0
DICTIONARY
  5
136B
102
{ACAD_REACTORS
330
C
102
}
330
C
100
AcDbDictionary
  3
TSTACKALIGN
350
136C
  3
TSTACKSIZE
350
136D
  3
HYPERLINKBASE
350
136E
  3
STYLESHEET
350
136F
  3
LAYOUTDICT
350
1370
  3
PLOTSETDICT
350
1371
  3
PLOTSTYLNAMDICT
350
1372
  3
LWETCUNION
350
1373
  3
INSUNITS
350
1374
  3
CEPSNTYPE
350
1375
  3
FINGERPRINTGUID
350
1376
  3
VERSIONGUID
350
1377
  3
PSVPSCALE
350
1378
  3
DIMSTYLEDATA
350
1379
  3
PUCSORTHOREF
350
137A
  3
PUCSORTHOVIEW
350
137B
  3
PUCSBASE
350
137C
  3
PUCSORGTOP
350
137D
  3
PUCSORGBOTTOM
350
137E
  3
PUCSORGLEFT
350
137F
  3
PUCSORGRIGHT
350
1380
  3
PUCSORGFRONT
350
1381
  3
PUCSORGBACK
350
1382
  3
UCSORTHOREF
350
1383
  3
UCSORTHOVIEW
350
1384
  3
UCSBASE
350
1385
  3
UCSORGTOP
350
1386
  3
UCSORGBOTTOM
350
1387
  3
UCSORGLEFT
350
1388
  3
UCSORGRIGHT
350
1389
  3
UCSORGFRONT
350
138A
  3
UCSORGBACK
350
138B
  0
XRECORD
  5
138F
102
{ACAD_REACTORS
330
138E
102
}
330
138E
100
AcDbXrecord
340
1E
  0
XRECORD
  5
138D
102
{ACAD_REACTORS
330
138C
102
}
330
138C
100
AcDbXrecord
340
1A
  0
MLINESTYLE
  5
17
102
{ACAD_REACTORS
330
16
102
}
330
16
100
AcDbMlineStyle
  2
STANDARD
 70
     0
  3

 62
   256
 51
90.0
 52
90.0
 71
     2
 49
0.5
 62
   256
  6
BYLAYER
 49
-0.5
 62
   256
  6
BYLAYER
  0
ACDBPLACEHOLDER
  5
F
102
{ACAD_REACTORS
330
E
102
}
330
E
100
AcDbPlaceHolder
280
     0
  0
XRECORD
  5
136C
102
{ACAD_REACTORS
330
136B
102
}
330
136B
100
AcDbXrecord
 90
        1
  0
XRECORD
  5
136D
102
{ACAD_REACTORS
330
136B
102
}
330
136B
100
AcDbXrecord
 90
       70
  0
XRECORD
  5
136E
102
{ACAD_REACTORS
330
136B
102
}
330
136B
100
AcDbXrecord
  1

  0
XRECORD
  5
136F
102
{ACAD_REACTORS
330
136B
102
}
330
136B
100
AcDbXrecord
  1
monochrome.ctb
  0
XRECORD
  5
1370
102
{ACAD_REACTORS
330
136B
102
}
330
136B
100
AcDbXrecord
340
19
  0
XRECORD
  5
1371
102
{ACAD_REACTORS
330
136B
102
}
330
136B
100
AcDbXrecord
340
18
  0
XRECORD
  5
1372
102
{ACAD_REACTORS
330
136B
102
}
330
136B
100
AcDbXrecord
340
E
  0
XRECORD
  5
1373
102
{ACAD_REACTORS
330
136B
102
}
330
136B
100
AcDbXrecord
 90
    10781
  0
XRECORD
  5
1374
102
{ACAD_REACTORS
330
136B
102
}
330
136B
100
AcDbXrecord
 90
        0
  0
XRECORD
  5
1375
102
{ACAD_REACTORS
330
136B
102
}
330
136B
100
AcDbXrecord
 90
        0
  0
XRECORD
  5
1376
102
{ACAD_REACTORS
330
136B
102
}
330
136B
100
AcDbXrecord
  1
{D892DE92-8BE2-11D3-80BA-00C04F604D1B}
  0
XRECORD
  5
1377
102
{ACAD_REACTORS
330
136B
102
}
330
136B
100
AcDbXrecord
  1
{59A776FE-AE63-4931-A682-E99903860A51}
  0
XRECORD
  5
1378
102
{ACAD_REACTORS
330
136B
102
}
330
136B
100
AcDbXrecord
 40
0.0
  0
XRECORD
  5
1379
102
{ACAD_REACTORS
330
136B
102
}
330
136B
100
AcDbXrecord
1000
DSTYLE
1002
{
1070
   289
 70
     1
1002
}
  0
XRECORD
  5
137A
102
{ACAD_REACTORS
330
136B
102
}
330
136B
100
AcDbXrecord
340
0
  0
XRECORD
  5
137B
102
{ACAD_REACTORS
330
136B
102
}
330
136B
100
AcDbXrecord
 70
     0
  0
XRECORD
  5
137C
102
{ACAD_REACTORS
330
136B
102
}
330
136B
100
AcDbXrecord
340
0
  0
XRECORD
  5
137D
102
{ACAD_REACTORS
330
136B
102
}
330
136B
100
AcDbXrecord
 10
0.0
 20
0.0
 30
0.0
  0
XRECORD
  5
137E
102
{ACAD_REACTORS
330
136B
102
}
330
136B
100
AcDbXrecord
 10
0.0
 20
0.0
 30
0.0
  0
XRECORD
  5
137F
102
{ACAD_REACTORS
330
136B
102
}
330
136B
100
AcDbXrecord
 10
0.0
 20
0.0
 30
0.0
  0
XRECORD
  5
1380
102
{ACAD_REACTORS
330
136B
102
}
330
136B
100
AcDbXrecord
 10
0.0
 20
0.0
 30
0.0
  0
XRECORD
  5
1381
102
{ACAD_REACTORS
330
136B
102
}
330
136B
100
AcDbXrecord
 10
0.0
 20
0.0
 30
0.0
  0
XRECORD
  5
1382
102
{ACAD_REACTORS
330
136B
102
}
330
136B
100
AcDbXrecord
 10
0.0
 20
0.0
 30
0.0
  0
XRECORD
  5
1383
102
{ACAD_REACTORS
330
136B
102
}
330
136B
100
AcDbXrecord
340
0
  0
XRECORD
  5
1384
102
{ACAD_REACTORS
330
136B
102
}
330
136B
100
AcDbXrecord
 70
     0
  0
XRECORD
  5
1385
102
{ACAD_REACTORS
330
136B
102
}
330
136B
100
AcDbXrecord
340
0
  0
XRECORD
  5
1386
102
{ACAD_REACTORS
330
136B
102
}
330
136B
100
AcDbXrecord
 10
0.0
 20
0.0
 30
0.0
  0
XRECORD
  5
1387
102
{ACAD_REACTORS
330
136B
102
}
330
136B
100
AcDbXrecord
 10
0.0
 20
0.0
 30
0.0
  0
XRECORD
  5
1388
102
{ACAD_REACTORS
330
136B
102
}
330
136B
100
AcDbXrecord
 10
0.0
 20
0.0
 30
0.0
  0
XRECORD
  5
1389
102
{ACAD_REACTORS
330
136B
102
}
330
136B
100
AcDbXrecord
 10
0.0
 20
0.0
 30
0.0
  0
XRECORD
  5
138A
102
{ACAD_REACTORS
330
136B
102
}
330
136B
100
AcDbXrecord
 10
0.0
 20
0.0
 30
0.0
  0
XRECORD
  5
138B
102
{ACAD_REACTORS
330
136B
102
}
330
136B
100
AcDbXrecord
 10
0.0
 20
0.0
 30
0.0
  0
ENDSEC
  0
EOF
