  0
SECTION
  2
HEADER
  9
$ACADVER
  1
AC1009
  9
$DWGCODEPAGE
  3
ansi_1252
  9
$INSBASE
 10
0.0
 20
0.0
 30
0.0
  9
$EXTMIN
 10
0.0
 20
0.0
 30
0.0
  9
$EXTMAX
 10
132.0
 20
102.0
 30
0.0
  9
$LIMMIN
 10
0.0
 20
0.0
  9
$LIMMAX
 10
132.0
 20
102.0
  9
$ORTHOMODE
 70
     0
  9
$REGENMODE
 70
     1
  9
$FILLMODE
 70
     1
  9
$QTEXTMODE
 70
     0
  9
$MIRRTEXT
 70
     1
  9
$DRAGMODE
 70
     2
  9
$LTSCALE
 40
12.0
  9
$OSMODE
 70
    37
  9
$ATTMODE
 70
     1
  9
$TEXTSIZE
 40
1.5
  9
$TRACEWID
 40
0.05
  9
$TEXTSTYLE
  7
STANDARD
  9
$CLAYER
  8
0
  9
$CELTYPE
  6
BYLAYER
  9
$CECOLOR
 62
   256
  9
$DIMSCALE
 40
1.0
  9
$DIMASZ
 40
1.56
  9
$DIMEXO
 40
0.6
  9
$DIMDLI
 40
0.38
  9
$DIMRND
 40
0.0
  9
$DIMDLE
 40
0.0
  9
$DIMEXE
 40
1.5
  9
$DIMTP
 40
0.0
  9
$DIMTM
 40
0.0
  9
$DIMTXT
 40
1.5
  9
$DIMCEN
 40
0.09
  9
$DIMTSZ
 40
0.0
  9
$DIMTOL
 70
     0
  9
$DIMLIM
 70
     0
  9
$DIMTIH
 70
     1
  9
$DIMTOH
 70
     1
  9
$DIMSE1
 70
     0
  9
$DIMSE2
 70
     0
  9
$DIMTAD
 70
     1
  9
$DIMZIN
 70
     0
  9
$DIMBLK
  1

  9
$DIMASO
 70
     1
  9
$DIMSHO
 70
     1
  9
$DIMPOST
  1

  9
$DIMAPOST
  1

  9
$DIMALT
 70
     0
  9
$DIMALTD
 70
     2
  9
$DIMALTF
 40
25.4
  9
$DIMLFAC
 40
1.0
  9
$DIMTOFL
 70
     0
  9
$DIMTVP
 40
0.0
  9
$DIMTIX
 70
     0
  9
$DIMSOXD
 70
     0
  9
$DIMSAH
 70
     0
  9
$DIMBLK1
  1

  9
$DIMBLK2
  1

  9
$DIMSTYLE
  2
STANDARD
  9
$DIMCLRD
 70
     0
  9
$DIMCLRE
 70
     0
  9
$DIMCLRT
 70
     0
  9
$DIMTFAC
 40
1.0
  9
$DIMGAP
 40
0.72
  9
$LUNITS
 70
     2
  9
$LUPREC
 70
     3
  9
$SKETCHINC
 40
0.1
  9
$FILLETRAD
 40
0.5
  9
$AUNITS
 70
     0
  9
$AUPREC
 70
     2
  9
$MENU
  1
.
  9
$ELEVATION
 40
0.0
  9
$PELEVATION
 40
0.0
  9
$THICKNESS
 40
0.0
  9
$LIMCHECK
 70
     0
  9
$CHAMFERA
 40
0.5
  9
$CHAMFERB
 40
0.5
  9
$SKPOLY
 70
     0
  9
$TDCREATE
 40
2456673.370340614
  9
$TDUPDATE
 40
2456673.370340625
  9
$TDINDWG
 40
0.0000000116
  9
$TDUSRTIMER
 40
0.0000000116
  9
$USRTIMER
 70
     1
  9
$ANGBASE
 50
0.0
  9
$ANGDIR
 70
     0
  9
$PDMODE
 70
     0
  9
$PDSIZE
 40
-1.0
  9
$PLINEWID
 40
0.0
  9
$COORDS
 70
     1
  9
$SPLFRAME
 70
     0
  9
$SPLINETYPE
 70
     6
  9
$SPLINESEGS
 70
     8
  9
$ATTDIA
 70
     0
  9
$ATTREQ
 70
     1
  9
$HANDLING
 70
     1
  9
$HANDSEED
  5
6B7
  9
$SURFTAB1
 70
     6
  9
$SURFTAB2
 70
     6
  9
$SURFTYPE
 70
     6
  9
$SURFU
 70
     6
  9
$SURFV
 70
     6
  9
$UCSNAME
  2

  9
$UCSORG
 10
0.0
 20
0.0
 30
0.0
  9
$UCSXDIR
 10
1.0
 20
0.0
 30
0.0
  9
$UCSYDIR
 10
0.0
 20
1.0
 30
0.0
  9
$PUCSNAME
  2

  9
$PUCSORG
 10
0.0
 20
0.0
 30
0.0
  9
$PUCSXDIR
 10
1.0
 20
0.0
 30
0.0
  9
$PUCSYDIR
 10
0.0
 20
1.0
 30
0.0
  9
$USERI1
 70
     0
  9
$USERI2
 70
     0
  9
$USERI3
 70
     0
  9
$USERI4
 70
     0
  9
$USERI5
 70
     0
  9
$USERR1
 40
0.0
  9
$USERR2
 40
0.0
  9
$USERR3
 40
0.0
  9
$USERR4
 40
0.0
  9
$USERR5
 40
0.0
  9
$WORLDVIEW
 70
     1
  9
$SHADEDGE
 70
     3
  9
$SHADEDIF
 70
    70
  9
$TILEMODE
 70
     1
  9
$MAXACTVP
 70
    64
  9
$PLIMCHECK
 70
     0
  9
$PEXTMIN
 10
1.0000000000E+20
 20
1.0000000000E+20
 30
1.0000000000E+20
  9
$PEXTMAX
 10
-1.0000000000E+20
 20
-1.0000000000E+20
 30
-1.0000000000E+20
  9
$PLIMMIN
 10
0.0
 20
0.0
  9
$PLIMMAX
 10
12.0
 20
9.0
  9
$UNITMODE
 70
     0
  9
$VISRETAIN
 70
     1
  9
$PLINEGEN
 70
     0
  9
$PSLTSCALE
 70
     1
  0
ENDSEC
  0
SECTION
  2
TABLES
  0
TABLE
  2
VPORT
 70
     1
  0
VPORT
  2
*ACTIVE
 70
     0
 10
0.0
 20
0.0
 11
1.0
 21
1.0
 12
66.0
 22
51.0
 13
0.0
 23
0.0
 14
0.5
 24
0.5
 15
0.5
 25
0.5
 16
0.0
 26
0.0
 36
1.0
 17
0.0
 27
0.0
 37
0.0
 40
102.0
 41
1.2941176471
 42
50.0
 43
0.0
 44
0.0
 50
0.0
 51
0.0
 71
     0
 72
  2000
 73
     1
 74
     3
 75
     0
 76
     0
 77
     0
 78
     0
  0
ENDTAB
  0
TABLE
  2
LTYPE
 70
     6
  0
LTYPE
  2
CONTINUOUS
 70
     0
  3
Solid line
 72
    65
 73
     0
 40
0.0
  0
LTYPE
  2
HIDDEN
 70
     0
  3
Hidden __ __ __ __ __ __ __ __ __ __ __ __ __ __
 72
    65
 73
     2
 40
0.075
 49
0.05
 49
-0.025
  0
LTYPE
  2
PHANTOM
 70
     0
  3
Phantom ______  __  __  ______  __  __  ______
 72
    65
 73
     6
 40
0.5
 49
0.25
 49
-0.05
 49
0.05
 49
-0.05
 49
0.05
 49
-0.05
  0
LTYPE
  2
CENTER
 70
     0
  3
Center ____ _ ____ _ ____ _ ____ _ ____ _ ____
 72
    65
 73
     4
 40
0.4
 49
0.25
 49
-0.05
 49
0.05
 49
-0.05
  0
LTYPE
  2
CENTERX2
 70
     0
  3
Center (2x) ________  __  ________  __  _____
 72
    65
 73
     4
 40
0.8
 49
0.5
 49
-0.1
 49
0.1
 49
-0.1
  0
LTYPE
  2
DOT2
 70
     0
  3
Dot (.5x) ........................................
 72
    65
 73
     2
 40
0.025
 49
0.0
 49
-0.025
  0
ENDTAB
  0
TABLE
  2
LAYER
 70
     1
  0
LAYER
  2
0
 70
     0
 62
     7
  6
CONTINUOUS
  0
ENDTAB
  0
TABLE
  2
STYLE
 70
     1
  0
STYLE
  2
STANDARD
 70
     0
 40
0.0
 41
1.0
 50
0.0
 71
     0
 42
0.2
  3
txt
  4

  0
ENDTAB
  0
TABLE
  2
VIEW
 70
     0
  0
ENDTAB
  0
TABLE
  2
UCS
 70
     0
  0
ENDTAB
  0
TABLE
  2
APPID
 70
     1
  0
APPID
  2
ACAD
 70
     0
  0
ENDTAB
  0
TABLE
  2
DIMSTYLE
 70
     4
  0
DIMSTYLE
  2
STANDARD
 70
     0
  3

  4

  5

  6

  7

 40
1.0
 41
0.18
 42
0.0625
 43
0.38
 44
0.18
 45
0.0
 46
0.0
 47
0.0
 48
0.0
140
0.18
141
0.09
142
0.0
143
25.4
144
1.0
145
0.0
146
1.0
147
0.09
 71
     0
 72
     0
 73
     1
 74
     1
 75
     0
 76
     0
 77
     0
 78
     0
170
     0
171
     2
172
     0
173
     0
174
     0
175
     0
176
     0
177
     0
178
     0
  0
DIMSTYLE
  2
SLDDIMSTYLE0
 70
     0
  3

  4

  5

  6

  7

 40
1.0
 41
1.56
 42
0.0625
 43
0.38
 44
0.0
 45
0.000000001
 46
0.0
 47
0.0
 48
0.0
140
1.5
141
0.09
142
0.0
143
25.4
144
1.0
145
0.0
146
1.0
147
0.375
 71
     0
 72
     0
 73
     1
 74
     1
 75
     0
 76
     0
 77
     0
 78
    12
170
     1
171
     2
172
     1
173
     1
174
     0
175
     0
176
     0
177
     0
178
     0
  0
DIMSTYLE
  2
SLDDIMSTYLE1
 70
     0
  3

  4

  5

  6

  7

 40
1.0
 41
1.56
 42
0.0625
 43
0.38
 44
0.0
 45
0.000000001
 46
0.0
 47
0.0
 48
0.0
140
1.5
141
0.09
142
0.0
143
25.4
144
1.0
145
0.0
146
1.0
147
0.375
 71
     0
 72
     0
 73
     1
 74
     1
 75
     0
 76
     0
 77
     0
 78
    12
170
     1
171
     2
172
     0
173
     1
174
     0
175
     0
176
     0
177
     0
178
     0
  0
DIMSTYLE
  2
SLDDIMSTYLE2
 70
     0
  3

  4

  5

  6

  7

 40
1.0
 41
1.56
 42
0.0625
 43
0.38
 44
0.0
 45
0.000000001
 46
0.0
 47
0.0
 48
0.0
140
1.5
141
0.09
142
0.0
143
25.4
144
1.0
145
0.0
146
1.0
147
0.375
 71
     0
 72
     0
 73
     1
 74
     1
 75
     0
 76
     0
 77
     0
 78
     4
170
     1
171
     2
172
     1
173
     1
174
     0
175
     0
176
     0
177
     0
178
     0
  0
ENDTAB
  0
ENDSEC
  0
SECTION
  2
BLOCKS
  0
BLOCK
  8
0
  2
$MODEL_SPACE
 70
     0
 10
0.0
 20
0.0
 30
0.0
  3
$MODEL_SPACE
  1

  0
ENDBLK
  5
21
  8
0
  0
BLOCK
 67
     1
  8
0
  2
$PAPER_SPACE
 70
     0
 10
0.0
 20
0.0
 30
0.0
  3
$PAPER_SPACE
  1

  0
ENDBLK
  5
1D
 67
     1
  8
0
  0
BLOCK
  8
0
  2
SW_NOTE_0
 70
     0
 10
0.0
 20
0.0
 30
0.0
  3
SW_NOTE_0
  1

  0
TEXT
  5
74
  8
0
  6
CONTINUOUS
 62
     0
 10
0.0
 20
0.5298900929
 30
0.0
 40
1.5
  1
MATERIAL:
 41
0.7
 11
0.0
 21
0.0
 31
0.0
 73
     1
  0
TEXT
  5
75
  8
0
  6
CONTINUOUS
 62
     0
 10
0.0
 20
-1.4425508013
 30
0.0
 40
1.5
  1
  DOOR - 20 GA. [.8mm] STEEL
 41
0.6125
 11
0.0
 21
-1.9724408942
 31
0.0
 73
     1
  0
TEXT
  5
76
  8
0
  6
CONTINUOUS
 62
     0
 10
0.0
 20
-3.4149916955
 30
0.0
 40
1.5
  1
  STIFFENER - 18 GA. [1.2mm] STEEL
 41
0.6279411765
 11
0.0
 21
-3.9448817884
 31
0.0
 73
     1
  0
ENDBLK
  5
73
  8
0
  0
BLOCK
  8
0
  2
SW_NOTE_1
 70
     0
 10
0.0
 20
0.0
 30
0.0
  3
SW_NOTE_1
  1

  0
TEXT
  5
7B
  8
0
  6
CONTINUOUS
 62
     0
 10
0.0
 20
0.5298900929
 30
0.0
 40
1.5
  1
FINISH:
 41
0.7
 11
0.0
 21
0.0
 31
0.0
 73
     1
  0
TEXT
  5
7C
  8
0
  6
CONTINUOUS
 62
     0
 10
0.0
 20
-1.4425508013
 30
0.0
 40
1.5
  1
  POWDERCOAT
 41
0.6416666667
 11
0.0
 21
-1.9724408942
 31
0.0
 73
     1
  0
TEXT
  5
7D
  8
0
  6
CONTINUOUS
 62
     0
 10
0.0
 20
-3.4149916955
 30
0.0
 40
1.5
  1
   SAND TEXTURE "S"
 41
0.6078947368
 11
0.0
 21
-3.9448817884
 31
0.0
 73
     1
  0
TEXT
  5
7E
  8
0
  6
CONTINUOUS
 62
     0
 10
0.0
 20
-5.3874325897
 30
0.0
 40
1.5
  1
   ROYAL BLUE TEXTURE "RB"
 41
0.6192307692
 11
0.0
 21
-5.9173226826
 31
0.0
 73
     1
  0
TEXT
  5
7F
  8
0
  6
CONTINUOUS
 62
     0
 10
0.0
 20
-7.3598734839
 30
0.0
 40
1.5
  1
   BLACK TEXTURE "BT"
 41
0.6166666667
 11
0.0
 21
-7.8897635768
 31
0.0
 73
     1
  0
ENDBLK
  5
7A
  8
0
  0
BLOCK
  8
0
  2
SW_NOTE_2
 70
     0
 10
0.0
 20
0.0
 30
0.0
  3
SW_NOTE_2
  1

  0
TEXT
  5
84
  8
0
  6
CONTINUOUS
 62
     0
 10
0.0
 20
0.5298900929
 30
0.0
 40
1.5
  1
DOOR MAY BE USED ON
 41
0.6263157895
 11
0.0
 21
0.0
 31
0.0
 73
     1
  0
TEXT
  5
85
  8
0
  6
CONTINUOUS
 62
     0
 10
0.0
 20
-1.4425508013
 30
0.0
 40
1.5
  1
 FRONT OR REAR OF
 41
0.6176470588
 11
0.0
 21
-1.9724408942
 31
0.0
 73
     1
  0
TEXT
  5
86
  8
0
  6
CONTINUOUS
 62
     0
 10
0.0
 20
-3.4149916955
 30
0.0
 40
1.5
  1
 ECONOMIZER RACKS.
 41
0.6611111111
 11
0.0
 21
-3.9448817884
 31
0.0
 73
     1
  0
ENDBLK
  5
83
  8
0
  0
BLOCK
  8
0
  2
SW_NOTE_3
 70
     0
 10
0.0
 20
0.0
 30
0.0
  3
SW_NOTE_3
  1

  0
TEXT
  5
8C
  8
0
  6
CONTINUOUS
 62
     0
 10
0.0
 20
0.5298900929
 30
0.0
 40
1.5
  1
DOOR USED ON RACKS WITH
 41
0.6391304348
 11
0.0
 21
0.0
 31
0.0
 73
     1
  0
TEXT
  5
8D
  8
0
  6
CONTINUOUS
 62
     0
 10
0.0
 20
-1.4425508013
 30
0.0
 40
1.5
  1
 19" WIDE PANEL SPACE.
 41
0.6363636364
 11
0.0
 21
-1.9724408942
 31
0.0
 73
     1
  0
ENDBLK
  5
8B
  8
0
  0
BLOCK
  8
0
  2
SW_NOTE_4
 70
     0
 10
0.0
 20
0.0
 30
0.0
  3
SW_NOTE_4
  1

  0
TEXT
  5
92
  8
0
  6
CONTINUOUS
 62
     0
 10
0.0
 20
0.5298900929
 30
0.0
 40
1.5
  1
PART
 41
0.7
 11
0.0
 21
0.0
 31
0.0
 73
     1
  0
TEXT
  5
93
  8
0
  6
CONTINUOUS
 62
     0
 10
-0.5697916577
 20
-1.4425508013
 30
0.0
 40
1.5
  1
NAME
 41
0.7
 11
-0.5697916577
 21
-1.9724408942
 31
0.0
 73
     1
  0
ENDBLK
  5
91
  8
0
  0
BLOCK
  8
0
  2
SW_NOTE_5
 70
     0
 10
0.0
 20
0.0
 30
0.0
  3
SW_NOTE_5
  1

  0
TEXT
  5
98
  8
0
  6
CONTINUOUS
 62
     0
 10
0.0
 20
0.5298900929
 30
0.0
 40
1.5
  1
PART
 41
0.7
 11
0.0
 21
0.0
 31
0.0
 73
     1
  0
TEXT
  5
99
  8
0
  6
CONTINUOUS
 62
     0
 10
0.6927081978
 20
-1.4425508013
 30
0.0
 40
1.5
  1
No.
 41
0.7
 11
0.6927081978
 21
-1.9724408942
 31
0.0
 73
     1
  0
ENDBLK
  5
97
  8
0
  0
BLOCK
  8
0
  2
SW_NOTE_6
 70
     0
 10
0.0
 20
0.0
 30
0.0
  3
SW_NOTE_6
  1

  0
TEXT
  5
9E
  8
0
  6
CONTINUOUS
 62
     0
 10
0.0
 20
0.5298900929
 30
0.0
 40
1.5
  1
REV.
 41
0.7
 11
0.0
 21
0.0
 31
0.0
 73
     1
  0
TEXT
  5
9F
  8
0
  6
CONTINUOUS
 62
     0
 10
-0.3229166696
 20
-1.4425508013
 30
0.0
 40
1.5
  1
DATE
 41
0.7
 11
-0.3229166696
 21
-1.9724408942
 31
0.0
 73
     1
  0
ENDBLK
  5
9D
  8
0
  0
BLOCK
  8
0
  2
*D8
 70
     1
 10
0.0
 20
0.0
 30
0.0
  3
*D8
  1

  0
SOLID
  5
1D3
  8
0
  6
CONTINUOUS
 62
     7
 10
76.7036482591
 20
25.8355771812
 30
0.0
 11
76.9436482591
 21
27.3955771812
 31
0.0
 12
76.4636482591
 22
27.3955771812
 32
0.0
 13
76.4636482591
 23
27.3955771812
 33
0.0
  0
SOLID
  5
1D4
  8
0
  6
CONTINUOUS
 62
     7
 10
76.7036482591
 20
23.3980771812
 30
0.0
 11
76.4636482591
 21
21.8380771812
 31
0.0
 12
76.9436482591
 22
21.8380771812
 32
0.0
 13
76.9436482591
 23
21.8380771812
 33
0.0
  0
LINE
  5
1D5
  8
0
  6
CONTINUOUS
 62
     7
 10
79.6489470483
 20
18.6622093848
 30
0.0
 11
79.3442595331
 21
18.6622093848
 31
0.0
  0
LINE
  5
1D6
  8
0
  6
CONTINUOUS
 62
     7
 10
79.3442595331
 20
18.6622093848
 30
0.0
 11
79.3442595331
 21
16.2809593132
 31
0.0
  0
LINE
  5
1D7
  8
0
  6
CONTINUOUS
 62
     7
 10
79.3442595331
 20
16.2809593132
 30
0.0
 11
79.6489470483
 21
16.2809593132
 31
0.0
  0
LINE
  5
1D8
  8
0
  6
CONTINUOUS
 62
     7
 10
84.2898326239
 20
18.6622093848
 30
0.0
 11
84.5945201391
 21
18.6622093848
 31
0.0
  0
LINE
  5
1D9
  8
0
  6
CONTINUOUS
 62
     7
 10
84.5945201391
 20
18.6622093848
 30
0.0
 11
84.5945201391
 21
16.2809593132
 31
0.0
  0
LINE
  5
1DA
  8
0
  6
CONTINUOUS
 62
     7
 10
84.5945201391
 20
16.2809593132
 30
0.0
 11
84.2898326239
 21
16.2809593132
 31
0.0
  0
LINE
  5
1DB
  8
0
  6
CONTINUOUS
 62
     7
 10
68.5721565206
 20
25.8355771812
 30
0.0
 11
78.2036482591
 21
25.8355771812
 31
0.0
  0
LINE
  5
1DC
  8
0
  6
CONTINUOUS
 62
     7
 10
70.5796466668
 20
23.3980771812
 30
0.0
 11
78.2036482591
 21
23.3980771812
 31
0.0
  0
LINE
  5
1DD
  8
0
  6
CONTINUOUS
 62
     7
 10
78.2036482591
 20
18.6736677324
 30
0.0
 11
76.7036482591
 21
18.6736677324
 31
0.0
  0
LINE
  5
1DE
  8
0
  6
CONTINUOUS
 62
     7
 10
76.7036482591
 20
18.6736677324
 30
0.0
 11
76.7036482591
 21
23.3980771812
 31
0.0
  0
LINE
  5
1DF
  8
0
  6
CONTINUOUS
 62
     7
 10
76.7036482591
 20
25.8355771812
 30
0.0
 11
76.7036482591
 21
28.8355771812
 31
0.0
  0
TEXT
  5
1E0
  8
0
  6
CONTINUOUS
 62
     7
 10
79.4204315769
 20
19.4967869929
 30
0.1744375
 40
1.5
  1
2.44
 41
0.7
 11
79.4204315769
 21
18.9668969
 31
0.1744375
 73
     1
  0
TEXT
  5
1E1
  8
0
  6
CONTINUOUS
 62
     7
 10
80.0298064423
 20
16.8108493235
 30
0.1744375
 40
1.5
  1
61.9
 41
0.7
 11
80.0298064423
 21
16.2809592307
 31
0.1744375
 73
     1
  0
TEXT
  5
1E2
  8
0
  6
CONTINUOUS
 62
     7
 10
84.8230358855
 20
19.5197037706
 30
0.1744375
 40
1.5
  1
 TYP.
 41
0.7
 11
84.8230358855
 21
18.9898136777
 31
0.1744375
 73
     1
  0
ENDBLK
  5
1D2
  8
0
  0
BLOCK
  8
0
  2
*D9
 70
     1
 10
0.0
 20
0.0
 30
0.0
  3
*D9
  1

  0
SOLID
  5
1E8
  8
0
  6
CONTINUOUS
 62
     7
 10
76.7036482591
 20
25.8355771812
 30
0.0
 11
76.9436482591
 21
27.3955771812
 31
0.0
 12
76.4636482591
 22
27.3955771812
 32
0.0
 13
76.4636482591
 23
27.3955771812
 33
0.0
  0
SOLID
  5
1E9
  8
0
  6
CONTINUOUS
 62
     7
 10
76.7036482591
 20
35.4605771812
 30
0.0
 11
76.4636482591
 21
33.9005771812
 31
0.0
 12
76.9436482591
 22
33.9005771812
 32
0.0
 13
76.9436482591
 23
33.9005771812
 33
0.0
  0
LINE
  5
1EA
  8
0
  6
CONTINUOUS
 62
     7
 10
71.6654976115
 20
30.6366188336
 30
0.0
 11
71.3608100963
 21
30.6366188336
 31
0.0
  0
LINE
  5
1EB
  8
0
  6
CONTINUOUS
 62
     7
 10
71.3608100963
 20
30.6366188336
 30
0.0
 11
71.3608100963
 21
28.255368762
 31
0.0
  0
LINE
  5
1EC
  8
0
  6
CONTINUOUS
 62
     7
 10
71.3608100963
 20
28.255368762
 30
0.0
 11
71.6654976115
 21
28.255368762
 31
0.0
  0
LINE
  5
1ED
  8
0
  6
CONTINUOUS
 62
     7
 10
77.4147163035
 20
30.6366188336
 30
0.0
 11
77.7194038187
 21
30.6366188336
 31
0.0
  0
LINE
  5
1EE
  8
0
  6
CONTINUOUS
 62
     7
 10
77.7194038187
 20
30.6366188336
 30
0.0
 11
77.7194038187
 21
28.255368762
 31
0.0
  0
LINE
  5
1EF
  8
0
  6
CONTINUOUS
 62
     7
 10
77.7194038187
 20
28.255368762
 30
0.0
 11
77.4147163035
 21
28.255368762
 31
0.0
  0
LINE
  5
1F0
  8
0
  6
CONTINUOUS
 62
     7
 10
68.5721565206
 20
25.8355771812
 30
0.0
 11
78.2036482591
 21
25.8355771812
 31
0.0
  0
LINE
  5
1F1
  8
0
  6
CONTINUOUS
 62
     7
 10
67.9176466668
 20
35.4605771812
 30
0.0
 11
78.2036482591
 21
35.4605771812
 31
0.0
  0
LINE
  5
1F2
  8
0
  6
CONTINUOUS
 62
     7
 10
76.7036482591
 20
25.8355771812
 30
0.0
 11
76.7036482591
 21
27.9506810818
 31
0.0
  0
LINE
  5
1F3
  8
0
  6
CONTINUOUS
 62
     7
 10
76.7036482591
 20
35.4605771812
 30
0.0
 11
76.7036482591
 21
33.3454732807
 31
0.0
  0
TEXT
  5
1F4
  8
0
  6
CONTINUOUS
 62
     7
 10
71.9911486983
 20
31.4711964417
 30
0.1744375
 40
1.5
  1
9.63
 41
0.7
 11
71.9911486983
 21
30.9413063488
 31
0.1744375
 73
     1
  0
TEXT
  5
1F5
  8
0
  6
CONTINUOUS
 62
     7
 10
72.0463570055
 20
28.7852587724
 30
0.1744375
 40
1.5
  1
244.5
 41
0.7
 11
72.0463570055
 21
28.2553686795
 31
0.1744375
 73
     1
  0
TEXT
  5
1F6
  8
0
  6
CONTINUOUS
 62
     7
 10
77.9479195652
 20
31.4941132194
 30
0.1744375
 40
1.5
  1
 TYP.
 41
0.7
 11
77.9479195652
 21
30.9642231266
 31
0.1744375
 73
     1
  0
ENDBLK
  5
1E7
  8
0
  0
BLOCK
  8
0
  2
*D10
 70
     1
 10
0.0
 20
0.0
 30
0.0
  3
*D10
  1

  0
SOLID
  5
1FB
  8
0
  6
CONTINUOUS
 62
     7
 10
67.9426466668
 20
18.6116677324
 30
0.0
 11
66.3826466668
 21
18.8516677324
 31
0.0
 12
66.3826466668
 22
18.3716677324
 32
0.0
 13
66.3826466668
 23
18.3716677324
 33
0.0
  0
SOLID
  5
1FC
  8
0
  6
CONTINUOUS
 62
     7
 10
70.0516466668
 20
18.6116677324
 30
0.0
 11
71.6116466668
 21
18.3716677324
 31
0.0
 12
71.6116466668
 22
18.8516677324
 32
0.0
 13
71.6116466668
 23
18.8516677324
 33
0.0
  0
LINE
  5
1FD
  8
0
  6
CONTINUOUS
 62
     7
 10
54.7502206942
 20
18.6002093848
 30
0.0
 11
54.445533179
 21
18.6002093848
 31
0.0
  0
LINE
  5
1FE
  8
0
  6
CONTINUOUS
 62
     7
 10
54.445533179
 20
18.6002093848
 30
0.0
 11
54.445533179
 21
16.2189593132
 31
0.0
  0
LINE
  5
1FF
  8
0
  6
CONTINUOUS
 62
     7
 10
54.445533179
 20
16.2189593132
 30
0.0
 11
54.7502206942
 21
16.2189593132
 31
0.0
  0
LINE
  5
200
  8
0
  6
CONTINUOUS
 62
     7
 10
59.3911062698
 20
18.6002093848
 30
0.0
 11
59.695793785
 21
18.6002093848
 31
0.0
  0
LINE
  5
201
  8
0
  6
CONTINUOUS
 62
     7
 10
59.695793785
 20
18.6002093848
 30
0.0
 11
59.695793785
 21
16.2189593132
 31
0.0
  0
LINE
  5
202
  8
0
  6
CONTINUOUS
 62
     7
 10
59.695793785
 20
16.2189593132
 30
0.0
 11
59.3911062698
 21
16.2189593132
 31
0.0
  0
LINE
  5
203
  8
0
  6
CONTINUOUS
 62
     7
 10
67.9426466668
 20
25.2355771812
 30
0.0
 11
67.9426466668
 21
17.1116677324
 31
0.0
  0
LINE
  5
204
  8
0
  6
CONTINUOUS
 62
     7
 10
70.0516466668
 20
22.8130771812
 30
0.0
 11
70.0516466668
 21
17.1116677324
 31
0.0
  0
LINE
  5
205
  8
0
  6
CONTINUOUS
 62
     7
 10
67.9426466668
 20
18.6116677324
 30
0.0
 11
64.5554239038
 21
18.6116677324
 31
0.0
  0
LINE
  5
206
  8
0
  6
CONTINUOUS
 62
     7
 10
70.0516466668
 20
18.6116677324
 30
0.0
 11
73.0516466668
 21
18.6116677324
 31
0.0
  0
TEXT
  5
207
  8
0
  6
CONTINUOUS
 62
     7
 10
54.5217052228
 20
19.4347869929
 30
0.1744375
 40
1.5
  1
2.11
 41
0.7
 11
54.5217052228
 21
18.9048969
 31
0.1744375
 73
     1
  0
TEXT
  5
208
  8
0
  6
CONTINUOUS
 62
     7
 10
55.1310800882
 20
16.7488493235
 30
0.1744375
 40
1.5
  1
53.6
 41
0.7
 11
55.1310800882
 21
16.2189592307
 31
0.1744375
 73
     1
  0
TEXT
  5
209
  8
0
  6
CONTINUOUS
 62
     7
 10
59.9243095314
 20
19.4577037706
 30
0.1744375
 40
1.5
  1
 TYP.
 41
0.7
 11
59.9243095314
 21
18.9278136777
 31
0.1744375
 73
     1
  0
ENDBLK
  5
1FA
  8
0
  0
BLOCK
  8
0
  2
*D11
 70
     1
 10
0.0
 20
0.0
 30
0.0
  3
*D11
  1

  0
SOLID
  5
20E
  8
0
  6
CONTINUOUS
 62
     7
 10
46.7955960894
 20
62.7880771812
 30
0.0
 11
46.5555960894
 21
61.2280771812
 31
0.0
 12
47.0355960894
 22
61.2280771812
 32
0.0
 13
47.0355960894
 23
61.2280771812
 33
0.0
  0
SOLID
  5
20F
  8
0
  6
CONTINUOUS
 62
     7
 10
46.7955960894
 20
65.3350771812
 30
0.0
 11
47.0355960894
 21
66.8950771812
 31
0.0
 12
46.5555960894
 22
66.8950771812
 32
0.0
 13
46.5555960894
 23
66.8950771812
 33
0.0
  0
LINE
  5
210
  8
0
  6
CONTINUOUS
 62
     7
 10
38.6552451664
 20
68.5821032236
 30
0.0
 11
38.3505576512
 21
68.5821032236
 31
0.0
  0
LINE
  5
211
  8
0
  6
CONTINUOUS
 62
     7
 10
38.3505576512
 20
68.5821032236
 30
0.0
 11
38.3505576512
 21
66.200853152
 31
0.0
  0
LINE
  5
212
  8
0
  6
CONTINUOUS
 62
     7
 10
38.3505576512
 20
66.200853152
 30
0.0
 11
38.6552451664
 21
66.200853152
 31
0.0
  0
LINE
  5
213
  8
0
  6
CONTINUOUS
 62
     7
 10
43.296130742
 20
68.5821032236
 30
0.0
 11
43.6008182572
 21
68.5821032236
 31
0.0
  0
LINE
  5
214
  8
0
  6
CONTINUOUS
 62
     7
 10
43.6008182572
 20
68.5821032236
 30
0.0
 11
43.6008182572
 21
66.200853152
 31
0.0
  0
LINE
  5
215
  8
0
  6
CONTINUOUS
 62
     7
 10
43.6008182572
 20
66.200853152
 30
0.0
 11
43.296130742
 21
66.200853152
 31
0.0
  0
LINE
  5
216
  8
0
  6
CONTINUOUS
 62
     7
 10
50.2926466668
 20
62.7880771812
 30
0.0
 11
45.2955960894
 21
62.7880771812
 31
0.0
  0
LINE
  5
217
  8
0
  6
CONTINUOUS
 62
     7
 10
50.7116466668
 20
65.3350771812
 30
0.0
 11
45.2955960894
 21
65.3350771812
 31
0.0
  0
LINE
  5
218
  8
0
  6
CONTINUOUS
 62
     7
 10
45.2955960894
 20
68.5935615712
 30
0.0
 11
46.7955960894
 21
68.5935615712
 31
0.0
  0
LINE
  5
219
  8
0
  6
CONTINUOUS
 62
     7
 10
46.7955960894
 20
68.5935615712
 30
0.0
 11
46.7955960894
 21
65.3350771812
 31
0.0
  0
LINE
  5
21A
  8
0
  6
CONTINUOUS
 62
     7
 10
46.7955960894
 20
62.7880771812
 30
0.0
 11
46.7955960894
 21
59.7880771812
 31
0.0
  0
TEXT
  5
21B
  8
0
  6
CONTINUOUS
 62
     7
 10
37.5678753465
 20
69.4395976095
 30
0.1744375
 40
1.5
  1
 
 41
0.7
 11
37.5678753465
 21
68.9097075166
 31
0.1744375
 73
     1
  0
TEXT
  5
21C
  8
0
  6
CONTINUOUS
 62
     7
 10
38.426729695
 20
69.4166808317
 30
0.1744375
 40
1.5
  1
2.55
 41
0.7
 11
38.426729695
 21
68.8867907388
 31
0.1744375
 73
     1
  0
TEXT
  5
21D
  8
0
  6
CONTINUOUS
 62
     7
 10
39.0361045604
 20
66.7307431624
 30
0.1744375
 40
1.5
  1
64.7
 41
0.7
 11
39.0361045604
 21
66.2008530695
 31
0.1744375
 73
     1
  0
TEXT
  5
21E
  8
0
  6
CONTINUOUS
 62
     7
 10
43.8293338936
 20
69.4395976095
 30
0.1744375
 40
1.5
  1
 
 41
0.7
 11
43.8293338936
 21
68.9097075166
 31
0.1744375
 73
     1
  0
ENDBLK
  5
20D
  8
0
  0
BLOCK
  8
0
  2
*D12
 70
     1
 10
0.0
 20
0.0
 30
0.0
  3
*D12
  1

  0
SOLID
  5
223
  8
0
  6
CONTINUOUS
 62
     7
 10
57.7236466668
 20
38.7082042772
 30
0.0
 11
59.2836466668
 21
38.4682042772
 31
0.0
 12
59.2836466668
 22
38.9482042772
 32
0.0
 13
59.2836466668
 23
38.9482042772
 33
0.0
  0
SOLID
  5
224
  8
0
  6
CONTINUOUS
 62
     7
 10
53.3486466668
 20
38.7082042772
 30
0.0
 11
51.7886466668
 21
38.9482042772
 31
0.0
 12
51.7886466668
 22
38.4682042772
 32
0.0
 13
51.7886466668
 23
38.4682042772
 33
0.0
  0
LINE
  5
225
  8
0
  6
CONTINUOUS
 62
     7
 10
42.1448038415
 20
38.6967459295
 30
0.0
 11
41.8401163263
 21
38.6967459295
 31
0.0
  0
LINE
  5
226
  8
0
  6
CONTINUOUS
 62
     7
 10
41.8401163263
 20
38.6967459295
 30
0.0
 11
41.8401163263
 21
36.3154958579
 31
0.0
  0
LINE
  5
227
  8
0
  6
CONTINUOUS
 62
     7
 10
41.8401163263
 20
36.3154958579
 30
0.0
 11
42.1448038415
 21
36.3154958579
 31
0.0
  0
LINE
  5
228
  8
0
  6
CONTINUOUS
 62
     7
 10
47.8940225336
 20
38.6967459295
 30
0.0
 11
48.1987100488
 21
38.6967459295
 31
0.0
  0
LINE
  5
229
  8
0
  6
CONTINUOUS
 62
     7
 10
48.1987100488
 20
38.6967459295
 30
0.0
 11
48.1987100488
 21
36.3154958579
 31
0.0
  0
LINE
  5
22A
  8
0
  6
CONTINUOUS
 62
     7
 10
48.1987100488
 20
36.3154958579
 30
0.0
 11
47.8940225336
 21
36.3154958579
 31
0.0
  0
LINE
  5
22B
  8
0
  6
CONTINUOUS
 62
     7
 10
57.7236466668
 20
35.4355771812
 30
0.0
 11
57.7236466668
 21
40.2082042772
 31
0.0
  0
LINE
  5
22C
  8
0
  6
CONTINUOUS
 62
     7
 10
53.3486466668
 20
35.4355771812
 30
0.0
 11
53.3486466668
 21
40.2082042772
 31
0.0
  0
LINE
  5
22D
  8
0
  6
CONTINUOUS
 62
     7
 10
57.7236466668
 20
38.7082042772
 30
0.0
 11
60.7236466668
 21
38.7082042772
 31
0.0
  0
LINE
  5
22E
  8
0
  6
CONTINUOUS
 62
     7
 10
53.3486466668
 20
38.7082042772
 30
0.0
 11
49.2854241226
 21
38.7082042772
 31
0.0
  0
TEXT
  5
22F
  8
0
  6
CONTINUOUS
 62
     7
 10
41.0574340217
 20
39.5542403154
 30
0.1744375
 40
1.5
  1
 
 41
0.7
 11
41.0574340217
 21
39.0243502225
 31
0.1744375
 73
     1
  0
TEXT
  5
230
  8
0
  6
CONTINUOUS
 62
     7
 10
42.4704549283
 20
39.5313235376
 30
0.1744375
 40
1.5
  1
4.38
 41
0.7
 11
42.4704549283
 21
39.0014334448
 31
0.1744375
 73
     1
  0
TEXT
  5
231
  8
0
  6
CONTINUOUS
 62
     7
 10
42.5256632356
 20
36.8453858683
 30
0.1744375
 40
1.5
  1
111.1
 41
0.7
 11
42.5256632356
 21
36.3154957754
 31
0.1744375
 73
     1
  0
TEXT
  5
232
  8
0
  6
CONTINUOUS
 62
     7
 10
48.4272256852
 20
39.5542403154
 30
0.1744375
 40
1.5
  1
 
 41
0.7
 11
48.4272256852
 21
39.0243502225
 31
0.1744375
 73
     1
  0
ENDBLK
  5
222
  8
0
  0
BLOCK
  8
0
  2
*D13
 70
     1
 10
0.0
 20
0.0
 30
0.0
  3
*D13
  1

  0
SOLID
  5
237
  8
0
  6
CONTINUOUS
 62
     7
 10
51.2396466668
 20
69.1503275858
 30
0.0
 11
52.7996466668
 21
68.9103275858
 31
0.0
 12
52.7996466668
 22
69.3903275858
 32
0.0
 13
52.7996466668
 23
69.3903275858
 33
0.0
  0
SOLID
  5
238
  8
0
  6
CONTINUOUS
 62
     7
 10
70.0516466668
 20
69.1503275858
 30
0.0
 11
68.4916466668
 21
69.3903275858
 31
0.0
 12
68.4916466668
 22
68.9103275858
 32
0.0
 13
68.4916466668
 23
68.9103275858
 33
0.0
  0
LINE
  5
239
  8
0
  6
CONTINUOUS
 62
     7
 10
57.7710373757
 20
69.1388692382
 30
0.0
 11
57.4663498605
 21
69.1388692382
 31
0.0
  0
LINE
  5
23A
  8
0
  6
CONTINUOUS
 62
     7
 10
57.4663498605
 20
69.1388692382
 30
0.0
 11
57.4663498605
 21
66.7576191666
 31
0.0
  0
LINE
  5
23B
  8
0
  6
CONTINUOUS
 62
     7
 10
57.4663498605
 20
66.7576191666
 30
0.0
 11
57.7710373757
 21
66.7576191666
 31
0.0
  0
LINE
  5
23C
  8
0
  6
CONTINUOUS
 62
     7
 10
63.5202560678
 20
69.1388692382
 30
0.0
 11
63.824943583
 21
69.1388692382
 31
0.0
  0
LINE
  5
23D
  8
0
  6
CONTINUOUS
 62
     7
 10
63.824943583
 20
69.1388692382
 30
0.0
 11
63.824943583
 21
66.7576191666
 31
0.0
  0
LINE
  5
23E
  8
0
  6
CONTINUOUS
 62
     7
 10
63.824943583
 20
66.7576191666
 30
0.0
 11
63.5202560678
 21
66.7576191666
 31
0.0
  0
LINE
  5
23F
  8
0
  6
CONTINUOUS
 62
     7
 10
51.2396466668
 20
65.9200771812
 30
0.0
 11
51.2396466668
 21
70.6503275858
 31
0.0
  0
LINE
  5
240
  8
0
  6
CONTINUOUS
 62
     7
 10
70.0516466668
 20
65.9200771812
 30
0.0
 11
70.0516466668
 21
70.6503275858
 31
0.0
  0
LINE
  5
241
  8
0
  6
CONTINUOUS
 62
     7
 10
51.2396466668
 20
69.1503275858
 30
0.0
 11
56.3796356767
 21
69.1503275858
 31
0.0
  0
LINE
  5
242
  8
0
  6
CONTINUOUS
 62
     7
 10
70.0516466668
 20
69.1503275858
 30
0.0
 11
64.9116576568
 21
69.1503275858
 31
0.0
  0
TEXT
  5
243
  8
0
  6
CONTINUOUS
 62
     7
 10
56.6836675559
 20
69.9963636241
 30
0.1744375
 40
1.5
  1
 
 41
0.7
 11
56.6836675559
 21
69.4664735312
 31
0.1744375
 73
     1
  0
TEXT
  5
244
  8
0
  6
CONTINUOUS
 62
     7
 10
57.5425219043
 20
69.9734468463
 30
0.1744375
 40
1.5
  1
18.81
 41
0.7
 11
57.5425219043
 21
69.4435567534
 31
0.1744375
 73
     1
  0
TEXT
  5
245
  8
0
  6
CONTINUOUS
 62
     7
 10
58.1518967698
 20
67.287509177
 30
0.1744375
 40
1.5
  1
477.8
 41
0.7
 11
58.1518967698
 21
66.7576190841
 31
0.1744375
 73
     1
  0
TEXT
  5
246
  8
0
  6
CONTINUOUS
 62
     7
 10
64.0534592194
 20
69.9963636241
 30
0.1744375
 40
1.5
  1
 
 41
0.7
 11
64.0534592194
 21
69.4664735312
 31
0.1744375
 73
     1
  0
ENDBLK
  5
236
  8
0
  0
BLOCK
  8
0
  2
*D14
 70
     1
 10
0.0
 20
0.0
 30
0.0
  3
*D14
  1

  0
SOLID
  5
24B
  8
0
  6
CONTINUOUS
 62
     7
 10
46.7955960894
 20
26.5700771812
 30
0.0
 11
47.0355960894
 21
28.1300771812
 31
0.0
 12
46.5555960894
 22
28.1300771812
 32
0.0
 13
46.5555960894
 23
28.1300771812
 33
0.0
  0
SOLID
  5
24C
  8
0
  6
CONTINUOUS
 62
     7
 10
46.7955960894
 20
23.3980771812
 30
0.0
 11
46.5555960894
 21
21.8380771812
 31
0.0
 12
47.0355960894
 22
21.8380771812
 32
0.0
 13
47.0355960894
 23
21.8380771812
 33
0.0
  0
LINE
  5
24D
  8
0
  6
CONTINUOUS
 62
     7
 10
38.6552451664
 20
19.8477209686
 30
0.0
 11
38.3505576512
 21
19.8477209686
 31
0.0
  0
LINE
  5
24E
  8
0
  6
CONTINUOUS
 62
     7
 10
38.3505576512
 20
19.8477209686
 30
0.0
 11
38.3505576512
 21
17.466470897
 31
0.0
  0
LINE
  5
24F
  8
0
  6
CONTINUOUS
 62
     7
 10
38.3505576512
 20
17.466470897
 30
0.0
 11
38.6552451664
 21
17.466470897
 31
0.0
  0
LINE
  5
250
  8
0
  6
CONTINUOUS
 62
     7
 10
43.296130742
 20
19.8477209686
 30
0.0
 11
43.6008182572
 21
19.8477209686
 31
0.0
  0
LINE
  5
251
  8
0
  6
CONTINUOUS
 62
     7
 10
43.6008182572
 20
19.8477209686
 30
0.0
 11
43.6008182572
 21
17.466470897
 31
0.0
  0
LINE
  5
252
  8
0
  6
CONTINUOUS
 62
     7
 10
43.6008182572
 20
17.466470897
 30
0.0
 11
43.296130742
 21
17.466470897
 31
0.0
  0
LINE
  5
253
  8
0
  6
CONTINUOUS
 62
     7
 10
50.2926466668
 20
26.5700771812
 30
0.0
 11
45.2955960894
 21
26.5700771812
 31
0.0
  0
LINE
  5
254
  8
0
  6
CONTINUOUS
 62
     7
 10
50.7116466668
 20
23.3980771812
 30
0.0
 11
45.2955960894
 21
23.3980771812
 31
0.0
  0
LINE
  5
255
  8
0
  6
CONTINUOUS
 62
     7
 10
45.2955960894
 20
19.8591793162
 30
0.0
 11
46.7955960894
 21
19.8591793162
 31
0.0
  0
LINE
  5
256
  8
0
  6
CONTINUOUS
 62
     7
 10
46.7955960894
 20
19.8591793162
 30
0.0
 11
46.7955960894
 21
23.3980771812
 31
0.0
  0
LINE
  5
257
  8
0
  6
CONTINUOUS
 62
     7
 10
46.7955960894
 20
26.5700771812
 30
0.0
 11
46.7955960894
 21
29.5700771812
 31
0.0
  0
TEXT
  5
258
  8
0
  6
CONTINUOUS
 62
     7
 10
37.5678753465
 20
20.7052153545
 30
0.1744375
 40
1.5
  1
 
 41
0.7
 11
37.5678753465
 21
20.1753252616
 31
0.1744375
 73
     1
  0
TEXT
  5
259
  8
0
  6
CONTINUOUS
 62
     7
 10
38.426729695
 20
20.6822985767
 30
0.1744375
 40
1.5
  1
3.17
 41
0.7
 11
38.426729695
 21
20.1524084838
 31
0.1744375
 73
     1
  0
TEXT
  5
25A
  8
0
  6
CONTINUOUS
 62
     7
 10
39.0361045604
 20
17.9963609074
 30
0.1744375
 40
1.5
  1
80.6
 41
0.7
 11
39.0361045604
 21
17.4664708145
 31
0.1744375
 73
     1
  0
TEXT
  5
25B
  8
0
  6
CONTINUOUS
 62
     7
 10
43.8293338936
 20
20.7052153545
 30
0.1744375
 40
1.5
  1
 
 41
0.7
 11
43.8293338936
 21
20.1753252616
 31
0.1744375
 73
     1
  0
ENDBLK
  5
24A
  8
0
  0
BLOCK
  8
0
  2
*D15
 70
     1
 10
0.0
 20
0.0
 30
0.0
  3
*D15
  1

  0
SOLID
  5
260
  8
0
  6
CONTINUOUS
 62
     7
 10
86.0239991442
 20
44.3665771812
 30
0.0
 11
85.7839991442
 21
42.8065771812
 31
0.0
 12
86.2639991442
 22
42.8065771812
 32
0.0
 13
86.2639991442
 23
42.8065771812
 33
0.0
  0
SOLID
  5
261
  8
0
  6
CONTINUOUS
 62
     7
 10
86.0239991442
 20
23.3980771812
 30
0.0
 11
86.2639991442
 21
24.9580771812
 31
0.0
 12
85.7839991442
 22
24.9580771812
 32
0.0
 13
85.7839991442
 23
24.9580771812
 33
0.0
  0
LINE
  5
262
  8
0
  6
CONTINUOUS
 62
     7
 10
83.1493898532
 20
33.8708688336
 30
0.0
 11
82.8447023379
 21
33.8708688336
 31
0.0
  0
LINE
  5
263
  8
0
  6
CONTINUOUS
 62
     7
 10
82.8447023379
 20
33.8708688336
 30
0.0
 11
82.8447023379
 21
31.489618762
 31
0.0
  0
LINE
  5
264
  8
0
  6
CONTINUOUS
 62
     7
 10
82.8447023379
 20
31.489618762
 30
0.0
 11
83.1493898532
 21
31.489618762
 31
0.0
  0
LINE
  5
265
  8
0
  6
CONTINUOUS
 62
     7
 10
88.8986085452
 20
33.8708688336
 30
0.0
 11
89.2032960604
 21
33.8708688336
 31
0.0
  0
LINE
  5
266
  8
0
  6
CONTINUOUS
 62
     7
 10
89.2032960604
 20
33.8708688336
 30
0.0
 11
89.2032960604
 21
31.489618762
 31
0.0
  0
LINE
  5
267
  8
0
  6
CONTINUOUS
 62
     7
 10
89.2032960604
 20
31.489618762
 30
0.0
 11
88.8986085452
 21
31.489618762
 31
0.0
  0
LINE
  5
268
  8
0
  6
CONTINUOUS
 62
     7
 10
69.6516466668
 20
44.3665771812
 30
0.0
 11
87.5239991442
 21
44.3665771812
 31
0.0
  0
LINE
  5
269
  8
0
  6
CONTINUOUS
 62
     7
 10
70.5796466668
 20
23.3980771812
 30
0.0
 11
87.5239991442
 21
23.3980771812
 31
0.0
  0
LINE
  5
26A
  8
0
  6
CONTINUOUS
 62
     7
 10
86.0239991442
 20
44.3665771812
 30
0.0
 11
86.0239991442
 21
36.5797232807
 31
0.0
  0
LINE
  5
26B
  8
0
  6
CONTINUOUS
 62
     7
 10
86.0239991442
 20
23.3980771812
 30
0.0
 11
86.0239991442
 21
31.1849310818
 31
0.0
  0
TEXT
  5
26C
  8
0
  6
CONTINUOUS
 62
     7
 10
82.0620200333
 20
34.7283632194
 30
0.1744375
 40
1.5
  1
 
 41
0.7
 11
82.0620200333
 21
34.1984731266
 31
0.1744375
 73
     1
  0
TEXT
  5
26D
  8
0
  6
CONTINUOUS
 62
     7
 10
82.9208743817
 20
34.7054464417
 30
0.1744375
 40
1.5
  1
20.97
 41
0.7
 11
82.9208743817
 21
34.1755563488
 31
0.1744375
 73
     1
  0
TEXT
  5
26E
  8
0
  6
CONTINUOUS
 62
     7
 10
83.5302492472
 20
32.0195087724
 30
0.1744375
 40
1.5
  1
532.6
 41
0.7
 11
83.5302492472
 21
31.4896186795
 31
0.1744375
 73
     1
  0
TEXT
  5
26F
  8
0
  6
CONTINUOUS
 62
     7
 10
89.4318116968
 20
34.7283632194
 30
0.1744375
 40
1.5
  1
 
 41
0.7
 11
89.4318116968
 21
34.1984731266
 31
0.1744375
 73
     1
  0
ENDBLK
  5
25F
  8
0
  0
BLOCK
  8
0
  2
*D16
 70
     1
 10
0.0
 20
0.0
 30
0.0
  3
*D16
  1

  0
SOLID
  5
274
  8
0
  6
CONTINUOUS
 62
     7
 10
92.2839301313
 20
23.3980771812
 30
0.0
 11
92.5239301313
 21
24.9580771812
 31
0.0
 12
92.0439301313
 22
24.9580771812
 32
0.0
 13
92.0439301313
 23
24.9580771812
 33
0.0
  0
SOLID
  5
275
  8
0
  6
CONTINUOUS
 62
     7
 10
92.2839301313
 20
65.3350771812
 30
0.0
 11
92.0439301313
 21
63.7750771812
 31
0.0
 12
92.5239301313
 22
63.7750771812
 32
0.0
 13
92.5239301313
 23
63.7750771812
 33
0.0
  0
LINE
  5
276
  8
0
  6
CONTINUOUS
 62
     7
 10
88.8551542821
 20
44.3551188336
 30
0.0
 11
88.5504667669
 21
44.3551188336
 31
0.0
  0
LINE
  5
277
  8
0
  6
CONTINUOUS
 62
     7
 10
88.5504667669
 20
44.3551188336
 30
0.0
 11
88.5504667669
 21
41.973868762
 31
0.0
  0
LINE
  5
278
  8
0
  6
CONTINUOUS
 62
     7
 10
88.5504667669
 20
41.973868762
 30
0.0
 11
88.8551542821
 21
41.973868762
 31
0.0
  0
LINE
  5
279
  8
0
  6
CONTINUOUS
 62
     7
 10
95.7127060906
 20
44.3551188336
 30
0.0
 11
96.0173936058
 21
44.3551188336
 31
0.0
  0
LINE
  5
27A
  8
0
  6
CONTINUOUS
 62
     7
 10
96.0173936058
 20
44.3551188336
 30
0.0
 11
96.0173936058
 21
41.973868762
 31
0.0
  0
LINE
  5
27B
  8
0
  6
CONTINUOUS
 62
     7
 10
96.0173936058
 20
41.973868762
 30
0.0
 11
95.7127060906
 21
41.973868762
 31
0.0
  0
LINE
  5
27C
  8
0
  6
CONTINUOUS
 62
     7
 10
70.5796466668
 20
23.3980771812
 30
0.0
 11
93.7839301313
 21
23.3980771812
 31
0.0
  0
LINE
  5
27D
  8
0
  6
CONTINUOUS
 62
     7
 10
70.5796466668
 20
65.3350771812
 30
0.0
 11
93.7839301313
 21
65.3350771812
 31
0.0
  0
LINE
  5
27E
  8
0
  6
CONTINUOUS
 62
     7
 10
92.2839301313
 20
23.3980771812
 30
0.0
 11
92.2839301313
 21
41.6691810818
 31
0.0
  0
LINE
  5
27F
  8
0
  6
CONTINUOUS
 62
     7
 10
92.2839301313
 20
65.3350771812
 30
0.0
 11
92.2839301313
 21
47.0639732807
 31
0.0
  0
TEXT
  5
280
  8
0
  6
CONTINUOUS
 62
     7
 10
87.7677844622
 20
45.2126132194
 30
0.1744375
 40
1.5
  1
 
 41
0.7
 11
87.7677844622
 21
44.6827231266
 31
0.1744375
 73
     1
  0
TEXT
  5
281
  8
0
  6
CONTINUOUS
 62
     7
 10
89.1808053689
 20
45.1896964417
 30
0.1744375
 40
1.5
  1
41.94
 41
0.7
 11
89.1808053689
 21
44.6598063488
 31
0.1744375
 73
     1
  0
TEXT
  5
282
  8
0
  6
CONTINUOUS
 62
     7
 10
89.2360136761
 20
42.5037587724
 30
0.1744375
 40
1.5
  1
1065.2
 41
0.7
 11
89.2360136761
 21
41.9738686795
 31
0.1744375
 73
     1
  0
TEXT
  5
283
  8
0
  6
CONTINUOUS
 62
     7
 10
96.2459092422
 20
45.2126132194
 30
0.1744375
 40
1.5
  1
 
 41
0.7
 11
96.2459092422
 21
44.6827231266
 31
0.1744375
 73
     1
  0
ENDBLK
  5
273
  8
0
  0
BLOCK
  8
0
  2
*D17
 70
     1
 10
0.0
 20
0.0
 30
0.0
  3
*D17
  1

  0
SOLID
  5
289
  8
0
  6
CONTINUOUS
 62
     7
 10
69.0516466668
 20
48.2871672447
 30
0.0
 11
67.4916466668
 21
48.5271672447
 31
0.0
 12
67.4916466668
 22
48.0471672447
 32
0.0
 13
67.4916466668
 23
48.0471672447
 33
0.0
  0
SOLID
  5
28A
  8
0
  6
CONTINUOUS
 62
     7
 10
70.0516466668
 20
48.2871672447
 30
0.0
 11
71.6116466668
 21
48.0471672447
 31
0.0
 12
71.6116466668
 22
48.5271672447
 32
0.0
 13
71.6116466668
 23
48.5271672447
 33
0.0
  0
LINE
  5
28B
  8
0
  6
CONTINUOUS
 62
     7
 10
74.8959621589
 20
48.2757088971
 30
0.0
 11
74.5912746437
 21
48.2757088971
 31
0.0
  0
LINE
  5
28C
  8
0
  6
CONTINUOUS
 62
     7
 10
74.5912746437
 20
48.2757088971
 30
0.0
 11
74.5912746437
 21
45.8944588255
 31
0.0
  0
LINE
  5
28D
  8
0
  6
CONTINUOUS
 62
     7
 10
74.5912746437
 20
45.8944588255
 30
0.0
 11
74.8959621589
 21
45.8944588255
 31
0.0
  0
LINE
  5
28E
  8
0
  6
CONTINUOUS
 62
     7
 10
79.5368477345
 20
48.2757088971
 30
0.0
 11
79.8415352497
 21
48.2757088971
 31
0.0
  0
LINE
  5
28F
  8
0
  6
CONTINUOUS
 62
     7
 10
79.8415352497
 20
48.2757088971
 30
0.0
 11
79.8415352497
 21
45.8944588255
 31
0.0
  0
LINE
  5
290
  8
0
  6
CONTINUOUS
 62
     7
 10
79.8415352497
 20
45.8944588255
 30
0.0
 11
79.5368477345
 21
45.8944588255
 31
0.0
  0
LINE
  5
291
  8
0
  6
CONTINUOUS
 62
     7
 10
69.0516466668
 20
44.9665771812
 30
0.0
 11
69.0516466668
 21
49.7871672447
 31
0.0
  0
LINE
  5
292
  8
0
  6
CONTINUOUS
 62
     7
 10
69.0516466668
 20
48.2871672447
 30
0.0
 11
66.0516466668
 21
48.2871672447
 31
0.0
  0
LINE
  5
293
  8
0
  6
CONTINUOUS
 62
     7
 10
70.0516466668
 20
48.2871672447
 30
0.0
 11
73.5045604598
 21
48.2871672447
 31
0.0
  0
TEXT
  5
294
  8
0
  6
CONTINUOUS
 62
     7
 10
73.808592339
 20
49.133203283
 30
0.1744375
 40
1.5
  1
 
 41
0.7
 11
73.808592339
 21
48.6033131901
 31
0.1744375
 73
     1
  0
TEXT
  5
295
  8
0
  6
CONTINUOUS
 62
     7
 10
74.6674466875
 20
49.1102865052
 30
0.1744375
 40
1.5
  1
1.00
 41
0.7
 11
74.6674466875
 21
48.5803964123
 31
0.1744375
 73
     1
  0
TEXT
  5
296
  8
0
  6
CONTINUOUS
 62
     7
 10
75.2768215529
 20
46.4243488359
 30
0.1744375
 40
1.5
  1
25.4
 41
0.7
 11
75.2768215529
 21
45.894458743
 31
0.1744375
 73
     1
  0
TEXT
  5
297
  8
0
  6
CONTINUOUS
 62
     7
 10
80.0700508861
 20
49.133203283
 30
0.1744375
 40
1.5
  1
 
 41
0.7
 11
80.0700508861
 21
48.6033131901
 31
0.1744375
 73
     1
  0
ENDBLK
  5
288
  8
0
  0
BLOCK
  8
0
  2
SW_NOTE_7
 70
     0
 10
0.0
 20
0.0
 30
0.0
  3
SW_NOTE_7
  1

  0
TEXT
  5
29B
  8
0
  6
CONTINUOUS
 62
     0
 10
7.5443020005
 20
8.8383794786
 30
0.0
 40
1.5
  1
KEY LOCK
 41
0.7
 11
7.5443020005
 21
8.3084893857
 31
0.0
 73
     1
  0
POLYLINE
  5
29C
  8
0
  6
CONTINUOUS
 62
     0
 66
     1
 10
0.0
 20
0.0
 30
0.0
  0
VERTEX
  5
6AF
  8
0
  6
CONTINUOUS
 62
     0
 10
7.307272201
 20
9.5148000974
 30
0.0
  0
VERTEX
  5
6B0
  8
0
  6
CONTINUOUS
 62
     0
 10
4.307272201
 20
9.5148000974
 30
0.0
  0
VERTEX
  5
6B1
  8
0
  6
CONTINUOUS
 62
     0
 10
0.0
 20
0.0
 30
0.0
  0
SEQEND
  5
6B2
  8
0
  6
CONTINUOUS
 62
     0
  0
SOLID
  5
29D
  8
0
  6
CONTINUOUS
 62
     0
 10
0.0
 20
0.0
 30
0.0
 11
0.8619889694
 21
1.3221856967
 31
0.0
 12
0.4247082296
 22
1.520139112
 32
0.0
 13
0.4247082296
 23
1.520139112
 33
0.0
  0
ENDBLK
  5
29A
  8
0
  0
BLOCK
  8
0
  2
*D19
 70
     1
 10
0.0
 20
0.0
 30
0.0
  3
*D19
  1

  0
SOLID
  5
330
  8
0
  6
CONTINUOUS
 62
     7
 10
99.7416669778
 20
69.3527561822
 30
0.0
 11
101.3016669778
 21
69.1127561822
 31
0.0
 12
101.3016669778
 22
69.5927561822
 32
0.0
 13
101.3016669778
 23
69.5927561822
 33
0.0
  0
SOLID
  5
331
  8
0
  6
CONTINUOUS
 62
     7
 10
98.9916669778
 20
69.3527561822
 30
0.0
 11
97.4316669778
 21
69.5927561822
 31
0.0
 12
97.4316669778
 22
69.1127561822
 32
0.0
 13
97.4316669778
 23
69.1127561822
 33
0.0
  0
LINE
  5
332
  8
0
  6
CONTINUOUS
 62
     7
 10
89.7554983013
 20
69.3412978345
 30
0.0
 11
89.450810786
 21
69.3412978345
 31
0.0
  0
LINE
  5
333
  8
0
  6
CONTINUOUS
 62
     7
 10
89.450810786
 20
69.3412978345
 30
0.0
 11
89.450810786
 21
66.9600477629
 31
0.0
  0
LINE
  5
334
  8
0
  6
CONTINUOUS
 62
     7
 10
89.450810786
 20
66.9600477629
 30
0.0
 11
89.7554983013
 21
66.9600477629
 31
0.0
  0
LINE
  5
335
  8
0
  6
CONTINUOUS
 62
     7
 10
94.3963838769
 20
69.3412978345
 30
0.0
 11
94.7010713921
 21
69.3412978345
 31
0.0
  0
LINE
  5
336
  8
0
  6
CONTINUOUS
 62
     7
 10
94.7010713921
 20
69.3412978345
 30
0.0
 11
94.7010713921
 21
66.9600477629
 31
0.0
  0
LINE
  5
337
  8
0
  6
CONTINUOUS
 62
     7
 10
94.7010713921
 20
66.9600477629
 30
0.0
 11
94.3963838769
 21
66.9600477629
 31
0.0
  0
LINE
  5
338
  8
0
  6
CONTINUOUS
 62
     7
 10
99.7416669778
 20
65.8740771812
 30
0.0
 11
99.7416669778
 21
70.8527561822
 31
0.0
  0
LINE
  5
339
  8
0
  6
CONTINUOUS
 62
     7
 10
98.9916669778
 20
65.9200771812
 30
0.0
 11
98.9916669778
 21
70.8527561822
 31
0.0
  0
LINE
  5
33A
  8
0
  6
CONTINUOUS
 62
     7
 10
99.7416669778
 20
69.3527561822
 30
0.0
 11
102.7416669778
 21
69.3527561822
 31
0.0
  0
LINE
  5
33B
  8
0
  6
CONTINUOUS
 62
     7
 10
98.9916669778
 20
69.3527561822
 30
0.0
 11
95.7877854659
 21
69.3527561822
 31
0.0
  0
TEXT
  5
33C
  8
0
  6
CONTINUOUS
 62
     7
 10
88.6681284814
 20
70.1987922204
 30
0.1774360236
 40
1.5
  1
 
 41
0.7
 11
88.6681284814
 21
69.6689021275
 31
0.1774360236
 73
     1
  0
TEXT
  5
33D
  8
0
  6
CONTINUOUS
 62
     7
 10
90.0811493881
 20
70.1758754426
 30
0.1774360236
 40
1.5
  1
.75
 41
0.7
 11
90.0811493881
 21
69.6459853497
 31
0.1774360236
 73
     1
  0
TEXT
  5
33E
  8
0
  6
CONTINUOUS
 62
     7
 10
90.1363576953
 20
67.4899377733
 30
0.1774360236
 40
1.5
  1
19.1
 41
0.7
 11
90.1363576953
 21
66.9600476804
 31
0.1774360236
 73
     1
  0
TEXT
  5
33F
  8
0
  6
CONTINUOUS
 62
     7
 10
94.9295870285
 20
70.1987922204
 30
0.1774360236
 40
1.5
  1
 
 41
0.7
 11
94.9295870285
 21
69.6689021275
 31
0.1774360236
 73
     1
  0
ENDBLK
  5
32F
  8
0
  0
BLOCK
  8
0
  2
SW_NOTE_8
 70
     0
 10
0.0
 20
0.0
 30
0.0
  3
SW_NOTE_8
  1

  0
TEXT
  5
498
  8
0
  6
CONTINUOUS
 62
     0
 10
-22.1820939242
 20
-8.3785550037
 30
0.0
 40
1.5
  1
DOOR STIFFENER
 41
0.7
 11
-22.1820939242
 21
-8.9084450966
 31
0.0
 73
     1
  0
POLYLINE
  5
499
  8
0
  6
CONTINUOUS
 62
     0
 66
     1
 10
0.0
 20
0.0
 30
0.0
  0
VERTEX
  5
6B3
  8
0
  6
CONTINUOUS
 62
     0
 10
-6.1376385114
 20
-7.7037108237
 30
0.0
  0
VERTEX
  5
6B4
  8
0
  6
CONTINUOUS
 62
     0
 10
-3.1376385114
 20
-7.7037108237
 30
0.0
  0
VERTEX
  5
6B5
  8
0
  6
CONTINUOUS
 62
     0
 10
0.0
 20
0.0
 30
0.0
  0
SEQEND
  5
6B6
  8
0
  6
CONTINUOUS
 62
     0
  0
INSERT
  5
4A2
  8
0
  6
CONTINUOUS
 62
     0
  2
_DOT
 10
0.0
 20
0.0
 30
0.4544995079
 41
0.48
 42
0.48
 50
67.8394612085
  0
ENDBLK
  5
497
  8
0
  0
BLOCK
  8
0
  2
_DOT
 70
     0
 10
0.0
 20
0.0
 30
0.0
  3
_DOT
  1

  0
POLYLINE
  5
49D
  8
0
  6
BYBLOCK
 62
     0
 66
     1
 10
0.0
 20
0.0
 30
0.0
 70
     1
 40
0.5
 41
0.5
  0
VERTEX
  5
49F
  8
0
  6
BYBLOCK
 62
     0
 10
-0.25
 20
0.0
 30
0.0
 42
1.0
  0
VERTEX
  5
4A0
  8
0
  6
BYBLOCK
 62
     0
 10
0.25
 20
0.0
 30
0.0
 42
1.0
  0
SEQEND
  5
4A1
  8
0
  6
BYBLOCK
 62
     0
  0
LINE
  5
49E
  8
0
  6
BYBLOCK
 62
     0
 10
-0.5
 20
0.0
 30
0.0
 11
-1.0
 21
0.0
 31
0.0
  0
ENDBLK
  5
49C
  8
0
  0
ENDSEC
  0
SECTION
  2
ENTITIES
  0
LINE
  5
44
  8
0
  6
CONTINUOUS
 62
     7
 10
4.703124
 20
97.5608780488
 30
0.0
 11
4.703124
 21
5.4488780488
 31
0.0
  0
LINE
  5
45
  8
0
  6
CONTINUOUS
 62
     7
 10
3.959124
 20
98.3048780488
 30
0.0
 11
3.959124
 21
4.7048780488
 31
0.0
  0
LINE
  5
46
  8
0
  6
CONTINUOUS
 62
     7
 10
127.559124
 20
4.7048780488
 30
0.0
 11
3.959124
 21
4.7048780488
 31
0.0
  0
LINE
  5
47
  8
0
  6
CONTINUOUS
 62
     7
 10
127.559124
 20
4.7048780488
 30
0.0
 11
127.559124
 21
98.3048780488
 31
0.0
  0
LINE
  5
48
  8
0
  6
CONTINUOUS
 62
     7
 10
126.815124
 20
5.4488780488
 30
0.0
 11
4.703124
 21
5.4488780488
 31
0.0
  0
LINE
  5
49
  8
0
  6
CONTINUOUS
 62
     7
 10
126.815124
 20
5.4488780488
 30
0.0
 11
126.815124
 21
97.5608780488
 31
0.0
  0
LINE
  5
4A
  8
0
  6
CONTINUOUS
 62
     7
 10
4.703124
 20
97.5608780488
 30
0.0
 11
126.815124
 21
97.5608780488
 31
0.0
  0
LINE
  5
4B
  8
0
  6
CONTINUOUS
 62
     7
 10
4.703124
 20
92.6888780488
 30
0.0
 11
126.815124
 21
92.6888780488
 31
0.0
  0
LINE
  5
4C
  8
0
  6
CONTINUOUS
 62
     7
 10
11.447124
 20
97.5608780488
 30
0.0
 11
11.447124
 21
92.6888780488
 31
0.0
  0
LINE
  5
4D
  8
0
  6
CONTINUOUS
 62
     7
 10
108.2509939569
 20
97.5608780488
 30
0.0
 11
108.2509939569
 21
92.6888780488
 31
0.0
  0
LINE
  5
4E
  8
0
  6
CONTINUOUS
 62
     7
 10
114.9949939569
 20
97.5608780488
 30
0.0
 11
114.9949939569
 21
92.6888780488
 31
0.0
  0
LINE
  5
4F
  8
0
  6
CONTINUOUS
 62
     7
 10
65.447124
 20
97.5608780488
 30
0.0
 11
65.447124
 21
92.6888780488
 31
0.0
  0
LINE
  5
50
  8
0
  6
CONTINUOUS
 62
     7
 10
72.191124
 20
97.5608780488
 30
0.0
 11
72.191124
 21
92.6888780488
 31
0.0
  0
LINE
  5
51
  8
0
  6
CONTINUOUS
 62
     7
 10
5.0869783868
 20
93.5937697999
 30
0.0
 11
5.0869783868
 21
96.7801868491
 31
0.0
  0
LINE
  5
52
  8
0
  6
CONTINUOUS
 62
     7
 10
7.3058411125
 20
93.7929208655
 30
0.0
 11
7.3058411125
 21
96.7801868491
 31
0.0
  0
LINE
  5
53
  8
0
  6
CONTINUOUS
 62
     7
 10
8.1656504187
 20
94.1136558453
 30
0.0
 11
8.1656504187
 21
96.7801868491
 31
0.0
  0
LINE
  5
54
  8
0
  6
CONTINUOUS
 62
     7
 10
7.888292578
 20
94.1136558453
 30
0.0
 11
7.888292578
 21
96.7801868491
 31
0.0
  0
LINE
  5
55
  8
0
  6
CONTINUOUS
 62
     7
 10
9.3998288388
 20
93.5937697999
 30
0.0
 11
9.3998288388
 21
96.7801868491
 31
0.0
  0
LINE
  5
56
  8
0
  6
CONTINUOUS
 62
     7
 10
8.7481018842
 20
93.7929208655
 30
0.0
 11
8.7481018842
 21
96.7801868491
 31
0.0
  0
LINE
  5
57
  8
0
  6
CONTINUOUS
 62
     7
 10
7.5049921781
 20
93.5937697999
 30
0.0
 11
8.5489508186
 21
93.5937697999
 31
0.0
  0
LINE
  5
58
  8
0
  6
CONTINUOUS
 62
     7
 10
5.0869783868
 20
93.5937697999
 30
0.0
 11
6.1132023974
 21
93.5937697999
 31
0.0
  0
LINE
  5
59
  8
0
  6
CONTINUOUS
 62
     7
 10
6.1132023974
 20
95.1073178983
 30
0.0
 11
5.2395251992
 21
95.1073178983
 31
0.0
  0
LINE
  5
5A
  8
0
  6
CONTINUOUS
 62
     7
 10
6.1132023974
 20
95.2666387507
 30
0.0
 11
5.2395251992
 21
95.2666387507
 31
0.0
  0
LINE
  5
5B
  8
0
  6
CONTINUOUS
 62
     7
 10
5.2395251992
 20
95.2666387507
 30
0.0
 11
5.2395251992
 21
95.1869783245
 31
0.0
  0
LINE
  5
5C
  8
0
  6
CONTINUOUS
 62
     7
 10
5.2395251992
 20
95.1073178983
 30
0.0
 11
5.2395251992
 21
95.1869783245
 31
0.0
  0
LINE
  5
5D
  8
0
  6
CONTINUOUS
 62
     7
 10
9.3998288388
 20
93.5937697999
 30
0.0
 11
9.7961831035
 21
93.5937697999
 31
0.0
  0
LINE
  5
5E
  8
0
  6
CONTINUOUS
 62
     7
 10
10.9114290707
 20
94.7090157671
 30
0.0
 11
10.9114290707
 21
95.6649408819
 31
0.0
  0
LINE
  5
5F
  8
0
  6
CONTINUOUS
 62
     7
 10
10.3253685371
 20
95.1073178983
 30
0.0
 11
10.3253685371
 21
95.2666387507
 31
0.0
  0
LINE
  5
60
  8
0
  6
CONTINUOUS
 62
     7
 10
9.829797463
 20
95.1073178983
 30
0.0
 11
9.829797463
 21
95.2666387507
 31
0.0
  0
LINE
  5
61
  8
0
  6
CONTINUOUS
 62
     7
 10
10.3253685371
 20
95.1073178983
 30
0.0
 11
9.829797463
 21
95.1073178983
 31
0.0
  0
LINE
  5
62
  8
0
  6
CONTINUOUS
 62
     7
 10
10.3253685371
 20
95.2666387507
 30
0.0
 11
9.829797463
 21
95.2666387507
 31
0.0
  0
LINE
  5
63
  8
0
  6
CONTINUOUS
 62
     7
 10
8.1656504187
 20
96.7801868491
 30
0.0
 11
8.7481018842
 21
96.7801868491
 31
0.0
  0
LINE
  5
64
  8
0
  6
CONTINUOUS
 62
     7
 10
5.0869783868
 20
96.7801868491
 30
0.0
 11
6.1132023974
 21
96.7801868491
 31
0.0
  0
LINE
  5
65
  8
0
  6
CONTINUOUS
 62
     7
 10
7.3058411125
 20
96.7801868491
 30
0.0
 11
7.888292578
 21
96.7801868491
 31
0.0
  0
LINE
  5
66
  8
0
  6
CONTINUOUS
 62
     7
 10
9.3998288388
 20
96.7801868491
 30
0.0
 11
9.7961831035
 21
96.7801868491
 31
0.0
  0
LINE
  5
67
  8
0
  6
CONTINUOUS
 62
     7
 10
18.191124
 20
97.5608780488
 30
0.0
 11
18.191124
 21
92.6888780488
 31
0.0
  0
LINE
  5
68
  8
0
  6
CONTINUOUS
 62
     7
 10
3.959124
 20
98.3048780488
 30
0.0
 11
127.559124
 21
98.3048780488
 31
0.0
  0
ARC
  5
69
  8
0
  6
CONTINUOUS
 62
     7
 10
6.1132023974
 20
96.0234127999
 30
0.0
 40
0.7567740491829227
 50
270.0
 51
90.0
  0
ARC
  5
6A
  8
0
  6
CONTINUOUS
 62
     7
 10
9.7961831035
 20
95.6649408819
 30
0.0
 40
1.115245967216937
 50
0.0
 51
90.0
  0
ARC
  5
6B
  8
0
  6
CONTINUOUS
 62
     7
 10
6.1132023974
 20
94.3505438491
 30
0.0
 40
0.7567740491829369
 50
270.0
 51
90.0
  0
ARC
  5
6C
  8
0
  6
CONTINUOUS
 62
     7
 10
7.5049921781
 20
93.7929208655
 30
0.0
 40
0.1991510655745126
 50
180.0
 51
270.0
  0
ARC
  5
6D
  8
0
  6
CONTINUOUS
 62
     7
 10
8.0063295663
 20
94.1136558453
 30
0.0
 40
0.1593208524595155
 50
277.4442840976
 51
0.0
  0
ARC
  5
6E
  8
0
  6
CONTINUOUS
 62
     7
 10
8.0476134305
 20
94.1136558453
 30
0.0
 40
0.1593208524596417
 50
180.0
 51
262.5557159021
  0
ARC
  5
6F
  8
0
  6
CONTINUOUS
 62
     7
 10
9.7961831035
 20
94.7090157671
 30
0.0
 40
1.11524596721695
 50
270.0
 51
0.0
  0
ARC
  5
70
  8
0
  6
CONTINUOUS
 62
     7
 10
8.5489508186
 20
93.7929208655
 30
0.0
 40
0.1991510655744548
 50
270.0
 51
0.0
  0
INSERT
  5
77
  8
0
  6
CONTINUOUS
 62
     7
  2
SW_NOTE_0
 10
7.6375167785
 20
85.5695724736
 30
0.0
  0
INSERT
  5
80
  8
0
  6
CONTINUOUS
 62
     7
  2
SW_NOTE_1
 10
7.5211409396
 20
76.7662739736
 30
0.0
  0
INSERT
  5
87
  8
0
  6
CONTINUOUS
 62
     7
  2
SW_NOTE_2
 10
7.8966938426
 20
62.2573050082
 30
0.0
  0
TEXT
  5
88
  8
0
  6
CONTINUOUS
 62
     7
 10
7.8966938426
 20
47.017618055
 30
0.0
 40
1.5
  1
DOOR IS HINGED LEFT.
 41
0.6475
 11
7.8966938426
 21
46.4877279621
 31
0.0
 73
     1
  0
INSERT
  5
8E
  8
0
  6
CONTINUOUS
 62
     7
  2
SW_NOTE_3
 10
8.1220255844
 20
53.4187292684
 30
0.0
  0
INSERT
  5
94
  8
0
  6
CONTINUOUS
 62
     7
  2
SW_NOTE_4
 10
12.4017589862
 20
95.1795350574
 30
0.0
  0
INSERT
  5
9A
  8
0
  6
CONTINUOUS
 62
     7
  2
SW_NOTE_5
 10
66.4726578534
 20
94.9628544834
 30
0.0
  0
INSERT
  5
A0
  8
0
  6
CONTINUOUS
 62
     7
  2
SW_NOTE_6
 10
109.5485902405
 20
95.03967508
 30
0.0
  0
TEXT
  5
A1
  8
0
  6
CONTINUOUS
 62
     7
 10
22.0687213368
 20
94.1626962446
 30
0.0
 40
2.25
  1
ECONOMIZER STEEL DOOR
 41
0.6666666667
 11
22.0687213368
 21
93.3678611053
 31
0.0
 73
     1
  0
TEXT
  5
A2
  8
0
  6
CONTINUOUS
 62
     7
 10
84.3736524432
 20
94.2042717195
 30
0.0
 40
2.25
  1
ER-16592
 41
0.7
 11
84.3736524432
 21
93.4094365802
 31
0.0
 73
     1
  0
TEXT
  5
A3
  8
0
  6
CONTINUOUS
 62
     7
 10
114.7402615653
 20
94.2042716095
 30
0.0
 40
2.25
  1
10-22-13
 41
0.7
 11
114.7402615653
 21
93.4094364702
 31
0.0
 73
     1
  0
LINE
  5
A4
  8
0
  6
CONTINUOUS
 62
     7
 10
50.8926465876
 20
61.2880777026
 30
0.0
 11
50.8926465876
 21
59.7880775374
 31
0.0
  0
POLYLINE
  5
A5
  8
0
  6
CONTINUOUS
 62
     7
 66
     1
 10
0.0
 20
0.0
 30
0.0
  0
VERTEX
  5
58F
  8
0
  6
CONTINUOUS
 62
     7
 10
51.0661465566
 20
59.5070768369
 30
0.0
  0
VERTEX
  5
590
  8
0
  6
CONTINUOUS
 62
     7
 10
51.0999950723
 20
59.5124764545
 30
0.0
  0
VERTEX
  5
591
  8
0
  6
CONTINUOUS
 62
     7
 10
51.1325423763
 20
59.5284664564
 30
0.0
  0
VERTEX
  5
592
  8
0
  6
CONTINUOUS
 62
     7
 10
51.1625382964
 20
59.5544343698
 30
0.0
  0
VERTEX
  5
593
  8
0
  6
CONTINUOUS
 62
     7
 10
51.1888294594
 20
59.5893805261
 30
0.0
  0
VERTEX
  5
594
  8
0
  6
CONTINUOUS
 62
     7
 10
51.2104068101
 20
59.6319614742
 30
0.0
  0
VERTEX
  5
595
  8
0
  6
CONTINUOUS
 62
     7
 10
51.2264396382
 20
59.6805427796
 30
0.0
  0
VERTEX
  5
596
  8
0
  6
CONTINUOUS
 62
     7
 10
51.2363131242
 20
59.7332565174
 30
0.0
  0
VERTEX
  5
597
  8
0
  6
CONTINUOUS
 62
     7
 10
51.2396465257
 20
59.7880775374
 30
0.0
  0
SEQEND
  5
598
  8
0
  6
CONTINUOUS
 62
     7
  0
POLYLINE
  5
A6
  8
0
  6
CONTINUOUS
 62
     7
 66
     1
 10
0.0
 20
0.0
 30
0.0
  0
VERTEX
  5
599
  8
0
  6
CONTINUOUS
 62
     7
 10
50.8926465876
 20
59.7880775374
 30
0.0
  0
VERTEX
  5
59A
  8
0
  6
CONTINUOUS
 62
     7
 10
50.8959805757
 20
59.7332565174
 30
0.0
  0
VERTEX
  5
59B
  8
0
  6
CONTINUOUS
 62
     7
 10
50.905853475
 20
59.6805427796
 30
0.0
  0
VERTEX
  5
59C
  8
0
  6
CONTINUOUS
 62
     7
 10
50.9218868898
 20
59.6319614742
 30
0.0
  0
VERTEX
  5
59D
  8
0
  6
CONTINUOUS
 62
     7
 10
50.9434636539
 20
59.5893805261
 30
0.0
  0
VERTEX
  5
59E
  8
0
  6
CONTINUOUS
 62
     7
 10
50.9697554035
 20
59.5544343698
 30
0.0
  0
VERTEX
  5
59F
  8
0
  6
CONTINUOUS
 62
     7
 10
50.9997513236
 20
59.5284664564
 30
0.0
  0
VERTEX
  5
5A0
  8
0
  6
CONTINUOUS
 62
     7
 10
51.0322986276
 20
59.5124764545
 30
0.0
  0
VERTEX
  5
5A1
  8
0
  6
CONTINUOUS
 62
     7
 10
51.0661465566
 20
59.5070768369
 30
0.0
  0
SEQEND
  5
5A2
  8
0
  6
CONTINUOUS
 62
     7
  0
LINE
  5
A7
  8
0
  6
CONTINUOUS
 62
     7
 10
50.8926465876
 20
26.5700769546
 30
0.0
 11
50.8926465876
 21
25.0700767894
 31
0.0
  0
POLYLINE
  5
A8
  8
0
  6
CONTINUOUS
 62
     7
 66
     1
 10
0.0
 20
0.0
 30
0.0
  0
VERTEX
  5
5A3
  8
0
  6
CONTINUOUS
 62
     7
 10
51.0661465566
 20
24.7890772622
 30
0.0
  0
VERTEX
  5
5A4
  8
0
  6
CONTINUOUS
 62
     7
 10
51.0999950723
 20
24.7944768798
 30
0.0
  0
VERTEX
  5
5A5
  8
0
  6
CONTINUOUS
 62
     7
 10
51.1325423763
 20
24.8104668817
 30
0.0
  0
VERTEX
  5
5A6
  8
0
  6
CONTINUOUS
 62
     7
 10
51.1625382964
 20
24.8364347951
 30
0.0
  0
VERTEX
  5
5A7
  8
0
  6
CONTINUOUS
 62
     7
 10
51.1888294594
 20
24.8713797781
 30
0.0
  0
VERTEX
  5
5A8
  8
0
  6
CONTINUOUS
 62
     7
 10
51.2104068101
 20
24.9139618995
 30
0.0
  0
VERTEX
  5
5A9
  8
0
  6
CONTINUOUS
 62
     7
 10
51.2264396382
 20
24.9625432049
 30
0.0
  0
VERTEX
  5
5AA
  8
0
  6
CONTINUOUS
 62
     7
 10
51.2363131242
 20
25.0152569426
 30
0.0
  0
VERTEX
  5
5AB
  8
0
  6
CONTINUOUS
 62
     7
 10
51.2396465257
 20
25.0700767894
 30
0.0
  0
SEQEND
  5
5AC
  8
0
  6
CONTINUOUS
 62
     7
  0
POLYLINE
  5
A9
  8
0
  6
CONTINUOUS
 62
     7
 66
     1
 10
0.0
 20
0.0
 30
0.0
  0
VERTEX
  5
5AD
  8
0
  6
CONTINUOUS
 62
     7
 10
50.8926465876
 20
25.0700767894
 30
0.0
  0
VERTEX
  5
5AE
  8
0
  6
CONTINUOUS
 62
     7
 10
50.8959805757
 20
25.0152569426
 30
0.0
  0
VERTEX
  5
5AF
  8
0
  6
CONTINUOUS
 62
     7
 10
50.905853475
 20
24.9625432049
 30
0.0
  0
VERTEX
  5
5B0
  8
0
  6
CONTINUOUS
 62
     7
 10
50.9218868898
 20
24.9139618995
 30
0.0
  0
VERTEX
  5
5B1
  8
0
  6
CONTINUOUS
 62
     7
 10
50.9434636539
 20
24.8713797781
 30
0.0
  0
VERTEX
  5
5B2
  8
0
  6
CONTINUOUS
 62
     7
 10
50.9697554035
 20
24.8364347951
 30
0.0
  0
VERTEX
  5
5B3
  8
0
  6
CONTINUOUS
 62
     7
 10
50.9997513236
 20
24.8104668817
 30
0.0
  0
VERTEX
  5
5B4
  8
0
  6
CONTINUOUS
 62
     7
 10
51.0322986276
 20
24.7944768798
 30
0.0
  0
VERTEX
  5
5B5
  8
0
  6
CONTINUOUS
 62
     7
 10
51.0661465566
 20
24.7890772622
 30
0.0
  0
SEQEND
  5
5B6
  8
0
  6
CONTINUOUS
 62
     7
  0
LINE
  5
AA
  8
0
  6
CONTINUOUS
 62
     7
 10
50.8926465876
 20
62.7880766945
 30
0.0
 11
50.8926465876
 21
61.2880777026
 31
0.0
  0
POLYLINE
  5
AB
  8
0
  6
CONTINUOUS
 62
     7
 66
     1
 10
0.0
 20
0.0
 30
0.0
  0
VERTEX
  5
5B7
  8
0
  6
CONTINUOUS
 62
     7
 10
51.0661465566
 20
63.069077395
 30
0.0
  0
VERTEX
  5
5B8
  8
0
  6
CONTINUOUS
 62
     7
 10
51.0322986276
 20
63.0636777774
 30
0.0
  0
VERTEX
  5
5B9
  8
0
  6
CONTINUOUS
 62
     7
 10
50.9997513236
 20
63.0476877754
 30
0.0
  0
VERTEX
  5
5BA
  8
0
  6
CONTINUOUS
 62
     7
 10
50.9697554035
 20
63.0217198621
 30
0.0
  0
VERTEX
  5
5BB
  8
0
  6
CONTINUOUS
 62
     7
 10
50.9434636539
 20
62.9867737058
 30
0.0
  0
VERTEX
  5
5BC
  8
0
  6
CONTINUOUS
 62
     7
 10
50.9218868898
 20
62.9441927577
 30
0.0
  0
VERTEX
  5
5BD
  8
0
  6
CONTINUOUS
 62
     7
 10
50.905853475
 20
62.8956114522
 30
0.0
  0
VERTEX
  5
5BE
  8
0
  6
CONTINUOUS
 62
     7
 10
50.8959805757
 20
62.8428977145
 30
0.0
  0
VERTEX
  5
5BF
  8
0
  6
CONTINUOUS
 62
     7
 10
50.8926465876
 20
62.7880766945
 30
0.0
  0
SEQEND
  5
5C0
  8
0
  6
CONTINUOUS
 62
     7
  0
POLYLINE
  5
AC
  8
0
  6
CONTINUOUS
 62
     7
 66
     1
 10
0.0
 20
0.0
 30
0.0
  0
VERTEX
  5
5C1
  8
0
  6
CONTINUOUS
 62
     7
 10
51.2396465257
 20
62.7880766945
 30
0.0
  0
VERTEX
  5
5C2
  8
0
  6
CONTINUOUS
 62
     7
 10
51.2363131242
 20
62.8428977145
 30
0.0
  0
VERTEX
  5
5C3
  8
0
  6
CONTINUOUS
 62
     7
 10
51.2264396382
 20
62.8956114522
 30
0.0
  0
VERTEX
  5
5C4
  8
0
  6
CONTINUOUS
 62
     7
 10
51.2104068101
 20
62.9441927577
 30
0.0
  0
VERTEX
  5
5C5
  8
0
  6
CONTINUOUS
 62
     7
 10
51.1888294594
 20
62.9867737058
 30
0.0
  0
VERTEX
  5
5C6
  8
0
  6
CONTINUOUS
 62
     7
 10
51.1625382964
 20
63.0217198621
 30
0.0
  0
VERTEX
  5
5C7
  8
0
  6
CONTINUOUS
 62
     7
 10
51.1325423763
 20
63.0476877754
 30
0.0
  0
VERTEX
  5
5C8
  8
0
  6
CONTINUOUS
 62
     7
 10
51.0999950723
 20
63.0636777774
 30
0.0
  0
VERTEX
  5
5C9
  8
0
  6
CONTINUOUS
 62
     7
 10
51.0661465566
 20
63.069077395
 30
0.0
  0
SEQEND
  5
5CA
  8
0
  6
CONTINUOUS
 62
     7
  0
LINE
  5
AD
  8
0
  6
CONTINUOUS
 62
     7
 10
50.8926465876
 20
28.0700771198
 30
0.0
 11
50.8926465876
 21
26.5700769546
 31
0.0
  0
POLYLINE
  5
AE
  8
0
  6
CONTINUOUS
 62
     7
 66
     1
 10
0.0
 20
0.0
 30
0.0
  0
VERTEX
  5
5CB
  8
0
  6
CONTINUOUS
 62
     7
 10
51.0661465566
 20
28.351076647
 30
0.0
  0
VERTEX
  5
5CC
  8
0
  6
CONTINUOUS
 62
     7
 10
51.0322986276
 20
28.3456782027
 30
0.0
  0
VERTEX
  5
5CD
  8
0
  6
CONTINUOUS
 62
     7
 10
50.9997513236
 20
28.3296870274
 30
0.0
  0
VERTEX
  5
5CE
  8
0
  6
CONTINUOUS
 62
     7
 10
50.9697554035
 20
28.3037202874
 30
0.0
  0
VERTEX
  5
5CF
  8
0
  6
CONTINUOUS
 62
     7
 10
50.9434636539
 20
28.2687741311
 30
0.0
  0
VERTEX
  5
5D0
  8
0
  6
CONTINUOUS
 62
     7
 10
50.9218868898
 20
28.2261920096
 30
0.0
  0
VERTEX
  5
5D1
  8
0
  6
CONTINUOUS
 62
     7
 10
50.905853475
 20
28.1776107042
 30
0.0
  0
VERTEX
  5
5D2
  8
0
  6
CONTINUOUS
 62
     7
 10
50.8959805757
 20
28.1248981398
 30
0.0
  0
VERTEX
  5
5D3
  8
0
  6
CONTINUOUS
 62
     7
 10
50.8926465876
 20
28.0700771198
 30
0.0
  0
SEQEND
  5
5D4
  8
0
  6
CONTINUOUS
 62
     7
  0
POLYLINE
  5
AF
  8
0
  6
CONTINUOUS
 62
     7
 66
     1
 10
0.0
 20
0.0
 30
0.0
  0
VERTEX
  5
5D5
  8
0
  6
CONTINUOUS
 62
     7
 10
51.2396465257
 20
28.0700771198
 30
0.0
  0
VERTEX
  5
5D6
  8
0
  6
CONTINUOUS
 62
     7
 10
51.2363131242
 20
28.1248981398
 30
0.0
  0
VERTEX
  5
5D7
  8
0
  6
CONTINUOUS
 62
     7
 10
51.2264396382
 20
28.1776107042
 30
0.0
  0
VERTEX
  5
5D8
  8
0
  6
CONTINUOUS
 62
     7
 10
51.2104068101
 20
28.2261920096
 30
0.0
  0
VERTEX
  5
5D9
  8
0
  6
CONTINUOUS
 62
     7
 10
51.1888294594
 20
28.2687741311
 30
0.0
  0
VERTEX
  5
5DA
  8
0
  6
CONTINUOUS
 62
     7
 10
51.1625382964
 20
28.3037202874
 30
0.0
  0
VERTEX
  5
5DB
  8
0
  6
CONTINUOUS
 62
     7
 10
51.1325423763
 20
28.3296870274
 30
0.0
  0
VERTEX
  5
5DC
  8
0
  6
CONTINUOUS
 62
     7
 10
51.0999950723
 20
28.3456782027
 30
0.0
  0
VERTEX
  5
5DD
  8
0
  6
CONTINUOUS
 62
     7
 10
51.0661465566
 20
28.351076647
 30
0.0
  0
SEQEND
  5
5DE
  8
0
  6
CONTINUOUS
 62
     7
  0
LINE
  5
B0
  8
0
  6
CONTINUOUS
 62
     7
 10
50.8926465876
 20
61.2880777026
 30
0.0
 11
51.2396465257
 21
61.2880777026
 31
0.0
  0
LINE
  5
B1
  8
0
  6
CONTINUOUS
 62
     7
 10
51.2396465257
 20
59.7880775374
 30
0.0
 11
51.2396465257
 21
61.2880777026
 31
0.0
  0
LINE
  5
B2
  8
0
  6
CONTINUOUS
 62
     7
 10
51.2396465257
 20
25.0700767894
 30
0.0
 11
51.2396465257
 21
26.5700769546
 31
0.0
  0
LINE
  5
B3
  8
0
  6
CONTINUOUS
 62
     7
 10
50.8926465876
 20
26.5700769546
 30
0.0
 11
51.2396465257
 21
26.5700769546
 31
0.0
  0
ARC
  5
B4
  8
0
  6
CONTINUOUS
 62
     7
 10
70.2396466668
 20
44.3660771812
 30
0.0
 40
0.3120000000000118
 50
270.0
 51
0.0
  0
LINE
  5
B5
  8
0
  6
CONTINUOUS
 62
     7
 10
70.0516468078
 20
44.0540771712
 30
0.0
 11
70.2396466627
 21
44.0540771712
 31
0.0
  0
LINE
  5
B6
  8
0
  6
CONTINUOUS
 62
     7
 10
70.0516468078
 20
44.6790771912
 30
0.0
 11
70.2396466627
 21
44.6790771912
 31
0.0
  0
ARC
  5
B7
  8
0
  6
CONTINUOUS
 62
     7
 10
70.2396466668
 20
44.3670771812
 30
0.0
 40
0.3120000000000118
 50
0.0
 51
90.0
  0
LINE
  5
B8
  8
0
  6
CONTINUOUS
 62
     7
 10
70.5516464718
 20
44.3670771812
 30
0.0
 11
70.5516464718
 21
44.3660771812
 31
0.0
  0
LINE
  5
B9
  8
0
  6
CONTINUOUS
 62
     7
 10
69.0966466401
 20
44.2329508349
 30
0.0
 11
69.0966466401
 21
44.5002035275
 31
0.0
  0
ARC
  5
BA
  8
0
  6
CONTINUOUS
 62
     7
 10
69.0516466668
 20
44.3665771812
 30
0.0
 40
0.1409999999999959
 50
288.6114639665
 51
71.3885360335
  0
ARC
  5
BB
  8
0
  6
CONTINUOUS
 62
     7
 10
69.0516466668
 20
44.3665771812
 30
0.0
 40
0.1410000000000005
 50
108.6114639665
 51
251.3885360335
  0
LINE
  5
BC
  8
0
  6
CONTINUOUS
 62
     7
 10
69.0066465598
 20
44.521577179
 30
0.0
 11
69.0966466401
 21
44.521577179
 31
0.0
  0
LINE
  5
BD
  8
0
  6
CONTINUOUS
 62
     7
 10
69.0966466401
 20
44.1315771793
 30
0.0
 11
69.0066465598
 21
44.1315771793
 31
0.0
  0
LINE
  5
BE
  8
0
  6
CONTINUOUS
 62
     7
 10
69.0066465598
 20
44.1315771793
 30
0.0
 11
69.0066465598
 21
44.2329508349
 31
0.0
  0
LINE
  5
BF
  8
0
  6
CONTINUOUS
 62
     7
 10
69.0066465598
 20
44.5002035275
 30
0.0
 11
69.0066465598
 21
44.521577179
 31
0.0
  0
LINE
  5
C0
  8
0
  6
CONTINUOUS
 62
     7
 10
69.0966466401
 20
44.521577179
 30
0.0
 11
69.0966466401
 21
44.5002035275
 31
0.0
  0
LINE
  5
C1
  8
0
  6
CONTINUOUS
 62
     7
 10
69.0966466401
 20
44.2329508349
 30
0.0
 11
69.0966466401
 21
44.1315771793
 31
0.0
  0
CIRCLE
  5
C2
  8
0
  6
CONTINUOUS
 62
     7
 10
69.0516466668
 20
44.3665771812
 30
0.0
 40
0.3100000000000023
  0
LINE
  5
C3
  8
0
  6
CONTINUOUS
 62
     7
 10
69.0066465598
 20
44.5002035275
 30
0.0
 11
69.0066465598
 21
44.2329508349
 31
0.0
  0
CIRCLE
  5
C4
  8
0
  6
CONTINUOUS
 62
     7
 10
69.0516466668
 20
44.3665771812
 30
0.0
 40
0.4549999999999983
  0
CIRCLE
  5
C5
  8
0
  6
CONTINUOUS
 62
     7
 10
69.0516466668
 20
44.3665771812
 30
0.0
 40
0.3119999999999976
  0
LINE
  5
C6
  8
0
  6
CONTINUOUS
 62
     7
 10
51.2396465257
 20
62.7880766945
 30
0.0
 11
51.2396465257
 21
61.2880777026
 31
0.0
  0
LINE
  5
C7
  8
0
  6
CONTINUOUS
 62
     7
 10
51.2396465257
 20
28.0700771198
 30
0.0
 11
51.2396465257
 21
26.5700769546
 31
0.0
  0
LINE
  5
C8
  8
0
  6
CONTINUOUS
 62
     7
 10
63.8806465224
 20
57.2725773167
 30
0.0
 11
67.6296466803
 21
57.2725773167
 31
0.0
  0
LINE
  5
C9
  8
0
  6
CONTINUOUS
 62
     7
 10
53.6616466532
 20
58.2725766446
 30
0.0
 11
53.3191370099
 21
58.2725766446
 31
0.0
  0
ARC
  5
CA
  8
0
  6
CONTINUOUS
 62
     7
 10
53.9736466668
 20
58.2725771812
 30
0.0
 40
0.6545098538737619
 50
90.0
 51
180.0
  0
ARC
  5
CB
  8
0
  6
CONTINUOUS
 62
     7
 10
57.0986466668
 20
60.2725771812
 30
0.0
 40
0.654509853873769
 50
0.0
 51
90.0
  0
LINE
  5
CC
  8
0
  6
CONTINUOUS
 62
     7
 10
57.7531564544
 20
60.2725776471
 30
0.0
 11
57.4106468111
 21
60.2725776471
 31
0.0
  0
ARC
  5
CD
  8
0
  6
CONTINUOUS
 62
     7
 10
64.1926466668
 20
59.2725771812
 30
0.0
 40
0.6545098538737619
 50
90.0
 51
180.0
  0
LINE
  5
CE
  8
0
  6
CONTINUOUS
 62
     7
 10
63.8806465224
 20
59.2725771458
 30
0.0
 11
63.5381368791
 21
59.2725771458
 31
0.0
  0
LINE
  5
CF
  8
0
  6
CONTINUOUS
 62
     7
 10
53.6616466532
 20
57.2725773167
 30
0.0
 11
57.4106468111
 21
57.2725773167
 31
0.0
  0
LINE
  5
D0
  8
0
  6
CONTINUOUS
 62
     7
 10
53.6616466532
 20
56.2725768154
 30
0.0
 11
57.4106468111
 21
56.2725768154
 31
0.0
  0
ARC
  5
D1
  8
0
  6
CONTINUOUS
 62
     7
 10
57.0986466668
 20
59.2725771812
 30
0.0
 40
0.6545098538737619
 50
360.0
 51
90.0
  0
LINE
  5
D2
  8
0
  6
CONTINUOUS
 62
     7
 10
57.7531564544
 20
59.2725771458
 30
0.0
 11
57.4106468111
 21
59.2725771458
 31
0.0
  0
ARC
  5
D3
  8
0
  6
CONTINUOUS
 62
     7
 10
53.9736466668
 20
59.2725771812
 30
0.0
 40
0.6545098538737619
 50
90.0
 51
180.0
  0
LINE
  5
D4
  8
0
  6
CONTINUOUS
 62
     7
 10
53.6616466532
 20
59.2725771458
 30
0.0
 11
53.3191370099
 21
59.2725771458
 31
0.0
  0
LINE
  5
D5
  8
0
  6
CONTINUOUS
 62
     7
 10
53.6616466532
 20
54.2725769863
 30
0.0
 11
57.4106468111
 21
54.2725769863
 31
0.0
  0
LINE
  5
D6
  8
0
  6
CONTINUOUS
 62
     7
 10
53.6616466532
 20
57.2725773167
 30
0.0
 11
53.3191370099
 21
57.2725773167
 31
0.0
  0
ARC
  5
D7
  8
0
  6
CONTINUOUS
 62
     7
 10
53.9736466668
 20
57.2725771812
 30
0.0
 40
0.6545098538737619
 50
90.0
 51
180.0
  0
LINE
  5
D8
  8
0
  6
CONTINUOUS
 62
     7
 10
53.6616466532
 20
55.2725774875
 30
0.0
 11
57.4106468111
 21
55.2725774875
 31
0.0
  0
ARC
  5
D9
  8
0
  6
CONTINUOUS
 62
     7
 10
67.3176466668
 20
58.2725771812
 30
0.0
 40
0.6545098538737619
 50
0.0
 51
90.0
  0
LINE
  5
DA
  8
0
  6
CONTINUOUS
 62
     7
 10
67.9721563236
 20
58.2725766446
 30
0.0
 11
67.6296466803
 21
58.2725766446
 31
0.0
  0
ARC
  5
DB
  8
0
  6
CONTINUOUS
 62
     7
 10
67.3176466668
 20
59.2725771812
 30
0.0
 40
0.6545098538737548
 50
360.0
 51
90.0
  0
LINE
  5
DC
  8
0
  6
CONTINUOUS
 62
     7
 10
67.9721563236
 20
59.2725771458
 30
0.0
 11
67.6296466803
 21
59.2725771458
 31
0.0
  0
LINE
  5
DD
  8
0
  6
CONTINUOUS
 62
     7
 10
63.8806465224
 20
56.2725768154
 30
0.0
 11
67.6296466803
 21
56.2725768154
 31
0.0
  0
ARC
  5
DE
  8
0
  6
CONTINUOUS
 62
     7
 10
57.0986466668
 20
54.2725771812
 30
0.0
 40
0.6545098538737619
 50
0.0
 51
90.0
  0
LINE
  5
DF
  8
0
  6
CONTINUOUS
 62
     7
 10
57.7531564544
 20
54.2725769863
 30
0.0
 11
57.4106468111
 21
54.2725769863
 31
0.0
  0
ARC
  5
E0
  8
0
  6
CONTINUOUS
 62
     7
 10
67.3176466668
 20
55.2725771812
 30
0.0
 40
0.6545098538737619
 50
0.0
 51
90.0
  0
LINE
  5
E1
  8
0
  6
CONTINUOUS
 62
     7
 10
67.9721563236
 20
55.2725774875
 30
0.0
 11
67.6296466803
 21
55.2725774875
 31
0.0
  0
ARC
  5
E2
  8
0
  6
CONTINUOUS
 62
     7
 10
67.3176466668
 20
62.2725771812
 30
0.0
 40
0.6545098538737548
 50
360.0
 51
90.0
  0
LINE
  5
E3
  8
0
  6
CONTINUOUS
 62
     7
 10
67.9721563236
 20
62.2725774762
 30
0.0
 11
67.6296466803
 21
62.2725774762
 31
0.0
  0
LINE
  5
E4
  8
0
  6
CONTINUOUS
 62
     7
 10
63.8806465224
 20
56.2725768154
 30
0.0
 11
63.5381368791
 21
56.2725768154
 31
0.0
  0
ARC
  5
E5
  8
0
  6
CONTINUOUS
 62
     7
 10
64.1926466668
 20
56.2725771812
 30
0.0
 40
0.6545098538737619
 50
90.0
 51
180.0
  0
ARC
  5
E6
  8
0
  6
CONTINUOUS
 62
     7
 10
57.0986466668
 20
57.2725771812
 30
0.0
 40
0.6545098538737619
 50
0.0
 51
90.0
  0
LINE
  5
E7
  8
0
  6
CONTINUOUS
 62
     7
 10
57.7531564544
 20
57.2725773167
 30
0.0
 11
57.4106468111
 21
57.2725773167
 31
0.0
  0
ARC
  5
E8
  8
0
  6
CONTINUOUS
 62
     7
 10
57.0986466668
 20
58.2725771812
 30
0.0
 40
0.6545098538737619
 50
0.0
 51
90.0
  0
LINE
  5
E9
  8
0
  6
CONTINUOUS
 62
     7
 10
57.7531564544
 20
58.2725766446
 30
0.0
 11
57.4106468111
 21
58.2725766446
 31
0.0
  0
LINE
  5
EA
  8
0
  6
CONTINUOUS
 62
     7
 10
53.6616466532
 20
62.2725774762
 30
0.0
 11
57.4106468111
 21
62.2725774762
 31
0.0
  0
LINE
  5
EB
  8
0
  6
CONTINUOUS
 62
     7
 10
53.6616466532
 20
60.2725776471
 30
0.0
 11
53.3191370099
 21
60.2725776471
 31
0.0
  0
ARC
  5
EC
  8
0
  6
CONTINUOUS
 62
     7
 10
53.9736466668
 20
60.2725771812
 30
0.0
 40
0.654509853873769
 50
90.0
 51
180.0
  0
LINE
  5
ED
  8
0
  6
CONTINUOUS
 62
     7
 10
63.8806465224
 20
58.2725766446
 30
0.0
 11
67.6296466803
 21
58.2725766446
 31
0.0
  0
ARC
  5
EE
  8
0
  6
CONTINUOUS
 62
     7
 10
57.0986466668
 20
62.2725771812
 30
0.0
 40
0.6545098538737619
 50
360.0
 51
90.0
  0
LINE
  5
EF
  8
0
  6
CONTINUOUS
 62
     7
 10
57.7531564544
 20
62.2725774762
 30
0.0
 11
57.4106468111
 21
62.2725774762
 31
0.0
  0
ARC
  5
F0
  8
0
  6
CONTINUOUS
 62
     7
 10
53.9736466668
 20
56.2725771812
 30
0.0
 40
0.6545098538737619
 50
90.0
 51
180.0
  0
LINE
  5
F1
  8
0
  6
CONTINUOUS
 62
     7
 10
53.6616466532
 20
56.2725768154
 30
0.0
 11
53.3191370099
 21
56.2725768154
 31
0.0
  0
LINE
  5
F2
  8
0
  6
CONTINUOUS
 62
     7
 10
63.8806465224
 20
57.2725773167
 30
0.0
 11
63.5381368791
 21
57.2725773167
 31
0.0
  0
ARC
  5
F3
  8
0
  6
CONTINUOUS
 62
     7
 10
64.1926466668
 20
57.2725771812
 30
0.0
 40
0.6545098538737619
 50
90.0
 51
180.0
  0
LINE
  5
F4
  8
0
  6
CONTINUOUS
 62
     7
 10
63.8806465224
 20
61.272576975
 30
0.0
 11
67.6296466803
 21
61.272576975
 31
0.0
  0
LINE
  5
F5
  8
0
  6
CONTINUOUS
 62
     7
 10
63.8806465224
 20
55.2725774875
 30
0.0
 11
67.6296466803
 21
55.2725774875
 31
0.0
  0
ARC
  5
F6
  8
0
  6
CONTINUOUS
 62
     7
 10
57.0986466668
 20
53.2725771812
 30
0.0
 40
0.6545098538737619
 50
0.0
 51
90.0
  0
LINE
  5
F7
  8
0
  6
CONTINUOUS
 62
     7
 10
57.7531564544
 20
53.2725770717
 30
0.0
 11
57.4106468111
 21
53.2725770717
 31
0.0
  0
LINE
  5
F8
  8
0
  6
CONTINUOUS
 62
     7
 10
53.6616466532
 20
53.2725770717
 30
0.0
 11
53.3191370099
 21
53.2725770717
 31
0.0
  0
ARC
  5
F9
  8
0
  6
CONTINUOUS
 62
     7
 10
53.9736466668
 20
53.2725771812
 30
0.0
 40
0.6545098538737619
 50
90.0
 51
180.0
  0
ARC
  5
FA
  8
0
  6
CONTINUOUS
 62
     7
 10
67.3176466668
 20
61.2725771812
 30
0.0
 40
0.654509853873769
 50
0.0
 51
90.0
  0
LINE
  5
FB
  8
0
  6
CONTINUOUS
 62
     7
 10
67.9721563236
 20
61.272576975
 30
0.0
 11
67.6296466803
 21
61.272576975
 31
0.0
  0
ARC
  5
FC
  8
0
  6
CONTINUOUS
 62
     7
 10
57.0986466668
 20
55.2725771812
 30
0.0
 40
0.6545098538737619
 50
0.0
 51
90.0
  0
LINE
  5
FD
  8
0
  6
CONTINUOUS
 62
     7
 10
57.7531564544
 20
55.2725774875
 30
0.0
 11
57.4106468111
 21
55.2725774875
 31
0.0
  0
LINE
  5
FE
  8
0
  6
CONTINUOUS
 62
     7
 10
53.6616466532
 20
60.2725776471
 30
0.0
 11
57.4106468111
 21
60.2725776471
 31
0.0
  0
LINE
  5
FF
  8
0
  6
CONTINUOUS
 62
     7
 10
53.6616466532
 20
53.2725770717
 30
0.0
 11
57.4106468111
 21
53.2725770717
 31
0.0
  0
LINE
  5
100
  8
0
  6
CONTINUOUS
 62
     7
 10
63.8806465224
 20
60.2725776471
 30
0.0
 11
67.6296466803
 21
60.2725776471
 31
0.0
  0
LINE
  5
101
  8
0
  6
CONTINUOUS
 62
     7
 10
53.6616466532
 20
61.272576975
 30
0.0
 11
57.4106468111
 21
61.272576975
 31
0.0
  0
LINE
  5
102
  8
0
  6
CONTINUOUS
 62
     7
 10
63.8806465224
 20
54.2725769863
 30
0.0
 11
67.6296466803
 21
54.2725769863
 31
0.0
  0
LINE
  5
103
  8
0
  6
CONTINUOUS
 62
     7
 10
63.8806465224
 20
62.2725774762
 30
0.0
 11
67.6296466803
 21
62.2725774762
 31
0.0
  0
ARC
  5
104
  8
0
  6
CONTINUOUS
 62
     7
 10
64.1926466668
 20
58.2725771812
 30
0.0
 40
0.6545098538737619
 50
90.0
 51
180.0
  0
LINE
  5
105
  8
0
  6
CONTINUOUS
 62
     7
 10
63.8806465224
 20
58.2725766446
 30
0.0
 11
63.5381368791
 21
58.2725766446
 31
0.0
  0
ARC
  5
106
  8
0
  6
CONTINUOUS
 62
     7
 10
57.0986466668
 20
61.2725771812
 30
0.0
 40
0.654509853873769
 50
0.0
 51
90.0
  0
LINE
  5
107
  8
0
  6
CONTINUOUS
 62
     7
 10
57.7531564544
 20
61.272576975
 30
0.0
 11
57.4106468111
 21
61.272576975
 31
0.0
  0
LINE
  5
108
  8
0
  6
CONTINUOUS
 62
     7
 10
53.6616466532
 20
61.272576975
 30
0.0
 11
53.3191370099
 21
61.272576975
 31
0.0
  0
ARC
  5
109
  8
0
  6
CONTINUOUS
 62
     7
 10
53.9736466668
 20
61.2725771812
 30
0.0
 40
0.654509853873769
 50
90.0
 51
180.0
  0
ARC
  5
10A
  8
0
  6
CONTINUOUS
 62
     7
 10
64.1926466668
 20
54.2725771812
 30
0.0
 40
0.6545098538737619
 50
90.0
 51
180.0
  0
LINE
  5
10B
  8
0
  6
CONTINUOUS
 62
     7
 10
63.8806465224
 20
54.2725769863
 30
0.0
 11
63.5381368791
 21
54.2725769863
 31
0.0
  0
ARC
  5
10C
  8
0
  6
CONTINUOUS
 62
     7
 10
67.3176466668
 20
56.2725771812
 30
0.0
 40
0.6545098538737619
 50
0.0
 51
90.0
  0
LINE
  5
10D
  8
0
  6
CONTINUOUS
 62
     7
 10
67.9721563236
 20
56.2725768154
 30
0.0
 11
67.6296466803
 21
56.2725768154
 31
0.0
  0
ARC
  5
10E
  8
0
  6
CONTINUOUS
 62
     7
 10
67.3176466668
 20
57.2725771812
 30
0.0
 40
0.6545098538737548
 50
0.0
 51
90.0
  0
LINE
  5
10F
  8
0
  6
CONTINUOUS
 62
     7
 10
67.9721563236
 20
57.2725773167
 30
0.0
 11
67.6296466803
 21
57.2725773167
 31
0.0
  0
ARC
  5
110
  8
0
  6
CONTINUOUS
 62
     7
 10
67.3176466668
 20
60.2725771812
 30
0.0
 40
0.654509853873769
 50
0.0
 51
90.0
  0
LINE
  5
111
  8
0
  6
CONTINUOUS
 62
     7
 10
67.9721563236
 20
60.2725776471
 30
0.0
 11
67.6296466803
 21
60.2725776471
 31
0.0
  0
LINE
  5
112
  8
0
  6
CONTINUOUS
 62
     7
 10
63.8806465224
 20
60.2725776471
 30
0.0
 11
63.5381368791
 21
60.2725776471
 31
0.0
  0
ARC
  5
113
  8
0
  6
CONTINUOUS
 62
     7
 10
64.1926466668
 20
60.2725771812
 30
0.0
 40
0.654509853873769
 50
90.0
 51
180.0
  0
LINE
  5
114
  8
0
  6
CONTINUOUS
 62
     7
 10
53.6616466532
 20
54.2725769863
 30
0.0
 11
53.3191370099
 21
54.2725769863
 31
0.0
  0
ARC
  5
115
  8
0
  6
CONTINUOUS
 62
     7
 10
53.9736466668
 20
54.2725771812
 30
0.0
 40
0.6545098538737619
 50
90.0
 51
180.0
  0
ARC
  5
116
  8
0
  6
CONTINUOUS
 62
     7
 10
57.0986466668
 20
56.2725771812
 30
0.0
 40
0.6545098538737619
 50
0.0
 51
90.0
  0
LINE
  5
117
  8
0
  6
CONTINUOUS
 62
     7
 10
57.7531564544
 20
56.2725768154
 30
0.0
 11
57.4106468111
 21
56.2725768154
 31
0.0
  0
ARC
  5
118
  8
0
  6
CONTINUOUS
 62
     7
 10
64.1926466668
 20
55.2725771812
 30
0.0
 40
0.654509853873769
 50
90.0
 51
180.0
  0
LINE
  5
119
  8
0
  6
CONTINUOUS
 62
     7
 10
63.8806465224
 20
55.2725774875
 30
0.0
 11
63.5381368791
 21
55.2725774875
 31
0.0
  0
LINE
  5
11A
  8
0
  6
CONTINUOUS
 62
     7
 10
63.8806465224
 20
53.2725770717
 30
0.0
 11
67.6296466803
 21
53.2725770717
 31
0.0
  0
ARC
  5
11B
  8
0
  6
CONTINUOUS
 62
     7
 10
64.1926466668
 20
62.2725771812
 30
0.0
 40
0.6545098538737619
 50
90.0
 51
180.0
  0
LINE
  5
11C
  8
0
  6
CONTINUOUS
 62
     7
 10
63.8806465224
 20
62.2725774762
 30
0.0
 11
63.5381368791
 21
62.2725774762
 31
0.0
  0
ARC
  5
11D
  8
0
  6
CONTINUOUS
 62
     7
 10
53.9736466668
 20
62.2725771812
 30
0.0
 40
0.6545098538737619
 50
90.0
 51
180.0
  0
LINE
  5
11E
  8
0
  6
CONTINUOUS
 62
     7
 10
53.6616466532
 20
62.2725774762
 30
0.0
 11
53.3191370099
 21
62.2725774762
 31
0.0
  0
ARC
  5
11F
  8
0
  6
CONTINUOUS
 62
     7
 10
53.9736466668
 20
55.2725771812
 30
0.0
 40
0.654509853873769
 50
90.0
 51
180.0
  0
LINE
  5
120
  8
0
  6
CONTINUOUS
 62
     7
 10
53.6616466532
 20
55.2725774875
 30
0.0
 11
53.3191370099
 21
55.2725774875
 31
0.0
  0
ARC
  5
121
  8
0
  6
CONTINUOUS
 62
     7
 10
67.3176466668
 20
53.2725771812
 30
0.0
 40
0.6545098538737619
 50
0.0
 51
90.0
  0
LINE
  5
122
  8
0
  6
CONTINUOUS
 62
     7
 10
67.9721563236
 20
53.2725770717
 30
0.0
 11
67.6296466803
 21
53.2725770717
 31
0.0
  0
LINE
  5
123
  8
0
  6
CONTINUOUS
 62
     7
 10
53.6616466532
 20
58.2725766446
 30
0.0
 11
57.4106468111
 21
58.2725766446
 31
0.0
  0
LINE
  5
124
  8
0
  6
CONTINUOUS
 62
     7
 10
53.6616466532
 20
59.2725771458
 30
0.0
 11
57.4106468111
 21
59.2725771458
 31
0.0
  0
ARC
  5
125
  8
0
  6
CONTINUOUS
 62
     7
 10
64.1926466668
 20
61.2725771812
 30
0.0
 40
0.654509853873769
 50
90.0
 51
180.0
  0
LINE
  5
126
  8
0
  6
CONTINUOUS
 62
     7
 10
63.8806465224
 20
61.272576975
 30
0.0
 11
63.5381368791
 21
61.272576975
 31
0.0
  0
LINE
  5
127
  8
0
  6
CONTINUOUS
 62
     7
 10
63.8806465224
 20
59.2725771458
 30
0.0
 11
67.6296466803
 21
59.2725771458
 31
0.0
  0
ARC
  5
128
  8
0
  6
CONTINUOUS
 62
     7
 10
67.3176466668
 20
54.2725771812
 30
0.0
 40
0.6545098538737619
 50
0.0
 51
90.0
  0
LINE
  5
129
  8
0
  6
CONTINUOUS
 62
     7
 10
67.9721563236
 20
54.2725769863
 30
0.0
 11
67.6296466803
 21
54.2725769863
 31
0.0
  0
ARC
  5
12A
  8
0
  6
CONTINUOUS
 62
     7
 10
64.1926466668
 20
53.2725771812
 30
0.0
 40
0.6545098538737619
 50
90.0
 51
180.0
  0
LINE
  5
12B
  8
0
  6
CONTINUOUS
 62
     7
 10
63.8806465224
 20
53.2725770717
 30
0.0
 11
63.5381368791
 21
53.2725770717
 31
0.0
  0
LINE
  5
12C
  8
0
  6
CONTINUOUS
 62
     7
 10
67.3176468712
 20
61.9270876007
 30
0.0
 11
64.1926466248
 21
61.9270876007
 31
0.0
  0
LINE
  5
12D
  8
0
  6
CONTINUOUS
 62
     7
 10
67.3176468712
 20
62.9270869286
 30
0.0
 11
64.1926466248
 21
62.9270869286
 31
0.0
  0
LINE
  5
12E
  8
0
  6
CONTINUOUS
 62
     7
 10
67.3176468712
 20
59.9270865982
 30
0.0
 11
64.1926466248
 21
59.9270865982
 31
0.0
  0
LINE
  5
12F
  8
0
  6
CONTINUOUS
 62
     7
 10
57.0986467087
 20
53.9270871107
 30
0.0
 11
53.9736464623
 21
53.9270871107
 31
0.0
  0
LINE
  5
130
  8
0
  6
CONTINUOUS
 62
     7
 10
57.0986467087
 20
59.9270865982
 30
0.0
 11
53.9736464623
 21
59.9270865982
 31
0.0
  0
LINE
  5
131
  8
0
  6
CONTINUOUS
 62
     7
 10
67.3176468712
 20
58.9270872703
 30
0.0
 11
64.1926466248
 21
58.9270872703
 31
0.0
  0
LINE
  5
132
  8
0
  6
CONTINUOUS
 62
     7
 10
67.3176468712
 20
54.927087612
 30
0.0
 11
64.1926466248
 21
54.927087612
 31
0.0
  0
LINE
  5
133
  8
0
  6
CONTINUOUS
 62
     7
 10
57.0986467087
 20
58.9270872703
 30
0.0
 11
53.9736464623
 21
58.9270872703
 31
0.0
  0
LINE
  5
134
  8
0
  6
CONTINUOUS
 62
     7
 10
57.0986467087
 20
62.9270869286
 30
0.0
 11
53.9736464623
 21
62.9270869286
 31
0.0
  0
LINE
  5
135
  8
0
  6
CONTINUOUS
 62
     7
 10
67.3176468712
 20
57.927086769
 30
0.0
 11
64.1926466248
 21
57.927086769
 31
0.0
  0
LINE
  5
136
  8
0
  6
CONTINUOUS
 62
     7
 10
67.3176468712
 20
56.9270874411
 30
0.0
 11
64.1926466248
 21
56.9270874411
 31
0.0
  0
LINE
  5
137
  8
0
  6
CONTINUOUS
 62
     7
 10
67.3176468712
 20
53.9270871107
 30
0.0
 11
64.1926466248
 21
53.9270871107
 31
0.0
  0
LINE
  5
138
  8
0
  6
CONTINUOUS
 62
     7
 10
57.0986467087
 20
55.9270869399
 30
0.0
 11
53.9736464623
 21
55.9270869399
 31
0.0
  0
LINE
  5
139
  8
0
  6
CONTINUOUS
 62
     7
 10
57.0986467087
 20
56.9270874411
 30
0.0
 11
53.9736464623
 21
56.9270874411
 31
0.0
  0
LINE
  5
13A
  8
0
  6
CONTINUOUS
 62
     7
 10
67.3176468712
 20
55.9270869399
 30
0.0
 11
64.1926466248
 21
55.9270869399
 31
0.0
  0
LINE
  5
13B
  8
0
  6
CONTINUOUS
 62
     7
 10
57.0986467087
 20
57.927086769
 30
0.0
 11
53.9736464623
 21
57.927086769
 31
0.0
  0
LINE
  5
13C
  8
0
  6
CONTINUOUS
 62
     7
 10
67.3176468712
 20
60.9270870995
 30
0.0
 11
64.1926466248
 21
60.9270870995
 31
0.0
  0
LINE
  5
13D
  8
0
  6
CONTINUOUS
 62
     7
 10
57.0986467087
 20
61.9270876007
 30
0.0
 11
53.9736464623
 21
61.9270876007
 31
0.0
  0
LINE
  5
13E
  8
0
  6
CONTINUOUS
 62
     7
 10
57.0986467087
 20
54.927087612
 30
0.0
 11
53.9736464623
 21
54.927087612
 31
0.0
  0
LINE
  5
13F
  8
0
  6
CONTINUOUS
 62
     7
 10
57.0986467087
 20
60.9270870995
 30
0.0
 11
53.9736464623
 21
60.9270870995
 31
0.0
  0
LINE
  5
140
  8
0
  6
CONTINUOUS
 62
     7
 10
53.6616466532
 20
33.8355769162
 30
0.0
 11
53.3191370099
 21
33.8355769162
 31
0.0
  0
ARC
  5
141
  8
0
  6
CONTINUOUS
 62
     7
 10
53.9736466668
 20
33.8355771812
 30
0.0
 40
0.6545098538733498
 50
90.0
 51
180.0
  0
LINE
  5
142
  8
0
  6
CONTINUOUS
 62
     7
 10
63.8806465224
 20
27.8355774287
 30
0.0
 11
63.5381368791
 21
27.8355774287
 31
0.0
  0
ARC
  5
143
  8
0
  6
CONTINUOUS
 62
     7
 10
64.1926466668
 20
27.8355771812
 30
0.0
 40
0.6545098538733498
 50
90.0
 51
180.0
  0
LINE
  5
144
  8
0
  6
CONTINUOUS
 62
     7
 10
53.6616466532
 20
27.8355774287
 30
0.0
 11
53.3191370099
 21
27.8355774287
 31
0.0
  0
ARC
  5
145
  8
0
  6
CONTINUOUS
 62
     7
 10
53.9736466668
 20
27.8355771812
 30
0.0
 40
0.6545098538733498
 50
90.0
 51
180.0
  0
LINE
  5
146
  8
0
  6
CONTINUOUS
 62
     7
 10
53.6616466532
 20
26.8355769275
 30
0.0
 11
53.3191370099
 21
26.8355769275
 31
0.0
  0
ARC
  5
147
  8
0
  6
CONTINUOUS
 62
     7
 10
53.9736466668
 20
26.8355771812
 30
0.0
 40
0.6545098538733463
 50
90.0
 51
180.0
  0
LINE
  5
148
  8
0
  6
CONTINUOUS
 62
     7
 10
63.8806465224
 20
26.8355769275
 30
0.0
 11
63.5381368791
 21
26.8355769275
 31
0.0
  0
ARC
  5
149
  8
0
  6
CONTINUOUS
 62
     7
 10
64.1926466668
 20
26.8355771812
 30
0.0
 40
0.6545098538733463
 50
90.0
 51
180.0
  0
ARC
  5
14A
  8
0
  6
CONTINUOUS
 62
     7
 10
57.0986466668
 20
34.8355771812
 30
0.0
 40
0.6545098538733498
 50
0.0
 51
90.0
  0
LINE
  5
14B
  8
0
  6
CONTINUOUS
 62
     7
 10
57.7531564544
 20
34.8355774175
 30
0.0
 11
57.4106468111
 21
34.8355774175
 31
0.0
  0
ARC
  5
14C
  8
0
  6
CONTINUOUS
 62
     7
 10
53.9736466668
 20
32.8355771812
 30
0.0
 40
0.6545098538733427
 50
90.0
 51
180.0
  0
LINE
  5
14D
  8
0
  6
CONTINUOUS
 62
     7
 10
53.6616466532
 20
32.8355775883
 30
0.0
 11
53.3191370099
 21
32.8355775883
 31
0.0
  0
LINE
  5
14E
  8
0
  6
CONTINUOUS
 62
     7
 10
63.8806465224
 20
25.8355775996
 30
0.0
 11
63.5381368791
 21
25.8355775996
 31
0.0
  0
ARC
  5
14F
  8
0
  6
CONTINUOUS
 62
     7
 10
64.1926466668
 20
25.8355771812
 30
0.0
 40
0.6545098538733498
 50
90.0
 51
180.0
  0
ARC
  5
150
  8
0
  6
CONTINUOUS
 62
     7
 10
67.3176466668
 20
27.8355771812
 30
0.0
 40
0.6545098538733427
 50
0.0
 51
90.0
  0
LINE
  5
151
  8
0
  6
CONTINUOUS
 62
     7
 10
67.9721563236
 20
27.8355774287
 30
0.0
 11
67.6296466803
 21
27.8355774287
 31
0.0
  0
LINE
  5
152
  8
0
  6
CONTINUOUS
 62
     7
 10
53.6616466532
 20
31.8355770871
 30
0.0
 11
57.4106468111
 21
31.8355770871
 31
0.0
  0
ARC
  5
153
  8
0
  6
CONTINUOUS
 62
     7
 10
57.0986466668
 20
33.8355771812
 30
0.0
 40
0.6545098538733427
 50
0.0
 51
90.0
  0
LINE
  5
154
  8
0
  6
CONTINUOUS
 62
     7
 10
57.7531564544
 20
33.8355769162
 30
0.0
 11
57.4106468111
 21
33.8355769162
 31
0.0
  0
ARC
  5
155
  8
0
  6
CONTINUOUS
 62
     7
 10
57.0986466668
 20
27.8355771812
 30
0.0
 40
0.6545098538733427
 50
0.0
 51
90.0
  0
LINE
  5
156
  8
0
  6
CONTINUOUS
 62
     7
 10
57.7531564544
 20
27.8355774287
 30
0.0
 11
57.4106468111
 21
27.8355774287
 31
0.0
  0
LINE
  5
157
  8
0
  6
CONTINUOUS
 62
     7
 10
63.8806465224
 20
34.8355774175
 30
0.0
 11
67.6296466803
 21
34.8355774175
 31
0.0
  0
ARC
  5
158
  8
0
  6
CONTINUOUS
 62
     7
 10
67.3176466668
 20
32.8355771812
 30
0.0
 40
0.6545098538733427
 50
0.0
 51
90.0
  0
LINE
  5
159
  8
0
  6
CONTINUOUS
 62
     7
 10
67.9721563236
 20
32.8355775883
 30
0.0
 11
67.6296466803
 21
32.8355775883
 31
0.0
  0
LINE
  5
15A
  8
0
  6
CONTINUOUS
 62
     7
 10
53.6616466532
 20
25.8355775996
 30
0.0
 11
53.3191370099
 21
25.8355775996
 31
0.0
  0
ARC
  5
15B
  8
0
  6
CONTINUOUS
 62
     7
 10
53.9736466668
 20
25.8355771812
 30
0.0
 40
0.6545098538733498
 50
90.0
 51
180.0
  0
ARC
  5
15C
  8
0
  6
CONTINUOUS
 62
     7
 10
67.3176466668
 20
26.8355771812
 30
0.0
 40
0.6545098538733427
 50
0.0
 51
90.0
  0
LINE
  5
15D
  8
0
  6
CONTINUOUS
 62
     7
 10
67.9721563236
 20
26.8355769275
 30
0.0
 11
67.6296466803
 21
26.8355769275
 31
0.0
  0
LINE
  5
15E
  8
0
  6
CONTINUOUS
 62
     7
 10
63.8806465224
 20
30.8355777591
 30
0.0
 11
67.6296466803
 21
30.8355777591
 31
0.0
  0
ARC
  5
15F
  8
0
  6
CONTINUOUS
 62
     7
 10
64.1926466668
 20
33.8355771812
 30
0.0
 40
0.6545098538733498
 50
90.0
 51
180.0
  0
LINE
  5
160
  8
0
  6
CONTINUOUS
 62
     7
 10
63.8806465224
 20
33.8355769162
 30
0.0
 11
63.5381368791
 21
33.8355769162
 31
0.0
  0
ARC
  5
161
  8
0
  6
CONTINUOUS
 62
     7
 10
57.0986466668
 20
28.8355771812
 30
0.0
 40
0.6545098538733427
 50
0.0
 51
90.0
  0
LINE
  5
162
  8
0
  6
CONTINUOUS
 62
     7
 10
57.7531564544
 20
28.8355767567
 30
0.0
 11
57.4106468111
 21
28.8355767567
 31
0.0
  0
LINE
  5
163
  8
0
  6
CONTINUOUS
 62
     7
 10
53.6616466532
 20
28.8355767567
 30
0.0
 11
53.3191370099
 21
28.8355767567
 31
0.0
  0
ARC
  5
164
  8
0
  6
CONTINUOUS
 62
     7
 10
53.9736466668
 20
28.8355771812
 30
0.0
 40
0.6545098538733427
 50
90.0
 51
180.0
  0
ARC
  5
165
  8
0
  6
CONTINUOUS
 62
     7
 10
57.0986466668
 20
26.8355771812
 30
0.0
 40
0.6545098538733427
 50
0.0
 51
90.0
  0
LINE
  5
166
  8
0
  6
CONTINUOUS
 62
     7
 10
57.7531564544
 20
26.8355769275
 30
0.0
 11
57.4106468111
 21
26.8355769275
 31
0.0
  0
ARC
  5
167
  8
0
  6
CONTINUOUS
 62
     7
 10
57.0986466668
 20
32.8355771812
 30
0.0
 40
0.6545098538733427
 50
0.0
 51
90.0
  0
LINE
  5
168
  8
0
  6
CONTINUOUS
 62
     7
 10
57.7531564544
 20
32.8355775883
 30
0.0
 11
57.4106468111
 21
32.8355775883
 31
0.0
  0
ARC
  5
169
  8
0
  6
CONTINUOUS
 62
     7
 10
53.9736466668
 20
31.8355771812
 30
0.0
 40
0.6545098538733463
 50
90.0
 51
180.0
  0
LINE
  5
16A
  8
0
  6
CONTINUOUS
 62
     7
 10
53.6616466532
 20
31.8355770871
 30
0.0
 11
53.3191370099
 21
31.8355770871
 31
0.0
  0
LINE
  5
16B
  8
0
  6
CONTINUOUS
 62
     7
 10
53.6616466532
 20
28.8355767567
 30
0.0
 11
57.4106468111
 21
28.8355767567
 31
0.0
  0
ARC
  5
16C
  8
0
  6
CONTINUOUS
 62
     7
 10
67.3176466668
 20
25.8355771812
 30
0.0
 40
0.6545098538733427
 50
0.0
 51
90.0
  0
LINE
  5
16D
  8
0
  6
CONTINUOUS
 62
     7
 10
67.9721563236
 20
25.8355775996
 30
0.0
 11
67.6296466803
 21
25.8355775996
 31
0.0
  0
LINE
  5
16E
  8
0
  6
CONTINUOUS
 62
     7
 10
53.6616466532
 20
30.8355777591
 30
0.0
 11
57.4106468111
 21
30.8355777591
 31
0.0
  0
ARC
  5
16F
  8
0
  6
CONTINUOUS
 62
     7
 10
67.3176466668
 20
33.8355771812
 30
0.0
 40
0.6545098538733427
 50
0.0
 51
90.0
  0
LINE
  5
170
  8
0
  6
CONTINUOUS
 62
     7
 10
67.9721563236
 20
33.8355769162
 30
0.0
 11
67.6296466803
 21
33.8355769162
 31
0.0
  0
LINE
  5
171
  8
0
  6
CONTINUOUS
 62
     7
 10
53.6616466532
 20
34.8355774175
 30
0.0
 11
53.3191370099
 21
34.8355774175
 31
0.0
  0
ARC
  5
172
  8
0
  6
CONTINUOUS
 62
     7
 10
53.9736466668
 20
34.8355771812
 30
0.0
 40
0.6545098538733498
 50
90.0
 51
180.0
  0
LINE
  5
173
  8
0
  6
CONTINUOUS
 62
     7
 10
53.6616466532
 20
32.8355775883
 30
0.0
 11
57.4106468111
 21
32.8355775883
 31
0.0
  0
LINE
  5
174
  8
0
  6
CONTINUOUS
 62
     7
 10
53.6616466532
 20
29.8355772579
 30
0.0
 11
57.4106468111
 21
29.8355772579
 31
0.0
  0
LINE
  5
175
  8
0
  6
CONTINUOUS
 62
     7
 10
63.8806465224
 20
26.8355769275
 30
0.0
 11
67.6296466803
 21
26.8355769275
 31
0.0
  0
LINE
  5
176
  8
0
  6
CONTINUOUS
 62
     7
 10
63.8806465224
 20
29.8355772579
 30
0.0
 11
63.5381368791
 21
29.8355772579
 31
0.0
  0
ARC
  5
177
  8
0
  6
CONTINUOUS
 62
     7
 10
64.1926466668
 20
29.8355771812
 30
0.0
 40
0.6545098538733498
 50
90.0
 51
180.0
  0
LINE
  5
178
  8
0
  6
CONTINUOUS
 62
     7
 10
63.8806465224
 20
27.8355774287
 30
0.0
 11
67.6296466803
 21
27.8355774287
 31
0.0
  0
ARC
  5
179
  8
0
  6
CONTINUOUS
 62
     7
 10
67.3176466668
 20
31.8355771812
 30
0.0
 40
0.6545098538733392
 50
0.0
 51
90.0
  0
LINE
  5
17A
  8
0
  6
CONTINUOUS
 62
     7
 10
67.9721563236
 20
31.8355770871
 30
0.0
 11
67.6296466803
 21
31.8355770871
 31
0.0
  0
LINE
  5
17B
  8
0
  6
CONTINUOUS
 62
     7
 10
63.8806465224
 20
29.8355772579
 30
0.0
 11
67.6296466803
 21
29.8355772579
 31
0.0
  0
ARC
  5
17C
  8
0
  6
CONTINUOUS
 62
     7
 10
57.0986466668
 20
25.8355771812
 30
0.0
 40
0.6545098538733427
 50
0.0
 51
90.0
  0
LINE
  5
17D
  8
0
  6
CONTINUOUS
 62
     7
 10
57.7531564544
 20
25.8355775996
 30
0.0
 11
57.4106468111
 21
25.8355775996
 31
0.0
  0
LINE
  5
17E
  8
0
  6
CONTINUOUS
 62
     7
 10
63.8806465224
 20
31.8355770871
 30
0.0
 11
67.6296466803
 21
31.8355770871
 31
0.0
  0
LINE
  5
17F
  8
0
  6
CONTINUOUS
 62
     7
 10
53.6616466532
 20
25.8355775996
 30
0.0
 11
57.4106468111
 21
25.8355775996
 31
0.0
  0
ARC
  5
180
  8
0
  6
CONTINUOUS
 62
     7
 10
57.0986466668
 20
29.8355771812
 30
0.0
 40
0.6545098538733498
 50
0.0
 51
90.0
  0
LINE
  5
181
  8
0
  6
CONTINUOUS
 62
     7
 10
57.7531564544
 20
29.8355772579
 30
0.0
 11
57.4106468111
 21
29.8355772579
 31
0.0
  0
LINE
  5
182
  8
0
  6
CONTINUOUS
 62
     7
 10
53.6616466532
 20
29.8355772579
 30
0.0
 11
53.3191370099
 21
29.8355772579
 31
0.0
  0
ARC
  5
183
  8
0
  6
CONTINUOUS
 62
     7
 10
53.9736466668
 20
29.8355771812
 30
0.0
 40
0.6545098538733498
 50
90.0
 51
180.0
  0
ARC
  5
184
  8
0
  6
CONTINUOUS
 62
     7
 10
57.0986466668
 20
31.8355771812
 30
0.0
 40
0.6545098538733427
 50
0.0
 51
90.0
  0
LINE
  5
185
  8
0
  6
CONTINUOUS
 62
     7
 10
57.7531564544
 20
31.8355770871
 30
0.0
 11
57.4106468111
 21
31.8355770871
 31
0.0
  0
ARC
  5
186
  8
0
  6
CONTINUOUS
 62
     7
 10
64.1926466668
 20
30.8355771812
 30
0.0
 40
0.6545098538733498
 50
90.0
 51
180.0
  0
LINE
  5
187
  8
0
  6
CONTINUOUS
 62
     7
 10
63.8806465224
 20
30.8355777591
 30
0.0
 11
63.5381368791
 21
30.8355777591
 31
0.0
  0
LINE
  5
188
  8
0
  6
CONTINUOUS
 62
     7
 10
63.8806465224
 20
28.8355767567
 30
0.0
 11
67.6296466803
 21
28.8355767567
 31
0.0
  0
ARC
  5
189
  8
0
  6
CONTINUOUS
 62
     7
 10
64.1926466668
 20
32.8355771812
 30
0.0
 40
0.6545098538733427
 50
90.0
 51
180.0
  0
LINE
  5
18A
  8
0
  6
CONTINUOUS
 62
     7
 10
63.8806465224
 20
32.8355775883
 30
0.0
 11
63.5381368791
 21
32.8355775883
 31
0.0
  0
ARC
  5
18B
  8
0
  6
CONTINUOUS
 62
     7
 10
64.1926466668
 20
31.8355771812
 30
0.0
 40
0.6545098538733463
 50
90.0
 51
180.0
  0
LINE
  5
18C
  8
0
  6
CONTINUOUS
 62
     7
 10
63.8806465224
 20
31.8355770871
 30
0.0
 11
63.5381368791
 21
31.8355770871
 31
0.0
  0
LINE
  5
18D
  8
0
  6
CONTINUOUS
 62
     7
 10
63.8806465224
 20
28.8355767567
 30
0.0
 11
63.5381368791
 21
28.8355767567
 31
0.0
  0
ARC
  5
18E
  8
0
  6
CONTINUOUS
 62
     7
 10
64.1926466668
 20
28.8355771812
 30
0.0
 40
0.6545098538733427
 50
90.0
 51
180.0
  0
ARC
  5
18F
  8
0
  6
CONTINUOUS
 62
     7
 10
67.3176466668
 20
29.8355771812
 30
0.0
 40
0.6545098538733498
 50
0.0
 51
90.0
  0
LINE
  5
190
  8
0
  6
CONTINUOUS
 62
     7
 10
67.9721563236
 20
29.8355772579
 30
0.0
 11
67.6296466803
 21
29.8355772579
 31
0.0
  0
ARC
  5
191
  8
0
  6
CONTINUOUS
 62
     7
 10
53.9736466668
 20
30.8355771812
 30
0.0
 40
0.6545098538733498
 50
90.0
 51
180.0
  0
LINE
  5
192
  8
0
  6
CONTINUOUS
 62
     7
 10
53.6616466532
 20
30.8355777591
 30
0.0
 11
53.3191370099
 21
30.8355777591
 31
0.0
  0
ARC
  5
193
  8
0
  6
CONTINUOUS
 62
     7
 10
67.3176466668
 20
30.8355771812
 30
0.0
 40
0.6545098538733427
 50
0.0
 51
90.0
  0
LINE
  5
194
  8
0
  6
CONTINUOUS
 62
     7
 10
67.9721563236
 20
30.8355777591
 30
0.0
 11
67.6296466803
 21
30.8355777591
 31
0.0
  0
ARC
  5
195
  8
0
  6
CONTINUOUS
 62
     7
 10
57.0986466668
 20
30.8355771812
 30
0.0
 40
0.6545098538733427
 50
0.0
 51
90.0
  0
LINE
  5
196
  8
0
  6
CONTINUOUS
 62
     7
 10
57.7531564544
 20
30.8355777591
 30
0.0
 11
57.4106468111
 21
30.8355777591
 31
0.0
  0
LINE
  5
197
  8
0
  6
CONTINUOUS
 62
     7
 10
63.8806465224
 20
33.8355769162
 30
0.0
 11
67.6296466803
 21
33.8355769162
 31
0.0
  0
ARC
  5
198
  8
0
  6
CONTINUOUS
 62
     7
 10
64.1926466668
 20
34.8355771812
 30
0.0
 40
0.6545098538733498
 50
90.0
 51
180.0
  0
LINE
  5
199
  8
0
  6
CONTINUOUS
 62
     7
 10
63.8806465224
 20
34.8355774175
 30
0.0
 11
63.5381368791
 21
34.8355774175
 31
0.0
  0
LINE
  5
19A
  8
0
  6
CONTINUOUS
 62
     7
 10
63.8806465224
 20
32.8355775883
 30
0.0
 11
67.6296466803
 21
32.8355775883
 31
0.0
  0
LINE
  5
19B
  8
0
  6
CONTINUOUS
 62
     7
 10
53.6616466532
 20
26.8355769275
 30
0.0
 11
57.4106468111
 21
26.8355769275
 31
0.0
  0
LINE
  5
19C
  8
0
  6
CONTINUOUS
 62
     7
 10
53.6616466532
 20
33.8355769162
 30
0.0
 11
57.4106468111
 21
33.8355769162
 31
0.0
  0
LINE
  5
19D
  8
0
  6
CONTINUOUS
 62
     7
 10
53.6616466532
 20
34.8355774175
 30
0.0
 11
57.4106468111
 21
34.8355774175
 31
0.0
  0
LINE
  5
19E
  8
0
  6
CONTINUOUS
 62
     7
 10
53.6616466532
 20
27.8355774287
 30
0.0
 11
57.4106468111
 21
27.8355774287
 31
0.0
  0
LINE
  5
19F
  8
0
  6
CONTINUOUS
 62
     7
 10
63.8806465224
 20
25.8355775996
 30
0.0
 11
67.6296466803
 21
25.8355775996
 31
0.0
  0
ARC
  5
1A0
  8
0
  6
CONTINUOUS
 62
     7
 10
67.3176466668
 20
34.8355771812
 30
0.0
 40
0.6545098538733498
 50
0.0
 51
90.0
  0
LINE
  5
1A1
  8
0
  6
CONTINUOUS
 62
     7
 10
67.9721563236
 20
34.8355774175
 30
0.0
 11
67.6296466803
 21
34.8355774175
 31
0.0
  0
ARC
  5
1A2
  8
0
  6
CONTINUOUS
 62
     7
 10
67.3176466668
 20
28.8355771812
 30
0.0
 40
0.6545098538733392
 50
0.0
 51
90.0
  0
LINE
  5
1A3
  8
0
  6
CONTINUOUS
 62
     7
 10
67.9721563236
 20
28.8355767567
 30
0.0
 11
67.6296466803
 21
28.8355767567
 31
0.0
  0
LINE
  5
1A4
  8
0
  6
CONTINUOUS
 62
     7
 10
67.3176468712
 20
26.4900870519
 30
0.0
 11
64.1926466248
 21
26.4900870519
 31
0.0
  0
LINE
  5
1A5
  8
0
  6
CONTINUOUS
 62
     7
 10
57.0986467087
 20
35.4900868698
 30
0.0
 11
53.9736464623
 21
35.4900868698
 31
0.0
  0
LINE
  5
1A6
  8
0
  6
CONTINUOUS
 62
     7
 10
57.0986467087
 20
33.4900870407
 30
0.0
 11
53.9736464623
 21
33.4900870407
 31
0.0
  0
LINE
  5
1A7
  8
0
  6
CONTINUOUS
 62
     7
 10
67.3176468712
 20
27.4900875532
 30
0.0
 11
64.1926466248
 21
27.4900875532
 31
0.0
  0
LINE
  5
1A8
  8
0
  6
CONTINUOUS
 62
     7
 10
67.3176468712
 20
35.4900868698
 30
0.0
 11
64.1926466248
 21
35.4900868698
 31
0.0
  0
LINE
  5
1A9
  8
0
  6
CONTINUOUS
 62
     7
 10
67.3176468712
 20
31.4900872115
 30
0.0
 11
64.1926466248
 21
31.4900872115
 31
0.0
  0
LINE
  5
1AA
  8
0
  6
CONTINUOUS
 62
     7
 10
57.0986467087
 20
34.4900875419
 30
0.0
 11
53.9736464623
 21
34.4900875419
 31
0.0
  0
LINE
  5
1AB
  8
0
  6
CONTINUOUS
 62
     7
 10
67.3176468712
 20
33.4900870407
 30
0.0
 11
64.1926466248
 21
33.4900870407
 31
0.0
  0
LINE
  5
1AC
  8
0
  6
CONTINUOUS
 62
     7
 10
57.0986467087
 20
26.4900870519
 30
0.0
 11
53.9736464623
 21
26.4900870519
 31
0.0
  0
LINE
  5
1AD
  8
0
  6
CONTINUOUS
 62
     7
 10
67.3176468712
 20
34.4900875419
 30
0.0
 11
64.1926466248
 21
34.4900875419
 31
0.0
  0
LINE
  5
1AE
  8
0
  6
CONTINUOUS
 62
     7
 10
57.0986467087
 20
28.4900868811
 30
0.0
 11
53.9736464623
 21
28.4900868811
 31
0.0
  0
LINE
  5
1AF
  8
0
  6
CONTINUOUS
 62
     7
 10
57.0986467087
 20
27.4900875532
 30
0.0
 11
53.9736464623
 21
27.4900875532
 31
0.0
  0
LINE
  5
1B0
  8
0
  6
CONTINUOUS
 62
     7
 10
67.3176468712
 20
32.4900865394
 30
0.0
 11
64.1926466248
 21
32.4900865394
 31
0.0
  0
LINE
  5
1B1
  8
0
  6
CONTINUOUS
 62
     7
 10
57.0986467087
 20
31.4900872115
 30
0.0
 11
53.9736464623
 21
31.4900872115
 31
0.0
  0
LINE
  5
1B2
  8
0
  6
CONTINUOUS
 62
     7
 10
67.3176468712
 20
30.4900867103
 30
0.0
 11
64.1926466248
 21
30.4900867103
 31
0.0
  0
LINE
  5
1B3
  8
0
  6
CONTINUOUS
 62
     7
 10
57.0986467087
 20
30.4900867103
 30
0.0
 11
53.9736464623
 21
30.4900867103
 31
0.0
  0
LINE
  5
1B4
  8
0
  6
CONTINUOUS
 62
     7
 10
57.0986467087
 20
29.4900873824
 30
0.0
 11
53.9736464623
 21
29.4900873824
 31
0.0
  0
LINE
  5
1B5
  8
0
  6
CONTINUOUS
 62
     7
 10
57.0986467087
 20
32.4900865394
 30
0.0
 11
53.9736464623
 21
32.4900865394
 31
0.0
  0
LINE
  5
1B6
  8
0
  6
CONTINUOUS
 62
     7
 10
67.3176468712
 20
28.4900868811
 30
0.0
 11
64.1926466248
 21
28.4900868811
 31
0.0
  0
LINE
  5
1B7
  8
0
  6
CONTINUOUS
 62
     7
 10
67.3176468712
 20
29.4900873824
 30
0.0
 11
64.1926466248
 21
29.4900873824
 31
0.0
  0
LINE
  5
1B8
  8
0
  6
CONTINUOUS
 62
     7
 10
70.0056468059
 20
65.3200761379
 30
0.0
 11
69.9796466263
 21
65.3200761379
 31
0.0
  0
LINE
  5
1B9
  8
0
  6
CONTINUOUS
 62
     7
 10
70.0056468059
 20
23.4130782245
 30
0.0
 11
69.9796466263
 21
23.4130782245
 31
0.0
  0
LINE
  5
1BA
  8
0
  6
CONTINUOUS
 62
     7
 10
69.9796466263
 20
23.444077333
 30
0.0
 11
69.9796466263
 21
23.4130782245
 31
0.0
  0
LINE
  5
1BB
  8
0
  6
CONTINUOUS
 62
     7
 10
51.3116467073
 20
23.444077333
 30
0.0
 11
51.3116467073
 21
23.4130782245
 31
0.0
  0
LINE
  5
1BC
  8
0
  6
CONTINUOUS
 62
     7
 10
51.2856465276
 20
23.4130782245
 30
0.0
 11
51.3116467073
 21
23.4130782245
 31
0.0
  0
LINE
  5
1BD
  8
0
  6
CONTINUOUS
 62
     7
 10
51.2856465276
 20
65.3200761379
 30
0.0
 11
51.3116467073
 21
65.3200761379
 31
0.0
  0
LINE
  5
1BE
  8
0
  6
CONTINUOUS
 62
     7
 10
51.3116467073
 20
65.2890770294
 30
0.0
 11
51.3116467073
 21
65.3200761379
 31
0.0
  0
LINE
  5
1BF
  8
0
  6
CONTINUOUS
 62
     7
 10
69.9796466263
 20
65.2890770294
 30
0.0
 11
69.9796466263
 21
65.3200761379
 31
0.0
  0
LINE
  5
1C0
  8
0
  6
CONTINUOUS
 62
     7
 10
70.0056468059
 20
65.3200761379
 30
0.0
 11
70.0516468078
 21
65.3200761379
 31
0.0
  0
LINE
  5
1C1
  8
0
  6
CONTINUOUS
 62
     7
 10
70.0516468078
 20
65.3200761379
 30
0.0
 11
70.0516468078
 21
23.4130782245
 31
0.0
  0
LINE
  5
1C2
  8
0
  6
CONTINUOUS
 62
     7
 10
70.0056468059
 20
23.4130782245
 30
0.0
 11
70.0516468078
 21
23.4130782245
 31
0.0
  0
LINE
  5
1C3
  8
0
  6
CONTINUOUS
 62
     7
 10
51.2856465276
 20
23.4130782245
 30
0.0
 11
51.2396465257
 21
23.4130782245
 31
0.0
  0
LINE
  5
1C4
  8
0
  6
CONTINUOUS
 62
     7
 10
51.2396465257
 20
65.3200761379
 30
0.0
 11
51.2396465257
 21
62.7880766945
 31
0.0
  0
LINE
  5
1C5
  8
0
  6
CONTINUOUS
 62
     7
 10
51.2396465257
 20
59.7880775374
 30
0.0
 11
51.2396465257
 21
28.0700771198
 31
0.0
  0
LINE
  5
1C6
  8
0
  6
CONTINUOUS
 62
     7
 10
51.2396465257
 20
25.0700767894
 30
0.0
 11
51.2396465257
 21
23.4130782245
 31
0.0
  0
LINE
  5
1C7
  8
0
  6
CONTINUOUS
 62
     7
 10
51.2856465276
 20
65.3200761379
 30
0.0
 11
51.2396465257
 21
65.3200761379
 31
0.0
  0
LINE
  5
1C8
  8
0
  6
CONTINUOUS
 62
     7
 10
51.3116467073
 20
65.3350782046
 30
0.0
 11
51.3116467073
 21
65.3200761379
 31
0.0
  0
LINE
  5
1C9
  8
0
  6
CONTINUOUS
 62
     7
 10
51.3116467073
 20
65.3350782046
 30
0.0
 11
69.9796466263
 21
65.3350782046
 31
0.0
  0
LINE
  5
1CA
  8
0
  6
CONTINUOUS
 62
     7
 10
69.9796466263
 20
65.3350782046
 30
0.0
 11
69.9796466263
 21
65.3200761379
 31
0.0
  0
LINE
  5
1CB
  8
0
  6
CONTINUOUS
 62
     7
 10
69.9796466263
 20
23.3980761578
 30
0.0
 11
69.9796466263
 21
23.4130782245
 31
0.0
  0
LINE
  5
1CC
  8
0
  6
CONTINUOUS
 62
     7
 10
51.3116467073
 20
23.3980761578
 30
0.0
 11
69.9796466263
 21
23.3980761578
 31
0.0
  0
LINE
  5
1CD
  8
0
  6
CONTINUOUS
 62
     7
 10
51.3116467073
 20
23.3980761578
 30
0.0
 11
51.3116467073
 21
23.4130782245
 31
0.0
  0
DIMENSION
  5
1CE
  8
0
  6
CONTINUOUS
 62
     7
  2
*D8
 10
76.7036482591
 20
23.3980771812
 30
0.0
 11
76.7036482591
 21
18.6736677324
 31
0.0
 70
   160
  1
<> TYP.
  3
SLDDIMSTYLE0
 13
67.9721565206
 23
25.8355771812
 33
0.0
 14
69.9796466668
 24
23.3980771812
 34
0.0
 50
90.0
  0
DIMENSION
  5
1E3
  8
0
  6
CONTINUOUS
 62
     7
  2
*D9
 10
76.7036482591
 20
35.4605771812
 30
0.0
 11
76.7036482591
 21
30.6480771812
 31
0.0
 70
   160
  1
<> TYP.
  3
SLDDIMSTYLE1
 13
67.9721565206
 23
25.8355771812
 33
0.0
 14
67.3176466668
 24
35.4605771812
 34
0.0
 50
90.0
  0
DIMENSION
  5
1F7
  8
0
  6
CONTINUOUS
 62
     7
  2
*D10
 10
70.0516466668
 20
18.6116677324
 30
0.0
 11
59.2342047836
 21
18.6116677324
 31
0.0
 70
   160
  1
<> TYP.
  3
SLDDIMSTYLE0
 13
67.9426466668
 23
25.8355771812
 33
0.0
 14
70.0516466668
 24
23.4130771812
 34
0.0
  0
DIMENSION
  5
20A
  8
0
  6
CONTINUOUS
 62
     7
  2
*D11
 10
46.7955960894
 20
65.3350771812
 30
0.0
 11
46.7955960894
 21
68.5935615712
 31
0.0
 70
   160
  3
SLDDIMSTYLE0
 13
50.8926466668
 23
62.7880771812
 33
0.0
 14
51.3116466668
 24
65.3350771812
 34
0.0
 50
90.0
  0
DIMENSION
  5
21F
  8
0
  6
CONTINUOUS
 62
     7
  2
*D12
 10
53.3486466668
 20
38.7082042772
 30
0.0
 11
45.0194131326
 21
38.7082042772
 31
0.0
 70
   160
  3
SLDDIMSTYLE0
 13
57.7236466668
 23
34.8355771812
 33
0.0
 14
53.3486466668
 24
34.8355771812
 34
0.0
  0
DIMENSION
  5
233
  8
0
  6
CONTINUOUS
 62
     7
  2
*D13
 10
70.0516466668
 20
69.1503275858
 30
0.0
 11
60.6456466668
 21
69.1503275858
 31
0.0
 70
   160
  3
SLDDIMSTYLE1
 13
51.2396466668
 23
65.3200771812
 33
0.0
 14
70.0516466668
 24
65.3200771812
 34
0.0
  0
DIMENSION
  5
247
  8
0
  6
CONTINUOUS
 62
     7
  2
*D14
 10
46.7955960894
 20
23.3980771812
 30
0.0
 11
46.7955960894
 21
19.8591793162
 31
0.0
 70
   160
  3
SLDDIMSTYLE0
 13
50.8926466668
 23
26.5700771812
 33
0.0
 14
51.3116466668
 24
23.3980771812
 34
0.0
 50
90.0
  0
DIMENSION
  5
25C
  8
0
  6
CONTINUOUS
 62
     7
  2
*D15
 10
86.0239991442
 20
23.3980771812
 30
0.0
 11
86.0239991442
 21
33.8823271812
 31
0.0
 70
   160
  3
SLDDIMSTYLE1
 13
69.0516466668
 23
44.3665771812
 33
0.0
 14
69.9796466668
 24
23.3980771812
 34
0.0
 50
90.0
  0
DIMENSION
  5
270
  8
0
  6
CONTINUOUS
 62
     7
  2
*D16
 10
92.2839301313
 20
65.3350771812
 30
0.0
 11
92.2839301313
 21
44.3665771812
 31
0.0
 70
   160
  3
SLDDIMSTYLE1
 13
69.9796466668
 23
23.3980771812
 33
0.0
 14
69.9796466668
 24
65.3350771812
 34
0.0
 50
90.0
  0
DIMENSION
  5
284
  8
0
  6
CONTINUOUS
 62
     7
  2
*D17
 10
70.0516466668
 20
48.2871672447
 30
0.0
 11
77.2164048917
 21
48.2871672447
 31
0.0
 70
   160
  3
SLDDIMSTYLE2
 13
69.0516466668
 23
44.3665771812
 33
0.0
 14
70.0516466668
 24
65.3200771812
 34
0.0
  0
INSERT
  5
29E
  8
0
  6
CONTINUOUS
 62
     7
  2
SW_NOTE_7
 10
69.2677200782
 20
44.7669985603
 30
0.0
  0
ARC
  5
29F
  8
0
  6
CONTINUOUS
 62
     7
 10
98.904355218
 20
59.7670398899
 30
0.0
 40
0.3223754008996479
 50
176.2583199924
 51
225.8150331199
  0
LINE
  5
2A0
  8
0
  6
CONTINUOUS
 62
     7
 10
98.5826669893
 20
61.2880777026
 30
0.0
 11
98.5826669893
 21
59.7880775374
 31
0.0
  0
LINE
  5
2A1
  8
0
  6
CONTINUOUS
 62
     7
 10
98.5826669893
 20
26.5700769546
 30
0.0
 11
98.5826669893
 21
25.0700767894
 31
0.0
  0
POLYLINE
  5
2A2
  8
0
  6
CONTINUOUS
 62
     7
 66
     1
 10
0.0
 20
0.0
 30
0.0
  0
VERTEX
  5
5DF
  8
0
  6
CONTINUOUS
 62
     7
 10
98.7561669767
 20
24.7890772622
 30
0.0
  0
VERTEX
  5
5E0
  8
0
  6
CONTINUOUS
 62
     7
 10
98.790015144
 20
24.7944768798
 30
0.0
  0
VERTEX
  5
5E1
  8
0
  6
CONTINUOUS
 62
     7
 10
98.822562558
 20
24.8104668817
 30
0.0
  0
VERTEX
  5
5E2
  8
0
  6
CONTINUOUS
 62
     7
 10
98.852558414
 20
24.8364347951
 30
0.0
  0
VERTEX
  5
5E3
  8
0
  6
CONTINUOUS
 62
     7
 10
98.8788500077
 20
24.8713797781
 30
0.0
  0
VERTEX
  5
5E4
  8
0
  6
CONTINUOUS
 62
     7
 10
98.9004269552
 20
24.9139618995
 30
0.0
  0
VERTEX
  5
5E5
  8
0
  6
CONTINUOUS
 62
     7
 10
98.9164600766
 20
24.9625432049
 30
0.0
  0
VERTEX
  5
5E6
  8
0
  6
CONTINUOUS
 62
     7
 10
98.9263332234
 20
25.0152569426
 30
0.0
  0
VERTEX
  5
5E7
  8
0
  6
CONTINUOUS
 62
     7
 10
98.9296669778
 20
25.0700767894
 30
0.0
  0
SEQEND
  5
5E8
  8
0
  6
CONTINUOUS
 62
     7
  0
POLYLINE
  5
2A3
  8
0
  6
CONTINUOUS
 62
     7
 66
     1
 10
0.0
 20
0.0
 30
0.0
  0
VERTEX
  5
5E9
  8
0
  6
CONTINUOUS
 62
     7
 10
98.5826669893
 20
25.0700767894
 30
0.0
  0
VERTEX
  5
5EA
  8
0
  6
CONTINUOUS
 62
     7
 10
98.5860007208
 20
25.0152569426
 30
0.0
  0
VERTEX
  5
5EB
  8
0
  6
CONTINUOUS
 62
     7
 10
98.5958738767
 20
24.9625432049
 30
0.0
  0
VERTEX
  5
5EC
  8
0
  6
CONTINUOUS
 62
     7
 10
98.6119069982
 20
24.9139618995
 30
0.0
  0
VERTEX
  5
5ED
  8
0
  6
CONTINUOUS
 62
     7
 10
98.6334839456
 20
24.8713797781
 30
0.0
  0
VERTEX
  5
5EE
  8
0
  6
CONTINUOUS
 62
     7
 10
98.6597755485
 20
24.8364347951
 30
0.0
  0
VERTEX
  5
5EF
  8
0
  6
CONTINUOUS
 62
     7
 10
98.6897713953
 20
24.8104668817
 30
0.0
  0
VERTEX
  5
5F0
  8
0
  6
CONTINUOUS
 62
     7
 10
98.7223188093
 20
24.7944768798
 30
0.0
  0
VERTEX
  5
5F1
  8
0
  6
CONTINUOUS
 62
     7
 10
98.7561669767
 20
24.7890772622
 30
0.0
  0
SEQEND
  5
5F2
  8
0
  6
CONTINUOUS
 62
     7
  0
ARC
  5
2A4
  8
0
  6
CONTINUOUS
 62
     7
 10
100.0866669778
 20
44.5065771812
 30
0.0
 40
0.0940000000000012
 50
0.0
 51
90.0
  0
ARC
  5
2A5
  8
0
  6
CONTINUOUS
 62
     7
 10
100.0866669778
 20
44.2265771812
 30
0.0
 40
0.0940000000000012
 50
270.0
 51
0.0
  0
LINE
  5
2A6
  8
0
  6
CONTINUOUS
 62
     7
 10
99.9926670008
 20
44.1325771777
 30
0.0
 11
100.0866670016
 21
44.1325771777
 31
0.0
  0
LINE
  5
2A7
  8
0
  6
CONTINUOUS
 62
     7
 10
100.0866670016
 20
44.6005771847
 30
0.0
 11
99.9926670008
 21
44.6005771847
 31
0.0
  0
LINE
  5
2A8
  8
0
  6
CONTINUOUS
 62
     7
 10
99.9606669772
 20
44.271577182
 30
0.0
 11
99.9926670008
 21
44.271577182
 31
0.0
  0
LINE
  5
2A9
  8
0
  6
CONTINUOUS
 62
     7
 10
99.9926670008
 20
44.4615771804
 30
0.0
 11
99.9606669772
 21
44.4615771804
 31
0.0
  0
ARC
  5
2AA
  8
0
  6
CONTINUOUS
 62
     7
 10
99.3298424277
 20
44.0605764891
 30
0.0
 40
0.8327572805799132
 50
113.9595289398
 51
132.0882061718
  0
ARC
  5
2AB
  8
0
  6
CONTINUOUS
 62
     7
 10
99.3298424277
 20
44.6725778734
 30
0.0
 40
0.8327572805799132
 50
227.9117938282
 51
246.0404710602
  0
LINE
  5
2AC
  8
0
  6
CONTINUOUS
 62
     7
 10
99.7416669871
 20
43.9995771642
 30
0.0
 11
99.8666669764
 21
43.9995771642
 31
0.0
  0
LINE
  5
2AD
  8
0
  6
CONTINUOUS
 62
     7
 10
99.8666669764
 20
44.7335771983
 30
0.0
 11
99.7416669871
 21
44.7335771983
 31
0.0
  0
LINE
  5
2AE
  8
0
  6
CONTINUOUS
 62
     7
 10
98.5826669893
 20
62.7880766945
 30
0.0
 11
98.5826669893
 21
61.2880777026
 31
0.0
  0
POLYLINE
  5
2AF
  8
0
  6
CONTINUOUS
 62
     7
 66
     1
 10
0.0
 20
0.0
 30
0.0
  0
VERTEX
  5
5F3
  8
0
  6
CONTINUOUS
 62
     7
 10
98.7561669767
 20
63.069077395
 30
0.0
  0
VERTEX
  5
5F4
  8
0
  6
CONTINUOUS
 62
     7
 10
98.7223188093
 20
63.0636777774
 30
0.0
  0
VERTEX
  5
5F5
  8
0
  6
CONTINUOUS
 62
     7
 10
98.6897713953
 20
63.0476877754
 30
0.0
  0
VERTEX
  5
5F6
  8
0
  6
CONTINUOUS
 62
     7
 10
98.6597755485
 20
63.0217198621
 30
0.0
  0
VERTEX
  5
5F7
  8
0
  6
CONTINUOUS
 62
     7
 10
98.6334839456
 20
62.9867737058
 30
0.0
  0
VERTEX
  5
5F8
  8
0
  6
CONTINUOUS
 62
     7
 10
98.6119069982
 20
62.9441927577
 30
0.0
  0
VERTEX
  5
5F9
  8
0
  6
CONTINUOUS
 62
     7
 10
98.5958738767
 20
62.8956114522
 30
0.0
  0
VERTEX
  5
5FA
  8
0
  6
CONTINUOUS
 62
     7
 10
98.5860007208
 20
62.8428977145
 30
0.0
  0
VERTEX
  5
5FB
  8
0
  6
CONTINUOUS
 62
     7
 10
98.5826669893
 20
62.7880766945
 30
0.0
  0
SEQEND
  5
5FC
  8
0
  6
CONTINUOUS
 62
     7
  0
ARC
  5
2B0
  8
0
  6
CONTINUOUS
 62
     7
 10
98.7217975519
 20
62.8789794305
 30
0.0
 40
0.1931799509826719
 50
9.2721776307
 51
79.751718194
  0
LINE
  5
2B1
  8
0
  6
CONTINUOUS
 62
     7
 10
98.5826669893
 20
28.0700771198
 30
0.0
 11
98.5826669893
 21
26.5700769546
 31
0.0
  0
POLYLINE
  5
2B2
  8
0
  6
CONTINUOUS
 62
     7
 66
     1
 10
0.0
 20
0.0
 30
0.0
  0
VERTEX
  5
5FD
  8
0
  6
CONTINUOUS
 62
     7
 10
98.7459587646
 20
28.3505908926
 30
0.0
  0
VERTEX
  5
5FE
  8
0
  6
CONTINUOUS
 62
     7
 10
98.7223188093
 20
28.3456782027
 30
0.0
  0
VERTEX
  5
5FF
  8
0
  6
CONTINUOUS
 62
     7
 10
98.6897713953
 20
28.3296870274
 30
0.0
  0
VERTEX
  5
600
  8
0
  6
CONTINUOUS
 62
     7
 10
98.6597755485
 20
28.3037202874
 30
0.0
  0
VERTEX
  5
601
  8
0
  6
CONTINUOUS
 62
     7
 10
98.6334839456
 20
28.2687741311
 30
0.0
  0
VERTEX
  5
602
  8
0
  6
CONTINUOUS
 62
     7
 10
98.6119069982
 20
28.2261920096
 30
0.0
  0
VERTEX
  5
603
  8
0
  6
CONTINUOUS
 62
     7
 10
98.5958738767
 20
28.1776107042
 30
0.0
  0
VERTEX
  5
604
  8
0
  6
CONTINUOUS
 62
     7
 10
98.5860007208
 20
28.1248981398
 30
0.0
  0
VERTEX
  5
605
  8
0
  6
CONTINUOUS
 62
     7
 10
98.5826669893
 20
28.0700771198
 30
0.0
  0
SEQEND
  5
606
  8
0
  6
CONTINUOUS
 62
     7
  0
LINE
  5
2B3
  8
0
  6
CONTINUOUS
 62
     7
 10
98.9296669778
 20
61.272576975
 30
0.0
 11
98.9296669778
 21
61.2260771388
 31
0.0
  0
LINE
  5
2B4
  8
0
  6
CONTINUOUS
 62
     7
 10
98.9296669778
 20
61.2260771388
 30
0.0
 11
98.9916669778
 21
61.2260771388
 31
0.0
  0
LINE
  5
2B5
  8
0
  6
CONTINUOUS
 62
     7
 10
98.5826669893
 20
61.2880777026
 30
0.0
 11
98.6796669854
 21
61.2880777026
 31
0.0
  0
LINE
  5
2B6
  8
0
  6
CONTINUOUS
 62
     7
 10
98.9916669778
 20
25.0700767894
 30
0.0
 11
98.7561669767
 21
25.0700767894
 31
0.0
  0
LINE
  5
2B7
  8
0
  6
CONTINUOUS
 62
     7
 10
98.9296669778
 20
26.5700769546
 30
0.0
 11
98.7561669767
 21
26.5700769546
 31
0.0
  0
LINE
  5
2B8
  8
0
  6
CONTINUOUS
 62
     7
 10
98.9296669778
 20
26.5700769546
 30
0.0
 11
98.9296669778
 21
26.5080775641
 31
0.0
  0
LINE
  5
2B9
  8
0
  6
CONTINUOUS
 62
     7
 10
98.9296669778
 20
26.5080775641
 30
0.0
 11
98.9916669778
 21
26.5080775641
 31
0.0
  0
LINE
  5
2BA
  8
0
  6
CONTINUOUS
 62
     7
 10
98.5826669893
 20
26.5700769546
 30
0.0
 11
98.7561669767
 21
26.5700769546
 31
0.0
  0
LINE
  5
2BB
  8
0
  6
CONTINUOUS
 62
     7
 10
99.7416669871
 20
44.3670771812
 30
0.0
 11
99.7416669871
 21
44.3660771812
 31
0.0
  0
LINE
  5
2BC
  8
0
  6
CONTINUOUS
 62
     7
 10
99.8316669941
 20
44.3670771812
 30
0.0
 11
99.8316669941
 21
44.3660771812
 31
0.0
  0
LINE
  5
2BD
  8
0
  6
CONTINUOUS
 62
     7
 10
99.8316669941
 20
44.0540771712
 30
0.0
 11
99.7416669871
 21
44.0540771712
 31
0.0
  0
LINE
  5
2BE
  8
0
  6
CONTINUOUS
 62
     7
 10
99.8316669941
 20
44.3660771812
 30
0.0
 11
99.8316669941
 21
44.0540771712
 31
0.0
  0
LINE
  5
2BF
  8
0
  6
CONTINUOUS
 62
     7
 10
99.7416669871
 20
44.0540771712
 30
0.0
 11
99.7416669871
 21
44.3660771812
 31
0.0
  0
LINE
  5
2C0
  8
0
  6
CONTINUOUS
 62
     7
 10
99.7416669871
 20
44.6790771912
 30
0.0
 11
99.8316669941
 21
44.6790771912
 31
0.0
  0
LINE
  5
2C1
  8
0
  6
CONTINUOUS
 62
     7
 10
99.8316669941
 20
44.6790771912
 30
0.0
 11
99.8316669941
 21
44.3670771812
 31
0.0
  0
LINE
  5
2C2
  8
0
  6
CONTINUOUS
 62
     7
 10
99.7416669871
 20
44.3670771812
 30
0.0
 11
99.7416669871
 21
44.6790771912
 31
0.0
  0
LINE
  5
2C3
  8
0
  6
CONTINUOUS
 62
     7
 10
99.9566669834
 20
44.6790771912
 30
0.0
 11
99.9566669834
 21
44.0540771712
 31
0.0
  0
LINE
  5
2C4
  8
0
  6
CONTINUOUS
 62
     7
 10
99.9566669834
 20
44.6790771912
 30
0.0
 11
99.8316669941
 21
44.6790771912
 31
0.0
  0
LINE
  5
2C5
  8
0
  6
CONTINUOUS
 62
     7
 10
99.9566669834
 20
44.0540771712
 30
0.0
 11
99.8316669941
 21
44.0540771712
 31
0.0
  0
LINE
  5
2C6
  8
0
  6
CONTINUOUS
 62
     7
 10
100.1806670024
 20
44.5046749759
 30
0.0
 11
100.1806670024
 21
44.4055771803
 31
0.0
  0
LINE
  5
2C7
  8
0
  6
CONTINUOUS
 62
     7
 10
100.1806670024
 20
44.4055771803
 30
0.0
 11
100.1318193533
 21
44.4055771803
 31
0.0
  0
ARC
  5
2C8
  8
0
  6
CONTINUOUS
 62
     7
 10
100.0038800233
 20
44.3665771812
 30
0.0
 40
0.1337515311917709
 50
343.0471021434
 51
16.9528978566
  0
LINE
  5
2C9
  8
0
  6
CONTINUOUS
 62
     7
 10
100.1318193533
 20
44.3275771822
 30
0.0
 11
100.1806670024
 21
44.3275771822
 31
0.0
  0
LINE
  5
2CA
  8
0
  6
CONTINUOUS
 62
     7
 10
100.1806670024
 20
44.3275771822
 30
0.0
 11
100.1806670024
 21
44.2284793865
 31
0.0
  0
LINE
  5
2CB
  8
0
  6
CONTINUOUS
 62
     7
 10
100.1806670024
 20
44.2284793865
 30
0.0
 11
100.1806370827
 21
44.2260771793
 31
0.0
  0
LINE
  5
2CC
  8
0
  6
CONTINUOUS
 62
     7
 10
100.1806370827
 20
44.5070771831
 30
0.0
 11
100.1806670024
 21
44.5046749759
 31
0.0
  0
LINE
  5
2CD
  8
0
  6
CONTINUOUS
 62
     7
 10
99.9926670008
 20
44.6005771847
 30
0.0
 11
99.9926670008
 21
44.1325771777
 31
0.0
  0
LINE
  5
2CE
  8
0
  6
CONTINUOUS
 62
     7
 10
99.9606669772
 20
44.5385771892
 30
0.0
 11
99.9566669834
 21
44.5385771892
 31
0.0
  0
LINE
  5
2CF
  8
0
  6
CONTINUOUS
 62
     7
 10
99.9606669772
 20
44.5385771892
 30
0.0
 11
99.9606669772
 21
44.1945771732
 31
0.0
  0
LINE
  5
2D0
  8
0
  6
CONTINUOUS
 62
     7
 10
99.9606669772
 20
44.1945771732
 30
0.0
 11
99.9566669834
 21
44.1945771732
 31
0.0
  0
LINE
  5
2D1
  8
0
  6
CONTINUOUS
 62
     7
 10
98.7716669709
 20
44.3665771812
 30
0.0
 11
98.7716669709
 21
44.6785771736
 31
0.0
  0
LINE
  5
2D2
  8
0
  6
CONTINUOUS
 62
     7
 10
98.7716669709
 20
44.0545771888
 30
0.0
 11
98.7716669709
 21
44.3665771812
 31
0.0
  0
LINE
  5
2D3
  8
0
  6
CONTINUOUS
 62
     7
 10
99.8666669764
 20
44.0540771712
 30
0.0
 11
99.8666669764
 21
43.9995771642
 31
0.0
  0
LINE
  5
2D4
  8
0
  6
CONTINUOUS
 62
     7
 10
99.8666669764
 20
44.7335771983
 30
0.0
 11
99.8666669764
 21
44.6790771912
 31
0.0
  0
LINE
  5
2D5
  8
0
  6
CONTINUOUS
 62
     7
 10
98.9916669778
 20
26.5700769546
 30
0.0
 11
98.7561669767
 21
26.5700769546
 31
0.0
  0
ARC
  5
2D6
  8
0
  6
CONTINUOUS
 62
     7
 10
99.6912343696
 20
65.1974489051
 30
0.0
 40
0.0917352780940368
 50
56.6492777503
 51
87.2304101503
  0
LINE
  5
2D7
  8
0
  6
CONTINUOUS
 62
     7
 10
99.7416669871
 20
65.2740773093
 30
0.0
 11
99.7416669871
 21
44.6790771912
 31
0.0
  0
LINE
  5
2D8
  8
0
  6
CONTINUOUS
 62
     7
 10
99.7416669871
 20
44.0540771712
 30
0.0
 11
99.7416669871
 21
23.4590770531
 31
0.0
  0
ARC
  5
2D9
  8
0
  6
CONTINUOUS
 62
     7
 10
99.6912343696
 20
23.5357054574
 30
0.0
 40
0.0917352780939267
 50
272.7695898496
 51
303.3507222498
  0
LINE
  5
2DA
  8
0
  6
CONTINUOUS
 62
     7
 10
99.6956669851
 20
23.4130782245
 30
0.0
 11
99.6956669851
 21
23.444077333
 31
0.0
  0
LINE
  5
2DB
  8
0
  6
CONTINUOUS
 62
     7
 10
99.0376669797
 20
23.4130782245
 30
0.0
 11
99.6956669851
 21
23.4130782245
 31
0.0
  0
LINE
  5
2DC
  8
0
  6
CONTINUOUS
 62
     7
 10
99.0376669797
 20
65.3200761379
 30
0.0
 11
99.6956669851
 21
65.3200761379
 31
0.0
  0
LINE
  5
2DD
  8
0
  6
CONTINUOUS
 62
     7
 10
99.6956669851
 20
65.3200761379
 30
0.0
 11
99.6956669851
 21
65.2890770294
 31
0.0
  0
LINE
  5
2DE
  8
0
  6
CONTINUOUS
 62
     7
 10
98.9916669778
 20
65.3200761379
 30
0.0
 11
99.0376669797
 21
65.3200761379
 31
0.0
  0
LINE
  5
2DF
  8
0
  6
CONTINUOUS
 62
     7
 10
98.9916669778
 20
23.4130782245
 30
0.0
 11
99.0376669797
 21
23.4130782245
 31
0.0
  0
LINE
  5
2E0
  8
0
  6
CONTINUOUS
 62
     7
 10
98.9916669778
 20
23.4130782245
 30
0.0
 11
98.9916669778
 21
65.3200761379
 31
0.0
  0
LINE
  5
2E1
  8
0
  6
CONTINUOUS
 62
     7
 10
99.7416669871
 20
23.4550760327
 30
0.0
 11
99.7375006752
 21
23.4550760327
 31
0.0
  0
LINE
  5
2E2
  8
0
  6
CONTINUOUS
 62
     7
 10
99.7416669871
 20
23.4550760327
 30
0.0
 11
99.7416669871
 21
23.444077333
 31
0.0
  0
LINE
  5
2E3
  8
0
  6
CONTINUOUS
 62
     7
 10
99.7416669871
 20
65.2780783298
 30
0.0
 11
99.7375006752
 21
65.2780783298
 31
0.0
  0
LINE
  5
2E4
  8
0
  6
CONTINUOUS
 62
     7
 10
99.7106669985
 20
65.2858809063
 30
0.0
 11
99.7106669985
 21
65.2890770294
 31
0.0
  0
LINE
  5
2E5
  8
0
  6
CONTINUOUS
 62
     7
 10
99.7416669871
 20
65.2780783298
 30
0.0
 11
99.7416669871
 21
65.2890770294
 31
0.0
  0
LINE
  5
2E6
  8
0
  6
CONTINUOUS
 62
     7
 10
99.7416669871
 20
23.4590770531
 30
0.0
 11
99.7416669871
 21
23.4550760327
 31
0.0
  0
LINE
  5
2E7
  8
0
  6
CONTINUOUS
 62
     7
 10
99.7416669871
 20
65.2740773093
 30
0.0
 11
99.7416669871
 21
65.2780783298
 31
0.0
  0
LINE
  5
2E8
  8
0
  6
CONTINUOUS
 62
     7
 10
99.6956669851
 20
65.3350782046
 30
0.0
 11
99.0376669797
 21
65.3350782046
 31
0.0
  0
LINE
  5
2E9
  8
0
  6
CONTINUOUS
 62
     7
 10
99.6956669851
 20
23.3980761578
 30
0.0
 11
99.0376669797
 21
23.3980761578
 31
0.0
  0
ARC
  5
2EA
  8
0
  6
CONTINUOUS
 62
     7
 10
99.6956669778
 20
65.2890771812
 30
0.0
 40
0.0150000000000148
 50
0.0
 51
90.0
  0
ARC
  5
2EB
  8
0
  6
CONTINUOUS
 62
     7
 10
99.6956669778
 20
65.2890771812
 30
0.0
 40
0.0460000000000065
 50
0.0
 51
90.0
  0
ARC
  5
2EC
  8
0
  6
CONTINUOUS
 62
     7
 10
99.6956669778
 20
23.4440771812
 30
0.0
 40
0.0150000000000041
 50
270.0
 51
0.0
  0
ARC
  5
2ED
  8
0
  6
CONTINUOUS
 62
     7
 10
99.6956669778
 20
23.4440771812
 30
0.0
 40
0.0460000000000065
 50
270.0
 51
0.0
  0
ARC
  5
2EE
  8
0
  6
CONTINUOUS
 62
     7
 10
99.0376669778
 20
65.2890771812
 30
0.0
 40
0.0460000000000065
 50
90.0
 51
137.6302014306
  0
ARC
  5
2EF
  8
0
  6
CONTINUOUS
 62
     7
 10
99.0376669778
 20
23.4440771812
 30
0.0
 40
0.0459999999999994
 50
222.3697985694
 51
270.0
  0
LINE
  5
2F0
  8
0
  6
CONTINUOUS
 62
     7
 10
98.6796669854
 20
56.2725768154
 30
0.0
 11
98.6796669854
 21
56.5845766245
 31
0.0
  0
ARC
  5
2F1
  8
0
  6
CONTINUOUS
 62
     7
 10
99.0236685804
 20
56.5845771812
 30
0.0
 40
0.3440016025641057
 50
95.3377999904
 51
180.0
  0
LINE
  5
2F2
  8
0
  6
CONTINUOUS
 62
     7
 10
98.9916669778
 20
56.2725768154
 30
0.0
 11
98.6796669854
 21
56.2725768154
 31
0.0
  0
LINE
  5
2F3
  8
0
  6
CONTINUOUS
 62
     7
 10
98.6796669854
 20
54.2725769863
 30
0.0
 11
98.6796669854
 21
54.5845767953
 31
0.0
  0
ARC
  5
2F4
  8
0
  6
CONTINUOUS
 62
     7
 10
99.0236685804
 20
54.5845771812
 30
0.0
 40
0.3440016025641112
 50
95.3377999904
 51
180.0
  0
LINE
  5
2F5
  8
0
  6
CONTINUOUS
 62
     7
 10
98.9916669778
 20
54.2725769863
 30
0.0
 11
98.6796669854
 21
54.2725769863
 31
0.0
  0
LINE
  5
2F6
  8
0
  6
CONTINUOUS
 62
     7
 10
98.6796669854
 20
55.2725774875
 30
0.0
 11
98.6796669854
 21
55.5845772966
 31
0.0
  0
ARC
  5
2F7
  8
0
  6
CONTINUOUS
 62
     7
 10
99.0236685804
 20
55.5845771812
 30
0.0
 40
0.3440016025641057
 50
95.3377999904
 51
180.0
  0
LINE
  5
2F8
  8
0
  6
CONTINUOUS
 62
     7
 10
98.9916669778
 20
55.2725774875
 30
0.0
 11
98.6796669854
 21
55.2725774875
 31
0.0
  0
LINE
  5
2F9
  8
0
  6
CONTINUOUS
 62
     7
 10
98.6796669854
 20
62.2725774762
 30
0.0
 11
98.6796669854
 21
62.5845772853
 31
0.0
  0
ARC
  5
2FA
  8
0
  6
CONTINUOUS
 62
     7
 10
99.0236685804
 20
62.5845771812
 30
0.0
 40
0.3440016025641057
 50
95.3377999904
 51
180.0
  0
LINE
  5
2FB
  8
0
  6
CONTINUOUS
 62
     7
 10
98.9916669778
 20
62.2725774762
 30
0.0
 11
98.6796669854
 21
62.2725774762
 31
0.0
  0
LINE
  5
2FC
  8
0
  6
CONTINUOUS
 62
     7
 10
98.6796669854
 20
60.2725776471
 30
0.0
 11
98.6796669854
 21
60.5845774562
 31
0.0
  0
ARC
  5
2FD
  8
0
  6
CONTINUOUS
 62
     7
 10
99.0236685804
 20
60.5845771812
 30
0.0
 40
0.3440016025641057
 50
95.3377999904
 51
180.0
  0
LINE
  5
2FE
  8
0
  6
CONTINUOUS
 62
     7
 10
98.9916669778
 20
60.2725776471
 30
0.0
 11
98.6796669854
 21
60.2725776471
 31
0.0
  0
LINE
  5
2FF
  8
0
  6
CONTINUOUS
 62
     7
 10
98.6796669854
 20
61.272576975
 30
0.0
 11
98.6796669854
 21
61.5845767841
 31
0.0
  0
ARC
  5
300
  8
0
  6
CONTINUOUS
 62
     7
 10
99.0236685804
 20
61.5845771812
 30
0.0
 40
0.3440016025641057
 50
95.3377999904
 51
180.0
  0
LINE
  5
301
  8
0
  6
CONTINUOUS
 62
     7
 10
98.9916669778
 20
61.272576975
 30
0.0
 11
98.6796669854
 21
61.272576975
 31
0.0
  0
LINE
  5
302
  8
0
  6
CONTINUOUS
 62
     7
 10
98.6796669854
 20
59.2725771458
 30
0.0
 11
98.6796669854
 21
59.5845769549
 31
0.0
  0
ARC
  5
303
  8
0
  6
CONTINUOUS
 62
     7
 10
99.0236685804
 20
59.5845771812
 30
0.0
 40
0.3440016025641057
 50
95.3377999904
 51
180.0
  0
LINE
  5
304
  8
0
  6
CONTINUOUS
 62
     7
 10
98.9916669778
 20
59.2725771458
 30
0.0
 11
98.6796669854
 21
59.2725771458
 31
0.0
  0
LINE
  5
305
  8
0
  6
CONTINUOUS
 62
     7
 10
98.6796669854
 20
57.2725773167
 30
0.0
 11
98.6796669854
 21
57.5845771257
 31
0.0
  0
ARC
  5
306
  8
0
  6
CONTINUOUS
 62
     7
 10
99.0236685804
 20
57.5845771812
 30
0.0
 40
0.3440016025641057
 50
95.3377999904
 51
180.0
  0
LINE
  5
307
  8
0
  6
CONTINUOUS
 62
     7
 10
98.9916669778
 20
57.2725773167
 30
0.0
 11
98.6796669854
 21
57.2725773167
 31
0.0
  0
LINE
  5
308
  8
0
  6
CONTINUOUS
 62
     7
 10
98.6796669854
 20
53.2725770717
 30
0.0
 11
98.6796669854
 21
53.5845774674
 31
0.0
  0
ARC
  5
309
  8
0
  6
CONTINUOUS
 62
     7
 10
99.0236685804
 20
53.5845771812
 30
0.0
 40
0.3440016025641057
 50
95.3377999904
 51
180.0
  0
LINE
  5
30A
  8
0
  6
CONTINUOUS
 62
     7
 10
98.9916669778
 20
53.2725770717
 30
0.0
 11
98.6796669854
 21
53.2725770717
 31
0.0
  0
LINE
  5
30B
  8
0
  6
CONTINUOUS
 62
     7
 10
98.6796669854
 20
58.2725766446
 30
0.0
 11
98.6796669854
 21
58.584577627
 31
0.0
  0
ARC
  5
30C
  8
0
  6
CONTINUOUS
 62
     7
 10
99.0236685804
 20
58.5845771812
 30
0.0
 40
0.3440016025641057
 50
95.3377999904
 51
180.0
  0
LINE
  5
30D
  8
0
  6
CONTINUOUS
 62
     7
 10
98.9916669778
 20
58.2725766446
 30
0.0
 11
98.6796669854
 21
58.2725766446
 31
0.0
  0
LINE
  5
30E
  8
0
  6
CONTINUOUS
 62
     7
 10
98.6796669854
 20
30.8355777591
 30
0.0
 11
98.6796669854
 21
31.1475775682
 31
0.0
  0
ARC
  5
30F
  8
0
  6
CONTINUOUS
 62
     7
 10
99.0236685804
 20
31.1475771812
 30
0.0
 40
0.3440016025641032
 50
95.3377999911
 51
180.0
  0
LINE
  5
310
  8
0
  6
CONTINUOUS
 62
     7
 10
98.9916669778
 20
30.8355777591
 30
0.0
 11
98.6796669854
 21
30.8355777591
 31
0.0
  0
LINE
  5
311
  8
0
  6
CONTINUOUS
 62
     7
 10
98.6796669854
 20
34.8355774175
 30
0.0
 11
98.6796669854
 21
35.1475772265
 31
0.0
  0
ARC
  5
312
  8
0
  6
CONTINUOUS
 62
     7
 10
99.0236685804
 20
35.1475771812
 30
0.0
 40
0.3440016025641032
 50
95.3377999911
 51
180.0
  0
LINE
  5
313
  8
0
  6
CONTINUOUS
 62
     7
 10
98.9916669778
 20
34.8355774175
 30
0.0
 11
98.6796669854
 21
34.8355774175
 31
0.0
  0
LINE
  5
314
  8
0
  6
CONTINUOUS
 62
     7
 10
98.6796669854
 20
28.8355767567
 30
0.0
 11
98.6796669854
 21
29.1475777391
 31
0.0
  0
ARC
  5
315
  8
0
  6
CONTINUOUS
 62
     7
 10
99.0236685804
 20
29.1475771812
 30
0.0
 40
0.3440016025641032
 50
95.3377999911
 51
180.0
  0
LINE
  5
316
  8
0
  6
CONTINUOUS
 62
     7
 10
98.9916669778
 20
28.8355767567
 30
0.0
 11
98.6796669854
 21
28.8355767567
 31
0.0
  0
LINE
  5
317
  8
0
  6
CONTINUOUS
 62
     7
 10
98.6796669854
 20
27.8355774287
 30
0.0
 11
98.6796669854
 21
28.1475772378
 31
0.0
  0
ARC
  5
318
  8
0
  6
CONTINUOUS
 62
     7
 10
99.0236685804
 20
28.1475771812
 30
0.0
 40
0.3440016025640996
 50
95.3377999911
 51
180.0
  0
LINE
  5
319
  8
0
  6
CONTINUOUS
 62
     7
 10
98.9916669778
 20
27.8355774287
 30
0.0
 11
98.6796669854
 21
27.8355774287
 31
0.0
  0
LINE
  5
31A
  8
0
  6
CONTINUOUS
 62
     7
 10
98.6796669854
 20
29.8355772579
 30
0.0
 11
98.6796669854
 21
30.147577067
 31
0.0
  0
ARC
  5
31B
  8
0
  6
CONTINUOUS
 62
     7
 10
99.0236685804
 20
30.1475771812
 30
0.0
 40
0.3440016025641032
 50
95.3377999911
 51
180.0
  0
LINE
  5
31C
  8
0
  6
CONTINUOUS
 62
     7
 10
98.9916669778
 20
29.8355772579
 30
0.0
 11
98.6796669854
 21
29.8355772579
 31
0.0
  0
LINE
  5
31D
  8
0
  6
CONTINUOUS
 62
     7
 10
98.6796669854
 20
26.8355769275
 30
0.0
 11
98.6796669854
 21
27.1475767366
 31
0.0
  0
ARC
  5
31E
  8
0
  6
CONTINUOUS
 62
     7
 10
99.0236685804
 20
27.1475771812
 30
0.0
 40
0.3440016025641032
 50
95.3377999911
 51
180.0
  0
LINE
  5
31F
  8
0
  6
CONTINUOUS
 62
     7
 10
98.9916669778
 20
26.8355769275
 30
0.0
 11
98.6796669854
 21
26.8355769275
 31
0.0
  0
LINE
  5
320
  8
0
  6
CONTINUOUS
 62
     7
 10
98.6796669854
 20
32.8355775883
 30
0.0
 11
98.6796669854
 21
33.1475773974
 31
0.0
  0
ARC
  5
321
  8
0
  6
CONTINUOUS
 62
     7
 10
99.0236685804
 20
33.1475771812
 30
0.0
 40
0.3440016025641102
 50
95.3377999911
 51
180.0
  0
LINE
  5
322
  8
0
  6
CONTINUOUS
 62
     7
 10
98.9916669778
 20
32.8355775883
 30
0.0
 11
98.6796669854
 21
32.8355775883
 31
0.0
  0
LINE
  5
323
  8
0
  6
CONTINUOUS
 62
     7
 10
98.6796669854
 20
31.8355770871
 30
0.0
 11
98.6796669854
 21
32.1475768961
 31
0.0
  0
ARC
  5
324
  8
0
  6
CONTINUOUS
 62
     7
 10
99.0236685804
 20
32.1475771812
 30
0.0
 40
0.3440016025640961
 50
95.3377999911
 51
180.0
  0
LINE
  5
325
  8
0
  6
CONTINUOUS
 62
     7
 10
98.9916669778
 20
31.8355770871
 30
0.0
 11
98.6796669854
 21
31.8355770871
 31
0.0
  0
LINE
  5
326
  8
0
  6
CONTINUOUS
 62
     7
 10
98.6796669854
 20
25.8355775996
 30
0.0
 11
98.6796669854
 21
26.1475774086
 31
0.0
  0
ARC
  5
327
  8
0
  6
CONTINUOUS
 62
     7
 10
99.0236685804
 20
26.1475771812
 30
0.0
 40
0.3440016025640996
 50
95.3377999911
 51
180.0
  0
LINE
  5
328
  8
0
  6
CONTINUOUS
 62
     7
 10
98.9916669778
 20
25.8355775996
 30
0.0
 11
98.6796669854
 21
25.8355775996
 31
0.0
  0
LINE
  5
329
  8
0
  6
CONTINUOUS
 62
     7
 10
98.6796669854
 20
33.8355769162
 30
0.0
 11
98.6796669854
 21
34.1475767253
 31
0.0
  0
ARC
  5
32A
  8
0
  6
CONTINUOUS
 62
     7
 10
99.0236685804
 20
34.1475771812
 30
0.0
 40
0.3440016025641032
 50
95.3377999911
 51
180.0
  0
LINE
  5
32B
  8
0
  6
CONTINUOUS
 62
     7
 10
98.9916669778
 20
33.8355769162
 30
0.0
 11
98.6796669854
 21
33.8355769162
 31
0.0
  0
DIMENSION
  5
32C
  8
0
  6
CONTINUOUS
 62
     7
  2
*D19
 10
98.9916669778
 20
69.3527561822
 30
0.0
 11
92.0759410341
 21
69.3527561822
 31
0.0
 70
   160
  3
SLDDIMSTYLE0
 13
99.7416669778
 23
65.2740771812
 33
0.0
 14
98.9916669778
 24
65.3200771812
 34
0.0
  0
POLYLINE
  5
340
  8
0
  6
CONTINUOUS
 62
     7
 66
     1
 10
0.0
 20
0.0
 30
0.0
  0
VERTEX
  5
607
  8
0
  6
CONTINUOUS
 62
     7
 10
123.7601621682
 20
59.5070768369
 30
0.0
  0
VERTEX
  5
608
  8
0
  6
CONTINUOUS
 62
     7
 10
123.7940100972
 20
59.5124764545
 30
0.0
  0
VERTEX
  5
609
  8
0
  6
CONTINUOUS
 62
     7
 10
123.8265574012
 20
59.5284664564
 30
0.0
  0
VERTEX
  5
60A
  8
0
  6
CONTINUOUS
 62
     7
 10
123.8565533214
 20
59.5544343698
 30
0.0
  0
VERTEX
  5
60B
  8
0
  6
CONTINUOUS
 62
     7
 10
123.882845071
 20
59.5893805261
 30
0.0
  0
VERTEX
  5
60C
  8
0
  6
CONTINUOUS
 62
     7
 10
123.904421835
 20
59.6319614742
 30
0.0
  0
VERTEX
  5
60D
  8
0
  6
CONTINUOUS
 62
     7
 10
123.9204552498
 20
59.6805427796
 30
0.0
  0
VERTEX
  5
60E
  8
0
  6
CONTINUOUS
 62
     7
 10
123.9303281491
 20
59.7332565174
 30
0.0
  0
VERTEX
  5
60F
  8
0
  6
CONTINUOUS
 62
     7
 10
123.9336621373
 20
59.7880775374
 30
0.0
  0
SEQEND
  5
610
  8
0
  6
CONTINUOUS
 62
     7
  0
POLYLINE
  5
341
  8
0
  6
CONTINUOUS
 62
     7
 66
     1
 10
0.0
 20
0.0
 30
0.0
  0
VERTEX
  5
611
  8
0
  6
CONTINUOUS
 62
     7
 10
123.5866621992
 20
59.7880775374
 30
0.0
  0
VERTEX
  5
612
  8
0
  6
CONTINUOUS
 62
     7
 10
123.5899956007
 20
59.7332565174
 30
0.0
  0
VERTEX
  5
613
  8
0
  6
CONTINUOUS
 62
     7
 10
123.5998690866
 20
59.6805427796
 30
0.0
  0
VERTEX
  5
614
  8
0
  6
CONTINUOUS
 62
     7
 10
123.6159019147
 20
59.6319614742
 30
0.0
  0
VERTEX
  5
615
  8
0
  6
CONTINUOUS
 62
     7
 10
123.6374792655
 20
59.5893805261
 30
0.0
  0
VERTEX
  5
616
  8
0
  6
CONTINUOUS
 62
     7
 10
123.6637704284
 20
59.5544343698
 30
0.0
  0
VERTEX
  5
617
  8
0
  6
CONTINUOUS
 62
     7
 10
123.6937663486
 20
59.5284664564
 30
0.0
  0
VERTEX
  5
618
  8
0
  6
CONTINUOUS
 62
     7
 10
123.7263136526
 20
59.5124764545
 30
0.0
  0
VERTEX
  5
619
  8
0
  6
CONTINUOUS
 62
     7
 10
123.7601621682
 20
59.5070768369
 30
0.0
  0
SEQEND
  5
61A
  8
0
  6
CONTINUOUS
 62
     7
  0
LINE
  5
342
  8
0
  6
CONTINUOUS
 62
     7
 10
123.9336621373
 20
59.7880775374
 30
0.0
 11
123.9336621373
 21
61.2880777026
 31
0.0
  0
LINE
  5
343
  8
0
  6
CONTINUOUS
 62
     7
 10
123.6656618199
 20
62.0380766119
 30
0.0
 11
123.6656618199
 21
59.7880775374
 31
0.0
  0
LINE
  5
344
  8
0
  6
CONTINUOUS
 62
     7
 10
123.6796618715
 20
62.090325715
 30
0.0
 11
123.6656618199
 21
62.0380766119
 31
0.0
  0
LINE
  5
345
  8
0
  6
CONTINUOUS
 62
     7
 10
123.9336621373
 20
25.0700767894
 30
0.0
 11
123.9336621373
 21
26.5700769546
 31
0.0
  0
POLYLINE
  5
346
  8
0
  6
CONTINUOUS
 62
     7
 66
     1
 10
0.0
 20
0.0
 30
0.0
  0
VERTEX
  5
61B
  8
0
  6
CONTINUOUS
 62
     7
 10
123.7601621682
 20
24.7890772622
 30
0.0
  0
VERTEX
  5
61C
  8
0
  6
CONTINUOUS
 62
     7
 10
123.7940100972
 20
24.7944768798
 30
0.0
  0
VERTEX
  5
61D
  8
0
  6
CONTINUOUS
 62
     7
 10
123.8265574012
 20
24.8104668817
 30
0.0
  0
VERTEX
  5
61E
  8
0
  6
CONTINUOUS
 62
     7
 10
123.8565533214
 20
24.8364347951
 30
0.0
  0
VERTEX
  5
61F
  8
0
  6
CONTINUOUS
 62
     7
 10
123.882845071
 20
24.8713797781
 30
0.0
  0
VERTEX
  5
620
  8
0
  6
CONTINUOUS
 62
     7
 10
123.904421835
 20
24.9139618995
 30
0.0
  0
VERTEX
  5
621
  8
0
  6
CONTINUOUS
 62
     7
 10
123.9204552498
 20
24.9625432049
 30
0.0
  0
VERTEX
  5
622
  8
0
  6
CONTINUOUS
 62
     7
 10
123.9303281491
 20
25.0152569426
 30
0.0
  0
VERTEX
  5
623
  8
0
  6
CONTINUOUS
 62
     7
 10
123.9336621373
 20
25.0700767894
 30
0.0
  0
SEQEND
  5
624
  8
0
  6
CONTINUOUS
 62
     7
  0
POLYLINE
  5
347
  8
0
  6
CONTINUOUS
 62
     7
 66
     1
 10
0.0
 20
0.0
 30
0.0
  0
VERTEX
  5
625
  8
0
  6
CONTINUOUS
 62
     7
 10
123.5866621992
 20
25.0700767894
 30
0.0
  0
VERTEX
  5
626
  8
0
  6
CONTINUOUS
 62
     7
 10
123.5899956007
 20
25.0152569426
 30
0.0
  0
VERTEX
  5
627
  8
0
  6
CONTINUOUS
 62
     7
 10
123.5998690866
 20
24.9625432049
 30
0.0
  0
VERTEX
  5
628
  8
0
  6
CONTINUOUS
 62
     7
 10
123.6159019147
 20
24.9139618995
 30
0.0
  0
VERTEX
  5
629
  8
0
  6
CONTINUOUS
 62
     7
 10
123.6374792655
 20
24.8713797781
 30
0.0
  0
VERTEX
  5
62A
  8
0
  6
CONTINUOUS
 62
     7
 10
123.6637704284
 20
24.8364347951
 30
0.0
  0
VERTEX
  5
62B
  8
0
  6
CONTINUOUS
 62
     7
 10
123.6937663486
 20
24.8104668817
 30
0.0
  0
VERTEX
  5
62C
  8
0
  6
CONTINUOUS
 62
     7
 10
123.7263136526
 20
24.7944768798
 30
0.0
  0
VERTEX
  5
62D
  8
0
  6
CONTINUOUS
 62
     7
 10
123.7601621682
 20
24.7890772622
 30
0.0
  0
SEQEND
  5
62E
  8
0
  6
CONTINUOUS
 62
     7
  0
LINE
  5
348
  8
0
  6
CONTINUOUS
 62
     7
 10
123.6656618199
 20
27.650076745
 30
0.0
 11
123.6656618199
 21
25.0700767894
 31
0.0
  0
LINE
  5
349
  8
0
  6
CONTINUOUS
 62
     7
 10
123.6796618715
 20
27.7023258481
 30
0.0
 11
123.6656618199
 21
27.650076745
 31
0.0
  0
LINE
  5
34A
  8
0
  6
CONTINUOUS
 62
     7
 10
123.9336621373
 20
61.2880777026
 30
0.0
 11
123.9336621373
 21
62.7880766945
 31
0.0
  0
POLYLINE
  5
34B
  8
0
  6
CONTINUOUS
 62
     7
 66
     1
 10
0.0
 20
0.0
 30
0.0
  0
VERTEX
  5
62F
  8
0
  6
CONTINUOUS
 62
     7
 10
123.7601621682
 20
63.069077395
 30
0.0
  0
VERTEX
  5
630
  8
0
  6
CONTINUOUS
 62
     7
 10
123.7263136526
 20
63.0636777774
 30
0.0
  0
VERTEX
  5
631
  8
0
  6
CONTINUOUS
 62
     7
 10
123.6937663486
 20
63.0476877754
 30
0.0
  0
VERTEX
  5
632
  8
0
  6
CONTINUOUS
 62
     7
 10
123.6637704284
 20
63.0217198621
 30
0.0
  0
VERTEX
  5
633
  8
0
  6
CONTINUOUS
 62
     7
 10
123.6374792655
 20
62.9867737058
 30
0.0
  0
VERTEX
  5
634
  8
0
  6
CONTINUOUS
 62
     7
 10
123.6159019147
 20
62.9441927577
 30
0.0
  0
VERTEX
  5
635
  8
0
  6
CONTINUOUS
 62
     7
 10
123.5998690866
 20
62.8956114522
 30
0.0
  0
VERTEX
  5
636
  8
0
  6
CONTINUOUS
 62
     7
 10
123.5899956007
 20
62.8428977145
 30
0.0
  0
VERTEX
  5
637
  8
0
  6
CONTINUOUS
 62
     7
 10
123.5866621992
 20
62.7880766945
 30
0.0
  0
SEQEND
  5
638
  8
0
  6
CONTINUOUS
 62
     7
  0
POLYLINE
  5
34C
  8
0
  6
CONTINUOUS
 62
     7
 66
     1
 10
0.0
 20
0.0
 30
0.0
  0
VERTEX
  5
639
  8
0
  6
CONTINUOUS
 62
     7
 10
123.9336621373
 20
62.7880766945
 30
0.0
  0
VERTEX
  5
63A
  8
0
  6
CONTINUOUS
 62
     7
 10
123.9303281491
 20
62.8428977145
 30
0.0
  0
VERTEX
  5
63B
  8
0
  6
CONTINUOUS
 62
     7
 10
123.9204552498
 20
62.8956114522
 30
0.0
  0
VERTEX
  5
63C
  8
0
  6
CONTINUOUS
 62
     7
 10
123.904421835
 20
62.9441927577
 30
0.0
  0
VERTEX
  5
63D
  8
0
  6
CONTINUOUS
 62
     7
 10
123.882845071
 20
62.9867737058
 30
0.0
  0
VERTEX
  5
63E
  8
0
  6
CONTINUOUS
 62
     7
 10
123.8565533214
 20
63.0217198621
 30
0.0
  0
VERTEX
  5
63F
  8
0
  6
CONTINUOUS
 62
     7
 10
123.8265574012
 20
63.0476877754
 30
0.0
  0
VERTEX
  5
640
  8
0
  6
CONTINUOUS
 62
     7
 10
123.7940100972
 20
63.0636777774
 30
0.0
  0
VERTEX
  5
641
  8
0
  6
CONTINUOUS
 62
     7
 10
123.7601621682
 20
63.069077395
 30
0.0
  0
SEQEND
  5
642
  8
0
  6
CONTINUOUS
 62
     7
  0
LINE
  5
34D
  8
0
  6
CONTINUOUS
 62
     7
 10
123.9336621373
 20
26.5700769546
 30
0.0
 11
123.9336621373
 21
28.0700771198
 31
0.0
  0
POLYLINE
  5
34E
  8
0
  6
CONTINUOUS
 62
     7
 66
     1
 10
0.0
 20
0.0
 30
0.0
  0
VERTEX
  5
643
  8
0
  6
CONTINUOUS
 62
     7
 10
123.7601621682
 20
28.351076647
 30
0.0
  0
VERTEX
  5
644
  8
0
  6
CONTINUOUS
 62
     7
 10
123.7263136526
 20
28.3456782027
 30
0.0
  0
VERTEX
  5
645
  8
0
  6
CONTINUOUS
 62
     7
 10
123.6937663486
 20
28.3296870274
 30
0.0
  0
VERTEX
  5
646
  8
0
  6
CONTINUOUS
 62
     7
 10
123.6637704284
 20
28.3037202874
 30
0.0
  0
VERTEX
  5
647
  8
0
  6
CONTINUOUS
 62
     7
 10
123.6374792655
 20
28.2687741311
 30
0.0
  0
VERTEX
  5
648
  8
0
  6
CONTINUOUS
 62
     7
 10
123.6159019147
 20
28.2261920096
 30
0.0
  0
VERTEX
  5
649
  8
0
  6
CONTINUOUS
 62
     7
 10
123.5998690866
 20
28.1776107042
 30
0.0
  0
VERTEX
  5
64A
  8
0
  6
CONTINUOUS
 62
     7
 10
123.5899956007
 20
28.1248981398
 30
0.0
  0
VERTEX
  5
64B
  8
0
  6
CONTINUOUS
 62
     7
 10
123.5866621992
 20
28.0700771198
 30
0.0
  0
SEQEND
  5
64C
  8
0
  6
CONTINUOUS
 62
     7
  0
POLYLINE
  5
34F
  8
0
  6
CONTINUOUS
 62
     7
 66
     1
 10
0.0
 20
0.0
 30
0.0
  0
VERTEX
  5
64D
  8
0
  6
CONTINUOUS
 62
     7
 10
123.9336621373
 20
28.0700771198
 30
0.0
  0
VERTEX
  5
64E
  8
0
  6
CONTINUOUS
 62
     7
 10
123.9303281491
 20
28.1248981398
 30
0.0
  0
VERTEX
  5
64F
  8
0
  6
CONTINUOUS
 62
     7
 10
123.9204552498
 20
28.1776107042
 30
0.0
  0
VERTEX
  5
650
  8
0
  6
CONTINUOUS
 62
     7
 10
123.904421835
 20
28.2261920096
 30
0.0
  0
VERTEX
  5
651
  8
0
  6
CONTINUOUS
 62
     7
 10
123.882845071
 20
28.2687741311
 30
0.0
  0
VERTEX
  5
652
  8
0
  6
CONTINUOUS
 62
     7
 10
123.8565533214
 20
28.3037202874
 30
0.0
  0
VERTEX
  5
653
  8
0
  6
CONTINUOUS
 62
     7
 10
123.8265574012
 20
28.3296870274
 30
0.0
  0
VERTEX
  5
654
  8
0
  6
CONTINUOUS
 62
     7
 10
123.7940100972
 20
28.3456782027
 30
0.0
  0
VERTEX
  5
655
  8
0
  6
CONTINUOUS
 62
     7
 10
123.7601621682
 20
28.351076647
 30
0.0
  0
SEQEND
  5
656
  8
0
  6
CONTINUOUS
 62
     7
  0
LINE
  5
350
  8
0
  6
CONTINUOUS
 62
     7
 10
123.6646621514
 20
59.7880775374
 30
0.0
 11
123.6646621514
 21
61.2260771388
 31
0.0
  0
LINE
  5
351
  8
0
  6
CONTINUOUS
 62
     7
 10
123.6646621514
 20
59.7880775374
 30
0.0
 11
123.5866621992
 21
59.7880775374
 31
0.0
  0
LINE
  5
352
  8
0
  6
CONTINUOUS
 62
     7
 10
123.5866621992
 20
59.7880775374
 30
0.0
 11
123.5866621992
 21
61.2260771388
 31
0.0
  0
LINE
  5
353
  8
0
  6
CONTINUOUS
 62
     7
 10
123.6646621514
 20
61.2260771388
 30
0.0
 11
123.5866621992
 21
61.2260771388
 31
0.0
  0
LINE
  5
354
  8
0
  6
CONTINUOUS
 62
     7
 10
123.6646621514
 20
59.7880775374
 30
0.0
 11
123.6796618715
 21
59.7880775374
 31
0.0
  0
LINE
  5
355
  8
0
  6
CONTINUOUS
 62
     7
 10
123.7601621682
 20
61.2880777026
 30
0.0
 11
123.9336621373
 21
61.2880777026
 31
0.0
  0
LINE
  5
356
  8
0
  6
CONTINUOUS
 62
     7
 10
123.6796618715
 20
59.7880775374
 30
0.0
 11
123.6796618715
 21
61.2880777026
 31
0.0
  0
LINE
  5
357
  8
0
  6
CONTINUOUS
 62
     7
 10
123.7601621682
 20
61.2880777026
 30
0.0
 11
123.6796618715
 21
61.2880777026
 31
0.0
  0
LINE
  5
358
  8
0
  6
CONTINUOUS
 62
     7
 10
123.7601621682
 20
59.7880775374
 30
0.0
 11
123.6796618715
 21
59.7880775374
 31
0.0
  0
LINE
  5
359
  8
0
  6
CONTINUOUS
 62
     7
 10
123.6646621514
 20
61.2260771388
 30
0.0
 11
123.6646621514
 21
61.2880777026
 31
0.0
  0
LINE
  5
35A
  8
0
  6
CONTINUOUS
 62
     7
 10
123.6646621514
 20
61.2880777026
 30
0.0
 11
123.6656618199
 21
61.2880777026
 31
0.0
  0
LINE
  5
35B
  8
0
  6
CONTINUOUS
 62
     7
 10
123.6796618715
 20
62.0380766119
 30
0.0
 11
123.6656618199
 21
62.0380766119
 31
0.0
  0
LINE
  5
35C
  8
0
  6
CONTINUOUS
 62
     7
 10
123.6646621514
 20
25.0700767894
 30
0.0
 11
123.6646621514
 21
26.5080775641
 31
0.0
  0
LINE
  5
35D
  8
0
  6
CONTINUOUS
 62
     7
 10
123.5866621992
 20
25.0700767894
 30
0.0
 11
123.5866621992
 21
26.5080775641
 31
0.0
  0
LINE
  5
35E
  8
0
  6
CONTINUOUS
 62
     7
 10
123.6646621514
 20
26.5080775641
 30
0.0
 11
123.5866621992
 21
26.5080775641
 31
0.0
  0
LINE
  5
35F
  8
0
  6
CONTINUOUS
 62
     7
 10
123.6646621514
 20
25.0700767894
 30
0.0
 11
123.5866621992
 21
25.0700767894
 31
0.0
  0
LINE
  5
360
  8
0
  6
CONTINUOUS
 62
     7
 10
123.7601621682
 20
26.5700769546
 30
0.0
 11
123.9336621373
 21
26.5700769546
 31
0.0
  0
LINE
  5
361
  8
0
  6
CONTINUOUS
 62
     7
 10
123.6796618715
 20
25.0700767894
 30
0.0
 11
123.6796618715
 21
26.5700769546
 31
0.0
  0
LINE
  5
362
  8
0
  6
CONTINUOUS
 62
     7
 10
123.7601621682
 20
26.5700769546
 30
0.0
 11
123.6796618715
 21
26.5700769546
 31
0.0
  0
LINE
  5
363
  8
0
  6
CONTINUOUS
 62
     7
 10
123.7601621682
 20
25.0700767894
 30
0.0
 11
123.6796618715
 21
25.0700767894
 31
0.0
  0
LINE
  5
364
  8
0
  6
CONTINUOUS
 62
     7
 10
123.6646621514
 20
25.0700767894
 30
0.0
 11
123.6796618715
 21
25.0700767894
 31
0.0
  0
LINE
  5
365
  8
0
  6
CONTINUOUS
 62
     7
 10
123.6646621514
 20
26.5080775641
 30
0.0
 11
123.6646621514
 21
26.5700769546
 31
0.0
  0
LINE
  5
366
  8
0
  6
CONTINUOUS
 62
     7
 10
123.6646621514
 20
26.5700769546
 30
0.0
 11
123.6656618199
 21
26.5700769546
 31
0.0
  0
LINE
  5
367
  8
0
  6
CONTINUOUS
 62
     7
 10
123.6796618715
 20
27.650076745
 30
0.0
 11
123.6656618199
 21
27.650076745
 31
0.0
  0
ARC
  5
368
  8
0
  6
CONTINUOUS
 62
     7
 10
105.7756620581
 20
44.3660771812
 30
0.0
 40
0.3119999999999834
 50
270.0
 51
0.0000000001
  0
LINE
  5
369
  8
0
  6
CONTINUOUS
 62
     7
 10
105.7756620867
 20
44.0540771712
 30
0.0
 11
105.2828795127
 21
44.0540771712
 31
0.0
  0
LINE
  5
36A
  8
0
  6
CONTINUOUS
 62
     7
 10
105.2828795127
 20
44.6790771912
 30
0.0
 11
105.2828795127
 21
44.0540771712
 31
0.0
  0
LINE
  5
36B
  8
0
  6
CONTINUOUS
 62
     7
 10
105.7756620867
 20
44.6790771912
 30
0.0
 11
105.2828795127
 21
44.6790771912
 31
0.0
  0
LINE
  5
36C
  8
0
  6
CONTINUOUS
 62
     7
 10
106.0876618958
 20
44.3670771812
 30
0.0
 11
106.0876618958
 21
44.3660771812
 31
0.0
  0
ARC
  5
36D
  8
0
  6
CONTINUOUS
 62
     7
 10
105.7756620581
 20
44.3670771812
 30
0.0
 40
0.3119999999999976
 50
0.0000000001
 51
90.0
  0
LINE
  5
36E
  8
0
  6
CONTINUOUS
 62
     7
 10
105.0628791208
 20
44.6790771912
 30
0.0
 11
105.0628791208
 21
44.0540771712
 31
0.0
  0
LINE
  5
36F
  8
0
  6
CONTINUOUS
 62
     7
 10
105.2828795127
 20
44.0540771712
 30
0.0
 11
105.0628791208
 21
44.0540771712
 31
0.0
  0
LINE
  5
370
  8
0
  6
CONTINUOUS
 62
     7
 10
105.2828795127
 20
44.6790771912
 30
0.0
 11
105.0628791208
 21
44.6790771912
 31
0.0
  0
ARC
  5
371
  8
0
  6
CONTINUOUS
 62
     7
 10
104.5866620581
 20
44.3660771812
 30
0.0
 40
0.311999999999955
 50
180.0
 51
270.0
  0
LINE
  5
372
  8
0
  6
CONTINUOUS
 62
     7
 10
104.274662253
 20
44.3670771812
 30
0.0
 11
104.274662253
 21
44.3660771812
 31
0.0
  0
ARC
  5
373
  8
0
  6
CONTINUOUS
 62
     7
 10
104.5866620581
 20
44.3670771812
 30
0.0
 40
0.3119999999999692
 50
90.0
 51
180.0
  0
LINE
  5
374
  8
0
  6
CONTINUOUS
 62
     7
 10
105.0628791208
 20
44.0540771712
 30
0.0
 11
104.5866620621
 21
44.0540771712
 31
0.0
  0
LINE
  5
375
  8
0
  6
CONTINUOUS
 62
     7
 10
105.0628791208
 20
44.6790771912
 30
0.0
 11
104.5866620621
 21
44.6790771912
 31
0.0
  0
ARC
  5
376
  8
0
  6
CONTINUOUS
 62
     7
 10
105.7746620581
 20
44.3665771812
 30
0.0
 40
0.3589999999999994
 50
330.5137143289
 51
29.4862856711
  0
LINE
  5
377
  8
0
  6
CONTINUOUS
 62
     7
 10
105.7746618316
 20
44.8195771748
 30
0.0
 11
105.5313088561
 21
44.6790771912
 31
0.0
  0
LINE
  5
378
  8
0
  6
CONTINUOUS
 62
     7
 10
106.1669712729
 20
44.593077178
 30
0.0
 11
105.7746618316
 21
44.8195771748
 31
0.0
  0
LINE
  5
379
  8
0
  6
CONTINUOUS
 62
     7
 10
106.1669712729
 20
44.1400771844
 30
0.0
 11
106.1669712729
 21
44.593077178
 31
0.0
  0
LINE
  5
37A
  8
0
  6
CONTINUOUS
 62
     7
 10
105.7746618316
 20
43.9135771876
 30
0.0
 11
106.1669712729
 21
44.1400771844
 31
0.0
  0
LINE
  5
37B
  8
0
  6
CONTINUOUS
 62
     7
 10
105.5313088561
 20
44.0540771712
 30
0.0
 11
105.7746618316
 21
43.9135771876
 31
0.0
  0
CIRCLE
  5
37C
  8
0
  6
CONTINUOUS
 62
     7
 10
105.7746620581
 20
44.3665771812
 30
0.0
 40
0.2339999999999947
  0
LINE
  5
37D
  8
0
  6
CONTINUOUS
 62
     7
 10
105.6402040782
 20
44.4055771803
 30
0.0
 11
105.5556622815
 21
44.4055771803
 31
0.0
  0
LINE
  5
37E
  8
0
  6
CONTINUOUS
 62
     7
 10
105.5556622815
 20
44.4055771803
 30
0.0
 11
105.5556622815
 21
44.3275771822
 31
0.0
  0
LINE
  5
37F
  8
0
  6
CONTINUOUS
 62
     7
 10
105.5556622815
 20
44.3275771822
 30
0.0
 11
105.6402040782
 21
44.3275771822
 31
0.0
  0
LINE
  5
380
  8
0
  6
CONTINUOUS
 62
     7
 10
105.7516618306
 20
44.2284793865
 30
0.0
 11
105.7516618306
 21
44.2260771793
 31
0.0
  0
LINE
  5
381
  8
0
  6
CONTINUOUS
 62
     7
 10
105.7516618306
 20
44.2260771793
 30
0.0
 11
105.7976618325
 21
44.2260771793
 31
0.0
  0
LINE
  5
382
  8
0
  6
CONTINUOUS
 62
     7
 10
105.7976618325
 20
44.2260771793
 30
0.0
 11
105.7976618325
 21
44.2284793865
 31
0.0
  0
LINE
  5
383
  8
0
  6
CONTINUOUS
 62
     7
 10
105.9091201716
 20
44.3275771822
 30
0.0
 11
105.9936619683
 21
44.3275771822
 31
0.0
  0
LINE
  5
384
  8
0
  6
CONTINUOUS
 62
     7
 10
105.9936619683
 20
44.3275771822
 30
0.0
 11
105.9936619683
 21
44.4055771803
 31
0.0
  0
LINE
  5
385
  8
0
  6
CONTINUOUS
 62
     7
 10
105.9936619683
 20
44.4055771803
 30
0.0
 11
105.9091201716
 21
44.4055771803
 31
0.0
  0
LINE
  5
386
  8
0
  6
CONTINUOUS
 62
     7
 10
105.7976618325
 20
44.5046749759
 30
0.0
 11
105.7976618325
 21
44.5070771831
 31
0.0
  0
LINE
  5
387
  8
0
  6
CONTINUOUS
 62
     7
 10
105.7976618325
 20
44.5070771831
 30
0.0
 11
105.7516618306
 21
44.5070771831
 31
0.0
  0
LINE
  5
388
  8
0
  6
CONTINUOUS
 62
     7
 10
105.7516618306
 20
44.5070771831
 30
0.0
 11
105.7516618306
 21
44.5046749759
 31
0.0
  0
LINE
  5
389
  8
0
  6
CONTINUOUS
 62
     7
 10
105.8286621144
 20
44.3275771822
 30
0.0
 11
105.7976618325
 21
44.2965771799
 31
0.0
  0
LINE
  5
38A
  8
0
  6
CONTINUOUS
 62
     7
 10
105.7976618325
 20
44.2284793865
 30
0.0
 11
105.7976618325
 21
44.2965771799
 31
0.0
  0
LINE
  5
38B
  8
0
  6
CONTINUOUS
 62
     7
 10
105.8286621144
 20
44.3275771822
 30
0.0
 11
105.9091201716
 21
44.3275771822
 31
0.0
  0
LINE
  5
38C
  8
0
  6
CONTINUOUS
 62
     7
 10
105.7976618325
 20
44.4365771826
 30
0.0
 11
105.8286621144
 21
44.4055771803
 31
0.0
  0
LINE
  5
38D
  8
0
  6
CONTINUOUS
 62
     7
 10
105.7976618325
 20
44.4365771826
 30
0.0
 11
105.7976618325
 21
44.5046749759
 31
0.0
  0
LINE
  5
38E
  8
0
  6
CONTINUOUS
 62
     7
 10
105.9091201716
 20
44.4055771803
 30
0.0
 11
105.8286621144
 21
44.4055771803
 31
0.0
  0
LINE
  5
38F
  8
0
  6
CONTINUOUS
 62
     7
 10
105.7516618306
 20
44.2965771799
 30
0.0
 11
105.7206621354
 21
44.3275771822
 31
0.0
  0
LINE
  5
390
  8
0
  6
CONTINUOUS
 62
     7
 10
105.7516618306
 20
44.2965771799
 30
0.0
 11
105.7516618306
 21
44.2284793865
 31
0.0
  0
LINE
  5
391
  8
0
  6
CONTINUOUS
 62
     7
 10
105.6402040782
 20
44.3275771822
 30
0.0
 11
105.7206621354
 21
44.3275771822
 31
0.0
  0
LINE
  5
392
  8
0
  6
CONTINUOUS
 62
     7
 10
105.7206621354
 20
44.4055771803
 30
0.0
 11
105.7516618306
 21
44.4365771826
 31
0.0
  0
LINE
  5
393
  8
0
  6
CONTINUOUS
 62
     7
 10
105.7516618306
 20
44.5046749759
 30
0.0
 11
105.7516618306
 21
44.4365771826
 31
0.0
  0
LINE
  5
394
  8
0
  6
CONTINUOUS
 62
     7
 10
105.7206621354
 20
44.4055771803
 30
0.0
 11
105.6402040782
 21
44.4055771803
 31
0.0
  0
LINE
  5
395
  8
0
  6
CONTINUOUS
 62
     7
 10
105.9466622979
 20
44.5385771892
 30
0.0
 11
105.9333187188
 21
44.5385771892
 31
0.0
  0
LINE
  5
396
  8
0
  6
CONTINUOUS
 62
     7
 10
105.6160049444
 20
44.5385771892
 30
0.0
 11
105.6026619519
 21
44.5385771892
 31
0.0
  0
LINE
  5
397
  8
0
  6
CONTINUOUS
 62
     7
 10
105.9466622979
 20
44.1945771732
 30
0.0
 11
105.9466622979
 21
44.2079203124
 31
0.0
  0
LINE
  5
398
  8
0
  6
CONTINUOUS
 62
     7
 10
105.9466622979
 20
44.5252340501
 30
0.0
 11
105.9466622979
 21
44.5385771892
 31
0.0
  0
LINE
  5
399
  8
0
  6
CONTINUOUS
 62
     7
 10
105.6026619519
 20
44.5385771892
 30
0.0
 11
105.6026619519
 21
44.5252340501
 31
0.0
  0
LINE
  5
39A
  8
0
  6
CONTINUOUS
 62
     7
 10
105.6026619519
 20
44.2079203124
 30
0.0
 11
105.6026619519
 21
44.1945771732
 31
0.0
  0
LINE
  5
39B
  8
0
  6
CONTINUOUS
 62
     7
 10
105.6026619519
 20
44.1945771732
 30
0.0
 11
105.6160049444
 21
44.1945771732
 31
0.0
  0
LINE
  5
39C
  8
0
  6
CONTINUOUS
 62
     7
 10
105.9333187188
 20
44.1945771732
 30
0.0
 11
105.9466622979
 21
44.1945771732
 31
0.0
  0
ARC
  5
39D
  8
0
  6
CONTINUOUS
 62
     7
 10
105.7746620581
 20
44.3665771812
 30
0.0
 40
0.3670000000000023
 50
31.6249544882
 51
121.6249544884
  0
LINE
  5
39E
  8
0
  6
CONTINUOUS
 62
     7
 10
106.0871620615
 20
44.1741382359
 30
0.0
 11
106.0871620615
 21
44.3484207371
 31
0.0
  0
LINE
  5
39F
  8
0
  6
CONTINUOUS
 62
     7
 10
106.0871620615
 20
44.3847336253
 30
0.0
 11
106.0871620615
 21
44.5590161265
 31
0.0
  0
ARC
  5
3A0
  8
0
  6
CONTINUOUS
 62
     7
 10
105.7746620581
 20
44.3665771812
 30
0.0
 40
0.3670000000000023
 50
238.3750455118
 51
328.3750455118
  0
LINE
  5
3A1
  8
0
  6
CONTINUOUS
 62
     7
 10
123.5866621992
 20
62.7880766945
 30
0.0
 11
123.5866621992
 21
61.2880777026
 31
0.0
  0
LINE
  5
3A2
  8
0
  6
CONTINUOUS
 62
     7
 10
123.6646621514
 20
62.7880766945
 30
0.0
 11
123.5866621992
 21
62.7880766945
 31
0.0
  0
LINE
  5
3A3
  8
0
  6
CONTINUOUS
 62
     7
 10
123.6646621514
 20
62.7880766945
 30
0.0
 11
123.6646621514
 21
61.2880777026
 31
0.0
  0
LINE
  5
3A4
  8
0
  6
CONTINUOUS
 62
     7
 10
123.6646621514
 20
61.2880777026
 30
0.0
 11
123.5866621992
 21
61.2880777026
 31
0.0
  0
LINE
  5
3A5
  8
0
  6
CONTINUOUS
 62
     7
 10
123.7601621682
 20
62.7880766945
 30
0.0
 11
123.6796618715
 21
62.7880766945
 31
0.0
  0
LINE
  5
3A6
  8
0
  6
CONTINUOUS
 62
     7
 10
123.6796618715
 20
62.7880766945
 30
0.0
 11
123.6796618715
 21
61.2880777026
 31
0.0
  0
LINE
  5
3A7
  8
0
  6
CONTINUOUS
 62
     7
 10
123.6646621514
 20
62.7880766945
 30
0.0
 11
123.6796618715
 21
62.7880766945
 31
0.0
  0
LINE
  5
3A8
  8
0
  6
CONTINUOUS
 62
     7
 10
123.5866621992
 20
28.0700771198
 30
0.0
 11
123.5866621992
 21
26.5700769546
 31
0.0
  0
LINE
  5
3A9
  8
0
  6
CONTINUOUS
 62
     7
 10
123.6646621514
 20
28.0700771198
 30
0.0
 11
123.5866621992
 21
28.0700771198
 31
0.0
  0
LINE
  5
3AA
  8
0
  6
CONTINUOUS
 62
     7
 10
123.6646621514
 20
28.0700771198
 30
0.0
 11
123.6646621514
 21
26.5700769546
 31
0.0
  0
LINE
  5
3AB
  8
0
  6
CONTINUOUS
 62
     7
 10
123.6646621514
 20
26.5700769546
 30
0.0
 11
123.5866621992
 21
26.5700769546
 31
0.0
  0
LINE
  5
3AC
  8
0
  6
CONTINUOUS
 62
     7
 10
123.7601621682
 20
28.0700771198
 30
0.0
 11
123.6796618715
 21
28.0700771198
 31
0.0
  0
LINE
  5
3AD
  8
0
  6
CONTINUOUS
 62
     7
 10
123.6796618715
 20
28.0700771198
 30
0.0
 11
123.6796618715
 21
26.5700769546
 31
0.0
  0
LINE
  5
3AE
  8
0
  6
CONTINUOUS
 62
     7
 10
123.6646621514
 20
28.0700771198
 30
0.0
 11
123.6796618715
 21
28.0700771198
 31
0.0
  0
LINE
  5
3AF
  8
0
  6
CONTINUOUS
 62
     7
 10
115.3211620296
 20
23.8980769951
 30
0.0
 11
115.3211620296
 21
64.8350773673
 31
0.0
  0
LINE
  5
3B0
  8
0
  6
CONTINUOUS
 62
     7
 10
113.0401620866
 20
64.8350773673
 30
0.0
 11
113.0401620866
 21
23.8980769951
 31
0.0
  0
LINE
  5
3B1
  8
0
  6
CONTINUOUS
 62
     7
 10
115.8831621107
 20
64.8350773673
 30
0.0
 11
115.8831621107
 21
23.8980769951
 31
0.0
  0
LINE
  5
3B2
  8
0
  6
CONTINUOUS
 62
     7
 10
112.4781620055
 20
64.8350773673
 30
0.0
 11
112.4781620055
 21
23.8980769951
 31
0.0
  0
ARC
  5
3B3
  8
0
  6
CONTINUOUS
 62
     7
 10
123.5309526298
 20
65.2987865968
 30
0.0
 40
0.0265485326326794
 50
291.4524514015
 51
338.5475485985
  0
LINE
  5
3B4
  8
0
  6
CONTINUOUS
 62
     7
 10
123.5556619173
 20
65.2890770294
 30
0.0
 11
123.5866621992
 21
65.2890770294
 31
0.0
  0
ARC
  5
3B5
  8
0
  6
CONTINUOUS
 62
     7
 10
123.5362287989
 20
65.3657078342
 30
0.0
 40
0.0917377136851291
 50
272.7700057264
 51
303.350306373
  0
ARC
  5
3B6
  8
0
  6
CONTINUOUS
 62
     7
 10
123.5362287989
 20
23.3674465282
 30
0.0
 40
0.0917377136852517
 50
56.649693627
 51
87.2299942736
  0
LINE
  5
3B7
  8
0
  6
CONTINUOUS
 62
     7
 10
123.5866621992
 20
23.444077333
 30
0.0
 11
123.5866621992
 21
25.0700767894
 31
0.0
  0
LINE
  5
3B8
  8
0
  6
CONTINUOUS
 62
     7
 10
123.5866621992
 20
26.5080775641
 30
0.0
 11
123.5866621992
 21
26.5700769546
 31
0.0
  0
LINE
  5
3B9
  8
0
  6
CONTINUOUS
 62
     7
 10
123.5866621992
 20
28.0700771198
 30
0.0
 11
123.5866621992
 21
59.7880775374
 31
0.0
  0
LINE
  5
3BA
  8
0
  6
CONTINUOUS
 62
     7
 10
123.5866621992
 20
61.2260771388
 30
0.0
 11
123.5866621992
 21
61.2880777026
 31
0.0
  0
LINE
  5
3BB
  8
0
  6
CONTINUOUS
 62
     7
 10
123.5866621992
 20
62.7880766945
 30
0.0
 11
123.5866621992
 21
65.2890770294
 31
0.0
  0
LINE
  5
3BC
  8
0
  6
CONTINUOUS
 62
     7
 10
123.5556619173
 20
23.444077333
 30
0.0
 11
123.5866621992
 21
23.444077333
 31
0.0
  0
ARC
  5
3BD
  8
0
  6
CONTINUOUS
 62
     7
 10
123.5309526298
 20
23.4343677657
 30
0.0
 40
0.0265485326327262
 50
21.4524514016
 51
68.5475485984
  0
ARC
  5
3BE
  8
0
  6
CONTINUOUS
 62
     7
 10
104.8250953173
 20
65.3657078342
 30
0.0
 40
0.091737713684983
 50
236.6496936269
 51
267.2299942737
  0
LINE
  5
3BF
  8
0
  6
CONTINUOUS
 62
     7
 10
104.8056621989
 20
65.2890770294
 30
0.0
 11
104.774661917
 21
65.2890770294
 31
0.0
  0
ARC
  5
3C0
  8
0
  6
CONTINUOUS
 62
     7
 10
104.8303714863
 20
65.2987865968
 30
0.0
 40
0.0265485326327059
 50
201.4524514015
 51
248.5475485985
  0
ARC
  5
3C1
  8
0
  6
CONTINUOUS
 62
     7
 10
104.8250953173
 20
23.3674465282
 30
0.0
 40
0.0917377136851162
 50
92.7700057264
 51
123.3503063731
  0
LINE
  5
3C2
  8
0
  6
CONTINUOUS
 62
     7
 10
104.774661917
 20
23.444077333
 30
0.0
 11
104.774661917
 21
44.0540771712
 31
0.0
  0
LINE
  5
3C3
  8
0
  6
CONTINUOUS
 62
     7
 10
104.774661917
 20
44.6790771912
 30
0.0
 11
104.774661917
 21
65.2890770294
 31
0.0
  0
ARC
  5
3C4
  8
0
  6
CONTINUOUS
 62
     7
 10
104.8303714863
 20
23.4343677657
 30
0.0
 40
0.0265485326327256
 50
111.4524514015
 51
158.5475485985
  0
LINE
  5
3C5
  8
0
  6
CONTINUOUS
 62
     7
 10
104.8056621989
 20
23.444077333
 30
0.0
 11
104.774661917
 21
23.444077333
 31
0.0
  0
LINE
  5
3C6
  8
0
  6
CONTINUOUS
 62
     7
 10
105.2896618877
 20
64.8350773673
 30
0.0
 11
104.8466620986
 21
65.2780783298
 31
0.0
  0
LINE
  5
3C7
  8
0
  6
CONTINUOUS
 62
     7
 10
104.8466620986
 20
65.2780783298
 30
0.0
 11
104.8466620986
 21
65.2890770294
 31
0.0
  0
LINE
  5
3C8
  8
0
  6
CONTINUOUS
 62
     7
 10
123.5146620176
 20
65.2780783298
 30
0.0
 11
123.5146620176
 21
65.2890770294
 31
0.0
  0
LINE
  5
3C9
  8
0
  6
CONTINUOUS
 62
     7
 10
123.0716622285
 20
64.8350773673
 30
0.0
 11
123.5146620176
 21
65.2780783298
 31
0.0
  0
LINE
  5
3CA
  8
0
  6
CONTINUOUS
 62
     7
 10
123.0716622285
 20
64.8350773673
 30
0.0
 11
105.2896618877
 21
64.8350773673
 31
0.0
  0
LINE
  5
3CB
  8
0
  6
CONTINUOUS
 62
     7
 10
104.8466620986
 20
23.4550760327
 30
0.0
 11
104.8466620986
 21
23.444077333
 31
0.0
  0
LINE
  5
3CC
  8
0
  6
CONTINUOUS
 62
     7
 10
105.2896618877
 20
23.8980769951
 30
0.0
 11
104.8466620986
 21
23.4550760327
 31
0.0
  0
LINE
  5
3CD
  8
0
  6
CONTINUOUS
 62
     7
 10
123.0716622285
 20
23.8980769951
 30
0.0
 11
105.2896618877
 21
23.8980769951
 31
0.0
  0
LINE
  5
3CE
  8
0
  6
CONTINUOUS
 62
     7
 10
123.5146620176
 20
23.4550760327
 30
0.0
 11
123.5146620176
 21
23.444077333
 31
0.0
  0
LINE
  5
3CF
  8
0
  6
CONTINUOUS
 62
     7
 10
123.0716622285
 20
23.8980769951
 30
0.0
 11
123.5146620176
 21
23.4550760327
 31
0.0
  0
CIRCLE
  5
3D0
  8
0
  6
CONTINUOUS
 62
     7
 10
123.3366620581
 20
25.3980771812
 30
0.0
 40
0.125
  0
LINE
  5
3D1
  8
0
  6
CONTINUOUS
 62
     7
 10
123.0866619485
 20
64.8200776473
 30
0.0
 11
123.0866619485
 21
23.9130767151
 31
0.0
  0
CIRCLE
  5
3D2
  8
0
  6
CONTINUOUS
 62
     7
 10
123.3366620581
 20
63.3350771812
 30
0.0
 40
0.125
  0
LINE
  5
3D3
  8
0
  6
CONTINUOUS
 62
     7
 10
123.5406621972
 20
65.2740773093
 30
0.0
 11
123.0866619485
 21
64.8200776473
 31
0.0
  0
LINE
  5
3D4
  8
0
  6
CONTINUOUS
 62
     7
 10
123.5406621972
 20
23.4590770531
 30
0.0
 11
123.0866619485
 21
23.9130767151
 31
0.0
  0
LINE
  5
3D5
  8
0
  6
CONTINUOUS
 62
     7
 10
123.5146620176
 20
65.2890770294
 30
0.0
 11
123.5146620176
 21
65.3350782046
 31
0.0
  0
LINE
  5
3D6
  8
0
  6
CONTINUOUS
 62
     7
 10
104.8466620986
 20
65.2890770294
 30
0.0
 11
104.8466620986
 21
65.3350782046
 31
0.0
  0
LINE
  5
3D7
  8
0
  6
CONTINUOUS
 62
     7
 10
123.5146620176
 20
65.3350782046
 30
0.0
 11
104.8466620986
 21
65.3350782046
 31
0.0
  0
LINE
  5
3D8
  8
0
  6
CONTINUOUS
 62
     7
 10
104.8466620986
 20
23.444077333
 30
0.0
 11
104.8466620986
 21
23.3980761578
 31
0.0
  0
LINE
  5
3D9
  8
0
  6
CONTINUOUS
 62
     7
 10
123.5146620176
 20
23.3980761578
 30
0.0
 11
104.8466620986
 21
23.3980761578
 31
0.0
  0
LINE
  5
3DA
  8
0
  6
CONTINUOUS
 62
     7
 10
123.5146620176
 20
23.444077333
 30
0.0
 11
123.5146620176
 21
23.3980761578
 31
0.0
  0
CIRCLE
  5
3DB
  8
0
  6
CONTINUOUS
 62
     7
 10
105.0246620581
 20
25.3980771812
 30
0.0
 40
0.125
  0
LINE
  5
3DC
  8
0
  6
CONTINUOUS
 62
     7
 10
105.2746621676
 20
64.8200776473
 30
0.0
 11
105.2746621676
 21
44.6790771912
 31
0.0
  0
LINE
  5
3DD
  8
0
  6
CONTINUOUS
 62
     7
 10
105.2746621676
 20
44.0540771712
 30
0.0
 11
105.2746621676
 21
23.9130767151
 31
0.0
  0
LINE
  5
3DE
  8
0
  6
CONTINUOUS
 62
     7
 10
104.8206619189
 20
65.2740773093
 30
0.0
 11
105.2746621676
 21
64.8200776473
 31
0.0
  0
CIRCLE
  5
3DF
  8
0
  6
CONTINUOUS
 62
     7
 10
105.0246620581
 20
63.3350771812
 30
0.0
 40
0.125
  0
LINE
  5
3E0
  8
0
  6
CONTINUOUS
 62
     7
 10
104.8206619189
 20
23.4590770531
 30
0.0
 11
105.2746621676
 21
23.9130767151
 31
0.0
  0
LINE
  5
3E1
  8
0
  6
CONTINUOUS
 62
     7
 10
123.5556619173
 20
65.3200761379
 30
0.0
 11
123.5556619173
 21
65.2890770294
 31
0.0
  0
LINE
  5
3E2
  8
0
  6
CONTINUOUS
 62
     7
 10
123.5866621992
 20
65.3200761379
 30
0.0
 11
123.5556619173
 21
65.3200761379
 31
0.0
  0
LINE
  5
3E3
  8
0
  6
CONTINUOUS
 62
     7
 10
123.5866621992
 20
65.3200761379
 30
0.0
 11
123.5866621992
 21
65.2890770294
 31
0.0
  0
LINE
  5
3E4
  8
0
  6
CONTINUOUS
 62
     7
 10
123.5866621992
 20
23.4130782245
 30
0.0
 11
123.5556619173
 21
23.4130782245
 31
0.0
  0
LINE
  5
3E5
  8
0
  6
CONTINUOUS
 62
     7
 10
123.5556619173
 20
23.4130782245
 30
0.0
 11
123.5556619173
 21
23.444077333
 31
0.0
  0
LINE
  5
3E6
  8
0
  6
CONTINUOUS
 62
     7
 10
123.5866621992
 20
23.4130782245
 30
0.0
 11
123.5866621992
 21
23.444077333
 31
0.0
  0
LINE
  5
3E7
  8
0
  6
CONTINUOUS
 62
     7
 10
104.774661917
 20
65.3200761379
 30
0.0
 11
104.774661917
 21
65.2890770294
 31
0.0
  0
LINE
  5
3E8
  8
0
  6
CONTINUOUS
 62
     7
 10
104.774661917
 20
65.3200761379
 30
0.0
 11
104.8056621989
 21
65.3200761379
 31
0.0
  0
LINE
  5
3E9
  8
0
  6
CONTINUOUS
 62
     7
 10
104.8056621989
 20
65.3200761379
 30
0.0
 11
104.8056621989
 21
65.2890770294
 31
0.0
  0
LINE
  5
3EA
  8
0
  6
CONTINUOUS
 62
     7
 10
104.774661917
 20
23.4130782245
 30
0.0
 11
104.8056621989
 21
23.4130782245
 31
0.0
  0
LINE
  5
3EB
  8
0
  6
CONTINUOUS
 62
     7
 10
104.774661917
 20
23.4130782245
 30
0.0
 11
104.774661917
 21
23.444077333
 31
0.0
  0
LINE
  5
3EC
  8
0
  6
CONTINUOUS
 62
     7
 10
104.8056621989
 20
23.4130782245
 30
0.0
 11
104.8056621989
 21
23.444077333
 31
0.0
  0
LINE
  5
3ED
  8
0
  6
CONTINUOUS
 62
     7
 10
123.5406621972
 20
23.4130782245
 30
0.0
 11
123.5556619173
 21
23.4130782245
 31
0.0
  0
LINE
  5
3EE
  8
0
  6
CONTINUOUS
 62
     7
 10
123.5406621972
 20
65.3200761379
 30
0.0
 11
123.5556619173
 21
65.3200761379
 31
0.0
  0
LINE
  5
3EF
  8
0
  6
CONTINUOUS
 62
     7
 10
104.8206619189
 20
65.3200761379
 30
0.0
 11
104.8056621989
 21
65.3200761379
 31
0.0
  0
LINE
  5
3F0
  8
0
  6
CONTINUOUS
 62
     7
 10
104.8206619189
 20
23.4130782245
 30
0.0
 11
104.8056621989
 21
23.4130782245
 31
0.0
  0
ARC
  5
3F1
  8
0
  6
CONTINUOUS
 62
     7
 10
117.7276620581
 20
25.8355771812
 30
0.0
 40
0.6250000000000178
 50
90.0
 51
180.0
  0
LINE
  5
3F2
  8
0
  6
CONTINUOUS
 62
     7
 10
121.4776621358
 20
25.8355775996
 30
0.0
 11
117.1026621429
 21
25.8355775996
 31
0.0
  0
ARC
  5
3F3
  8
0
  6
CONTINUOUS
 62
     7
 10
120.8526620581
 20
25.8355771812
 30
0.0
 40
0.625
 50
0.0
 51
90.0
  0
LINE
  5
3F4
  8
0
  6
CONTINUOUS
 62
     7
 10
120.8526622626
 20
26.4605768862
 30
0.0
 11
117.7276620162
 21
26.4605768862
 31
0.0
  0
ARC
  5
3F5
  8
0
  6
CONTINUOUS
 62
     7
 10
117.7276620581
 20
26.8355771812
 30
0.0
 40
0.6250000000000142
 50
90.0
 51
180.0
  0
LINE
  5
3F6
  8
0
  6
CONTINUOUS
 62
     7
 10
121.4776621358
 20
26.8355769275
 30
0.0
 11
117.1026621429
 21
26.8355769275
 31
0.0
  0
ARC
  5
3F7
  8
0
  6
CONTINUOUS
 62
     7
 10
120.8526620581
 20
26.8355771812
 30
0.0
 40
0.625
 50
0.0
 51
90.0
  0
LINE
  5
3F8
  8
0
  6
CONTINUOUS
 62
     7
 10
120.8526622626
 20
27.4605773874
 30
0.0
 11
117.7276620162
 21
27.4605773874
 31
0.0
  0
ARC
  5
3F9
  8
0
  6
CONTINUOUS
 62
     7
 10
117.7276620581
 20
27.8355771812
 30
0.0
 40
0.6250000000000178
 50
90.0
 51
180.0
  0
LINE
  5
3FA
  8
0
  6
CONTINUOUS
 62
     7
 10
121.4776621358
 20
27.8355774287
 30
0.0
 11
117.1026621429
 21
27.8355774287
 31
0.0
  0
ARC
  5
3FB
  8
0
  6
CONTINUOUS
 62
     7
 10
120.8526620581
 20
27.8355771812
 30
0.0
 40
0.625
 50
0.0
 51
90.0
  0
LINE
  5
3FC
  8
0
  6
CONTINUOUS
 62
     7
 10
120.8526622626
 20
28.4605767153
 30
0.0
 11
117.7276620162
 21
28.4605767153
 31
0.0
  0
ARC
  5
3FD
  8
0
  6
CONTINUOUS
 62
     7
 10
117.7276620581
 20
28.8355771812
 30
0.0
 40
0.6250000000000142
 50
90.0
 51
180.0
  0
LINE
  5
3FE
  8
0
  6
CONTINUOUS
 62
     7
 10
121.4776621358
 20
28.8355767567
 30
0.0
 11
117.1026621429
 21
28.8355767567
 31
0.0
  0
ARC
  5
3FF
  8
0
  6
CONTINUOUS
 62
     7
 10
120.8526620581
 20
28.8355771812
 30
0.0
 40
0.625
 50
0.0
 51
90.0
  0
LINE
  5
400
  8
0
  6
CONTINUOUS
 62
     7
 10
120.8526622626
 20
29.4605772166
 30
0.0
 11
117.7276620162
 21
29.4605772166
 31
0.0
  0
ARC
  5
401
  8
0
  6
CONTINUOUS
 62
     7
 10
117.7276620581
 20
29.8355771812
 30
0.0
 40
0.6250000000000178
 50
90.0
 51
180.0
  0
LINE
  5
402
  8
0
  6
CONTINUOUS
 62
     7
 10
121.4776621358
 20
29.8355772579
 30
0.0
 11
117.1026621429
 21
29.8355772579
 31
0.0
  0
ARC
  5
403
  8
0
  6
CONTINUOUS
 62
     7
 10
120.8526620581
 20
29.8355771812
 30
0.0
 40
0.6250000000000036
 50
0.0
 51
90.0
  0
LINE
  5
404
  8
0
  6
CONTINUOUS
 62
     7
 10
120.8526622626
 20
30.4605777178
 30
0.0
 11
117.7276620162
 21
30.4605777178
 31
0.0
  0
ARC
  5
405
  8
0
  6
CONTINUOUS
 62
     7
 10
117.7276620581
 20
30.8355771812
 30
0.0
 40
0.6250000000000178
 50
90.0
 51
180.0
  0
LINE
  5
406
  8
0
  6
CONTINUOUS
 62
     7
 10
121.4776621358
 20
30.8355777591
 30
0.0
 11
117.1026621429
 21
30.8355777591
 31
0.0
  0
ARC
  5
407
  8
0
  6
CONTINUOUS
 62
     7
 10
120.8526620581
 20
30.8355771812
 30
0.0
 40
0.625
 50
0.0
 51
90.0
  0
LINE
  5
408
  8
0
  6
CONTINUOUS
 62
     7
 10
120.8526622626
 20
31.4605770458
 30
0.0
 11
117.7276620162
 21
31.4605770458
 31
0.0
  0
ARC
  5
409
  8
0
  6
CONTINUOUS
 62
     7
 10
117.7276620581
 20
31.8355771812
 30
0.0
 40
0.6250000000000178
 50
90.0
 51
180.0
  0
LINE
  5
40A
  8
0
  6
CONTINUOUS
 62
     7
 10
121.4776621358
 20
31.8355770871
 30
0.0
 11
117.1026621429
 21
31.8355770871
 31
0.0
  0
ARC
  5
40B
  8
0
  6
CONTINUOUS
 62
     7
 10
120.8526620581
 20
31.8355771812
 30
0.0
 40
0.6250000000000036
 50
0.0
 51
90.0
  0
LINE
  5
40C
  8
0
  6
CONTINUOUS
 62
     7
 10
120.8526622626
 20
32.460577547
 30
0.0
 11
117.7276620162
 21
32.460577547
 31
0.0
  0
ARC
  5
40D
  8
0
  6
CONTINUOUS
 62
     7
 10
117.7276620581
 20
32.8355771812
 30
0.0
 40
0.6250000000000142
 50
90.0
 51
180.0
  0
LINE
  5
40E
  8
0
  6
CONTINUOUS
 62
     7
 10
121.4776621358
 20
32.8355775883
 30
0.0
 11
117.1026621429
 21
32.8355775883
 31
0.0
  0
ARC
  5
40F
  8
0
  6
CONTINUOUS
 62
     7
 10
120.8526620581
 20
32.8355771812
 30
0.0
 40
0.625
 50
0.0
 51
90.0
  0
LINE
  5
410
  8
0
  6
CONTINUOUS
 62
     7
 10
120.8526622626
 20
33.4605768749
 30
0.0
 11
117.7276620162
 21
33.4605768749
 31
0.0
  0
ARC
  5
411
  8
0
  6
CONTINUOUS
 62
     7
 10
117.7276620581
 20
33.8355771812
 30
0.0
 40
0.6250000000000142
 50
90.0
 51
180.0
  0
LINE
  5
412
  8
0
  6
CONTINUOUS
 62
     7
 10
121.4776621358
 20
33.8355769162
 30
0.0
 11
117.1026621429
 21
33.8355769162
 31
0.0
  0
ARC
  5
413
  8
0
  6
CONTINUOUS
 62
     7
 10
120.8526620581
 20
33.8355771812
 30
0.0
 40
0.625
 50
0.0
 51
90.0
  0
LINE
  5
414
  8
0
  6
CONTINUOUS
 62
     7
 10
120.8526622626
 20
34.4605773762
 30
0.0
 11
117.7276620162
 21
34.4605773762
 31
0.0
  0
ARC
  5
415
  8
0
  6
CONTINUOUS
 62
     7
 10
117.7276620581
 20
34.8355771812
 30
0.0
 40
0.6250000000000142
 50
90.0
 51
180.0
  0
LINE
  5
416
  8
0
  6
CONTINUOUS
 62
     7
 10
121.4776621358
 20
34.8355774175
 30
0.0
 11
117.1026621429
 21
34.8355774175
 31
0.0
  0
ARC
  5
417
  8
0
  6
CONTINUOUS
 62
     7
 10
120.8526620581
 20
34.8355771812
 30
0.0
 40
0.6250000000000071
 50
0.0
 51
90.0
  0
LINE
  5
418
  8
0
  6
CONTINUOUS
 62
     7
 10
120.8526622626
 20
35.4605772907
 30
0.0
 11
117.7276620162
 21
35.4605772907
 31
0.0
  0
ARC
  5
419
  8
0
  6
CONTINUOUS
 62
     7
 10
107.5086620581
 20
53.2725771812
 30
0.0
 40
0.6250000000000284
 50
90.0
 51
180.0
  0
LINE
  5
41A
  8
0
  6
CONTINUOUS
 62
     7
 10
111.2586619733
 20
53.2725770717
 30
0.0
 11
106.8836619803
 21
53.2725770717
 31
0.0
  0
ARC
  5
41B
  8
0
  6
CONTINUOUS
 62
     7
 10
110.6336620581
 20
53.2725771812
 30
0.0
 40
0.625
 50
0.0
 51
90.0
  0
LINE
  5
41C
  8
0
  6
CONTINUOUS
 62
     7
 10
110.6336621
 20
53.897576945
 30
0.0
 11
107.5086618536
 21
53.897576945
 31
0.0
  0
ARC
  5
41D
  8
0
  6
CONTINUOUS
 62
     7
 10
107.5086620581
 20
54.2725771812
 30
0.0
 40
0.6250000000000355
 50
90.0
 51
180.0
  0
LINE
  5
41E
  8
0
  6
CONTINUOUS
 62
     7
 10
111.2586619733
 20
54.2725769863
 30
0.0
 11
106.8836619803
 21
54.2725769863
 31
0.0
  0
ARC
  5
41F
  8
0
  6
CONTINUOUS
 62
     7
 10
110.6336620581
 20
54.2725771812
 30
0.0
 40
0.625
 50
0.0
 51
90.0
  0
LINE
  5
420
  8
0
  6
CONTINUOUS
 62
     7
 10
110.6336621
 20
54.8975774462
 30
0.0
 11
107.5086618536
 21
54.8975774462
 31
0.0
  0
ARC
  5
421
  8
0
  6
CONTINUOUS
 62
     7
 10
107.5086620581
 20
55.2725771812
 30
0.0
 40
0.6250000000000284
 50
90.0
 51
180.0
  0
LINE
  5
422
  8
0
  6
CONTINUOUS
 62
     7
 10
111.2586619733
 20
55.2725774875
 30
0.0
 11
106.8836619803
 21
55.2725774875
 31
0.0
  0
ARC
  5
423
  8
0
  6
CONTINUOUS
 62
     7
 10
110.6336620581
 20
55.2725771812
 30
0.0
 40
0.625
 50
0.0
 51
90.0
  0
LINE
  5
424
  8
0
  6
CONTINUOUS
 62
     7
 10
110.6336621
 20
55.8975767741
 30
0.0
 11
107.5086618536
 21
55.8975767741
 31
0.0
  0
ARC
  5
425
  8
0
  6
CONTINUOUS
 62
     7
 10
107.5086620581
 20
56.2725771812
 30
0.0
 40
0.6250000000000284
 50
90.0
 51
180.0
  0
LINE
  5
426
  8
0
  6
CONTINUOUS
 62
     7
 10
111.2586619733
 20
56.2725768154
 30
0.0
 11
106.8836619803
 21
56.2725768154
 31
0.0
  0
ARC
  5
427
  8
0
  6
CONTINUOUS
 62
     7
 10
110.6336620581
 20
56.2725771812
 30
0.0
 40
0.625
 50
0.0
 51
90.0
  0
LINE
  5
428
  8
0
  6
CONTINUOUS
 62
     7
 10
110.6336621
 20
56.8975772754
 30
0.0
 11
107.5086618536
 21
56.8975772754
 31
0.0
  0
ARC
  5
429
  8
0
  6
CONTINUOUS
 62
     7
 10
107.5086620581
 20
57.2725771812
 30
0.0
 40
0.6250000000000284
 50
90.0
 51
180.0
  0
LINE
  5
42A
  8
0
  6
CONTINUOUS
 62
     7
 10
111.2586619733
 20
57.2725773167
 30
0.0
 11
106.8836619803
 21
57.2725773167
 31
0.0
  0
ARC
  5
42B
  8
0
  6
CONTINUOUS
 62
     7
 10
110.6336620581
 20
57.2725771812
 30
0.0
 40
0.625
 50
0.0
 51
90.0
  0
LINE
  5
42C
  8
0
  6
CONTINUOUS
 62
     7
 10
110.6336621
 20
57.8975766033
 30
0.0
 11
107.5086618536
 21
57.8975766033
 31
0.0
  0
ARC
  5
42D
  8
0
  6
CONTINUOUS
 62
     7
 10
107.5086620581
 20
58.2725771812
 30
0.0
 40
0.6250000000000284
 50
90.0
 51
180.0
  0
LINE
  5
42E
  8
0
  6
CONTINUOUS
 62
     7
 10
111.2586619733
 20
58.2725766446
 30
0.0
 11
106.8836619803
 21
58.2725766446
 31
0.0
  0
ARC
  5
42F
  8
0
  6
CONTINUOUS
 62
     7
 10
110.6336620581
 20
58.2725771812
 30
0.0
 40
0.625
 50
0.0
 51
90.0
  0
LINE
  5
430
  8
0
  6
CONTINUOUS
 62
     7
 10
110.6336621
 20
58.8975771045
 30
0.0
 11
107.5086618536
 21
58.8975771045
 31
0.0
  0
ARC
  5
431
  8
0
  6
CONTINUOUS
 62
     7
 10
107.5086620581
 20
59.2725771812
 30
0.0
 40
0.6250000000000284
 50
90.0
 51
180.0
  0
LINE
  5
432
  8
0
  6
CONTINUOUS
 62
     7
 10
111.2586619733
 20
59.2725771458
 30
0.0
 11
106.8836619803
 21
59.2725771458
 31
0.0
  0
ARC
  5
433
  8
0
  6
CONTINUOUS
 62
     7
 10
110.6336620581
 20
59.2725771812
 30
0.0
 40
0.625
 50
0.0
 51
90.0
  0
LINE
  5
434
  8
0
  6
CONTINUOUS
 62
     7
 10
110.6336621
 20
59.8975776058
 30
0.0
 11
107.5086618536
 21
59.8975776058
 31
0.0
  0
ARC
  5
435
  8
0
  6
CONTINUOUS
 62
     7
 10
107.5086620581
 20
60.2725771812
 30
0.0
 40
0.6250000000000284
 50
90.0
 51
180.0
  0
LINE
  5
436
  8
0
  6
CONTINUOUS
 62
     7
 10
111.2586619733
 20
60.2725776471
 30
0.0
 11
106.8836619803
 21
60.2725776471
 31
0.0
  0
ARC
  5
437
  8
0
  6
CONTINUOUS
 62
     7
 10
110.6336620581
 20
60.2725771812
 30
0.0
 40
0.625
 50
0.0
 51
90.0
  0
LINE
  5
438
  8
0
  6
CONTINUOUS
 62
     7
 10
110.6336621
 20
60.8975769337
 30
0.0
 11
107.5086618536
 21
60.8975769337
 31
0.0
  0
ARC
  5
439
  8
0
  6
CONTINUOUS
 62
     7
 10
107.5086620581
 20
61.2725771812
 30
0.0
 40
0.6250000000000284
 50
90.0
 51
180.0
  0
LINE
  5
43A
  8
0
  6
CONTINUOUS
 62
     7
 10
111.2586619733
 20
61.272576975
 30
0.0
 11
106.8836619803
 21
61.272576975
 31
0.0
  0
ARC
  5
43B
  8
0
  6
CONTINUOUS
 62
     7
 10
110.6336620581
 20
61.2725771812
 30
0.0
 40
0.6250000000000071
 50
0.0
 51
90.0
  0
LINE
  5
43C
  8
0
  6
CONTINUOUS
 62
     7
 10
110.6336621
 20
61.8975774349
 30
0.0
 11
107.5086618536
 21
61.8975774349
 31
0.0
  0
ARC
  5
43D
  8
0
  6
CONTINUOUS
 62
     7
 10
107.5086620581
 20
34.8355771812
 30
0.0
 40
0.6250000000000142
 50
90.0
 51
180.0
  0
LINE
  5
43E
  8
0
  6
CONTINUOUS
 62
     7
 10
111.2586619733
 20
34.8355774175
 30
0.0
 11
106.8836619803
 21
34.8355774175
 31
0.0
  0
ARC
  5
43F
  8
0
  6
CONTINUOUS
 62
     7
 10
110.6336620581
 20
34.8355771812
 30
0.0
 40
0.6250000000000071
 50
0.0
 51
90.0
  0
LINE
  5
440
  8
0
  6
CONTINUOUS
 62
     7
 10
110.6336621
 20
35.4605772907
 30
0.0
 11
107.5086618536
 21
35.4605772907
 31
0.0
  0
LINE
  5
441
  8
0
  6
CONTINUOUS
 62
     7
 10
123.5406621972
 20
23.4130782245
 30
0.0
 11
123.5146620176
 21
23.4130782245
 31
0.0
  0
LINE
  5
442
  8
0
  6
CONTINUOUS
 62
     7
 10
104.8206619189
 20
23.4130782245
 30
0.0
 11
104.8466620986
 21
23.4130782245
 31
0.0
  0
LINE
  5
443
  8
0
  6
CONTINUOUS
 62
     7
 10
104.8206619189
 20
65.3200761379
 30
0.0
 11
104.8466620986
 21
65.3200761379
 31
0.0
  0
ARC
  5
444
  8
0
  6
CONTINUOUS
 62
     7
 10
107.5086620581
 20
62.2725771812
 30
0.0
 40
0.6250000000000284
 50
90.0
 51
180.0
  0
LINE
  5
445
  8
0
  6
CONTINUOUS
 62
     7
 10
111.2586619733
 20
62.2725774762
 30
0.0
 11
106.8836619803
 21
62.2725774762
 31
0.0
  0
ARC
  5
446
  8
0
  6
CONTINUOUS
 62
     7
 10
110.6336620581
 20
62.2725771812
 30
0.0
 40
0.625
 50
0.0
 51
90.0
  0
LINE
  5
447
  8
0
  6
CONTINUOUS
 62
     7
 10
110.6336621
 20
62.8975767629
 30
0.0
 11
107.5086618536
 21
62.8975767629
 31
0.0
  0
ARC
  5
448
  8
0
  6
CONTINUOUS
 62
     7
 10
117.7276620581
 20
62.2725771812
 30
0.0
 40
0.6250000000000284
 50
90.0
 51
180.0
  0
LINE
  5
449
  8
0
  6
CONTINUOUS
 62
     7
 10
121.4776621358
 20
62.2725774762
 30
0.0
 11
117.1026621429
 21
62.2725774762
 31
0.0
  0
ARC
  5
44A
  8
0
  6
CONTINUOUS
 62
     7
 10
120.8526620581
 20
62.2725771812
 30
0.0
 40
0.625
 50
0.0
 51
90.0
  0
LINE
  5
44B
  8
0
  6
CONTINUOUS
 62
     7
 10
120.8526622626
 20
62.8975767629
 30
0.0
 11
117.7276620162
 21
62.8975767629
 31
0.0
  0
ARC
  5
44C
  8
0
  6
CONTINUOUS
 62
     7
 10
117.7276620581
 20
61.2725771812
 30
0.0
 40
0.6250000000000284
 50
90.0
 51
180.0
  0
LINE
  5
44D
  8
0
  6
CONTINUOUS
 62
     7
 10
121.4776621358
 20
61.272576975
 30
0.0
 11
117.1026621429
 21
61.272576975
 31
0.0
  0
ARC
  5
44E
  8
0
  6
CONTINUOUS
 62
     7
 10
120.8526620581
 20
61.2725771812
 30
0.0
 40
0.6250000000000071
 50
0.0
 51
90.0
  0
LINE
  5
44F
  8
0
  6
CONTINUOUS
 62
     7
 10
120.8526622626
 20
61.8975774349
 30
0.0
 11
117.7276620162
 21
61.8975774349
 31
0.0
  0
ARC
  5
450
  8
0
  6
CONTINUOUS
 62
     7
 10
117.7276620581
 20
60.2725771812
 30
0.0
 40
0.6250000000000284
 50
90.0
 51
180.0
  0
LINE
  5
451
  8
0
  6
CONTINUOUS
 62
     7
 10
121.4776621358
 20
60.2725776471
 30
0.0
 11
117.1026621429
 21
60.2725776471
 31
0.0
  0
ARC
  5
452
  8
0
  6
CONTINUOUS
 62
     7
 10
120.8526620581
 20
60.2725771812
 30
0.0
 40
0.625
 50
0.0
 51
90.0
  0
LINE
  5
453
  8
0
  6
CONTINUOUS
 62
     7
 10
120.8526622626
 20
60.8975769337
 30
0.0
 11
117.7276620162
 21
60.8975769337
 31
0.0
  0
ARC
  5
454
  8
0
  6
CONTINUOUS
 62
     7
 10
117.7276620581
 20
59.2725771812
 30
0.0
 40
0.6250000000000284
 50
90.0
 51
180.0
  0
LINE
  5
455
  8
0
  6
CONTINUOUS
 62
     7
 10
121.4776621358
 20
59.2725771458
 30
0.0
 11
117.1026621429
 21
59.2725771458
 31
0.0
  0
ARC
  5
456
  8
0
  6
CONTINUOUS
 62
     7
 10
120.8526620581
 20
59.2725771812
 30
0.0
 40
0.625
 50
0.0
 51
90.0
  0
LINE
  5
457
  8
0
  6
CONTINUOUS
 62
     7
 10
120.8526622626
 20
59.8975776058
 30
0.0
 11
117.7276620162
 21
59.8975776058
 31
0.0
  0
ARC
  5
458
  8
0
  6
CONTINUOUS
 62
     7
 10
117.7276620581
 20
58.2725771812
 30
0.0
 40
0.6250000000000284
 50
90.0
 51
180.0
  0
LINE
  5
459
  8
0
  6
CONTINUOUS
 62
     7
 10
121.4776621358
 20
58.2725766446
 30
0.0
 11
117.1026621429
 21
58.2725766446
 31
0.0
  0
ARC
  5
45A
  8
0
  6
CONTINUOUS
 62
     7
 10
120.8526620581
 20
58.2725771812
 30
0.0
 40
0.625
 50
0.0
 51
90.0
  0
LINE
  5
45B
  8
0
  6
CONTINUOUS
 62
     7
 10
120.8526622626
 20
58.8975771045
 30
0.0
 11
117.7276620162
 21
58.8975771045
 31
0.0
  0
ARC
  5
45C
  8
0
  6
CONTINUOUS
 62
     7
 10
117.7276620581
 20
57.2725771812
 30
0.0
 40
0.6250000000000284
 50
90.0
 51
180.0
  0
LINE
  5
45D
  8
0
  6
CONTINUOUS
 62
     7
 10
121.4776621358
 20
57.2725773167
 30
0.0
 11
117.1026621429
 21
57.2725773167
 31
0.0
  0
ARC
  5
45E
  8
0
  6
CONTINUOUS
 62
     7
 10
120.8526620581
 20
57.2725771812
 30
0.0
 40
0.625
 50
0.0
 51
90.0
  0
LINE
  5
45F
  8
0
  6
CONTINUOUS
 62
     7
 10
120.8526622626
 20
57.8975766033
 30
0.0
 11
117.7276620162
 21
57.8975766033
 31
0.0
  0
ARC
  5
460
  8
0
  6
CONTINUOUS
 62
     7
 10
117.7276620581
 20
56.2725771812
 30
0.0
 40
0.6250000000000284
 50
90.0
 51
180.0
  0
LINE
  5
461
  8
0
  6
CONTINUOUS
 62
     7
 10
121.4776621358
 20
56.2725768154
 30
0.0
 11
117.1026621429
 21
56.2725768154
 31
0.0
  0
ARC
  5
462
  8
0
  6
CONTINUOUS
 62
     7
 10
120.8526620581
 20
56.2725771812
 30
0.0
 40
0.625
 50
0.0
 51
90.0
  0
LINE
  5
463
  8
0
  6
CONTINUOUS
 62
     7
 10
120.8526622626
 20
56.8975772754
 30
0.0
 11
117.7276620162
 21
56.8975772754
 31
0.0
  0
ARC
  5
464
  8
0
  6
CONTINUOUS
 62
     7
 10
117.7276620581
 20
55.2725771812
 30
0.0
 40
0.6250000000000284
 50
90.0
 51
180.0
  0
LINE
  5
465
  8
0
  6
CONTINUOUS
 62
     7
 10
121.4776621358
 20
55.2725774875
 30
0.0
 11
117.1026621429
 21
55.2725774875
 31
0.0
  0
ARC
  5
466
  8
0
  6
CONTINUOUS
 62
     7
 10
120.8526620581
 20
55.2725771812
 30
0.0
 40
0.625
 50
0.0
 51
90.0
  0
LINE
  5
467
  8
0
  6
CONTINUOUS
 62
     7
 10
120.8526622626
 20
55.8975767741
 30
0.0
 11
117.7276620162
 21
55.8975767741
 31
0.0
  0
ARC
  5
468
  8
0
  6
CONTINUOUS
 62
     7
 10
117.7276620581
 20
54.2725771812
 30
0.0
 40
0.6250000000000355
 50
90.0
 51
180.0
  0
LINE
  5
469
  8
0
  6
CONTINUOUS
 62
     7
 10
121.4776621358
 20
54.2725769863
 30
0.0
 11
117.1026621429
 21
54.2725769863
 31
0.0
  0
ARC
  5
46A
  8
0
  6
CONTINUOUS
 62
     7
 10
120.8526620581
 20
54.2725771812
 30
0.0
 40
0.625
 50
0.0
 51
90.0
  0
LINE
  5
46B
  8
0
  6
CONTINUOUS
 62
     7
 10
120.8526622626
 20
54.8975774462
 30
0.0
 11
117.7276620162
 21
54.8975774462
 31
0.0
  0
ARC
  5
46C
  8
0
  6
CONTINUOUS
 62
     7
 10
117.7276620581
 20
53.2725771812
 30
0.0
 40
0.6250000000000284
 50
90.0
 51
180.0
  0
LINE
  5
46D
  8
0
  6
CONTINUOUS
 62
     7
 10
121.4776621358
 20
53.2725770717
 30
0.0
 11
117.1026621429
 21
53.2725770717
 31
0.0
  0
ARC
  5
46E
  8
0
  6
CONTINUOUS
 62
     7
 10
120.8526620581
 20
53.2725771812
 30
0.0
 40
0.625
 50
0.0
 51
90.0
  0
LINE
  5
46F
  8
0
  6
CONTINUOUS
 62
     7
 10
120.8526622626
 20
53.897576945
 30
0.0
 11
117.7276620162
 21
53.897576945
 31
0.0
  0
ARC
  5
470
  8
0
  6
CONTINUOUS
 62
     7
 10
107.5086620581
 20
33.8355771812
 30
0.0
 40
0.6250000000000142
 50
90.0
 51
180.0
  0
LINE
  5
471
  8
0
  6
CONTINUOUS
 62
     7
 10
111.2586619733
 20
33.8355769162
 30
0.0
 11
106.8836619803
 21
33.8355769162
 31
0.0
  0
ARC
  5
472
  8
0
  6
CONTINUOUS
 62
     7
 10
110.6336620581
 20
33.8355771812
 30
0.0
 40
0.625
 50
0.0
 51
90.0
  0
LINE
  5
473
  8
0
  6
CONTINUOUS
 62
     7
 10
110.6336621
 20
34.4605773762
 30
0.0
 11
107.5086618536
 21
34.4605773762
 31
0.0
  0
ARC
  5
474
  8
0
  6
CONTINUOUS
 62
     7
 10
107.5086620581
 20
32.8355771812
 30
0.0
 40
0.6250000000000142
 50
90.0
 51
180.0
  0
LINE
  5
475
  8
0
  6
CONTINUOUS
 62
     7
 10
111.2586619733
 20
32.8355775883
 30
0.0
 11
106.8836619803
 21
32.8355775883
 31
0.0
  0
ARC
  5
476
  8
0
  6
CONTINUOUS
 62
     7
 10
110.6336620581
 20
32.8355771812
 30
0.0
 40
0.625
 50
0.0
 51
90.0
  0
LINE
  5
477
  8
0
  6
CONTINUOUS
 62
     7
 10
110.6336621
 20
33.4605768749
 30
0.0
 11
107.5086618536
 21
33.4605768749
 31
0.0
  0
ARC
  5
478
  8
0
  6
CONTINUOUS
 62
     7
 10
107.5086620581
 20
31.8355771812
 30
0.0
 40
0.6250000000000178
 50
90.0
 51
180.0
  0
LINE
  5
479
  8
0
  6
CONTINUOUS
 62
     7
 10
111.2586619733
 20
31.8355770871
 30
0.0
 11
106.8836619803
 21
31.8355770871
 31
0.0
  0
ARC
  5
47A
  8
0
  6
CONTINUOUS
 62
     7
 10
110.6336620581
 20
31.8355771812
 30
0.0
 40
0.6250000000000036
 50
0.0
 51
90.0
  0
LINE
  5
47B
  8
0
  6
CONTINUOUS
 62
     7
 10
110.6336621
 20
32.460577547
 30
0.0
 11
107.5086618536
 21
32.460577547
 31
0.0
  0
ARC
  5
47C
  8
0
  6
CONTINUOUS
 62
     7
 10
107.5086620581
 20
30.8355771812
 30
0.0
 40
0.6250000000000178
 50
90.0
 51
180.0
  0
LINE
  5
47D
  8
0
  6
CONTINUOUS
 62
     7
 10
111.2586619733
 20
30.8355777591
 30
0.0
 11
106.8836619803
 21
30.8355777591
 31
0.0
  0
ARC
  5
47E
  8
0
  6
CONTINUOUS
 62
     7
 10
110.6336620581
 20
30.8355771812
 30
0.0
 40
0.625
 50
0.0
 51
90.0
  0
LINE
  5
47F
  8
0
  6
CONTINUOUS
 62
     7
 10
110.6336621
 20
31.4605770458
 30
0.0
 11
107.5086618536
 21
31.4605770458
 31
0.0
  0
ARC
  5
480
  8
0
  6
CONTINUOUS
 62
     7
 10
107.5086620581
 20
29.8355771812
 30
0.0
 40
0.6250000000000178
 50
90.0
 51
180.0
  0
LINE
  5
481
  8
0
  6
CONTINUOUS
 62
     7
 10
111.2586619733
 20
29.8355772579
 30
0.0
 11
106.8836619803
 21
29.8355772579
 31
0.0
  0
ARC
  5
482
  8
0
  6
CONTINUOUS
 62
     7
 10
110.6336620581
 20
29.8355771812
 30
0.0
 40
0.6250000000000036
 50
0.0
 51
90.0
  0
LINE
  5
483
  8
0
  6
CONTINUOUS
 62
     7
 10
110.6336621
 20
30.4605777178
 30
0.0
 11
107.5086618536
 21
30.4605777178
 31
0.0
  0
ARC
  5
484
  8
0
  6
CONTINUOUS
 62
     7
 10
107.5086620581
 20
28.8355771812
 30
0.0
 40
0.6250000000000142
 50
90.0
 51
180.0
  0
LINE
  5
485
  8
0
  6
CONTINUOUS
 62
     7
 10
111.2586619733
 20
28.8355767567
 30
0.0
 11
106.8836619803
 21
28.8355767567
 31
0.0
  0
ARC
  5
486
  8
0
  6
CONTINUOUS
 62
     7
 10
110.6336620581
 20
28.8355771812
 30
0.0
 40
0.625
 50
0.0
 51
90.0
  0
LINE
  5
487
  8
0
  6
CONTINUOUS
 62
     7
 10
110.6336621
 20
29.4605772166
 30
0.0
 11
107.5086618536
 21
29.4605772166
 31
0.0
  0
ARC
  5
488
  8
0
  6
CONTINUOUS
 62
     7
 10
107.5086620581
 20
27.8355771812
 30
0.0
 40
0.6250000000000178
 50
90.0
 51
180.0
  0
LINE
  5
489
  8
0
  6
CONTINUOUS
 62
     7
 10
111.2586619733
 20
27.8355774287
 30
0.0
 11
106.8836619803
 21
27.8355774287
 31
0.0
  0
ARC
  5
48A
  8
0
  6
CONTINUOUS
 62
     7
 10
110.6336620581
 20
27.8355771812
 30
0.0
 40
0.625
 50
0.0
 51
90.0
  0
LINE
  5
48B
  8
0
  6
CONTINUOUS
 62
     7
 10
110.6336621
 20
28.4605767153
 30
0.0
 11
107.5086618536
 21
28.4605767153
 31
0.0
  0
ARC
  5
48C
  8
0
  6
CONTINUOUS
 62
     7
 10
107.5086620581
 20
26.8355771812
 30
0.0
 40
0.6250000000000142
 50
90.0
 51
180.0
  0
LINE
  5
48D
  8
0
  6
CONTINUOUS
 62
     7
 10
111.2586619733
 20
26.8355769275
 30
0.0
 11
106.8836619803
 21
26.8355769275
 31
0.0
  0
ARC
  5
48E
  8
0
  6
CONTINUOUS
 62
     7
 10
110.6336620581
 20
26.8355771812
 30
0.0
 40
0.625
 50
0.0
 51
90.0
  0
LINE
  5
48F
  8
0
  6
CONTINUOUS
 62
     7
 10
110.6336621
 20
27.4605773874
 30
0.0
 11
107.5086618536
 21
27.4605773874
 31
0.0
  0
ARC
  5
490
  8
0
  6
CONTINUOUS
 62
     7
 10
107.5086620581
 20
25.8355771812
 30
0.0
 40
0.6250000000000178
 50
90.0
 51
180.0
  0
LINE
  5
491
  8
0
  6
CONTINUOUS
 62
     7
 10
111.2586619733
 20
25.8355775996
 30
0.0
 11
106.8836619803
 21
25.8355775996
 31
0.0
  0
ARC
  5
492
  8
0
  6
CONTINUOUS
 62
     7
 10
110.6336620581
 20
25.8355771812
 30
0.0
 40
0.625
 50
0.0
 51
90.0
  0
LINE
  5
493
  8
0
  6
CONTINUOUS
 62
     7
 10
110.6336621
 20
26.4605768862
 30
0.0
 11
107.5086618536
 21
26.4605768862
 31
0.0
  0
LINE
  5
494
  8
0
  6
CONTINUOUS
 62
     7
 10
123.5406621972
 20
65.3200761379
 30
0.0
 11
123.5146620176
 21
65.3200761379
 31
0.0
  0
INSERT
  5
4A3
  8
0
  6
CONTINUOUS
 62
     7
  2
SW_NOTE_8
 10
114.1573375073
 20
25.7297806224
 30
0.0
  0
ARC
  5
4A4
  8
0
  6
CONTINUOUS
 62
     7
 10
68.9116466668
 20
76.5543014281
 30
0.0
 40
0.0939999999999941
 50
147.1951542182
 51
180.0
  0
ARC
  5
4A5
  8
0
  6
CONTINUOUS
 62
     7
 10
69.1916466668
 20
76.5543014281
 30
0.0
 40
0.0940000000000034
 50
0.0
 51
32.7829057558
  0
LINE
  5
4A6
  8
0
  6
CONTINUOUS
 62
     7
 10
69.2856467501
 20
76.4603014512
 30
0.0
 11
69.2856467501
 21
76.5543014519
 31
0.0
  0
LINE
  5
4A7
  8
0
  6
CONTINUOUS
 62
     7
 10
68.8176464498
 20
76.5543014519
 30
0.0
 11
68.8176464498
 21
76.4603014512
 31
0.0
  0
LINE
  5
4A8
  8
0
  6
CONTINUOUS
 62
     7
 10
69.1466464891
 20
76.4283014275
 30
0.0
 11
69.1466464891
 21
76.4603014512
 31
0.0
  0
LINE
  5
4A9
  8
0
  6
CONTINUOUS
 62
     7
 10
68.9566467107
 20
76.4603014512
 30
0.0
 11
68.9566467107
 21
76.4283014275
 31
0.0
  0
ARC
  5
4AA
  8
0
  6
CONTINUOUS
 62
     7
 10
69.3576473589
 20
75.797476878
 30
0.0
 40
0.8327572805799166
 50
203.9595289398
 51
222.0882061718
  0
ARC
  5
4AB
  8
0
  6
CONTINUOUS
 62
     7
 10
68.7456459746
 20
75.797476878
 30
0.0
 40
0.8327572805799166
 50
317.9117938282
 51
336.0404710602
  0
LINE
  5
4AC
  8
0
  6
CONTINUOUS
 62
     7
 10
70.5516464718
 20
76.2993014444
 30
0.0
 11
70.5516464718
 21
76.2093014374
 31
0.0
  0
LINE
  5
4AD
  8
0
  6
CONTINUOUS
 62
     7
 10
70.5516464718
 20
76.2093014374
 30
0.0
 11
70.2396466627
 21
76.2093014374
 31
0.0
  0
LINE
  5
4AE
  8
0
  6
CONTINUOUS
 62
     7
 10
70.2396466627
 20
76.2993014444
 30
0.0
 11
70.5516464718
 21
76.2993014444
 31
0.0
  0
LINE
  5
4AF
  8
0
  6
CONTINUOUS
 62
     7
 10
69.5434292121
 20
76.4243014337
 30
0.0
 11
69.763429604
 21
76.2993014444
 31
0.0
  0
LINE
  5
4B0
  8
0
  6
CONTINUOUS
 62
     7
 10
69.763429604
 20
76.2993014444
 30
0.0
 11
70.2396466627
 21
76.2993014444
 31
0.0
  0
LINE
  5
4B1
  8
0
  6
CONTINUOUS
 62
     7
 10
69.5196466069
 20
76.3343014267
 30
0.0
 11
69.7396464121
 21
76.2093014374
 31
0.0
  0
LINE
  5
4B2
  8
0
  6
CONTINUOUS
 62
     7
 10
69.2440854169
 20
76.3343014267
 30
0.0
 11
69.5196466069
 21
76.3343014267
 31
0.0
  0
LINE
  5
4B3
  8
0
  6
CONTINUOUS
 62
     7
 10
69.0506466381
 20
76.4243014337
 30
0.0
 11
69.5434292121
 21
76.4243014337
 31
0.0
  0
LINE
  5
4B4
  8
0
  6
CONTINUOUS
 62
     7
 10
70.0056468059
 20
76.2093014374
 30
0.0
 11
70.2396466627
 21
76.2093014374
 31
0.0
  0
LINE
  5
4B5
  8
0
  6
CONTINUOUS
 62
     7
 10
68.7386468291
 20
76.3343014267
 30
0.0
 11
68.7386468291
 21
76.4243014337
 31
0.0
  0
LINE
  5
4B6
  8
0
  6
CONTINUOUS
 62
     7
 10
68.7386468291
 20
76.4243014337
 30
0.0
 11
69.0506466381
 21
76.4243014337
 31
0.0
  0
LINE
  5
4B7
  8
0
  6
CONTINUOUS
 62
     7
 10
68.7391466633
 20
76.3343014267
 30
0.0
 11
68.7386468291
 21
76.3343014267
 31
0.0
  0
LINE
  5
4B8
  8
0
  6
CONTINUOUS
 62
     7
 10
69.0746468942
 20
76.6483014527
 30
0.0
 11
69.1861046467
 21
76.6483014527
 31
0.0
  0
ARC
  5
4B9
  8
0
  6
CONTINUOUS
 62
     7
 10
69.1871342561
 20
76.5525003412
 30
0.0
 40
0.0958066441344795
 50
29.3462119381
 51
90.6157548957
  0
LINE
  5
4BA
  8
0
  6
CONTINUOUS
 62
     7
 10
69.2706464434
 20
76.5994538037
 30
0.0
 11
69.2706464434
 21
76.6052425968
 31
0.0
  0
LINE
  5
4BB
  8
0
  6
CONTINUOUS
 62
     7
 10
68.8326467565
 20
76.6052203771
 30
0.0
 11
68.8326467565
 21
76.5994538037
 31
0.0
  0
ARC
  5
4BC
  8
0
  6
CONTINUOUS
 62
     7
 10
68.9165180714
 20
76.5518787904
 30
0.0
 40
0.0964249934089835
 50
89.6015961774
 51
150.4364369888
  0
LINE
  5
4BD
  8
0
  6
CONTINUOUS
 62
     7
 10
68.9171885532
 20
76.6483014527
 30
0.0
 11
69.0286468923
 21
76.6483014527
 31
0.0
  0
LINE
  5
4BE
  8
0
  6
CONTINUOUS
 62
     7
 10
69.0286468923
 20
76.6483014527
 30
0.0
 11
69.0286468923
 21
76.6482715331
 31
0.0
  0
POLYLINE
  5
4BF
  8
0
  6
CONTINUOUS
 62
     7
 66
     1
 10
0.0
 20
0.0
 30
0.0
  0
VERTEX
  5
657
  8
0
  6
CONTINUOUS
 62
     7
 10
69.0286468923
 20
76.6482715331
 30
0.0
  0
VERTEX
  5
658
  8
0
  6
CONTINUOUS
 62
     7
 10
69.0516468933
 20
76.6483001327
 30
0.0
  0
VERTEX
  5
659
  8
0
  6
CONTINUOUS
 62
     7
 10
69.0746468942
 20
76.6482715331
 30
0.0
  0
SEQEND
  5
65A
  8
0
  6
CONTINUOUS
 62
     7
  0
LINE
  5
4C0
  8
0
  6
CONTINUOUS
 62
     7
 10
69.0746468942
 20
76.6482715331
 30
0.0
 11
69.0746468942
 21
76.6483014527
 31
0.0
  0
LINE
  5
4C1
  8
0
  6
CONTINUOUS
 62
     7
 10
68.8176464498
 20
76.4603014512
 30
0.0
 11
69.2856467501
 21
76.4603014512
 31
0.0
  0
LINE
  5
4C2
  8
0
  6
CONTINUOUS
 62
     7
 10
69.223646773
 20
76.4283014275
 30
0.0
 11
69.223646773
 21
76.4243014337
 31
0.0
  0
LINE
  5
4C3
  8
0
  6
CONTINUOUS
 62
     7
 10
68.8796464269
 20
76.4283014275
 30
0.0
 11
69.223646773
 21
76.4283014275
 31
0.0
  0
LINE
  5
4C4
  8
0
  6
CONTINUOUS
 62
     7
 10
68.8796464269
 20
76.4283014275
 30
0.0
 11
68.8796464269
 21
76.4243014337
 31
0.0
  0
LINE
  5
4C5
  8
0
  6
CONTINUOUS
 62
     7
 10
69.3636467023
 20
75.2393014213
 30
0.0
 11
68.7396464975
 21
75.2393014213
 31
0.0
  0
LINE
  5
4C6
  8
0
  6
CONTINUOUS
 62
     7
 10
68.7391466633
 20
76.3343014267
 30
0.0
 11
68.7391466633
 21
76.2093014374
 31
0.0
  0
LINE
  5
4C7
  8
0
  6
CONTINUOUS
 62
     7
 10
68.7391466633
 20
76.3343014267
 30
0.0
 11
69.2440854169
 21
76.3343014267
 31
0.0
  0
LINE
  5
4C8
  8
0
  6
CONTINUOUS
 62
     7
 10
69.3641465366
 20
76.3343014267
 30
0.0
 11
69.3641465366
 21
76.2093014374
 31
0.0
  0
ARC
  5
4C9
  8
0
  6
CONTINUOUS
 62
     7
 10
51.0661466668
 20
75.2238014281
 30
0.0
 40
0.1734999999999971
 50
90.0
 51
0.0
  0
ARC
  5
4CA
  8
0
  6
CONTINUOUS
 62
     7
 10
51.0661466668
 20
75.2238014281
 30
0.0
 40
0.17349999999999
 50
62.3559682225
 51
90.0
  0
ARC
  5
4CB
  8
0
  6
CONTINUOUS
 62
     7
 10
51.0661466668
 20
75.2238014281
 30
0.0
 40
0.1735
 50
56.6033259913
 51
62.3559682225
  0
ARC
  5
4CC
  8
0
  6
CONTINUOUS
 62
     7
 10
51.0661466668
 20
75.2238014281
 30
0.0
 40
0.1735
 50
0.0
 51
56.6033259913
  0
LINE
  5
4CD
  8
0
  6
CONTINUOUS
 62
     7
 10
51.2396465257
 20
76.194301424
 30
0.0
 11
51.2396465257
 21
76.1633014355
 31
0.0
  0
LINE
  5
4CE
  8
0
  6
CONTINUOUS
 62
     7
 10
51.2396465257
 20
75.5053014301
 30
0.0
 11
51.2396465257
 21
75.223801427
 31
0.0
  0
LINE
  5
4CF
  8
0
  6
CONTINUOUS
 62
     7
 10
51.1616465734
 20
75.3686530795
 30
0.0
 11
51.1616465734
 21
76.194301424
 31
0.0
  0
LINE
  5
4D0
  8
0
  6
CONTINUOUS
 62
     7
 10
51.1616465734
 20
76.194301424
 30
0.0
 11
51.2396465257
 21
76.194301424
 31
0.0
  0
LINE
  5
4D1
  8
0
  6
CONTINUOUS
 62
     7
 10
51.1466468533
 20
75.3973014281
 30
0.0
 11
51.1466468533
 21
75.3774959323
 31
0.0
  0
LINE
  5
4D2
  8
0
  6
CONTINUOUS
 62
     7
 10
51.0661465566
 20
75.3973014281
 30
0.0
 11
51.1466468533
 21
75.3973014281
 31
0.0
  0
LINE
  5
4D3
  8
0
  6
CONTINUOUS
 62
     7
 10
69.9796466263
 20
76.1633014355
 30
0.0
 11
69.9796466263
 21
75.5053014301
 31
0.0
  0
LINE
  5
4D4
  8
0
  6
CONTINUOUS
 62
     7
 10
51.3116467073
 20
76.1633014355
 30
0.0
 11
51.3116467073
 21
75.5053014301
 31
0.0
  0
LINE
  5
4D5
  8
0
  6
CONTINUOUS
 62
     7
 10
51.3116467073
 20
76.2093014374
 30
0.0
 11
51.3116467073
 21
76.1633014355
 31
0.0
  0
LINE
  5
4D6
  8
0
  6
CONTINUOUS
 62
     7
 10
51.3116467073
 20
76.2093014374
 30
0.0
 11
69.9796466263
 21
76.2093014374
 31
0.0
  0
LINE
  5
4D7
  8
0
  6
CONTINUOUS
 62
     7
 10
69.9796466263
 20
76.2093014374
 30
0.0
 11
69.9796466263
 21
76.1633014355
 31
0.0
  0
LINE
  5
4D8
  8
0
  6
CONTINUOUS
 62
     7
 10
69.9796466263
 20
75.4593014281
 30
0.0
 11
51.3116467073
 21
75.4593014281
 31
0.0
  0
LINE
  5
4D9
  8
0
  6
CONTINUOUS
 62
     7
 10
69.9796466263
 20
75.5053014301
 30
0.0
 11
69.9796466263
 21
75.4713161367
 31
0.0
  0
LINE
  5
4DA
  8
0
  6
CONTINUOUS
 62
     7
 10
51.3116467073
 20
75.5053014301
 30
0.0
 11
51.3116467073
 21
75.4713161367
 31
0.0
  0
LINE
  5
4DB
  8
0
  6
CONTINUOUS
 62
     7
 10
70.020646526
 20
75.5053014301
 30
0.0
 11
70.020646526
 21
76.1633014355
 31
0.0
  0
LINE
  5
4DC
  8
0
  6
CONTINUOUS
 62
     7
 10
70.0516468078
 20
75.5053014301
 30
0.0
 11
70.0516468078
 21
76.1633014355
 31
0.0
  0
LINE
  5
4DD
  8
0
  6
CONTINUOUS
 62
     7
 10
70.0516468078
 20
76.1633014355
 30
0.0
 11
70.020646526
 21
76.1633014355
 31
0.0
  0
LINE
  5
4DE
  8
0
  6
CONTINUOUS
 62
     7
 10
51.2396465257
 20
76.1633014355
 30
0.0
 11
51.2706468076
 21
76.1633014355
 31
0.0
  0
LINE
  5
4DF
  8
0
  6
CONTINUOUS
 62
     7
 10
51.2396465257
 20
75.5053014301
 30
0.0
 11
51.2396465257
 21
76.1633014355
 31
0.0
  0
LINE
  5
4E0
  8
0
  6
CONTINUOUS
 62
     7
 10
51.2706468076
 20
75.5053014301
 30
0.0
 11
51.2706468076
 21
76.1633014355
 31
0.0
  0
ARC
  5
4E1
  8
0
  6
CONTINUOUS
 62
     7
 10
51.2856466668
 20
75.5053014281
 30
0.0
 40
0.0150000000000006
 50
180.0
 51
270.0
  0
ARC
  5
4E2
  8
0
  6
CONTINUOUS
 62
     7
 10
51.2856466668
 20
75.5053014281
 30
0.0
 40
0.0460000000000065
 50
180.0
 51
270.0
  0
LINE
  5
4E3
  8
0
  6
CONTINUOUS
 62
     7
 10
51.3116467073
 20
75.4713161367
 30
0.0
 11
51.3116467073
 21
75.4593014281
 31
0.0
  0
LINE
  5
4E4
  8
0
  6
CONTINUOUS
 62
     7
 10
51.2856465276
 20
75.4593014281
 30
0.0
 11
51.3116467073
 21
75.4593014281
 31
0.0
  0
LINE
  5
4E5
  8
0
  6
CONTINUOUS
 62
     7
 10
51.2856465276
 20
75.4903014282
 30
0.0
 11
51.3116467073
 21
75.4903014282
 31
0.0
  0
ARC
  5
4E6
  8
0
  6
CONTINUOUS
 62
     7
 10
70.0056466668
 20
75.5053014281
 30
0.0
 40
0.0150000000000006
 50
270.0
 51
0.0
  0
ARC
  5
4E7
  8
0
  6
CONTINUOUS
 62
     7
 10
70.0056466668
 20
75.5053014281
 30
0.0
 40
0.0460000000000065
 50
270.0
 51
0.0
  0
LINE
  5
4E8
  8
0
  6
CONTINUOUS
 62
     7
 10
69.9796466263
 20
75.4713161367
 30
0.0
 11
69.9796466263
 21
75.4593014281
 31
0.0
  0
LINE
  5
4E9
  8
0
  6
CONTINUOUS
 62
     7
 10
70.0056468059
 20
75.4593014281
 30
0.0
 11
69.9796466263
 21
75.4593014281
 31
0.0
  0
LINE
  5
4EA
  8
0
  6
CONTINUOUS
 62
     7
 10
70.0056468059
 20
75.4903014282
 30
0.0
 11
69.9796466263
 21
75.4903014282
 31
0.0
  0
ARC
  5
4EB
  8
0
  6
CONTINUOUS
 62
     7
 10
51.2856468903
 20
76.1633010728
 30
0.0
 40
0.0460003645879054
 50
90.0004516978
 51
179.9995483022
  0
LINE
  5
4EC
  8
0
  6
CONTINUOUS
 62
     7
 10
51.2856465276
 20
76.1783014489
 30
0.0
 11
51.2856465276
 21
76.2093014374
 31
0.0
  0
ARC
  5
4ED
  8
0
  6
CONTINUOUS
 62
     7
 10
51.2856468081
 20
76.1633014484
 30
0.0
 40
0.0150000005107884
 50
90.001071261
 51
180.0000491868
  0
LINE
  5
4EE
  8
0
  6
CONTINUOUS
 62
     7
 10
70.0056468059
 20
76.1783014489
 30
0.0
 11
70.0056468059
 21
76.2093014374
 31
0.0
  0
ARC
  5
4EF
  8
0
  6
CONTINUOUS
 62
     7
 10
70.0056465254
 20
76.1633014484
 30
0.0
 40
0.0150000005107599
 50
359.9999508131
 51
89.998928739
  0
ARC
  5
4F0
  8
0
  6
CONTINUOUS
 62
     7
 10
70.0056464433
 20
76.1633010728
 30
0.0
 40
0.0460003645878912
 50
0.0004516978
 51
89.9995483022
  0
LINE
  5
4F1
  8
0
  6
CONTINUOUS
 62
     7
 10
51.2856465276
 20
76.1783014489
 30
0.0
 11
51.3116467073
 21
76.1783014489
 31
0.0
  0
LINE
  5
4F2
  8
0
  6
CONTINUOUS
 62
     7
 10
51.2856465276
 20
76.2093014374
 30
0.0
 11
51.3116467073
 21
76.2093014374
 31
0.0
  0
LINE
  5
4F3
  8
0
  6
CONTINUOUS
 62
     7
 10
70.0056468059
 20
76.1783014489
 30
0.0
 11
69.9796466263
 21
76.1783014489
 31
0.0
  0
LINE
  5
4F4
  8
0
  6
CONTINUOUS
 62
     7
 10
70.0056468059
 20
76.2093014374
 30
0.0
 11
69.9796466263
 21
76.2093014374
 31
0.0
  0
LINE
  5
4F5
  8
0
  6
CONTINUOUS
 62
     7
 10
53.6616466532
 20
75.1473014357
 30
0.0
 11
53.9736464623
 21
75.1473014357
 31
0.0
  0
ARC
  5
4F6
  8
0
  6
CONTINUOUS
 62
     7
 10
53.6616466668
 20
75.4913030307
 30
0.0
 40
0.3440016025641112
 50
185.3377999904
 51
270.0
  0
LINE
  5
4F7
  8
0
  6
CONTINUOUS
 62
     7
 10
53.9736464623
 20
75.1473014357
 30
0.0
 11
57.0986467087
 21
75.1473014357
 31
0.0
  0
LINE
  5
4F8
  8
0
  6
CONTINUOUS
 62
     7
 10
64.1926466248
 20
75.1473014357
 30
0.0
 11
67.3176468712
 21
75.1473014357
 31
0.0
  0
LINE
  5
4F9
  8
0
  6
CONTINUOUS
 62
     7
 10
63.8806465224
 20
75.1473014357
 30
0.0
 11
64.1926466248
 21
75.1473014357
 31
0.0
  0
ARC
  5
4FA
  8
0
  6
CONTINUOUS
 62
     7
 10
63.8806466668
 20
75.4913030307
 30
0.0
 40
0.3440016025641057
 50
185.3377999904
 51
270.0
  0
LINE
  5
4FB
  8
0
  6
CONTINUOUS
 62
     7
 10
57.4106468111
 20
75.1473014357
 30
0.0
 11
57.0986467087
 21
75.1473014357
 31
0.0
  0
ARC
  5
4FC
  8
0
  6
CONTINUOUS
 62
     7
 10
57.4106466668
 20
75.4913030307
 30
0.0
 40
0.3440016025641057
 50
270.0
 51
354.6622000096
  0
LINE
  5
4FD
  8
0
  6
CONTINUOUS
 62
     7
 10
67.6296466803
 20
75.1473014357
 30
0.0
 11
67.3176468712
 21
75.1473014357
 31
0.0
  0
ARC
  5
4FE
  8
0
  6
CONTINUOUS
 62
     7
 10
67.6296466668
 20
75.4913030307
 30
0.0
 40
0.3440016025641057
 50
270.0
 51
354.6622000096
  0
LINE
  5
4FF
  8
0
  6
CONTINUOUS
 62
     7
 10
40.536244955
 20
59.7880775374
 30
0.0
 11
40.536244955
 21
61.2880777026
 31
0.0
  0
POLYLINE
  5
500
  8
0
  6
CONTINUOUS
 62
     7
 66
     1
 10
0.0
 20
0.0
 30
0.0
  0
VERTEX
  5
65B
  8
0
  6
CONTINUOUS
 62
     7
 10
40.3627449676
 20
59.5070768369
 30
0.0
  0
VERTEX
  5
65C
  8
0
  6
CONTINUOUS
 62
     7
 10
40.3965931349
 20
59.5124764545
 30
0.0
  0
VERTEX
  5
65D
  8
0
  6
CONTINUOUS
 62
     7
 10
40.4291405489
 20
59.5284664564
 30
0.0
  0
VERTEX
  5
65E
  8
0
  6
CONTINUOUS
 62
     7
 10
40.4591363957
 20
59.5544343698
 30
0.0
  0
VERTEX
  5
65F
  8
0
  6
CONTINUOUS
 62
     7
 10
40.4854279987
 20
59.5893805261
 30
0.0
  0
VERTEX
  5
660
  8
0
  6
CONTINUOUS
 62
     7
 10
40.5070049461
 20
59.6319614742
 30
0.0
  0
VERTEX
  5
661
  8
0
  6
CONTINUOUS
 62
     7
 10
40.5230380675
 20
59.6805427796
 30
0.0
  0
VERTEX
  5
662
  8
0
  6
CONTINUOUS
 62
     7
 10
40.5329112235
 20
59.7332565174
 30
0.0
  0
VERTEX
  5
663
  8
0
  6
CONTINUOUS
 62
     7
 10
40.536244955
 20
59.7880775374
 30
0.0
  0
SEQEND
  5
664
  8
0
  6
CONTINUOUS
 62
     7
  0
POLYLINE
  5
501
  8
0
  6
CONTINUOUS
 62
     7
 66
     1
 10
0.0
 20
0.0
 30
0.0
  0
VERTEX
  5
665
  8
0
  6
CONTINUOUS
 62
     7
 10
40.1892449665
 20
59.7880775374
 30
0.0
  0
VERTEX
  5
666
  8
0
  6
CONTINUOUS
 62
     7
 10
40.1925787209
 20
59.7332565174
 30
0.0
  0
VERTEX
  5
667
  8
0
  6
CONTINUOUS
 62
     7
 10
40.2024518676
 20
59.6805427796
 30
0.0
  0
VERTEX
  5
668
  8
0
  6
CONTINUOUS
 62
     7
 10
40.2184849891
 20
59.6319614742
 30
0.0
  0
VERTEX
  5
669
  8
0
  6
CONTINUOUS
 62
     7
 10
40.2400619365
 20
59.5893805261
 30
0.0
  0
VERTEX
  5
66A
  8
0
  6
CONTINUOUS
 62
     7
 10
40.2663535303
 20
59.5544343698
 30
0.0
  0
VERTEX
  5
66B
  8
0
  6
CONTINUOUS
 62
     7
 10
40.2963493863
 20
59.5284664564
 30
0.0
  0
VERTEX
  5
66C
  8
0
  6
CONTINUOUS
 62
     7
 10
40.3288968003
 20
59.5124764545
 30
0.0
  0
VERTEX
  5
66D
  8
0
  6
CONTINUOUS
 62
     7
 10
40.3627449676
 20
59.5070768369
 30
0.0
  0
SEQEND
  5
66E
  8
0
  6
CONTINUOUS
 62
     7
  0
LINE
  5
502
  8
0
  6
CONTINUOUS
 62
     7
 10
40.536244955
 20
25.0700767894
 30
0.0
 11
40.536244955
 21
26.5700769546
 31
0.0
  0
POLYLINE
  5
503
  8
0
  6
CONTINUOUS
 62
     7
 66
     1
 10
0.0
 20
0.0
 30
0.0
  0
VERTEX
  5
66F
  8
0
  6
CONTINUOUS
 62
     7
 10
40.3627449676
 20
24.7890772622
 30
0.0
  0
VERTEX
  5
670
  8
0
  6
CONTINUOUS
 62
     7
 10
40.3965931349
 20
24.7944768798
 30
0.0
  0
VERTEX
  5
671
  8
0
  6
CONTINUOUS
 62
     7
 10
40.4291405489
 20
24.8104668817
 30
0.0
  0
VERTEX
  5
672
  8
0
  6
CONTINUOUS
 62
     7
 10
40.4591363957
 20
24.8364347951
 30
0.0
  0
VERTEX
  5
673
  8
0
  6
CONTINUOUS
 62
     7
 10
40.4854279987
 20
24.8713797781
 30
0.0
  0
VERTEX
  5
674
  8
0
  6
CONTINUOUS
 62
     7
 10
40.5070049461
 20
24.9139618995
 30
0.0
  0
VERTEX
  5
675
  8
0
  6
CONTINUOUS
 62
     7
 10
40.5230380675
 20
24.9625432049
 30
0.0
  0
VERTEX
  5
676
  8
0
  6
CONTINUOUS
 62
     7
 10
40.5329112235
 20
25.0152569426
 30
0.0
  0
VERTEX
  5
677
  8
0
  6
CONTINUOUS
 62
     7
 10
40.536244955
 20
25.0700767894
 30
0.0
  0
SEQEND
  5
678
  8
0
  6
CONTINUOUS
 62
     7
  0
POLYLINE
  5
504
  8
0
  6
CONTINUOUS
 62
     7
 66
     1
 10
0.0
 20
0.0
 30
0.0
  0
VERTEX
  5
679
  8
0
  6
CONTINUOUS
 62
     7
 10
40.1892449665
 20
25.0700767894
 30
0.0
  0
VERTEX
  5
67A
  8
0
  6
CONTINUOUS
 62
     7
 10
40.1925787209
 20
25.0152569426
 30
0.0
  0
VERTEX
  5
67B
  8
0
  6
CONTINUOUS
 62
     7
 10
40.2024518676
 20
24.9625432049
 30
0.0
  0
VERTEX
  5
67C
  8
0
  6
CONTINUOUS
 62
     7
 10
40.2184849891
 20
24.9139618995
 30
0.0
  0
VERTEX
  5
67D
  8
0
  6
CONTINUOUS
 62
     7
 10
40.2400619365
 20
24.8713797781
 30
0.0
  0
VERTEX
  5
67E
  8
0
  6
CONTINUOUS
 62
     7
 10
40.2663535303
 20
24.8364347951
 30
0.0
  0
VERTEX
  5
67F
  8
0
  6
CONTINUOUS
 62
     7
 10
40.2963493863
 20
24.8104668817
 30
0.0
  0
VERTEX
  5
680
  8
0
  6
CONTINUOUS
 62
     7
 10
40.3288968003
 20
24.7944768798
 30
0.0
  0
VERTEX
  5
681
  8
0
  6
CONTINUOUS
 62
     7
 10
40.3627449676
 20
24.7890772622
 30
0.0
  0
SEQEND
  5
682
  8
0
  6
CONTINUOUS
 62
     7
  0
ARC
  5
505
  8
0
  6
CONTINUOUS
 62
     7
 10
39.0322449664
 20
44.2265771812
 30
0.0
 40
0.0940000000000012
 50
180.0
 51
270.0
  0
ARC
  5
506
  8
0
  6
CONTINUOUS
 62
     7
 10
39.0322449664
 20
44.5065771812
 30
0.0
 40
0.0940000000000012
 50
90.0
 51
180.0
  0
LINE
  5
507
  8
0
  6
CONTINUOUS
 62
     7
 10
39.1262449434
 20
44.6005771847
 30
0.0
 11
39.0322449426
 21
44.6005771847
 31
0.0
  0
LINE
  5
508
  8
0
  6
CONTINUOUS
 62
     7
 10
39.0322449426
 20
44.1325771777
 30
0.0
 11
39.1262449434
 21
44.1325771777
 31
0.0
  0
LINE
  5
509
  8
0
  6
CONTINUOUS
 62
     7
 10
39.1582449671
 20
44.4615771804
 30
0.0
 11
39.1262449434
 21
44.4615771804
 31
0.0
  0
LINE
  5
50A
  8
0
  6
CONTINUOUS
 62
     7
 10
39.1262449434
 20
44.271577182
 30
0.0
 11
39.1582449671
 21
44.271577182
 31
0.0
  0
ARC
  5
50B
  8
0
  6
CONTINUOUS
 62
     7
 10
39.7890695165
 20
44.6725778734
 30
0.0
 40
0.8327572805799179
 50
293.9595289398
 51
312.0882061718
  0
ARC
  5
50C
  8
0
  6
CONTINUOUS
 62
     7
 10
39.7890695165
 20
44.0605764891
 30
0.0
 40
0.8327572805799179
 50
47.9117938282
 51
66.0404710602
  0
LINE
  5
50D
  8
0
  6
CONTINUOUS
 62
     7
 10
39.3772449572
 20
44.7335771983
 30
0.0
 11
39.2522449679
 21
44.7335771983
 31
0.0
  0
LINE
  5
50E
  8
0
  6
CONTINUOUS
 62
     7
 10
39.2522449679
 20
43.9995771642
 30
0.0
 11
39.3772449572
 21
43.9995771642
 31
0.0
  0
LINE
  5
50F
  8
0
  6
CONTINUOUS
 62
     7
 10
40.536244955
 20
61.2880777026
 30
0.0
 11
40.536244955
 21
62.7880766945
 31
0.0
  0
POLYLINE
  5
510
  8
0
  6
CONTINUOUS
 62
     7
 66
     1
 10
0.0
 20
0.0
 30
0.0
  0
VERTEX
  5
683
  8
0
  6
CONTINUOUS
 62
     7
 10
40.3627449676
 20
63.069077395
 30
0.0
  0
VERTEX
  5
684
  8
0
  6
CONTINUOUS
 62
     7
 10
40.3288968003
 20
63.0636777774
 30
0.0
  0
VERTEX
  5
685
  8
0
  6
CONTINUOUS
 62
     7
 10
40.2963493863
 20
63.0476877754
 30
0.0
  0
VERTEX
  5
686
  8
0
  6
CONTINUOUS
 62
     7
 10
40.2663535303
 20
63.0217198621
 30
0.0
  0
VERTEX
  5
687
  8
0
  6
CONTINUOUS
 62
     7
 10
40.2400619365
 20
62.9867737058
 30
0.0
  0
VERTEX
  5
688
  8
0
  6
CONTINUOUS
 62
     7
 10
40.2184849891
 20
62.9441927577
 30
0.0
  0
VERTEX
  5
689
  8
0
  6
CONTINUOUS
 62
     7
 10
40.2024518676
 20
62.8956114522
 30
0.0
  0
VERTEX
  5
68A
  8
0
  6
CONTINUOUS
 62
     7
 10
40.1925787209
 20
62.8428977145
 30
0.0
  0
VERTEX
  5
68B
  8
0
  6
CONTINUOUS
 62
     7
 10
40.1892449665
 20
62.7880766945
 30
0.0
  0
SEQEND
  5
68C
  8
0
  6
CONTINUOUS
 62
     7
  0
POLYLINE
  5
511
  8
0
  6
CONTINUOUS
 62
     7
 66
     1
 10
0.0
 20
0.0
 30
0.0
  0
VERTEX
  5
68D
  8
0
  6
CONTINUOUS
 62
     7
 10
40.536244955
 20
62.7880766945
 30
0.0
  0
VERTEX
  5
68E
  8
0
  6
CONTINUOUS
 62
     7
 10
40.5329112235
 20
62.8428977145
 30
0.0
  0
VERTEX
  5
68F
  8
0
  6
CONTINUOUS
 62
     7
 10
40.5230380675
 20
62.8956114522
 30
0.0
  0
VERTEX
  5
690
  8
0
  6
CONTINUOUS
 62
     7
 10
40.5070049461
 20
62.9441927577
 30
0.0
  0
VERTEX
  5
691
  8
0
  6
CONTINUOUS
 62
     7
 10
40.4854279987
 20
62.9867737058
 30
0.0
  0
VERTEX
  5
692
  8
0
  6
CONTINUOUS
 62
     7
 10
40.4591363957
 20
63.0217198621
 30
0.0
  0
VERTEX
  5
693
  8
0
  6
CONTINUOUS
 62
     7
 10
40.4291405489
 20
63.0476877754
 30
0.0
  0
VERTEX
  5
694
  8
0
  6
CONTINUOUS
 62
     7
 10
40.3965931349
 20
63.0636777774
 30
0.0
  0
VERTEX
  5
695
  8
0
  6
CONTINUOUS
 62
     7
 10
40.3627449676
 20
63.069077395
 30
0.0
  0
SEQEND
  5
696
  8
0
  6
CONTINUOUS
 62
     7
  0
LINE
  5
512
  8
0
  6
CONTINUOUS
 62
     7
 10
40.536244955
 20
26.5700769546
 30
0.0
 11
40.536244955
 21
28.0700771198
 31
0.0
  0
POLYLINE
  5
513
  8
0
  6
CONTINUOUS
 62
     7
 66
     1
 10
0.0
 20
0.0
 30
0.0
  0
VERTEX
  5
697
  8
0
  6
CONTINUOUS
 62
     7
 10
40.3627449676
 20
28.351076647
 30
0.0
  0
VERTEX
  5
698
  8
0
  6
CONTINUOUS
 62
     7
 10
40.3288968003
 20
28.3456782027
 30
0.0
  0
VERTEX
  5
699
  8
0
  6
CONTINUOUS
 62
     7
 10
40.2963493863
 20
28.3296870274
 30
0.0
  0
VERTEX
  5
69A
  8
0
  6
CONTINUOUS
 62
     7
 10
40.2663535303
 20
28.3037202874
 30
0.0
  0
VERTEX
  5
69B
  8
0
  6
CONTINUOUS
 62
     7
 10
40.2400619365
 20
28.2687741311
 30
0.0
  0
VERTEX
  5
69C
  8
0
  6
CONTINUOUS
 62
     7
 10
40.2184849891
 20
28.2261920096
 30
0.0
  0
VERTEX
  5
69D
  8
0
  6
CONTINUOUS
 62
     7
 10
40.2024518676
 20
28.1776107042
 30
0.0
  0
VERTEX
  5
69E
  8
0
  6
CONTINUOUS
 62
     7
 10
40.1925787209
 20
28.1248981398
 30
0.0
  0
VERTEX
  5
69F
  8
0
  6
CONTINUOUS
 62
     7
 10
40.1892449665
 20
28.0700771198
 30
0.0
  0
SEQEND
  5
6A0
  8
0
  6
CONTINUOUS
 62
     7
  0
POLYLINE
  5
514
  8
0
  6
CONTINUOUS
 62
     7
 66
     1
 10
0.0
 20
0.0
 30
0.0
  0
VERTEX
  5
6A1
  8
0
  6
CONTINUOUS
 62
     7
 10
40.536244955
 20
28.0700771198
 30
0.0
  0
VERTEX
  5
6A2
  8
0
  6
CONTINUOUS
 62
     7
 10
40.5329112235
 20
28.1248981398
 30
0.0
  0
VERTEX
  5
6A3
  8
0
  6
CONTINUOUS
 62
     7
 10
40.5230380675
 20
28.1776107042
 30
0.0
  0
VERTEX
  5
6A4
  8
0
  6
CONTINUOUS
 62
     7
 10
40.5070049461
 20
28.2261920096
 30
0.0
  0
VERTEX
  5
6A5
  8
0
  6
CONTINUOUS
 62
     7
 10
40.4854279987
 20
28.2687741311
 30
0.0
  0
VERTEX
  5
6A6
  8
0
  6
CONTINUOUS
 62
     7
 10
40.4591363957
 20
28.3037202874
 30
0.0
  0
VERTEX
  5
6A7
  8
0
  6
CONTINUOUS
 62
     7
 10
40.4291405489
 20
28.3296870274
 30
0.0
  0
VERTEX
  5
6A8
  8
0
  6
CONTINUOUS
 62
     7
 10
40.3965931349
 20
28.3456782027
 30
0.0
  0
VERTEX
  5
6A9
  8
0
  6
CONTINUOUS
 62
     7
 10
40.3627449676
 20
28.351076647
 30
0.0
  0
SEQEND
  5
6AA
  8
0
  6
CONTINUOUS
 62
     7
  0
LINE
  5
515
  8
0
  6
CONTINUOUS
 62
     7
 10
40.1892449665
 20
59.7880775374
 30
0.0
 11
40.1892449665
 21
61.2880777026
 31
0.0
  0
LINE
  5
516
  8
0
  6
CONTINUOUS
 62
     7
 10
40.1892449665
 20
61.2880777026
 30
0.0
 11
40.536244955
 21
61.2880777026
 31
0.0
  0
LINE
  5
517
  8
0
  6
CONTINUOUS
 62
     7
 10
40.1892449665
 20
59.7880775374
 30
0.0
 11
39.3922449706
 21
59.7880775374
 31
0.0
  0
CIRCLE
  5
518
  8
0
  6
CONTINUOUS
 62
     7
 10
39.7672449664
 20
60.1940771812
 30
0.0
 40
0.140500000000003
  0
CIRCLE
  5
519
  8
0
  6
CONTINUOUS
 62
     7
 10
39.7672449664
 20
60.8820771812
 30
0.0
 40
0.140500000000003
  0
LINE
  5
51A
  8
0
  6
CONTINUOUS
 62
     7
 10
39.3922449706
 20
59.7880775374
 30
0.0
 11
39.3922449706
 21
61.2260771388
 31
0.0
  0
LINE
  5
51B
  8
0
  6
CONTINUOUS
 62
     7
 10
39.3922449706
 20
61.2260771388
 30
0.0
 11
40.1892449665
 21
61.2260771388
 31
0.0
  0
LINE
  5
51C
  8
0
  6
CONTINUOUS
 62
     7
 10
40.1892449665
 20
25.0700767894
 30
0.0
 11
40.1892449665
 21
26.5700769546
 31
0.0
  0
LINE
  5
51D
  8
0
  6
CONTINUOUS
 62
     7
 10
40.1892449665
 20
26.5700769546
 30
0.0
 11
40.536244955
 21
26.5700769546
 31
0.0
  0
LINE
  5
51E
  8
0
  6
CONTINUOUS
 62
     7
 10
40.1892449665
 20
25.0700767894
 30
0.0
 11
39.3922449706
 21
25.0700767894
 31
0.0
  0
LINE
  5
51F
  8
0
  6
CONTINUOUS
 62
     7
 10
39.3922449706
 20
25.0700767894
 30
0.0
 11
39.3922449706
 21
26.5080775641
 31
0.0
  0
LINE
  5
520
  8
0
  6
CONTINUOUS
 62
     7
 10
39.3922449706
 20
26.5080775641
 30
0.0
 11
40.1892449665
 21
26.5080775641
 31
0.0
  0
CIRCLE
  5
521
  8
0
  6
CONTINUOUS
 62
     7
 10
39.7672449664
 20
25.4760771812
 30
0.0
 40
0.1404999999999959
  0
CIRCLE
  5
522
  8
0
  6
CONTINUOUS
 62
     7
 10
39.7672449664
 20
26.1640771812
 30
0.0
 40
0.140500000000003
  0
LINE
  5
523
  8
0
  6
CONTINUOUS
 62
     7
 10
39.2522449679
 20
44.0540771712
 30
0.0
 11
39.1622449609
 21
44.0540771712
 31
0.0
  0
LINE
  5
524
  8
0
  6
CONTINUOUS
 62
     7
 10
39.2522449679
 20
44.3660771812
 30
0.0
 11
39.2522449679
 21
44.3484207371
 31
0.0
  0
LINE
  5
525
  8
0
  6
CONTINUOUS
 62
     7
 10
39.1622449609
 20
44.0540771712
 30
0.0
 11
39.1622449609
 21
44.3660771812
 31
0.0
  0
LINE
  5
526
  8
0
  6
CONTINUOUS
 62
     7
 10
39.2522449679
 20
44.3670771812
 30
0.0
 11
39.2522449679
 21
44.3660771812
 31
0.0
  0
LINE
  5
527
  8
0
  6
CONTINUOUS
 62
     7
 10
39.1622449609
 20
44.3670771812
 30
0.0
 11
39.1622449609
 21
44.3660771812
 31
0.0
  0
LINE
  5
528
  8
0
  6
CONTINUOUS
 62
     7
 10
39.1622449609
 20
44.6790771912
 30
0.0
 11
39.2522449679
 21
44.6790771912
 31
0.0
  0
LINE
  5
529
  8
0
  6
CONTINUOUS
 62
     7
 10
39.2522449679
 20
44.3847336253
 30
0.0
 11
39.2522449679
 21
44.3670771812
 31
0.0
  0
LINE
  5
52A
  8
0
  6
CONTINUOUS
 62
     7
 10
39.1622449609
 20
44.3670771812
 30
0.0
 11
39.1622449609
 21
44.6790771912
 31
0.0
  0
LINE
  5
52B
  8
0
  6
CONTINUOUS
 62
     7
 10
38.9382748615
 20
44.2260771793
 30
0.0
 11
38.9382449419
 21
44.2284793865
 31
0.0
  0
LINE
  5
52C
  8
0
  6
CONTINUOUS
 62
     7
 10
38.9382449419
 20
44.2284793865
 30
0.0
 11
38.9382449419
 21
44.3275771822
 31
0.0
  0
LINE
  5
52D
  8
0
  6
CONTINUOUS
 62
     7
 10
38.9382449419
 20
44.3275771822
 30
0.0
 11
38.9870925909
 21
44.3275771822
 31
0.0
  0
ARC
  5
52E
  8
0
  6
CONTINUOUS
 62
     7
 10
39.1150319209
 20
44.3665771812
 30
0.0
 40
0.1337515311916689
 50
163.0471021434
 51
196.9528978566
  0
LINE
  5
52F
  8
0
  6
CONTINUOUS
 62
     7
 10
38.9870925909
 20
44.4055771803
 30
0.0
 11
38.9382449419
 21
44.4055771803
 31
0.0
  0
LINE
  5
530
  8
0
  6
CONTINUOUS
 62
     7
 10
38.9382449419
 20
44.4055771803
 30
0.0
 11
38.9382449419
 21
44.5046749759
 31
0.0
  0
LINE
  5
531
  8
0
  6
CONTINUOUS
 62
     7
 10
38.9382449419
 20
44.5046749759
 30
0.0
 11
38.9382748615
 21
44.5070771831
 31
0.0
  0
LINE
  5
532
  8
0
  6
CONTINUOUS
 62
     7
 10
39.1262449434
 20
44.3665771812
 30
0.0
 11
39.1262449434
 21
44.6005771847
 31
0.0
  0
LINE
  5
533
  8
0
  6
CONTINUOUS
 62
     7
 10
39.1262449434
 20
44.1325771777
 30
0.0
 11
39.1262449434
 21
44.3665771812
 31
0.0
  0
LINE
  5
534
  8
0
  6
CONTINUOUS
 62
     7
 10
39.1582449671
 20
44.1945771732
 30
0.0
 11
39.1622449609
 21
44.1945771732
 31
0.0
  0
LINE
  5
535
  8
0
  6
CONTINUOUS
 62
     7
 10
39.1582449671
 20
44.5385771892
 30
0.0
 11
39.1622449609
 21
44.5385771892
 31
0.0
  0
LINE
  5
536
  8
0
  6
CONTINUOUS
 62
     7
 10
39.1582449671
 20
44.1945771732
 30
0.0
 11
39.1582449671
 21
44.5385771892
 31
0.0
  0
LINE
  5
537
  8
0
  6
CONTINUOUS
 62
     7
 10
40.3472449733
 20
44.6785771736
 30
0.0
 11
40.3472449733
 21
44.0545771888
 31
0.0
  0
LINE
  5
538
  8
0
  6
CONTINUOUS
 62
     7
 10
39.2522449679
 20
44.5590161265
 30
0.0
 11
39.3772449572
 21
44.5590161265
 31
0.0
  0
LINE
  5
539
  8
0
  6
CONTINUOUS
 62
     7
 10
39.2522449679
 20
44.5590161265
 30
0.0
 11
39.2522449679
 21
44.7335771983
 31
0.0
  0
LINE
  5
53A
  8
0
  6
CONTINUOUS
 62
     7
 10
39.2522449679
 20
44.1741382359
 30
0.0
 11
39.3772449572
 21
44.1741382359
 31
0.0
  0
LINE
  5
53B
  8
0
  6
CONTINUOUS
 62
     7
 10
39.2522449679
 20
44.1741382359
 30
0.0
 11
39.2522449679
 21
44.3484207371
 31
0.0
  0
LINE
  5
53C
  8
0
  6
CONTINUOUS
 62
     7
 10
39.2522449679
 20
44.3847336253
 30
0.0
 11
39.2522449679
 21
44.5590161265
 31
0.0
  0
LINE
  5
53D
  8
0
  6
CONTINUOUS
 62
     7
 10
39.2522449679
 20
43.9995771642
 30
0.0
 11
39.2522449679
 21
44.1741382359
 31
0.0
  0
LINE
  5
53E
  8
0
  6
CONTINUOUS
 62
     7
 10
40.1892449665
 20
62.7880766945
 30
0.0
 11
40.1892449665
 21
61.2880777026
 31
0.0
  0
LINE
  5
53F
  8
0
  6
CONTINUOUS
 62
     7
 10
39.3922449706
 20
62.7880766945
 30
0.0
 11
39.3922449706
 21
61.2880777026
 31
0.0
  0
LINE
  5
540
  8
0
  6
CONTINUOUS
 62
     7
 10
40.1892449665
 20
62.7880766945
 30
0.0
 11
39.3922449706
 21
62.7880766945
 31
0.0
  0
LINE
  5
541
  8
0
  6
CONTINUOUS
 62
     7
 10
40.1892449665
 20
61.2880777026
 30
0.0
 11
39.3922449706
 21
61.2880777026
 31
0.0
  0
LINE
  5
542
  8
0
  6
CONTINUOUS
 62
     7
 10
40.1892449665
 20
28.0700771198
 30
0.0
 11
40.1892449665
 21
26.5700769546
 31
0.0
  0
LINE
  5
543
  8
0
  6
CONTINUOUS
 62
     7
 10
39.3922449706
 20
28.0700771198
 30
0.0
 11
39.3922449706
 21
26.5700769546
 31
0.0
  0
LINE
  5
544
  8
0
  6
CONTINUOUS
 62
     7
 10
40.1892449665
 20
28.0700771198
 30
0.0
 11
39.3922449706
 21
28.0700771198
 31
0.0
  0
LINE
  5
545
  8
0
  6
CONTINUOUS
 62
     7
 10
40.1892449665
 20
26.5700769546
 30
0.0
 11
39.3922449706
 21
26.5700769546
 31
0.0
  0
LINE
  5
546
  8
0
  6
CONTINUOUS
 62
     7
 10
40.0812449645
 20
23.4130782245
 30
0.0
 11
39.4232449591
 21
23.4130782245
 31
0.0
  0
LINE
  5
547
  8
0
  6
CONTINUOUS
 62
     7
 10
39.4232449591
 20
23.4130782245
 30
0.0
 11
39.4232449591
 21
23.444077333
 31
0.0
  0
LINE
  5
548
  8
0
  6
CONTINUOUS
 62
     7
 10
39.4232449591
 20
65.3200761379
 30
0.0
 11
39.4232449591
 21
65.2890770294
 31
0.0
  0
LINE
  5
549
  8
0
  6
CONTINUOUS
 62
     7
 10
40.0812449645
 20
65.3200761379
 30
0.0
 11
39.4232449591
 21
65.3200761379
 31
0.0
  0
LINE
  5
54A
  8
0
  6
CONTINUOUS
 62
     7
 10
39.3772449572
 20
65.2740773093
 30
0.0
 11
39.3772449572
 21
23.4590770531
 31
0.0
  0
ARC
  5
54B
  8
0
  6
CONTINUOUS
 62
     7
 10
39.4276775747
 20
65.1974489051
 30
0.0
 40
0.0917352780940485
 50
92.7695898497
 51
123.3507222497
  0
ARC
  5
54C
  8
0
  6
CONTINUOUS
 62
     7
 10
39.4276775747
 20
23.5357054574
 30
0.0
 40
0.0917352780939522
 50
236.6492777502
 51
267.2304101504
  0
LINE
  5
54D
  8
0
  6
CONTINUOUS
 62
     7
 10
40.1272449664
 20
23.4130782245
 30
0.0
 11
40.0812449645
 21
23.4130782245
 31
0.0
  0
LINE
  5
54E
  8
0
  6
CONTINUOUS
 62
     7
 10
40.1272449664
 20
65.3200761379
 30
0.0
 11
40.0812449645
 21
65.3200761379
 31
0.0
  0
LINE
  5
54F
  8
0
  6
CONTINUOUS
 62
     7
 10
40.1272449664
 20
23.4130782245
 30
0.0
 11
40.1272449664
 21
25.0700767894
 31
0.0
  0
LINE
  5
550
  8
0
  6
CONTINUOUS
 62
     7
 10
40.1272449664
 20
26.5080775641
 30
0.0
 11
40.1272449664
 21
26.5700769546
 31
0.0
  0
LINE
  5
551
  8
0
  6
CONTINUOUS
 62
     7
 10
40.1272449664
 20
28.0700771198
 30
0.0
 11
40.1272449664
 21
59.7880775374
 31
0.0
  0
LINE
  5
552
  8
0
  6
CONTINUOUS
 62
     7
 10
40.1272449664
 20
61.2260771388
 30
0.0
 11
40.1272449664
 21
61.2880777026
 31
0.0
  0
LINE
  5
553
  8
0
  6
CONTINUOUS
 62
     7
 10
40.1272449664
 20
62.7880766945
 30
0.0
 11
40.1272449664
 21
65.3200761379
 31
0.0
  0
LINE
  5
554
  8
0
  6
CONTINUOUS
 62
     7
 10
39.3772449572
 20
65.2740773093
 30
0.0
 11
39.3772449572
 21
65.2780783298
 31
0.0
  0
LINE
  5
555
  8
0
  6
CONTINUOUS
 62
     7
 10
39.3772449572
 20
65.2780783298
 30
0.0
 11
39.381411269
 21
65.2780783298
 31
0.0
  0
LINE
  5
556
  8
0
  6
CONTINUOUS
 62
     7
 10
39.3772449572
 20
65.2780783298
 30
0.0
 11
39.3772449572
 21
65.2890770294
 31
0.0
  0
LINE
  5
557
  8
0
  6
CONTINUOUS
 62
     7
 10
39.3772449572
 20
23.4550760327
 30
0.0
 11
39.381411269
 21
23.4550760327
 31
0.0
  0
LINE
  5
558
  8
0
  6
CONTINUOUS
 62
     7
 10
39.3772449572
 20
23.4590770531
 30
0.0
 11
39.3772449572
 21
23.4550760327
 31
0.0
  0
LINE
  5
559
  8
0
  6
CONTINUOUS
 62
     7
 10
39.3772449572
 20
23.4550760327
 30
0.0
 11
39.3772449572
 21
23.444077333
 31
0.0
  0
LINE
  5
55A
  8
0
  6
CONTINUOUS
 62
     7
 10
39.4082449457
 20
23.4472734561
 30
0.0
 11
39.4082449457
 21
23.444077333
 31
0.0
  0
ARC
  5
55B
  8
0
  6
CONTINUOUS
 62
     7
 10
39.4232449664
 20
23.4440771812
 30
0.0
 40
0.0460000000000065
 50
180.0
 51
270.0
  0
ARC
  5
55C
  8
0
  6
CONTINUOUS
 62
     7
 10
39.4232449664
 20
23.4440771812
 30
0.0
 40
0.0150000000000041
 50
180.0
 51
270.0
  0
LINE
  5
55D
  8
0
  6
CONTINUOUS
 62
     7
 10
39.4232449591
 20
23.3980761578
 30
0.0
 11
40.0812449645
 21
23.3980761578
 31
0.0
  0
ARC
  5
55E
  8
0
  6
CONTINUOUS
 62
     7
 10
39.4232449664
 20
65.2890771812
 30
0.0
 40
0.0460000000000065
 50
90.0
 51
180.0
  0
ARC
  5
55F
  8
0
  6
CONTINUOUS
 62
     7
 10
39.4232449664
 20
65.2890771812
 30
0.0
 40
0.0150000000000148
 50
90.0
 51
180.0
  0
LINE
  5
560
  8
0
  6
CONTINUOUS
 62
     7
 10
39.4232449591
 20
65.3350782046
 30
0.0
 11
40.0812449645
 21
65.3350782046
 31
0.0
  0
ARC
  5
561
  8
0
  6
CONTINUOUS
 62
     7
 10
40.0812449664
 20
65.2890771812
 30
0.0
 40
0.0460000000000065
 50
42.3697985694
 51
90.0
  0
ARC
  5
562
  8
0
  6
CONTINUOUS
 62
     7
 10
40.0812449664
 20
23.4440771812
 30
0.0
 40
0.0459999999999994
 50
270.0
 51
317.6302014306
  0
LINE
  5
563
  8
0
  6
CONTINUOUS
 62
     7
 10
40.4392449589
 20
59.2725771458
 30
0.0
 11
40.4392449589
 21
59.5358665843
 31
0.0
  0
LINE
  5
564
  8
0
  6
CONTINUOUS
 62
     7
 10
40.4392449589
 20
59.2725771458
 30
0.0
 11
40.1272449664
 21
59.2725771458
 31
0.0
  0
LINE
  5
565
  8
0
  6
CONTINUOUS
 62
     7
 10
40.4392449589
 20
56.2725768154
 30
0.0
 11
40.4392449589
 21
56.5845766245
 31
0.0
  0
ARC
  5
566
  8
0
  6
CONTINUOUS
 62
     7
 10
40.0952433639
 20
56.5845771812
 30
0.0
 40
0.3440016025641041
 50
0.0
 51
84.6622000096
  0
LINE
  5
567
  8
0
  6
CONTINUOUS
 62
     7
 10
40.4392449589
 20
56.2725768154
 30
0.0
 11
40.1272449664
 21
56.2725768154
 31
0.0
  0
LINE
  5
568
  8
0
  6
CONTINUOUS
 62
     7
 10
40.4392449589
 20
55.2725774875
 30
0.0
 11
40.4392449589
 21
55.5845772966
 31
0.0
  0
LINE
  5
569
  8
0
  6
CONTINUOUS
 62
     7
 10
40.4392449589
 20
55.2725774875
 30
0.0
 11
40.1272449664
 21
55.2725774875
 31
0.0
  0
ARC
  5
56A
  8
0
  6
CONTINUOUS
 62
     7
 10
40.0952433639
 20
55.5845771812
 30
0.0
 40
0.3440016025641041
 50
0.0
 51
84.6622000096
  0
LINE
  5
56B
  8
0
  6
CONTINUOUS
 62
     7
 10
40.4392449589
 20
57.2725773167
 30
0.0
 11
40.4392449589
 21
57.5845771257
 31
0.0
  0
ARC
  5
56C
  8
0
  6
CONTINUOUS
 62
     7
 10
40.0952433639
 20
57.5845771812
 30
0.0
 40
0.3440016025641041
 50
0.0
 51
84.6622000096
  0
LINE
  5
56D
  8
0
  6
CONTINUOUS
 62
     7
 10
40.4392449589
 20
57.2725773167
 30
0.0
 11
40.1272449664
 21
57.2725773167
 31
0.0
  0
LINE
  5
56E
  8
0
  6
CONTINUOUS
 62
     7
 10
40.4392449589
 20
58.2725766446
 30
0.0
 11
40.4392449589
 21
58.584577627
 31
0.0
  0
ARC
  5
56F
  8
0
  6
CONTINUOUS
 62
     7
 10
40.0952433639
 20
58.5845771812
 30
0.0
 40
0.3440016025641041
 50
0.0
 51
84.6622000096
  0
LINE
  5
570
  8
0
  6
CONTINUOUS
 62
     7
 10
40.4392449589
 20
58.2725766446
 30
0.0
 11
40.1272449664
 21
58.2725766446
 31
0.0
  0
LINE
  5
571
  8
0
  6
CONTINUOUS
 62
     7
 10
40.1892449665
 20
61.272576975
 30
0.0
 11
40.1272449664
 21
61.272576975
 31
0.0
  0
LINE
  5
572
  8
0
  6
CONTINUOUS
 62
     7
 10
40.4392449589
 20
54.2725769863
 30
0.0
 11
40.4392449589
 21
54.5845767953
 31
0.0
  0
ARC
  5
573
  8
0
  6
CONTINUOUS
 62
     7
 10
40.0952433639
 20
54.5845771812
 30
0.0
 40
0.3440016025641041
 50
0.0
 51
84.6622000096
  0
LINE
  5
574
  8
0
  6
CONTINUOUS
 62
     7
 10
40.4392449589
 20
54.2725769863
 30
0.0
 11
40.1272449664
 21
54.2725769863
 31
0.0
  0
POLYLINE
  5
575
  8
0
  6
CONTINUOUS
 62
     7
 66
     1
 10
0.0
 20
0.0
 30
0.0
  0
VERTEX
  5
6AB
  8
0
  6
CONTINUOUS
 62
     7
 10
40.2064585164
 20
62.9101054715
 30
0.0
  0
VERTEX
  5
6AC
  8
0
  6
CONTINUOUS
 62
     7
 10
40.1896045752
 20
62.9153842371
 30
0.0
  0
VERTEX
  5
6AD
  8
0
  6
CONTINUOUS
 62
     7
 10
40.1272449664
 20
62.9270869286
 30
0.0
  0
SEQEND
  5
6AE
  8
0
  6
CONTINUOUS
 62
     7
  0
LINE
  5
576
  8
0
  6
CONTINUOUS
 62
     7
 10
40.4392449589
 20
53.2725770717
 30
0.0
 11
40.4392449589
 21
53.5845774674
 31
0.0
  0
ARC
  5
577
  8
0
  6
CONTINUOUS
 62
     7
 10
40.0952433639
 20
53.5845771812
 30
0.0
 40
0.3440016025641041
 50
0.0
 51
84.6622000096
  0
LINE
  5
578
  8
0
  6
CONTINUOUS
 62
     7
 10
40.4392449589
 20
53.2725770717
 30
0.0
 11
40.1272449664
 21
53.2725770717
 31
0.0
  0
LINE
  5
579
  8
0
  6
CONTINUOUS
 62
     7
 10
40.4392449589
 20
34.8355774175
 30
0.0
 11
40.4392449589
 21
35.1475772265
 31
0.0
  0
LINE
  5
57A
  8
0
  6
CONTINUOUS
 62
     7
 10
40.4392449589
 20
34.8355774175
 30
0.0
 11
40.1272449664
 21
34.8355774175
 31
0.0
  0
ARC
  5
57B
  8
0
  6
CONTINUOUS
 62
     7
 10
40.0952433639
 20
35.1475771812
 30
0.0
 40
0.3440016025641057
 50
0.0
 51
84.6622000089
  0
LINE
  5
57C
  8
0
  6
CONTINUOUS
 62
     7
 10
40.4392449589
 20
31.8355770871
 30
0.0
 11
40.4392449589
 21
32.1475768961
 31
0.0
  0
ARC
  5
57D
  8
0
  6
CONTINUOUS
 62
     7
 10
40.0952433639
 20
32.1475771812
 30
0.0
 40
0.3440016025641057
 50
0.0
 51
84.6622000089
  0
LINE
  5
57E
  8
0
  6
CONTINUOUS
 62
     7
 10
40.4392449589
 20
31.8355770871
 30
0.0
 11
40.1272449664
 21
31.8355770871
 31
0.0
  0
LINE
  5
57F
  8
0
  6
CONTINUOUS
 62
     7
 10
40.4392449589
 20
30.8355777591
 30
0.0
 11
40.4392449589
 21
31.1475775682
 31
0.0
  0
ARC
  5
580
  8
0
  6
CONTINUOUS
 62
     7
 10
40.0952433639
 20
31.1475771812
 30
0.0
 40
0.3440016025641057
 50
0.0
 51
84.6622000089
  0
LINE
  5
581
  8
0
  6
CONTINUOUS
 62
     7
 10
40.4392449589
 20
30.8355777591
 30
0.0
 11
40.1272449664
 21
30.8355777591
 31
0.0
  0
LINE
  5
582
  8
0
  6
CONTINUOUS
 62
     7
 10
40.4392449589
 20
33.8355769162
 30
0.0
 11
40.4392449589
 21
34.1475767253
 31
0.0
  0
ARC
  5
583
  8
0
  6
CONTINUOUS
 62
     7
 10
40.0952433639
 20
34.1475771812
 30
0.0
 40
0.3440016025641057
 50
0.0
 51
84.6622000089
  0
LINE
  5
584
  8
0
  6
CONTINUOUS
 62
     7
 10
40.4392449589
 20
33.8355769162
 30
0.0
 11
40.1272449664
 21
33.8355769162
 31
0.0
  0
ARC
  5
585
  8
0
  6
CONTINUOUS
 62
     7
 10
40.0952433639
 20
28.1475771812
 30
0.0
 40
0.3440016025641045
 50
36.1677876563
 51
84.6622000089
  0
LINE
  5
586
  8
0
  6
CONTINUOUS
 62
     7
 10
40.4392449589
 20
29.8355772579
 30
0.0
 11
40.4392449589
 21
30.147577067
 31
0.0
  0
ARC
  5
587
  8
0
  6
CONTINUOUS
 62
     7
 10
40.0952433639
 20
30.1475771812
 30
0.0
 40
0.3440016025641057
 50
0.0
 51
84.6622000089
  0
LINE
  5
588
  8
0
  6
CONTINUOUS
 62
     7
 10
40.4392449589
 20
29.8355772579
 30
0.0
 11
40.1272449664
 21
29.8355772579
 31
0.0
  0
LINE
  5
589
  8
0
  6
CONTINUOUS
 62
     7
 10
40.4392449589
 20
32.8355775883
 30
0.0
 11
40.4392449589
 21
33.1475773974
 31
0.0
  0
ARC
  5
58A
  8
0
  6
CONTINUOUS
 62
     7
 10
40.0952433639
 20
33.1475771812
 30
0.0
 40
0.3440016025641102
 50
0.0
 51
84.6622000089
  0
LINE
  5
58B
  8
0
  6
CONTINUOUS
 62
     7
 10
40.4392449589
 20
32.8355775883
 30
0.0
 11
40.1272449664
 21
32.8355775883
 31
0.0
  0
LINE
  5
58C
  8
0
  6
CONTINUOUS
 62
     7
 10
40.4392449589
 20
28.8355767567
 30
0.0
 11
40.4392449589
 21
29.1475777391
 31
0.0
  0
ARC
  5
58D
  8
0
  6
CONTINUOUS
 62
     7
 10
40.0952433639
 20
29.1475771812
 30
0.0
 40
0.3440016025641057
 50
0.0
 51
84.6622000089
  0
LINE
  5
58E
  8
0
  6
CONTINUOUS
 62
     7
 10
40.4392449589
 20
28.8355767567
 30
0.0
 11
40.1272449664
 21
28.8355767567
 31
0.0
  0
ENDSEC
  0
EOF
