  0
SECTION
  2
HEADER
  9
$ACADVER
  1
AC1009
  9
$DWGCODEPAGE
  3
ansi_1252
  9
$INSBASE
 10
0.0
 20
0.0
 30
0.0
  9
$EXTMIN
 10
0.0
 20
0.0
 30
0.0
  9
$EXTMAX
 10
140.25
 20
108.375
 30
0.0
  9
$LIMMIN
 10
0.0
 20
0.0
  9
$LIMMAX
 10
140.25
 20
108.375
  9
$ORTHOMODE
 70
     0
  9
$REGENMODE
 70
     1
  9
$FILLMODE
 70
     1
  9
$QTEXTMODE
 70
     0
  9
$MIRRTEXT
 70
     1
  9
$DRAGMODE
 70
     2
  9
$LTSCALE
 40
12.75
  9
$OSMODE
 70
    37
  9
$ATTMODE
 70
     1
  9
$TEXTSIZE
 40
1.59375
  9
$TRACEWID
 40
0.05
  9
$TEXTSTYLE
  7
STANDARD
  9
$CLAYER
  8
0
  9
$CELTYPE
  6
BYLAYER
  9
$CECOLOR
 62
   256
  9
$DIMSCALE
 40
1.0
  9
$DIMASZ
 40
1.6575
  9
$DIMEXO
 40
0.6375
  9
$DIMDLI
 40
0.38
  9
$DIMRND
 40
0.0
  9
$DIMDLE
 40
0.0
  9
$DIMEXE
 40
1.59375
  9
$DIMTP
 40
0.0
  9
$DIMTM
 40
0.0
  9
$DIMTXT
 40
1.59375
  9
$DIMCEN
 40
0.09
  9
$DIMTSZ
 40
0.0
  9
$DIMTOL
 70
     0
  9
$DIMLIM
 70
     0
  9
$DIMTIH
 70
     1
  9
$DIMTOH
 70
     1
  9
$DIMSE1
 70
     0
  9
$DIMSE2
 70
     0
  9
$DIMTAD
 70
     1
  9
$DIMZIN
 70
     0
  9
$DIMBLK
  1

  9
$DIMASO
 70
     1
  9
$DIMSHO
 70
     1
  9
$DIMPOST
  1

  9
$DIMAPOST
  1

  9
$DIMALT
 70
     0
  9
$DIMALTD
 70
     2
  9
$DIMALTF
 40
25.4
  9
$DIMLFAC
 40
1.0
  9
$DIMTOFL
 70
     0
  9
$DIMTVP
 40
0.0
  9
$DIMTIX
 70
     0
  9
$DIMSOXD
 70
     0
  9
$DIMSAH
 70
     0
  9
$DIMBLK1
  1

  9
$DIMBLK2
  1

  9
$DIMSTYLE
  2
STANDARD
  9
$DIMCLRD
 70
     0
  9
$DIMCLRE
 70
     0
  9
$DIMCLRT
 70
     0
  9
$DIMTFAC
 40
1.0
  9
$DIMGAP
 40
0.765
  9
$LUNITS
 70
     2
  9
$LUPREC
 70
     3
  9
$SKETCHINC
 40
0.1
  9
$FILLETRAD
 40
0.5
  9
$AUNITS
 70
     0
  9
$AUPREC
 70
     2
  9
$MENU
  1
.
  9
$ELEVATION
 40
0.0
  9
$PELEVATION
 40
0.0
  9
$THICKNESS
 40
0.0
  9
$LIMCHECK
 70
     0
  9
$CHAMFERA
 40
0.5
  9
$CHAMFERB
 40
0.5
  9
$SKPOLY
 70
     0
  9
$TDCREATE
 40
2456673.372318599
  9
$TDUPDATE
 40
2456673.372318611
  9
$TDINDWG
 40
0.0000000116
  9
$TDUSRTIMER
 40
0.0000000116
  9
$USRTIMER
 70
     1
  9
$ANGBASE
 50
0.0
  9
$ANGDIR
 70
     0
  9
$PDMODE
 70
     0
  9
$PDSIZE
 40
-1.0
  9
$PLINEWID
 40
0.0
  9
$COORDS
 70
     1
  9
$SPLFRAME
 70
     0
  9
$SPLINETYPE
 70
     6
  9
$SPLINESEGS
 70
     8
  9
$ATTDIA
 70
     0
  9
$ATTREQ
 70
     1
  9
$HANDLING
 70
     1
  9
$HANDSEED
  5
7BE
  9
$SURFTAB1
 70
     6
  9
$SURFTAB2
 70
     6
  9
$SURFTYPE
 70
     6
  9
$SURFU
 70
     6
  9
$SURFV
 70
     6
  9
$UCSNAME
  2

  9
$UCSORG
 10
0.0
 20
0.0
 30
0.0
  9
$UCSXDIR
 10
1.0
 20
0.0
 30
0.0
  9
$UCSYDIR
 10
0.0
 20
1.0
 30
0.0
  9
$PUCSNAME
  2

  9
$PUCSORG
 10
0.0
 20
0.0
 30
0.0
  9
$PUCSXDIR
 10
1.0
 20
0.0
 30
0.0
  9
$PUCSYDIR
 10
0.0
 20
1.0
 30
0.0
  9
$USERI1
 70
     0
  9
$USERI2
 70
     0
  9
$USERI3
 70
     0
  9
$USERI4
 70
     0
  9
$USERI5
 70
     0
  9
$USERR1
 40
0.0
  9
$USERR2
 40
0.0
  9
$USERR3
 40
0.0
  9
$USERR4
 40
0.0
  9
$USERR5
 40
0.0
  9
$WORLDVIEW
 70
     1
  9
$SHADEDGE
 70
     3
  9
$SHADEDIF
 70
    70
  9
$TILEMODE
 70
     1
  9
$MAXACTVP
 70
    64
  9
$PLIMCHECK
 70
     0
  9
$PEXTMIN
 10
1.0000000000E+20
 20
1.0000000000E+20
 30
1.0000000000E+20
  9
$PEXTMAX
 10
-1.0000000000E+20
 20
-1.0000000000E+20
 30
-1.0000000000E+20
  9
$PLIMMIN
 10
0.0
 20
0.0
  9
$PLIMMAX
 10
12.0
 20
9.0
  9
$UNITMODE
 70
     0
  9
$VISRETAIN
 70
     1
  9
$PLINEGEN
 70
     0
  9
$PSLTSCALE
 70
     1
  0
ENDSEC
  0
SECTION
  2
TABLES
  0
TABLE
  2
VPORT
 70
     1
  0
VPORT
  2
*ACTIVE
 70
     0
 10
0.0
 20
0.0
 11
1.0
 21
1.0
 12
70.125
 22
54.1875
 13
0.0
 23
0.0
 14
0.5
 24
0.5
 15
0.5
 25
0.5
 16
0.0
 26
0.0
 36
1.0
 17
0.0
 27
0.0
 37
0.0
 40
108.375
 41
1.2941176471
 42
50.0
 43
0.0
 44
0.0
 50
0.0
 51
0.0
 71
     0
 72
  2000
 73
     1
 74
     3
 75
     0
 76
     0
 77
     0
 78
     0
  0
ENDTAB
  0
TABLE
  2
LTYPE
 70
     6
  0
LTYPE
  2
CONTINUOUS
 70
     0
  3
Solid line
 72
    65
 73
     0
 40
0.0
  0
LTYPE
  2
HIDDEN
 70
     0
  3
Hidden __ __ __ __ __ __ __ __ __ __ __ __ __ __
 72
    65
 73
     2
 40
0.075
 49
0.05
 49
-0.025
  0
LTYPE
  2
PHANTOM
 70
     0
  3
Phantom ______  __  __  ______  __  __  ______
 72
    65
 73
     6
 40
0.5
 49
0.25
 49
-0.05
 49
0.05
 49
-0.05
 49
0.05
 49
-0.05
  0
LTYPE
  2
CENTER
 70
     0
  3
Center ____ _ ____ _ ____ _ ____ _ ____ _ ____
 72
    65
 73
     4
 40
0.4
 49
0.25
 49
-0.05
 49
0.05
 49
-0.05
  0
LTYPE
  2
CENTERX2
 70
     0
  3
Center (2x) ________  __  ________  __  _____
 72
    65
 73
     4
 40
0.8
 49
0.5
 49
-0.1
 49
0.1
 49
-0.1
  0
LTYPE
  2
DOT2
 70
     0
  3
Dot (.5x) ........................................
 72
    65
 73
     2
 40
0.025
 49
0.0
 49
-0.025
  0
ENDTAB
  0
TABLE
  2
LAYER
 70
     1
  0
LAYER
  2
0
 70
     0
 62
     7
  6
CONTINUOUS
  0
ENDTAB
  0
TABLE
  2
STYLE
 70
     1
  0
STYLE
  2
STANDARD
 70
     0
 40
0.0
 41
1.0
 50
0.0
 71
     0
 42
0.2
  3
txt
  4

  0
ENDTAB
  0
TABLE
  2
VIEW
 70
     0
  0
ENDTAB
  0
TABLE
  2
UCS
 70
     0
  0
ENDTAB
  0
TABLE
  2
APPID
 70
     1
  0
APPID
  2
ACAD
 70
     0
  0
ENDTAB
  0
TABLE
  2
DIMSTYLE
 70
     5
  0
DIMSTYLE
  2
STANDARD
 70
     0
  3

  4

  5

  6

  7

 40
1.0
 41
0.18
 42
0.0625
 43
0.38
 44
0.18
 45
0.0
 46
0.0
 47
0.0
 48
0.0
140
0.18
141
0.09
142
0.0
143
25.4
144
1.0
145
0.0
146
1.0
147
0.09
 71
     0
 72
     0
 73
     1
 74
     1
 75
     0
 76
     0
 77
     0
 78
     0
170
     0
171
     2
172
     0
173
     0
174
     0
175
     0
176
     0
177
     0
178
     0
  0
DIMSTYLE
  2
SLDDIMSTYLE0
 70
     0
  3

  4

  5

  6

  7

 40
1.0
 41
1.6575
 42
0.0625
 43
0.38
 44
0.0
 45
0.000000001
 46
0.0
 47
0.0
 48
0.0
140
1.59375
141
0.09
142
0.0
143
25.4
144
1.0
145
0.0
146
1.0
147
0.3984375
 71
     0
 72
     0
 73
     1
 74
     1
 75
     0
 76
     0
 77
     0
 78
    12
170
     1
171
     2
172
     1
173
     1
174
     0
175
     0
176
     0
177
     0
178
     0
  0
DIMSTYLE
  2
SLDDIMSTYLE1
 70
     0
  3

  4

  5

  6

  7

 40
1.0
 41
1.6575
 42
0.0625
 43
0.38
 44
0.0
 45
0.000000001
 46
0.0
 47
0.0
 48
0.0
140
1.59375
141
0.09
142
0.0
143
25.4
144
1.0
145
0.0
146
1.0
147
0.3984375
 71
     0
 72
     0
 73
     1
 74
     1
 75
     0
 76
     0
 77
     0
 78
    12
170
     1
171
     2
172
     0
173
     1
174
     0
175
     0
176
     0
177
     0
178
     0
  0
DIMSTYLE
  2
SLDDIMSTYLE2
 70
     0
  3

  4

  5

  6

  7

 40
1.0
 41
1.6575
 42
0.0625
 43
0.38
 44
0.0
 45
0.000000001
 46
0.0
 47
0.0
 48
0.0
140
1.59375
141
0.09
142
0.0
143
25.4
144
1.0
145
0.0
146
1.0
147
0.3984375
 71
     0
 72
     0
 73
     1
 74
     1
 75
     0
 76
     0
 77
     0
 78
     4
170
     1
171
     2
172
     1
173
     1
174
     0
175
     0
176
     0
177
     0
178
     0
  0
DIMSTYLE
  2
SLDDIMSTYLE3
 70
     0
  3

  4

  5

  6

  7

 40
1.0
 41
1.6575
 42
0.0625
 43
0.38
 44
0.0
 45
0.000000001
 46
0.0
 47
0.0
 48
0.0
140
1.59375
141
0.09
142
0.0
143
25.4
144
1.0
145
0.0
146
1.0
147
0.3984375
 71
     0
 72
     0
 73
     1
 74
     1
 75
     0
 76
     0
 77
     0
 78
    12
170
     1
171
     2
172
     1
173
     1
174
     0
175
     0
176
     0
177
     0
178
     0
  0
ENDTAB
  0
ENDSEC
  0
SECTION
  2
BLOCKS
  0
BLOCK
  8
0
  2
$MODEL_SPACE
 70
     0
 10
0.0
 20
0.0
 30
0.0
  3
$MODEL_SPACE
  1

  0
ENDBLK
  5
21
  8
0
  0
BLOCK
 67
     1
  8
0
  2
$PAPER_SPACE
 70
     0
 10
0.0
 20
0.0
 30
0.0
  3
$PAPER_SPACE
  1

  0
ENDBLK
  5
1D
 67
     1
  8
0
  0
BLOCK
  8
0
  2
SW_NOTE_0
 70
     0
 10
0.0
 20
0.0
 30
0.0
  3
SW_NOTE_0
  1

  0
TEXT
  5
74
  8
0
  6
CONTINUOUS
 62
     0
 10
0.0
 20
0.5630082237
 30
0.0
 40
1.59375
  1
MATERIAL:
 41
0.7
 11
0.0
 21
0.0
 31
0.0
 73
     1
  0
TEXT
  5
75
  8
0
  6
CONTINUOUS
 62
     0
 10
0.0
 20
-1.5327102264
 30
0.0
 40
1.59375
  1
  DOOR - 20 GA. [.8mm] STEEL
 41
0.6125
 11
0.0
 21
-2.0957184501
 31
0.0
 73
     1
  0
TEXT
  5
76
  8
0
  6
CONTINUOUS
 62
     0
 10
0.0
 20
-3.6284286765
 30
0.0
 40
1.59375
  1
  STIFFENER - 18 GA. [1.2mm] STEEL
 41
0.6279411765
 11
0.0
 21
-4.1914369002
 31
0.0
 73
     1
  0
ENDBLK
  5
73
  8
0
  0
BLOCK
  8
0
  2
SW_NOTE_1
 70
     0
 10
0.0
 20
0.0
 30
0.0
  3
SW_NOTE_1
  1

  0
TEXT
  5
7B
  8
0
  6
CONTINUOUS
 62
     0
 10
0.0
 20
0.5630082237
 30
0.0
 40
1.59375
  1
FINISH:
 41
0.7
 11
0.0
 21
0.0
 31
0.0
 73
     1
  0
TEXT
  5
7C
  8
0
  6
CONTINUOUS
 62
     0
 10
0.0
 20
-1.5327102264
 30
0.0
 40
1.59375
  1
  POWDERCOAT
 41
0.6416666667
 11
0.0
 21
-2.0957184501
 31
0.0
 73
     1
  0
TEXT
  5
7D
  8
0
  6
CONTINUOUS
 62
     0
 10
0.0
 20
-3.6284286765
 30
0.0
 40
1.59375
  1
   SAND TEXTURE "S"
 41
0.6078947368
 11
0.0
 21
-4.1914369002
 31
0.0
 73
     1
  0
TEXT
  5
7E
  8
0
  6
CONTINUOUS
 62
     0
 10
0.0
 20
-5.7241471266
 30
0.0
 40
1.59375
  1
   ROYAL BLUE TEXTURE "RB"
 41
0.6192307692
 11
0.0
 21
-6.2871553502
 31
0.0
 73
     1
  0
TEXT
  5
7F
  8
0
  6
CONTINUOUS
 62
     0
 10
0.0
 20
-7.8198655766
 30
0.0
 40
1.59375
  1
   BLACK TEXTURE "BT"
 41
0.6166666667
 11
0.0
 21
-8.3828738003
 31
0.0
 73
     1
  0
ENDBLK
  5
7A
  8
0
  0
BLOCK
  8
0
  2
SW_NOTE_2
 70
     0
 10
0.0
 20
0.0
 30
0.0
  3
SW_NOTE_2
  1

  0
TEXT
  5
84
  8
0
  6
CONTINUOUS
 62
     0
 10
0.0
 20
0.5630082237
 30
0.0
 40
1.59375
  1
DOOR MAY BE USED ON
 41
0.6263157895
 11
0.0
 21
0.0
 31
0.0
 73
     1
  0
TEXT
  5
85
  8
0
  6
CONTINUOUS
 62
     0
 10
0.0
 20
-1.5327102264
 30
0.0
 40
1.59375
  1
 FRONT OR REAR OF
 41
0.6176470588
 11
0.0
 21
-2.0957184501
 31
0.0
 73
     1
  0
TEXT
  5
86
  8
0
  6
CONTINUOUS
 62
     0
 10
0.0
 20
-3.6284286765
 30
0.0
 40
1.59375
  1
 ECONOMIZER RACKS.
 41
0.6611111111
 11
0.0
 21
-4.1914369002
 31
0.0
 73
     1
  0
ENDBLK
  5
83
  8
0
  0
BLOCK
  8
0
  2
SW_NOTE_3
 70
     0
 10
0.0
 20
0.0
 30
0.0
  3
SW_NOTE_3
  1

  0
TEXT
  5
8C
  8
0
  6
CONTINUOUS
 62
     0
 10
0.0
 20
0.5630082237
 30
0.0
 40
1.59375
  1
DOOR USED ON RACKS WITH
 41
0.6391304348
 11
0.0
 21
0.0
 31
0.0
 73
     1
  0
TEXT
  5
8D
  8
0
  6
CONTINUOUS
 62
     0
 10
0.0
 20
-1.5327102264
 30
0.0
 40
1.59375
  1
 19" WIDE PANEL SPACE.
 41
0.6363636364
 11
0.0
 21
-2.0957184501
 31
0.0
 73
     1
  0
ENDBLK
  5
8B
  8
0
  0
BLOCK
  8
0
  2
SW_NOTE_4
 70
     0
 10
0.0
 20
0.0
 30
0.0
  3
SW_NOTE_4
  1

  0
TEXT
  5
92
  8
0
  6
CONTINUOUS
 62
     0
 10
0.0
 20
0.5630082237
 30
0.0
 40
1.59375
  1
PART
 41
0.7
 11
0.0
 21
0.0
 31
0.0
 73
     1
  0
TEXT
  5
93
  8
0
  6
CONTINUOUS
 62
     0
 10
-0.6054036363
 20
-1.5327102264
 30
0.0
 40
1.59375
  1
NAME
 41
0.7
 11
-0.6054036363
 21
-2.0957184501
 31
0.0
 73
     1
  0
ENDBLK
  5
91
  8
0
  0
BLOCK
  8
0
  2
SW_NOTE_5
 70
     0
 10
0.0
 20
0.0
 30
0.0
  3
SW_NOTE_5
  1

  0
TEXT
  5
98
  8
0
  6
CONTINUOUS
 62
     0
 10
0.0
 20
0.5630082237
 30
0.0
 40
1.59375
  1
PART
 41
0.7
 11
0.0
 21
0.0
 31
0.0
 73
     1
  0
TEXT
  5
99
  8
0
  6
CONTINUOUS
 62
     0
 10
0.7360024601
 20
-1.5327102264
 30
0.0
 40
1.59375
  1
No.
 41
0.7
 11
0.7360024601
 21
-2.0957184501
 31
0.0
 73
     1
  0
ENDBLK
  5
97
  8
0
  0
BLOCK
  8
0
  2
SW_NOTE_6
 70
     0
 10
0.0
 20
0.0
 30
0.0
  3
SW_NOTE_6
  1

  0
TEXT
  5
9E
  8
0
  6
CONTINUOUS
 62
     0
 10
0.0
 20
0.5630082237
 30
0.0
 40
1.59375
  1
REV.
 41
0.7
 11
0.0
 21
0.0
 31
0.0
 73
     1
  0
TEXT
  5
9F
  8
0
  6
CONTINUOUS
 62
     0
 10
-0.3430989615
 20
-1.5327102264
 30
0.0
 40
1.59375
  1
DATE
 41
0.7
 11
-0.3430989615
 21
-2.0957184501
 31
0.0
 73
     1
  0
ENDBLK
  5
9D
  8
0
  0
BLOCK
  8
0
  2
*D8
 70
     1
 10
0.0
 20
0.0
 30
0.0
  3
*D8
  1

  0
SOLID
  5
24B
  8
0
  6
CONTINUOUS
 62
     7
 10
50.3190396565
 20
79.560988255
 30
0.0
 11
50.0640396565
 21
77.903488255
 31
0.0
 12
50.5740396565
 22
77.903488255
 32
0.0
 13
50.5740396565
 23
77.903488255
 33
0.0
  0
SOLID
  5
24C
  8
0
  6
CONTINUOUS
 62
     7
 10
50.3190396565
 20
82.107988255
 30
0.0
 11
50.5740396565
 21
83.765488255
 31
0.0
 12
50.0640396565
 22
83.765488255
 32
0.0
 13
50.0640396565
 23
83.765488255
 33
0.0
  0
LINE
  5
24D
  8
0
  6
CONTINUOUS
 62
     7
 10
41.6699168008
 20
85.3542981507
 30
0.0
 11
41.3461863159
 21
85.3542981507
 31
0.0
  0
LINE
  5
24E
  8
0
  6
CONTINUOUS
 62
     7
 10
41.3461863159
 20
85.3542981507
 30
0.0
 11
41.3461863159
 21
82.8242199496
 31
0.0
  0
LINE
  5
24F
  8
0
  6
CONTINUOUS
 62
     7
 10
41.3461863159
 20
82.8242199496
 30
0.0
 11
41.6699168008
 21
82.8242199496
 31
0.0
  0
LINE
  5
250
  8
0
  6
CONTINUOUS
 62
     7
 10
46.6008577249
 20
85.3542981507
 30
0.0
 11
46.9245882098
 21
85.3542981507
 31
0.0
  0
LINE
  5
251
  8
0
  6
CONTINUOUS
 62
     7
 10
46.9245882098
 20
85.3542981507
 30
0.0
 11
46.9245882098
 21
82.8242199496
 31
0.0
  0
LINE
  5
252
  8
0
  6
CONTINUOUS
 62
     7
 10
46.9245882098
 20
82.8242199496
 30
0.0
 11
46.6008577249
 21
82.8242199496
 31
0.0
  0
LINE
  5
253
  8
0
  6
CONTINUOUS
 62
     7
 10
54.0346558949
 20
79.560988255
 30
0.0
 11
48.7252896565
 21
79.560988255
 31
0.0
  0
LINE
  5
254
  8
0
  6
CONTINUOUS
 62
     7
 10
54.4536558949
 20
82.107988255
 30
0.0
 11
48.7252896565
 21
82.107988255
 31
0.0
  0
LINE
  5
255
  8
0
  6
CONTINUOUS
 62
     7
 10
48.7252896565
 20
85.3664726451
 30
0.0
 11
50.3190396565
 21
85.3664726451
 31
0.0
  0
LINE
  5
256
  8
0
  6
CONTINUOUS
 62
     7
 10
50.3190396565
 20
85.3664726451
 30
0.0
 11
50.3190396565
 21
82.107988255
 31
0.0
  0
LINE
  5
257
  8
0
  6
CONTINUOUS
 62
     7
 10
50.3190396565
 20
79.560988255
 30
0.0
 11
50.3190396565
 21
76.373488255
 31
0.0
  0
TEXT
  5
258
  8
0
  6
CONTINUOUS
 62
     7
 10
40.5145863672
 20
86.2653859357
 30
0.1744375
 40
1.59375
  1
 
 41
0.7
 11
40.5145863672
 21
85.702377712
 31
0.1744375
 73
     1
  0
TEXT
  5
259
  8
0
  6
CONTINUOUS
 62
     7
 10
41.4271191124
 20
86.2410368593
 30
0.1744375
 40
1.59375
  1
2.55
 41
0.7
 11
41.4271191124
 21
85.6780286356
 31
0.1744375
 73
     1
  0
TEXT
  5
25A
  8
0
  6
CONTINUOUS
 62
     7
 10
42.074579907
 20
83.3872280857
 30
0.1744375
 40
1.59375
  1
64.7
 41
0.7
 11
42.074579907
 21
82.824219862
 31
0.1744375
 73
     1
  0
TEXT
  5
25B
  8
0
  6
CONTINUOUS
 62
     7
 10
47.1673860735
 20
86.2653859357
 30
0.1744375
 40
1.59375
  1
 
 41
0.7
 11
47.1673860735
 21
85.702377712
 31
0.1744375
 73
     1
  0
ENDBLK
  5
24A
  8
0
  0
BLOCK
  8
0
  2
*D9
 70
     1
 10
0.0
 20
0.0
 30
0.0
  3
*D9
  1

  0
SOLID
  5
260
  8
0
  6
CONTINUOUS
 62
     7
 10
61.5031558949
 20
33.7504982945
 30
0.0
 11
63.1606558949
 21
33.4954982945
 31
0.0
 12
63.1606558949
 22
34.0054982945
 32
0.0
 13
63.1606558949
 23
34.0054982945
 33
0.0
  0
SOLID
  5
261
  8
0
  6
CONTINUOUS
 62
     7
 10
57.1281558949
 20
33.7504982945
 30
0.0
 11
55.4706558949
 21
34.0054982945
 31
0.0
 12
55.4706558949
 22
33.4954982945
 32
0.0
 13
55.4706558949
 23
33.4954982945
 33
0.0
  0
LINE
  5
262
  8
0
  6
CONTINUOUS
 62
     7
 10
45.744649989
 20
33.7383238001
 30
0.0
 11
45.4209195041
 21
33.7383238001
 31
0.0
  0
LINE
  5
263
  8
0
  6
CONTINUOUS
 62
     7
 10
45.4209195041
 20
33.7383238001
 30
0.0
 11
45.4209195041
 21
31.2082455991
 31
0.0
  0
LINE
  5
264
  8
0
  6
CONTINUOUS
 62
     7
 10
45.4209195041
 20
31.2082455991
 30
0.0
 11
45.744649989
 21
31.2082455991
 31
0.0
  0
LINE
  5
265
  8
0
  6
CONTINUOUS
 62
     7
 10
51.8531948493
 20
33.7383238001
 30
0.0
 11
52.1769253343
 21
33.7383238001
 31
0.0
  0
LINE
  5
266
  8
0
  6
CONTINUOUS
 62
     7
 10
52.1769253343
 20
33.7383238001
 30
0.0
 11
52.1769253343
 21
31.2082455991
 31
0.0
  0
LINE
  5
267
  8
0
  6
CONTINUOUS
 62
     7
 10
52.1769253343
 20
31.2082455991
 30
0.0
 11
51.8531948493
 21
31.2082455991
 31
0.0
  0
LINE
  5
268
  8
0
  6
CONTINUOUS
 62
     7
 10
61.5031558949
 20
29.245988255
 30
0.0
 11
61.5031558949
 21
35.3442482945
 31
0.0
  0
LINE
  5
269
  8
0
  6
CONTINUOUS
 62
     7
 10
57.1281558949
 20
29.245988255
 30
0.0
 11
57.1281558949
 21
35.3442482945
 31
0.0
  0
LINE
  5
26A
  8
0
  6
CONTINUOUS
 62
     7
 10
61.5031558949
 20
33.7504982945
 30
0.0
 11
64.6906558949
 21
33.7504982945
 31
0.0
  0
LINE
  5
26B
  8
0
  6
CONTINUOUS
 62
     7
 10
57.1281558949
 20
33.7504982945
 30
0.0
 11
53.3315590377
 21
33.7504982945
 31
0.0
  0
TEXT
  5
26C
  8
0
  6
CONTINUOUS
 62
     7
 10
44.5893195554
 20
34.6494115851
 30
0.1744375
 40
1.59375
  1
 
 41
0.7
 11
44.5893195554
 21
34.0864033614
 31
0.1744375
 73
     1
  0
TEXT
  5
26D
  8
0
  6
CONTINUOUS
 62
     7
 10
46.0906542688
 20
34.6250625087
 30
0.1744375
 40
1.59375
  1
4.38
 41
0.7
 11
46.0906542688
 21
34.0620542851
 31
0.1744375
 73
     1
  0
TEXT
  5
26E
  8
0
  6
CONTINUOUS
 62
     7
 10
46.1493130952
 20
31.7712537351
 30
0.1744375
 40
1.59375
  1
111.1
 41
0.7
 11
46.1493130952
 21
31.2082455114
 31
0.1744375
 73
     1
  0
TEXT
  5
26F
  8
0
  6
CONTINUOUS
 62
     7
 10
52.419723198
 20
34.6494115851
 30
0.1744375
 40
1.59375
  1
 
 41
0.7
 11
52.419723198
 21
34.0864033614
 31
0.1744375
 73
     1
  0
ENDBLK
  5
25F
  8
0
  0
BLOCK
  8
0
  2
*D10
 70
     1
 10
0.0
 20
0.0
 30
0.0
  3
*D10
  1

  0
SOLID
  5
275
  8
0
  6
CONTINUOUS
 62
     7
 10
55.0191558949
 20
86.1616918099
 30
0.0
 11
56.6766558949
 21
85.9066918099
 31
0.0
 12
56.6766558949
 22
86.4166918099
 32
0.0
 13
56.6766558949
 23
86.4166918099
 33
0.0
  0
SOLID
  5
276
  8
0
  6
CONTINUOUS
 62
     7
 10
73.8311558949
 20
86.1616918099
 30
0.0
 11
72.1736558949
 21
86.4166918099
 31
0.0
 12
72.1736558949
 22
85.9066918099
 32
0.0
 13
72.1736558949
 23
85.9066918099
 33
0.0
  0
LINE
  5
277
  8
0
  6
CONTINUOUS
 62
     7
 10
61.3708835232
 20
86.1495173156
 30
0.0
 11
61.0471530383
 21
86.1495173156
 31
0.0
  0
LINE
  5
278
  8
0
  6
CONTINUOUS
 62
     7
 10
61.0471530383
 20
86.1495173156
 30
0.0
 11
61.0471530383
 21
83.6194391145
 31
0.0
  0
LINE
  5
279
  8
0
  6
CONTINUOUS
 62
     7
 10
61.0471530383
 20
83.6194391145
 30
0.0
 11
61.3708835232
 21
83.6194391145
 31
0.0
  0
LINE
  5
27A
  8
0
  6
CONTINUOUS
 62
     7
 10
67.4794283835
 20
86.1495173156
 30
0.0
 11
67.8031588684
 21
86.1495173156
 31
0.0
  0
LINE
  5
27B
  8
0
  6
CONTINUOUS
 62
     7
 10
67.8031588684
 20
86.1495173156
 30
0.0
 11
67.8031588684
 21
83.6194391145
 31
0.0
  0
LINE
  5
27C
  8
0
  6
CONTINUOUS
 62
     7
 10
67.8031588684
 20
83.6194391145
 30
0.0
 11
67.4794283835
 21
83.6194391145
 31
0.0
  0
LINE
  5
27D
  8
0
  6
CONTINUOUS
 62
     7
 10
55.0191558949
 20
82.730488255
 30
0.0
 11
55.0191558949
 21
87.7554418099
 31
0.0
  0
LINE
  5
27E
  8
0
  6
CONTINUOUS
 62
     7
 10
73.8311558949
 20
82.730488255
 30
0.0
 11
73.8311558949
 21
87.7554418099
 31
0.0
  0
LINE
  5
27F
  8
0
  6
CONTINUOUS
 62
     7
 10
55.0191558949
 20
86.1616918099
 30
0.0
 11
59.892519218
 21
86.1616918099
 31
0.0
  0
LINE
  5
280
  8
0
  6
CONTINUOUS
 62
     7
 10
73.8311558949
 20
86.1616918099
 30
0.0
 11
68.9577925719
 21
86.1616918099
 31
0.0
  0
TEXT
  5
281
  8
0
  6
CONTINUOUS
 62
     7
 10
60.2155530896
 20
87.0606051006
 30
0.1744375
 40
1.59375
  1
 
 41
0.7
 11
60.2155530896
 21
86.4975968769
 31
0.1744375
 73
     1
  0
TEXT
  5
282
  8
0
  6
CONTINUOUS
 62
     7
 10
61.1280858349
 20
87.0362560242
 30
0.1744375
 40
1.59375
  1
18.81
 41
0.7
 11
61.1280858349
 21
86.4732478005
 31
0.1744375
 73
     1
  0
TEXT
  5
283
  8
0
  6
CONTINUOUS
 62
     7
 10
61.7755466294
 20
84.1824472505
 30
0.1744375
 40
1.59375
  1
477.8
 41
0.7
 11
61.7755466294
 21
83.6194390269
 31
0.1744375
 73
     1
  0
TEXT
  5
284
  8
0
  6
CONTINUOUS
 62
     7
 10
68.0459567321
 20
87.0606051006
 30
0.1744375
 40
1.59375
  1
 
 41
0.7
 11
68.0459567321
 21
86.4975968769
 31
0.1744375
 73
     1
  0
ENDBLK
  5
274
  8
0
  0
BLOCK
  8
0
  2
*D11
 70
     1
 10
0.0
 20
0.0
 30
0.0
  3
*D11
  1

  0
SOLID
  5
289
  8
0
  6
CONTINUOUS
 62
     7
 10
50.3190396565
 20
15.342988255
 30
0.0
 11
50.5740396565
 21
17.000488255
 31
0.0
 12
50.0640396565
 22
17.000488255
 32
0.0
 13
50.0640396565
 23
17.000488255
 33
0.0
  0
SOLID
  5
28A
  8
0
  6
CONTINUOUS
 62
     7
 10
50.3190396565
 20
12.170988255
 30
0.0
 11
50.0640396565
 21
10.513488255
 31
0.0
 12
50.5740396565
 22
10.513488255
 32
0.0
 13
50.5740396565
 23
10.513488255
 33
0.0
  0
LINE
  5
28B
  8
0
  6
CONTINUOUS
 62
     7
 10
41.6699168008
 20
8.6199158957
 30
0.0
 11
41.3461863159
 21
8.6199158957
 31
0.0
  0
LINE
  5
28C
  8
0
  6
CONTINUOUS
 62
     7
 10
41.3461863159
 20
8.6199158957
 30
0.0
 11
41.3461863159
 21
6.0898376946
 31
0.0
  0
LINE
  5
28D
  8
0
  6
CONTINUOUS
 62
     7
 10
41.3461863159
 20
6.0898376946
 30
0.0
 11
41.6699168008
 21
6.0898376946
 31
0.0
  0
LINE
  5
28E
  8
0
  6
CONTINUOUS
 62
     7
 10
46.6008577249
 20
8.6199158957
 30
0.0
 11
46.9245882098
 21
8.6199158957
 31
0.0
  0
LINE
  5
28F
  8
0
  6
CONTINUOUS
 62
     7
 10
46.9245882098
 20
8.6199158957
 30
0.0
 11
46.9245882098
 21
6.0898376946
 31
0.0
  0
LINE
  5
290
  8
0
  6
CONTINUOUS
 62
     7
 10
46.9245882098
 20
6.0898376946
 30
0.0
 11
46.6008577249
 21
6.0898376946
 31
0.0
  0
LINE
  5
291
  8
0
  6
CONTINUOUS
 62
     7
 10
54.0346558949
 20
15.342988255
 30
0.0
 11
48.7252896565
 21
15.342988255
 31
0.0
  0
LINE
  5
292
  8
0
  6
CONTINUOUS
 62
     7
 10
54.4536558949
 20
12.170988255
 30
0.0
 11
48.7252896565
 21
12.170988255
 31
0.0
  0
LINE
  5
293
  8
0
  6
CONTINUOUS
 62
     7
 10
48.7252896565
 20
8.6320903901
 30
0.0
 11
50.3190396565
 21
8.6320903901
 31
0.0
  0
LINE
  5
294
  8
0
  6
CONTINUOUS
 62
     7
 10
50.3190396565
 20
8.6320903901
 30
0.0
 11
50.3190396565
 21
12.170988255
 31
0.0
  0
LINE
  5
295
  8
0
  6
CONTINUOUS
 62
     7
 10
50.3190396565
 20
15.342988255
 30
0.0
 11
50.3190396565
 21
18.530488255
 31
0.0
  0
TEXT
  5
296
  8
0
  6
CONTINUOUS
 62
     7
 10
40.5145863672
 20
9.5310036807
 30
0.1744375
 40
1.59375
  1
 
 41
0.7
 11
40.5145863672
 21
8.967995457
 31
0.1744375
 73
     1
  0
TEXT
  5
297
  8
0
  6
CONTINUOUS
 62
     7
 10
41.4271191124
 20
9.5066546043
 30
0.1744375
 40
1.59375
  1
3.17
 41
0.7
 11
41.4271191124
 21
8.9436463806
 31
0.1744375
 73
     1
  0
TEXT
  5
298
  8
0
  6
CONTINUOUS
 62
     7
 10
42.074579907
 20
6.6528458307
 30
0.1744375
 40
1.59375
  1
80.6
 41
0.7
 11
42.074579907
 21
6.089837607
 31
0.1744375
 73
     1
  0
TEXT
  5
299
  8
0
  6
CONTINUOUS
 62
     7
 10
47.1673860735
 20
9.5310036807
 30
0.1744375
 40
1.59375
  1
 
 41
0.7
 11
47.1673860735
 21
8.967995457
 31
0.1744375
 73
     1
  0
ENDBLK
  5
288
  8
0
  0
BLOCK
  8
0
  2
*D12
 70
     1
 10
0.0
 20
0.0
 30
0.0
  3
*D12
  1

  0
SOLID
  5
29E
  8
0
  6
CONTINUOUS
 62
     7
 10
88.3862740052
 20
47.139488255
 30
0.0
 11
88.1312740052
 21
45.481988255
 31
0.0
 12
88.6412740052
 22
45.481988255
 32
0.0
 13
88.6412740052
 23
45.481988255
 33
0.0
  0
SOLID
  5
29F
  8
0
  6
CONTINUOUS
 62
     7
 10
88.3862740052
 20
12.170988255
 30
0.0
 11
88.6412740052
 21
13.828488255
 31
0.0
 12
88.1312740052
 22
13.828488255
 32
0.0
 13
88.1312740052
 23
13.828488255
 33
0.0
  0
LINE
  5
2A0
  8
0
  6
CONTINUOUS
 62
     7
 10
85.3320016335
 20
29.6430637607
 30
0.0
 11
85.0082711485
 21
29.6430637607
 31
0.0
  0
LINE
  5
2A1
  8
0
  6
CONTINUOUS
 62
     7
 10
85.0082711485
 20
29.6430637607
 30
0.0
 11
85.0082711485
 21
27.1129855596
 31
0.0
  0
LINE
  5
2A2
  8
0
  6
CONTINUOUS
 62
     7
 10
85.0082711485
 20
27.1129855596
 30
0.0
 11
85.3320016335
 21
27.1129855596
 31
0.0
  0
LINE
  5
2A3
  8
0
  6
CONTINUOUS
 62
     7
 10
91.4405464938
 20
29.6430637607
 30
0.0
 11
91.7642769787
 21
29.6430637607
 31
0.0
  0
LINE
  5
2A4
  8
0
  6
CONTINUOUS
 62
     7
 10
91.7642769787
 20
29.6430637607
 30
0.0
 11
91.7642769787
 21
27.1129855596
 31
0.0
  0
LINE
  5
2A5
  8
0
  6
CONTINUOUS
 62
     7
 10
91.7642769787
 20
27.1129855596
 30
0.0
 11
91.4405464938
 21
27.1129855596
 31
0.0
  0
LINE
  5
2A6
  8
0
  6
CONTINUOUS
 62
     7
 10
73.4686558949
 20
47.139488255
 30
0.0
 11
89.9800240052
 21
47.139488255
 31
0.0
  0
LINE
  5
2A7
  8
0
  6
CONTINUOUS
 62
     7
 10
74.3966558949
 20
12.170988255
 30
0.0
 11
89.9800240052
 21
12.170988255
 31
0.0
  0
LINE
  5
2A8
  8
0
  6
CONTINUOUS
 62
     7
 10
88.3862740052
 20
47.139488255
 30
0.0
 11
88.3862740052
 21
32.5212216107
 31
0.0
  0
LINE
  5
2A9
  8
0
  6
CONTINUOUS
 62
     7
 10
88.3862740052
 20
12.170988255
 30
0.0
 11
88.3862740052
 21
26.7892548994
 31
0.0
  0
TEXT
  5
2AA
  8
0
  6
CONTINUOUS
 62
     7
 10
84.1766711999
 20
30.5541515457
 30
0.1744375
 40
1.59375
  1
 
 41
0.7
 11
84.1766711999
 21
29.991143322
 31
0.1744375
 73
     1
  0
TEXT
  5
2AB
  8
0
  6
CONTINUOUS
 62
     7
 10
85.0892039451
 20
30.5298024693
 30
0.1744375
 40
1.59375
  1
34.97
 41
0.7
 11
85.0892039451
 21
29.9667942456
 31
0.1744375
 73
     1
  0
TEXT
  5
2AC
  8
0
  6
CONTINUOUS
 62
     7
 10
85.7366647396
 20
27.6759936956
 30
0.1744375
 40
1.59375
  1
888.2
 41
0.7
 11
85.7366647396
 21
27.1129854719
 31
0.1744375
 73
     1
  0
TEXT
  5
2AD
  8
0
  6
CONTINUOUS
 62
     7
 10
92.0070748424
 20
30.5541515457
 30
0.1744375
 40
1.59375
  1
 
 41
0.7
 11
92.0070748424
 21
29.991143322
 31
0.1744375
 73
     1
  0
ENDBLK
  5
29D
  8
0
  0
BLOCK
  8
0
  2
*D13
 70
     1
 10
0.0
 20
0.0
 30
0.0
  3
*D13
  1

  0
SOLID
  5
2B2
  8
0
  6
CONTINUOUS
 62
     7
 10
97.421707076
 20
12.170988255
 30
0.0
 11
97.676707076
 21
13.828488255
 31
0.0
 12
97.166707076
 22
13.828488255
 32
0.0
 13
97.166707076
 23
13.828488255
 33
0.0
  0
SOLID
  5
2B3
  8
0
  6
CONTINUOUS
 62
     7
 10
97.421707076
 20
82.107988255
 30
0.0
 11
97.166707076
 21
80.450488255
 31
0.0
 12
97.676707076
 22
80.450488255
 32
0.0
 13
97.676707076
 23
80.450488255
 33
0.0
  0
LINE
  5
2B4
  8
0
  6
CONTINUOUS
 62
     7
 10
93.7786327362
 20
47.1273137607
 30
0.0
 11
93.4549022513
 21
47.1273137607
 31
0.0
  0
LINE
  5
2B5
  8
0
  6
CONTINUOUS
 62
     7
 10
93.4549022513
 20
47.1273137607
 30
0.0
 11
93.4549022513
 21
44.5972355596
 31
0.0
  0
LINE
  5
2B6
  8
0
  6
CONTINUOUS
 62
     7
 10
93.4549022513
 20
44.5972355596
 30
0.0
 11
93.7786327362
 21
44.5972355596
 31
0.0
  0
LINE
  5
2B7
  8
0
  6
CONTINUOUS
 62
     7
 10
101.0647815327
 20
47.1273137607
 30
0.0
 11
101.3885120177
 21
47.1273137607
 31
0.0
  0
LINE
  5
2B8
  8
0
  6
CONTINUOUS
 62
     7
 10
101.3885120177
 20
47.1273137607
 30
0.0
 11
101.3885120177
 21
44.5972355596
 31
0.0
  0
LINE
  5
2B9
  8
0
  6
CONTINUOUS
 62
     7
 10
101.3885120177
 20
44.5972355596
 30
0.0
 11
101.0647815327
 21
44.5972355596
 31
0.0
  0
LINE
  5
2BA
  8
0
  6
CONTINUOUS
 62
     7
 10
74.3966558949
 20
12.170988255
 30
0.0
 11
99.015457076
 21
12.170988255
 31
0.0
  0
LINE
  5
2BB
  8
0
  6
CONTINUOUS
 62
     7
 10
74.3966558949
 20
82.107988255
 30
0.0
 11
99.015457076
 21
82.107988255
 31
0.0
  0
LINE
  5
2BC
  8
0
  6
CONTINUOUS
 62
     7
 10
97.421707076
 20
12.170988255
 30
0.0
 11
97.421707076
 21
44.2735048994
 31
0.0
  0
LINE
  5
2BD
  8
0
  6
CONTINUOUS
 62
     7
 10
97.421707076
 20
82.107988255
 30
0.0
 11
97.421707076
 21
50.0054716107
 31
0.0
  0
TEXT
  5
2BE
  8
0
  6
CONTINUOUS
 62
     7
 10
92.6233023026
 20
48.0384015457
 30
0.1744375
 40
1.59375
  1
 
 41
0.7
 11
92.6233023026
 21
47.475393322
 31
0.1744375
 73
     1
  0
TEXT
  5
2BF
  8
0
  6
CONTINUOUS
 62
     7
 10
94.124637016
 20
48.0140524693
 30
0.1744375
 40
1.59375
  1
69.94
 41
0.7
 11
94.124637016
 21
47.4510442456
 31
0.1744375
 73
     1
  0
TEXT
  5
2C0
  8
0
  6
CONTINUOUS
 62
     7
 10
94.1832958424
 20
45.1602436956
 30
0.1744375
 40
1.59375
  1
1776.4
 41
0.7
 11
94.1832958424
 21
44.5972354719
 31
0.1744375
 73
     1
  0
TEXT
  5
2C1
  8
0
  6
CONTINUOUS
 62
     7
 10
101.6313098814
 20
48.0384015457
 30
0.1744375
 40
1.59375
  1
 
 41
0.7
 11
101.6313098814
 21
47.475393322
 31
0.1744375
 73
     1
  0
ENDBLK
  5
2B1
  8
0
  0
BLOCK
  8
0
  2
*D14
 70
     1
 10
0.0
 20
0.0
 30
0.0
  3
*D14
  1

  0
SOLID
  5
2C7
  8
0
  6
CONTINUOUS
 62
     7
 10
72.8311558949
 20
52.948826173
 30
0.0
 11
71.1736558949
 21
53.203826173
 31
0.0
 12
71.1736558949
 22
52.693826173
 32
0.0
 13
71.1736558949
 23
52.693826173
 33
0.0
  0
SOLID
  5
2C8
  8
0
  6
CONTINUOUS
 62
     7
 10
73.8311558949
 20
52.948826173
 30
0.0
 11
75.4886558949
 21
52.693826173
 31
0.0
 12
75.4886558949
 22
53.203826173
 32
0.0
 13
75.4886558949
 23
53.203826173
 33
0.0
  0
LINE
  5
2C9
  8
0
  6
CONTINUOUS
 62
     7
 10
78.5304437163
 20
52.9366516787
 30
0.0
 11
78.2067132313
 21
52.9366516787
 31
0.0
  0
LINE
  5
2CA
  8
0
  6
CONTINUOUS
 62
     7
 10
78.2067132313
 20
52.9366516787
 30
0.0
 11
78.2067132313
 21
50.4065734776
 31
0.0
  0
LINE
  5
2CB
  8
0
  6
CONTINUOUS
 62
     7
 10
78.2067132313
 20
50.4065734776
 30
0.0
 11
78.5304437163
 21
50.4065734776
 31
0.0
  0
LINE
  5
2CC
  8
0
  6
CONTINUOUS
 62
     7
 10
83.4613846403
 20
52.9366516787
 30
0.0
 11
83.7851151253
 21
52.9366516787
 31
0.0
  0
LINE
  5
2CD
  8
0
  6
CONTINUOUS
 62
     7
 10
83.7851151253
 20
52.9366516787
 30
0.0
 11
83.7851151253
 21
50.4065734776
 31
0.0
  0
LINE
  5
2CE
  8
0
  6
CONTINUOUS
 62
     7
 10
83.7851151253
 20
50.4065734776
 30
0.0
 11
83.4613846403
 21
50.4065734776
 31
0.0
  0
LINE
  5
2CF
  8
0
  6
CONTINUOUS
 62
     7
 10
72.8311558949
 20
47.776988255
 30
0.0
 11
72.8311558949
 21
54.542576173
 31
0.0
  0
LINE
  5
2D0
  8
0
  6
CONTINUOUS
 62
     7
 10
72.8311558949
 20
52.948826173
 30
0.0
 11
69.6436558949
 21
52.948826173
 31
0.0
  0
LINE
  5
2D1
  8
0
  6
CONTINUOUS
 62
     7
 10
73.8311558949
 20
52.948826173
 30
0.0
 11
77.052079411
 21
52.948826173
 31
0.0
  0
TEXT
  5
2D2
  8
0
  6
CONTINUOUS
 62
     7
 10
77.3751132827
 20
53.8477394636
 30
0.1744375
 40
1.59375
  1
 
 41
0.7
 11
77.3751132827
 21
53.28473124
 31
0.1744375
 73
     1
  0
TEXT
  5
2D3
  8
0
  6
CONTINUOUS
 62
     7
 10
78.2876460279
 20
53.8233903873
 30
0.1744375
 40
1.59375
  1
1.00
 41
0.7
 11
78.2876460279
 21
53.2603821636
 31
0.1744375
 73
     1
  0
TEXT
  5
2D4
  8
0
  6
CONTINUOUS
 62
     7
 10
78.9351068224
 20
50.9695816136
 30
0.1744375
 40
1.59375
  1
25.4
 41
0.7
 11
78.9351068224
 21
50.4065733899
 31
0.1744375
 73
     1
  0
TEXT
  5
2D5
  8
0
  6
CONTINUOUS
 62
     7
 10
84.0279129889
 20
53.8477394636
 30
0.1744375
 40
1.59375
  1
 
 41
0.7
 11
84.0279129889
 21
53.28473124
 31
0.1744375
 73
     1
  0
ENDBLK
  5
2C6
  8
0
  0
BLOCK
  8
0
  2
*D15
 70
     1
 10
0.0
 20
0.0
 30
0.0
  3
*D15
  1

  0
SOLID
  5
2DB
  8
0
  6
CONTINUOUS
 62
     7
 10
73.8311558949
 20
8.168503315
 30
0.0
 11
75.4886558949
 21
7.913503315
 31
0.0
 12
75.4886558949
 22
8.423503315
 32
0.0
 13
75.4886558949
 23
8.423503315
 33
0.0
  0
SOLID
  5
2DC
  8
0
  6
CONTINUOUS
 62
     7
 10
71.7221558949
 20
8.168503315
 30
0.0
 11
70.0646558949
 21
8.423503315
 31
0.0
 12
70.0646558949
 22
7.913503315
 32
0.0
 13
70.0646558949
 23
7.913503315
 33
0.0
  0
LINE
  5
2DD
  8
0
  6
CONTINUOUS
 62
     7
 10
58.1912121165
 20
8.1563288207
 30
0.0
 11
57.8674816316
 21
8.1563288207
 31
0.0
  0
LINE
  5
2DE
  8
0
  6
CONTINUOUS
 62
     7
 10
57.8674816316
 20
8.1563288207
 30
0.0
 11
57.8674816316
 21
5.6262506196
 31
0.0
  0
LINE
  5
2DF
  8
0
  6
CONTINUOUS
 62
     7
 10
57.8674816316
 20
5.6262506196
 30
0.0
 11
58.1912121165
 21
5.6262506196
 31
0.0
  0
LINE
  5
2E0
  8
0
  6
CONTINUOUS
 62
     7
 10
63.1221530406
 20
8.1563288207
 30
0.0
 11
63.4458835255
 21
8.1563288207
 31
0.0
  0
LINE
  5
2E1
  8
0
  6
CONTINUOUS
 62
     7
 10
63.4458835255
 20
8.1563288207
 30
0.0
 11
63.4458835255
 21
5.6262506196
 31
0.0
  0
LINE
  5
2E2
  8
0
  6
CONTINUOUS
 62
     7
 10
63.4458835255
 20
5.6262506196
 30
0.0
 11
63.1221530406
 21
5.6262506196
 31
0.0
  0
LINE
  5
2E3
  8
0
  6
CONTINUOUS
 62
     7
 10
73.8311558949
 20
11.548488255
 30
0.0
 11
73.8311558949
 21
6.574753315
 31
0.0
  0
LINE
  5
2E4
  8
0
  6
CONTINUOUS
 62
     7
 10
71.7221558949
 20
13.970988255
 30
0.0
 11
71.7221558949
 21
6.574753315
 31
0.0
  0
LINE
  5
2E5
  8
0
  6
CONTINUOUS
 62
     7
 10
73.8311558949
 20
8.168503315
 30
0.0
 11
77.0186558949
 21
8.168503315
 31
0.0
  0
LINE
  5
2E6
  8
0
  6
CONTINUOUS
 62
     7
 10
71.7221558949
 20
8.168503315
 30
0.0
 11
68.6092405267
 21
8.168503315
 31
0.0
  0
TEXT
  5
2E7
  8
0
  6
CONTINUOUS
 62
     7
 10
57.9484144281
 20
9.0430675293
 30
0.1744375
 40
1.59375
  1
2.11
 41
0.7
 11
57.9484144281
 21
8.4800593056
 31
0.1744375
 73
     1
  0
TEXT
  5
2E8
  8
0
  6
CONTINUOUS
 62
     7
 10
58.5958752226
 20
6.1892587556
 30
0.1744375
 40
1.59375
  1
53.6
 41
0.7
 11
58.5958752226
 21
5.626250532
 31
0.1744375
 73
     1
  0
TEXT
  5
2E9
  8
0
  6
CONTINUOUS
 62
     7
 10
63.688681506
 20
9.0674166057
 30
0.1744375
 40
1.59375
  1
 TYP.
 41
0.7
 11
63.688681506
 21
8.504408382
 31
0.1744375
 73
     1
  0
ENDBLK
  5
2DA
  8
0
  0
BLOCK
  8
0
  2
*D16
 70
     1
 10
0.0
 20
0.0
 30
0.0
  3
*D16
  1

  0
SOLID
  5
2EE
  8
0
  6
CONTINUOUS
 62
     7
 10
79.5120590684
 20
14.608488255
 30
0.0
 11
79.7670590684
 21
16.265988255
 31
0.0
 12
79.2570590684
 22
16.265988255
 32
0.0
 13
79.2570590684
 23
16.265988255
 33
0.0
  0
SOLID
  5
2EF
  8
0
  6
CONTINUOUS
 62
     7
 10
79.5120590684
 20
12.170988255
 30
0.0
 11
79.2570590684
 21
10.513488255
 31
0.0
 12
79.7670590684
 22
10.513488255
 32
0.0
 13
79.7670590684
 23
10.513488255
 33
0.0
  0
LINE
  5
2F0
  8
0
  6
CONTINUOUS
 62
     7
 10
83.230241117
 20
9.0374746244
 30
0.0
 11
82.9065106321
 21
9.0374746244
 31
0.0
  0
LINE
  5
2F1
  8
0
  6
CONTINUOUS
 62
     7
 10
82.9065106321
 20
9.0374746244
 30
0.0
 11
82.9065106321
 21
6.5073964233
 31
0.0
  0
LINE
  5
2F2
  8
0
  6
CONTINUOUS
 62
     7
 10
82.9065106321
 20
6.5073964233
 30
0.0
 11
83.230241117
 21
6.5073964233
 31
0.0
  0
LINE
  5
2F3
  8
0
  6
CONTINUOUS
 62
     7
 10
88.161182041
 20
9.0374746244
 30
0.0
 11
88.484912526
 21
9.0374746244
 31
0.0
  0
LINE
  5
2F4
  8
0
  6
CONTINUOUS
 62
     7
 10
88.484912526
 20
9.0374746244
 30
0.0
 11
88.484912526
 21
6.5073964233
 31
0.0
  0
LINE
  5
2F5
  8
0
  6
CONTINUOUS
 62
     7
 10
88.484912526
 20
6.5073964233
 30
0.0
 11
88.161182041
 21
6.5073964233
 31
0.0
  0
LINE
  5
2F6
  8
0
  6
CONTINUOUS
 62
     7
 10
72.3891657488
 20
14.608488255
 30
0.0
 11
81.1058090684
 21
14.608488255
 31
0.0
  0
LINE
  5
2F7
  8
0
  6
CONTINUOUS
 62
     7
 10
74.3966558949
 20
12.170988255
 30
0.0
 11
81.1058090684
 21
12.170988255
 31
0.0
  0
LINE
  5
2F8
  8
0
  6
CONTINUOUS
 62
     7
 10
81.1058090684
 20
9.0496491187
 30
0.0
 11
79.5120590684
 21
9.0496491187
 31
0.0
  0
LINE
  5
2F9
  8
0
  6
CONTINUOUS
 62
     7
 10
79.5120590684
 20
9.0496491187
 30
0.0
 11
79.5120590684
 21
12.170988255
 31
0.0
  0
LINE
  5
2FA
  8
0
  6
CONTINUOUS
 62
     7
 10
79.5120590684
 20
14.608488255
 30
0.0
 11
79.5120590684
 21
17.795988255
 31
0.0
  0
TEXT
  5
2FB
  8
0
  6
CONTINUOUS
 62
     7
 10
82.0749106834
 20
9.9485624094
 30
0.1744375
 40
1.59375
  1
 
 41
0.7
 11
82.0749106834
 21
9.3855541857
 31
0.1744375
 73
     1
  0
TEXT
  5
2FC
  8
0
  6
CONTINUOUS
 62
     7
 10
82.9874434286
 20
9.924213333
 30
0.1744375
 40
1.59375
  1
2.44
 41
0.7
 11
82.9874434286
 21
9.3612051093
 31
0.1744375
 73
     1
  0
TEXT
  5
2FD
  8
0
  6
CONTINUOUS
 62
     7
 10
83.6349042231
 20
7.0704045593
 30
0.1744375
 40
1.59375
  1
61.9
 41
0.7
 11
83.6349042231
 21
6.5073963357
 31
0.1744375
 73
     1
  0
TEXT
  5
2FE
  8
0
  6
CONTINUOUS
 62
     7
 10
88.7277103897
 20
9.9485624094
 30
0.1744375
 40
1.59375
  1
 
 41
0.7
 11
88.7277103897
 21
9.3855541857
 31
0.1744375
 73
     1
  0
ENDBLK
  5
2ED
  8
0
  0
BLOCK
  8
0
  2
*D17
 70
     1
 10
0.0
 20
0.0
 30
0.0
  3
*D17
  1

  0
SOLID
  5
303
  8
0
  6
CONTINUOUS
 62
     7
 10
79.5120590684
 20
14.608488255
 30
0.0
 11
79.7670590684
 21
16.265988255
 31
0.0
 12
79.2570590684
 22
16.265988255
 32
0.0
 13
79.2570590684
 23
16.265988255
 33
0.0
  0
SOLID
  5
304
  8
0
  6
CONTINUOUS
 62
     7
 10
79.5120590684
 20
29.233488255
 30
0.0
 11
79.2570590684
 21
27.575988255
 31
0.0
 12
79.7670590684
 22
27.575988255
 32
0.0
 13
79.7670590684
 23
27.575988255
 33
0.0
  0
LINE
  5
305
  8
0
  6
CONTINUOUS
 62
     7
 10
76.4577866967
 20
21.9088137607
 30
0.0
 11
76.1340562118
 21
21.9088137607
 31
0.0
  0
LINE
  5
306
  8
0
  6
CONTINUOUS
 62
     7
 10
76.1340562118
 20
21.9088137607
 30
0.0
 11
76.1340562118
 21
19.3787355596
 31
0.0
  0
LINE
  5
307
  8
0
  6
CONTINUOUS
 62
     7
 10
76.1340562118
 20
19.3787355596
 30
0.0
 11
76.4577866967
 21
19.3787355596
 31
0.0
  0
LINE
  5
308
  8
0
  6
CONTINUOUS
 62
     7
 10
82.566331557
 20
21.9088137607
 30
0.0
 11
82.890062042
 21
21.9088137607
 31
0.0
  0
LINE
  5
309
  8
0
  6
CONTINUOUS
 62
     7
 10
82.890062042
 20
21.9088137607
 30
0.0
 11
82.890062042
 21
19.3787355596
 31
0.0
  0
LINE
  5
30A
  8
0
  6
CONTINUOUS
 62
     7
 10
82.890062042
 20
19.3787355596
 30
0.0
 11
82.566331557
 21
19.3787355596
 31
0.0
  0
LINE
  5
30B
  8
0
  6
CONTINUOUS
 62
     7
 10
72.3891657488
 20
14.608488255
 30
0.0
 11
81.1058090684
 21
14.608488255
 31
0.0
  0
LINE
  5
30C
  8
0
  6
CONTINUOUS
 62
     7
 10
71.7346558949
 20
29.233488255
 30
0.0
 11
81.1058090684
 21
29.233488255
 31
0.0
  0
LINE
  5
30D
  8
0
  6
CONTINUOUS
 62
     7
 10
79.5120590684
 20
14.608488255
 30
0.0
 11
79.5120590684
 21
19.0550048994
 31
0.0
  0
LINE
  5
30E
  8
0
  6
CONTINUOUS
 62
     7
 10
79.5120590684
 20
29.233488255
 30
0.0
 11
79.5120590684
 21
24.7869716107
 31
0.0
  0
TEXT
  5
30F
  8
0
  6
CONTINUOUS
 62
     7
 10
75.3024562631
 20
22.8199015457
 30
0.1744375
 40
1.59375
  1
 
 41
0.7
 11
75.3024562631
 21
22.256893322
 31
0.1744375
 73
     1
  0
TEXT
  5
310
  8
0
  6
CONTINUOUS
 62
     7
 10
76.2149890084
 20
22.7955524693
 30
0.1744375
 40
1.59375
  1
14.63
 41
0.7
 11
76.2149890084
 21
22.2325442456
 31
0.1744375
 73
     1
  0
TEXT
  5
311
  8
0
  6
CONTINUOUS
 62
     7
 10
76.8624498029
 20
19.9417436956
 30
0.1744375
 40
1.59375
  1
371.5
 41
0.7
 11
76.8624498029
 21
19.3787354719
 31
0.1744375
 73
     1
  0
TEXT
  5
312
  8
0
  6
CONTINUOUS
 62
     7
 10
83.1328599056
 20
22.8199015457
 30
0.1744375
 40
1.59375
  1
 
 41
0.7
 11
83.1328599056
 21
22.256893322
 31
0.1744375
 73
     1
  0
ENDBLK
  5
302
  8
0
  0
BLOCK
  8
0
  2
SW_NOTE_7
 70
     0
 10
0.0
 20
0.0
 30
0.0
  3
SW_NOTE_7
  1

  0
TEXT
  5
316
  8
0
  6
CONTINUOUS
 62
     0
 10
8.0158208755
 20
9.390778196
 30
0.0
 40
1.59375
  1
KEY LOCK
 41
0.7
 11
8.0158208755
 21
8.8277699723
 31
0.0
 73
     1
  0
POLYLINE
  5
317
  8
0
  6
CONTINUOUS
 62
     0
 66
     1
 10
0.0
 20
0.0
 30
0.0
  0
VERTEX
  5
7B6
  8
0
  6
CONTINUOUS
 62
     0
 10
7.7646969701
 20
10.1097715739
 30
0.0
  0
VERTEX
  5
7B7
  8
0
  6
CONTINUOUS
 62
     0
 10
4.5771969701
 20
10.1097715739
 30
0.0
  0
VERTEX
  5
7B8
  8
0
  6
CONTINUOUS
 62
     0
 10
0.0
 20
0.0
 30
0.0
  0
SEQEND
  5
7B9
  8
0
  6
CONTINUOUS
 62
     0
  0
SOLID
  5
318
  8
0
  6
CONTINUOUS
 62
     0
 10
0.0
 20
0.0
 30
0.0
 11
0.9159308625
 21
1.4047782405
 31
0.0
 12
0.4513301954
 22
1.6151260956
 32
0.0
 13
0.4513301954
 23
1.6151260956
 33
0.0
  0
ENDBLK
  5
315
  8
0
  0
BLOCK
  8
0
  2
*D19
 70
     1
 10
0.0
 20
0.0
 30
0.0
  3
*D19
  1

  0
SOLID
  5
3C9
  8
0
  6
CONTINUOUS
 62
     7
 10
105.9393024447
 20
86.3767721935
 30
0.0
 11
107.5968024447
 21
86.1217721935
 31
0.0
 12
107.5968024447
 22
86.6317721935
 32
0.0
 13
107.5968024447
 23
86.6317721935
 33
0.0
  0
SOLID
  5
3CA
  8
0
  6
CONTINUOUS
 62
     7
 10
105.1893024447
 20
86.3767721935
 30
0.0
 11
103.5318024447
 21
86.6317721935
 31
0.0
 12
103.5318024447
 22
86.1217721935
 32
0.0
 13
103.5318024447
 23
86.1217721935
 33
0.0
  0
LINE
  5
3CB
  8
0
  6
CONTINUOUS
 62
     7
 10
95.8081060973
 20
86.3645976992
 30
0.0
 11
95.4843756124
 21
86.3645976992
 31
0.0
  0
LINE
  5
3CC
  8
0
  6
CONTINUOUS
 62
     7
 10
95.4843756124
 20
86.3645976992
 30
0.0
 11
95.4843756124
 21
83.8345194981
 31
0.0
  0
LINE
  5
3CD
  8
0
  6
CONTINUOUS
 62
     7
 10
95.4843756124
 20
83.8345194981
 30
0.0
 11
95.8081060973
 21
83.8345194981
 31
0.0
  0
LINE
  5
3CE
  8
0
  6
CONTINUOUS
 62
     7
 10
100.7390470214
 20
86.3645976992
 30
0.0
 11
101.0627775063
 21
86.3645976992
 31
0.0
  0
LINE
  5
3CF
  8
0
  6
CONTINUOUS
 62
     7
 10
101.0627775063
 20
86.3645976992
 30
0.0
 11
101.0627775063
 21
83.8345194981
 31
0.0
  0
LINE
  5
3D0
  8
0
  6
CONTINUOUS
 62
     7
 10
101.0627775063
 20
83.8345194981
 30
0.0
 11
100.7390470214
 21
83.8345194981
 31
0.0
  0
LINE
  5
3D1
  8
0
  6
CONTINUOUS
 62
     7
 10
105.9393024447
 20
82.684488255
 30
0.0
 11
105.9393024447
 21
87.9705221935
 31
0.0
  0
LINE
  5
3D2
  8
0
  6
CONTINUOUS
 62
     7
 10
105.1893024447
 20
82.730488255
 30
0.0
 11
105.1893024447
 21
87.9705221935
 31
0.0
  0
LINE
  5
3D3
  8
0
  6
CONTINUOUS
 62
     7
 10
105.9393024447
 20
86.3767721935
 30
0.0
 11
109.1268024447
 21
86.3767721935
 31
0.0
  0
LINE
  5
3D4
  8
0
  6
CONTINUOUS
 62
     7
 10
105.1893024447
 20
86.3767721935
 30
0.0
 11
102.2174112098
 21
86.3767721935
 31
0.0
  0
TEXT
  5
3D5
  8
0
  6
CONTINUOUS
 62
     7
 10
94.6527756637
 20
87.2756854842
 30
0.1774360236
 40
1.59375
  1
 
 41
0.7
 11
94.6527756637
 21
86.7126772605
 31
0.1774360236
 73
     1
  0
TEXT
  5
3D6
  8
0
  6
CONTINUOUS
 62
     7
 10
96.1541103771
 20
87.2513364078
 30
0.1774360236
 40
1.59375
  1
.75
 41
0.7
 11
96.1541103771
 21
86.6883281841
 31
0.1774360236
 73
     1
  0
TEXT
  5
3D7
  8
0
  6
CONTINUOUS
 62
     7
 10
96.2127692035
 20
84.3975276341
 30
0.1774360236
 40
1.59375
  1
19.1
 41
0.7
 11
96.2127692035
 21
83.8345194105
 31
0.1774360236
 73
     1
  0
TEXT
  5
3D8
  8
0
  6
CONTINUOUS
 62
     7
 10
101.30557537
 20
87.2756854842
 30
0.1774360236
 40
1.59375
  1
 
 41
0.7
 11
101.30557537
 21
86.7126772605
 31
0.1774360236
 73
     1
  0
ENDBLK
  5
3C8
  8
0
  0
BLOCK
  8
0
  2
SW_NOTE_8
 70
     0
 10
0.0
 20
0.0
 30
0.0
  3
SW_NOTE_8
  1

  0
TEXT
  5
581
  8
0
  6
CONTINUOUS
 62
     0
 10
-23.5684747945
 20
-8.9022146915
 30
0.0
 40
1.59375
  1
DOOR STIFFENER
 41
0.7
 11
-23.5684747945
 21
-9.4652229152
 31
0.0
 73
     1
  0
POLYLINE
  5
582
  8
0
  6
CONTINUOUS
 62
     0
 66
     1
 10
0.0
 20
0.0
 30
0.0
  0
VERTEX
  5
7BA
  8
0
  6
CONTINUOUS
 62
     0
 10
-6.5211774584
 20
-8.184548643
 30
0.0
  0
VERTEX
  5
7BB
  8
0
  6
CONTINUOUS
 62
     0
 10
-3.3336774584
 20
-8.184548643
 30
0.0
  0
VERTEX
  5
7BC
  8
0
  6
CONTINUOUS
 62
     0
 10
0.0
 20
0.0
 30
0.0
  0
SEQEND
  5
7BD
  8
0
  6
CONTINUOUS
 62
     0
  0
INSERT
  5
58B
  8
0
  6
CONTINUOUS
 62
     0
  2
_DOT
 10
0.0
 20
0.0
 30
0.4544995079
 41
0.51
 42
0.51
 50
67.8382670683
  0
ENDBLK
  5
580
  8
0
  0
BLOCK
  8
0
  2
_DOT
 70
     0
 10
0.0
 20
0.0
 30
0.0
  3
_DOT
  1

  0
POLYLINE
  5
586
  8
0
  6
BYBLOCK
 62
     0
 66
     1
 10
0.0
 20
0.0
 30
0.0
 70
     1
 40
0.5
 41
0.5
  0
VERTEX
  5
588
  8
0
  6
BYBLOCK
 62
     0
 10
-0.25
 20
0.0
 30
0.0
 42
1.0
  0
VERTEX
  5
589
  8
0
  6
BYBLOCK
 62
     0
 10
0.25
 20
0.0
 30
0.0
 42
1.0
  0
SEQEND
  5
58A
  8
0
  6
BYBLOCK
 62
     0
  0
LINE
  5
587
  8
0
  6
BYBLOCK
 62
     0
 10
-0.5
 20
0.0
 30
0.0
 11
-1.0
 21
0.0
 31
0.0
  0
ENDBLK
  5
585
  8
0
  0
ENDSEC
  0
SECTION
  2
ENTITIES
  0
LINE
  5
44
  8
0
  6
CONTINUOUS
 62
     7
 10
4.99706925
 20
103.6584329268
 30
0.0
 11
4.99706925
 21
5.7894329268
 31
0.0
  0
LINE
  5
45
  8
0
  6
CONTINUOUS
 62
     7
 10
4.20656925
 20
104.4489329268
 30
0.0
 11
4.20656925
 21
4.9989329268
 31
0.0
  0
LINE
  5
46
  8
0
  6
CONTINUOUS
 62
     7
 10
135.53156925
 20
4.9989329268
 30
0.0
 11
4.20656925
 21
4.9989329268
 31
0.0
  0
LINE
  5
47
  8
0
  6
CONTINUOUS
 62
     7
 10
135.53156925
 20
4.9989329268
 30
0.0
 11
135.53156925
 21
104.4489329268
 31
0.0
  0
LINE
  5
48
  8
0
  6
CONTINUOUS
 62
     7
 10
134.74106925
 20
5.7894329268
 30
0.0
 11
4.99706925
 21
5.7894329268
 31
0.0
  0
LINE
  5
49
  8
0
  6
CONTINUOUS
 62
     7
 10
134.74106925
 20
5.7894329268
 30
0.0
 11
134.74106925
 21
103.6584329268
 31
0.0
  0
LINE
  5
4A
  8
0
  6
CONTINUOUS
 62
     7
 10
4.99706925
 20
103.6584329268
 30
0.0
 11
134.74106925
 21
103.6584329268
 31
0.0
  0
LINE
  5
4B
  8
0
  6
CONTINUOUS
 62
     7
 10
4.99706925
 20
98.4819329268
 30
0.0
 11
134.74106925
 21
98.4819329268
 31
0.0
  0
LINE
  5
4C
  8
0
  6
CONTINUOUS
 62
     7
 10
12.16256925
 20
103.6584329268
 30
0.0
 11
12.16256925
 21
98.4819329268
 31
0.0
  0
LINE
  5
4D
  8
0
  6
CONTINUOUS
 62
     7
 10
115.0166810792
 20
103.6584329268
 30
0.0
 11
115.0166810792
 21
98.4819329268
 31
0.0
  0
LINE
  5
4E
  8
0
  6
CONTINUOUS
 62
     7
 10
122.1821810792
 20
103.6584329268
 30
0.0
 11
122.1821810792
 21
98.4819329268
 31
0.0
  0
LINE
  5
4F
  8
0
  6
CONTINUOUS
 62
     7
 10
69.53756925
 20
103.6584329268
 30
0.0
 11
69.53756925
 21
98.4819329268
 31
0.0
  0
LINE
  5
50
  8
0
  6
CONTINUOUS
 62
     7
 10
76.70306925
 20
103.6584329268
 30
0.0
 11
76.70306925
 21
98.4819329268
 31
0.0
  0
LINE
  5
51
  8
0
  6
CONTINUOUS
 62
     7
 10
5.404914536
 20
99.4433804124
 30
0.0
 11
5.404914536
 21
102.8289485271
 31
0.0
  0
LINE
  5
52
  8
0
  6
CONTINUOUS
 62
     7
 10
7.762456182
 20
99.6549784196
 30
0.0
 11
7.762456182
 21
102.8289485271
 31
0.0
  0
LINE
  5
53
  8
0
  6
CONTINUOUS
 62
     7
 10
8.6760035699
 20
99.9957593356
 30
0.0
 11
8.6760035699
 21
102.8289485271
 31
0.0
  0
LINE
  5
54
  8
0
  6
CONTINUOUS
 62
     7
 10
8.3813108641
 20
99.9957593356
 30
0.0
 11
8.3813108641
 21
102.8289485271
 31
0.0
  0
LINE
  5
55
  8
0
  6
CONTINUOUS
 62
     7
 10
9.9873181413
 20
99.4433804124
 30
0.0
 11
9.9873181413
 21
102.8289485271
 31
0.0
  0
LINE
  5
56
  8
0
  6
CONTINUOUS
 62
     7
 10
9.294858252
 20
99.6549784196
 30
0.0
 11
9.294858252
 21
102.8289485271
 31
0.0
  0
LINE
  5
57
  8
0
  6
CONTINUOUS
 62
     7
 10
7.9740541892
 20
99.4433804124
 30
0.0
 11
9.0832602448
 21
99.4433804124
 31
0.0
  0
LINE
  5
58
  8
0
  6
CONTINUOUS
 62
     7
 10
5.404914536
 20
99.4433804124
 30
0.0
 11
6.4952775473
 21
99.4433804124
 31
0.0
  0
LINE
  5
59
  8
0
  6
CONTINUOUS
 62
     7
 10
6.4952775473
 20
101.0515252669
 30
0.0
 11
5.5669955241
 21
101.0515252669
 31
0.0
  0
LINE
  5
5A
  8
0
  6
CONTINUOUS
 62
     7
 10
6.4952775473
 20
101.2208036726
 30
0.0
 11
5.5669955241
 21
101.2208036726
 31
0.0
  0
LINE
  5
5B
  8
0
  6
CONTINUOUS
 62
     7
 10
5.5669955241
 20
101.2208036726
 30
0.0
 11
5.5669955241
 21
101.1361644698
 31
0.0
  0
LINE
  5
5C
  8
0
  6
CONTINUOUS
 62
     7
 10
5.5669955241
 20
101.0515252669
 30
0.0
 11
5.5669955241
 21
101.1361644698
 31
0.0
  0
LINE
  5
5D
  8
0
  6
CONTINUOUS
 62
     7
 10
9.9873181413
 20
99.4433804124
 30
0.0
 11
10.4084445475
 21
99.4433804124
 31
0.0
  0
LINE
  5
5E
  8
0
  6
CONTINUOUS
 62
     7
 10
11.5933933877
 20
100.6283292525
 30
0.0
 11
11.5933933877
 21
101.643999687
 31
0.0
  0
LINE
  5
5F
  8
0
  6
CONTINUOUS
 62
     7
 10
10.9707040707
 20
101.0515252669
 30
0.0
 11
10.9707040707
 21
101.2208036726
 31
0.0
  0
LINE
  5
60
  8
0
  6
CONTINUOUS
 62
     7
 10
10.4441598044
 20
101.0515252669
 30
0.0
 11
10.4441598044
 21
101.2208036726
 31
0.0
  0
LINE
  5
61
  8
0
  6
CONTINUOUS
 62
     7
 10
10.9707040707
 20
101.0515252669
 30
0.0
 11
10.4441598044
 21
101.0515252669
 31
0.0
  0
LINE
  5
62
  8
0
  6
CONTINUOUS
 62
     7
 10
10.9707040707
 20
101.2208036726
 30
0.0
 11
10.4441598044
 21
101.2208036726
 31
0.0
  0
LINE
  5
63
  8
0
  6
CONTINUOUS
 62
     7
 10
8.6760035699
 20
102.8289485271
 30
0.0
 11
9.294858252
 21
102.8289485271
 31
0.0
  0
LINE
  5
64
  8
0
  6
CONTINUOUS
 62
     7
 10
5.404914536
 20
102.8289485271
 30
0.0
 11
6.4952775473
 21
102.8289485271
 31
0.0
  0
LINE
  5
65
  8
0
  6
CONTINUOUS
 62
     7
 10
7.762456182
 20
102.8289485271
 30
0.0
 11
8.3813108641
 21
102.8289485271
 31
0.0
  0
LINE
  5
66
  8
0
  6
CONTINUOUS
 62
     7
 10
9.9873181413
 20
102.8289485271
 30
0.0
 11
10.4084445475
 21
102.8289485271
 31
0.0
  0
LINE
  5
67
  8
0
  6
CONTINUOUS
 62
     7
 10
19.32806925
 20
103.6584329268
 30
0.0
 11
19.32806925
 21
98.4819329268
 31
0.0
  0
LINE
  5
68
  8
0
  6
CONTINUOUS
 62
     7
 10
4.20656925
 20
104.4489329268
 30
0.0
 11
135.53156925
 21
104.4489329268
 31
0.0
  0
ARC
  5
69
  8
0
  6
CONTINUOUS
 62
     7
 10
6.4952775473
 20
102.0248760999
 30
0.0
 40
0.8040724272568553
 50
270.0
 51
90.0
  0
ARC
  5
6A
  8
0
  6
CONTINUOUS
 62
     7
 10
10.4084445475
 20
101.643999687
 30
0.0
 40
1.184948840167996
 50
0.0
 51
90.0
  0
ARC
  5
6B
  8
0
  6
CONTINUOUS
 62
     7
 10
6.4952775473
 20
100.2474528396
 30
0.0
 40
0.8040724272568553
 50
270.0
 51
90.0
  0
ARC
  5
6C
  8
0
  6
CONTINUOUS
 62
     7
 10
7.9740541892
 20
99.6549784196
 30
0.0
 40
0.2115980071729195
 50
180.0
 51
270.0
  0
ARC
  5
6D
  8
0
  6
CONTINUOUS
 62
     7
 10
8.5067251641
 20
99.9957593356
 30
0.0
 40
0.169278405738238
 50
277.4442840976
 51
0.0
  0
ARC
  5
6E
  8
0
  6
CONTINUOUS
 62
     7
 10
8.5505892699
 20
99.9957593356
 30
0.0
 40
0.1692784057383735
 50
180.0
 51
262.5557159021
  0
ARC
  5
6F
  8
0
  6
CONTINUOUS
 62
     7
 10
10.4084445475
 20
100.6283292525
 30
0.0
 40
1.184948840168019
 50
270.0
 51
0.0
  0
ARC
  5
70
  8
0
  6
CONTINUOUS
 62
     7
 10
9.0832602448
 20
99.6549784196
 30
0.0
 40
0.2115980071728671
 50
270.0
 51
0.0
  0
INSERT
  5
77
  8
0
  6
CONTINUOUS
 62
     7
  2
SW_NOTE_0
 10
7.7439135906
 20
92.896060015
 30
0.0
  0
INSERT
  5
80
  8
0
  6
CONTINUOUS
 62
     7
  2
SW_NOTE_1
 10
7.7439135906
 20
83.7898540164
 30
0.0
  0
INSERT
  5
87
  8
0
  6
CONTINUOUS
 62
     7
  2
SW_NOTE_2
 10
7.7439135906
 20
66.8865481687
 30
0.0
  0
TEXT
  5
88
  8
0
  6
CONTINUOUS
 62
     7
 10
7.9694975452
 20
50.0263424605
 30
0.0
 40
1.59375
  1
DOOR IS HINGED LEFT.
 41
0.6475
 11
7.9694975452
 21
49.4633342369
 31
0.0
 73
     1
  0
INSERT
  5
8E
  8
0
  6
CONTINUOUS
 62
     7
  2
SW_NOTE_3
 10
7.7439135906
 20
56.6171532934
 30
0.0
  0
INSERT
  5
94
  8
0
  6
CONTINUOUS
 62
     7
  2
SW_NOTE_4
 10
13.1768689228
 20
101.1282559985
 30
0.0
  0
INSERT
  5
9A
  8
0
  6
CONTINUOUS
 62
     7
  2
SW_NOTE_5
 10
70.6271989693
 20
100.8980328886
 30
0.0
  0
INSERT
  5
A0
  8
0
  6
CONTINUOUS
 62
     7
  2
SW_NOTE_6
 10
116.3953771306
 20
100.9796547725
 30
0.0
  0
TEXT
  5
A1
  8
0
  6
CONTINUOUS
 62
     7
 10
23.4480164204
 20
100.0478647599
 30
0.0
 40
2.390625
  1
ECONOMIZER STEEL DOOR
 41
0.6666666667
 11
23.4480164204
 21
99.2033524244
 31
0.0
 73
     1
  0
TEXT
  5
A2
  8
0
  6
CONTINUOUS
 62
     7
 10
89.6470057209
 20
100.0920385851
 30
0.0
 40
2.390625
  1
ER-16595
 41
0.7
 11
89.6470057209
 21
99.2475262496
 31
0.0
 73
     1
  0
TEXT
  5
A3
  8
0
  6
CONTINUOUS
 62
     7
 10
121.9115279131
 20
100.0920385851
 30
0.0
 40
2.390625
  1
10-22-13
 41
0.7
 11
121.9115279131
 21
99.2475262496
 31
0.0
 73
     1
  0
LINE
  5
A4
  8
0
  6
CONTINUOUS
 62
     7
 10
54.6721558158
 20
78.0609887539
 30
0.0
 11
54.6721558158
 21
76.5609885887
 31
0.0
  0
POLYLINE
  5
A5
  8
0
  6
CONTINUOUS
 62
     7
 66
     1
 10
0.0
 20
0.0
 30
0.0
  0
VERTEX
  5
696
  8
0
  6
CONTINUOUS
 62
     7
 10
54.8456557848
 20
76.2799878882
 30
0.0
  0
VERTEX
  5
697
  8
0
  6
CONTINUOUS
 62
     7
 10
54.8795043005
 20
76.2853875058
 30
0.0
  0
VERTEX
  5
698
  8
0
  6
CONTINUOUS
 62
     7
 10
54.9120516045
 20
76.3013775077
 30
0.0
  0
VERTEX
  5
699
  8
0
  6
CONTINUOUS
 62
     7
 10
54.9420475246
 20
76.3273454211
 30
0.0
  0
VERTEX
  5
69A
  8
0
  6
CONTINUOUS
 62
     7
 10
54.9683386876
 20
76.3622915774
 30
0.0
  0
VERTEX
  5
69B
  8
0
  6
CONTINUOUS
 62
     7
 10
54.9899160383
 20
76.4048736988
 30
0.0
  0
VERTEX
  5
69C
  8
0
  6
CONTINUOUS
 62
     7
 10
55.0059488664
 20
76.4534538309
 30
0.0
  0
VERTEX
  5
69D
  8
0
  6
CONTINUOUS
 62
     7
 10
55.0158223524
 20
76.506168742
 30
0.0
  0
VERTEX
  5
69E
  8
0
  6
CONTINUOUS
 62
     7
 10
55.0191557539
 20
76.5609885887
 30
0.0
  0
SEQEND
  5
69F
  8
0
  6
CONTINUOUS
 62
     7
  0
POLYLINE
  5
A6
  8
0
  6
CONTINUOUS
 62
     7
 66
     1
 10
0.0
 20
0.0
 30
0.0
  0
VERTEX
  5
6A0
  8
0
  6
CONTINUOUS
 62
     7
 10
54.6721558158
 20
76.5609885887
 30
0.0
  0
VERTEX
  5
6A1
  8
0
  6
CONTINUOUS
 62
     7
 10
54.6754898039
 20
76.506168742
 30
0.0
  0
VERTEX
  5
6A2
  8
0
  6
CONTINUOUS
 62
     7
 10
54.6853627032
 20
76.4534538309
 30
0.0
  0
VERTEX
  5
6A3
  8
0
  6
CONTINUOUS
 62
     7
 10
54.701396118
 20
76.4048736988
 30
0.0
  0
VERTEX
  5
6A4
  8
0
  6
CONTINUOUS
 62
     7
 10
54.7229728821
 20
76.3622915774
 30
0.0
  0
VERTEX
  5
6A5
  8
0
  6
CONTINUOUS
 62
     7
 10
54.7492646317
 20
76.3273454211
 30
0.0
  0
VERTEX
  5
6A6
  8
0
  6
CONTINUOUS
 62
     7
 10
54.7792605518
 20
76.3013775077
 30
0.0
  0
VERTEX
  5
6A7
  8
0
  6
CONTINUOUS
 62
     7
 10
54.8118078558
 20
76.2853875058
 30
0.0
  0
VERTEX
  5
6A8
  8
0
  6
CONTINUOUS
 62
     7
 10
54.8456557848
 20
76.2799878882
 30
0.0
  0
SEQEND
  5
6A9
  8
0
  6
CONTINUOUS
 62
     7
  0
LINE
  5
A7
  8
0
  6
CONTINUOUS
 62
     7
 10
54.6721558158
 20
15.3429892242
 30
0.0
 11
54.6721558158
 21
13.842989059
 31
0.0
  0
POLYLINE
  5
A8
  8
0
  6
CONTINUOUS
 62
     7
 66
     1
 10
0.0
 20
0.0
 30
0.0
  0
VERTEX
  5
6AA
  8
0
  6
CONTINUOUS
 62
     7
 10
54.8456557848
 20
13.5619883585
 30
0.0
  0
VERTEX
  5
6AB
  8
0
  6
CONTINUOUS
 62
     7
 10
54.8795043005
 20
13.5673879761
 30
0.0
  0
VERTEX
  5
6AC
  8
0
  6
CONTINUOUS
 62
     7
 10
54.9120516045
 20
13.5833779781
 30
0.0
  0
VERTEX
  5
6AD
  8
0
  6
CONTINUOUS
 62
     7
 10
54.9420475246
 20
13.6093458914
 30
0.0
  0
VERTEX
  5
6AE
  8
0
  6
CONTINUOUS
 62
     7
 10
54.9683386876
 20
13.6442920477
 30
0.0
  0
VERTEX
  5
6AF
  8
0
  6
CONTINUOUS
 62
     7
 10
54.9899160383
 20
13.6868741692
 30
0.0
  0
VERTEX
  5
6B0
  8
0
  6
CONTINUOUS
 62
     7
 10
55.0059488664
 20
13.7354543013
 30
0.0
  0
VERTEX
  5
6B1
  8
0
  6
CONTINUOUS
 62
     7
 10
55.0158223524
 20
13.7881668657
 30
0.0
  0
VERTEX
  5
6B2
  8
0
  6
CONTINUOUS
 62
     7
 10
55.0191557539
 20
13.842989059
 30
0.0
  0
SEQEND
  5
6B3
  8
0
  6
CONTINUOUS
 62
     7
  0
POLYLINE
  5
A9
  8
0
  6
CONTINUOUS
 62
     7
 66
     1
 10
0.0
 20
0.0
 30
0.0
  0
VERTEX
  5
6B4
  8
0
  6
CONTINUOUS
 62
     7
 10
54.6721558158
 20
13.842989059
 30
0.0
  0
VERTEX
  5
6B5
  8
0
  6
CONTINUOUS
 62
     7
 10
54.6754898039
 20
13.7881668657
 30
0.0
  0
VERTEX
  5
6B6
  8
0
  6
CONTINUOUS
 62
     7
 10
54.6853627032
 20
13.7354543013
 30
0.0
  0
VERTEX
  5
6B7
  8
0
  6
CONTINUOUS
 62
     7
 10
54.701396118
 20
13.6868741692
 30
0.0
  0
VERTEX
  5
6B8
  8
0
  6
CONTINUOUS
 62
     7
 10
54.7229728821
 20
13.6442920477
 30
0.0
  0
VERTEX
  5
6B9
  8
0
  6
CONTINUOUS
 62
     7
 10
54.7492646317
 20
13.6093458914
 30
0.0
  0
VERTEX
  5
6BA
  8
0
  6
CONTINUOUS
 62
     7
 10
54.7792605518
 20
13.5833779781
 30
0.0
  0
VERTEX
  5
6BB
  8
0
  6
CONTINUOUS
 62
     7
 10
54.8118078558
 20
13.5673879761
 30
0.0
  0
VERTEX
  5
6BC
  8
0
  6
CONTINUOUS
 62
     7
 10
54.8456557848
 20
13.5619883585
 30
0.0
  0
SEQEND
  5
6BD
  8
0
  6
CONTINUOUS
 62
     7
  0
LINE
  5
AA
  8
0
  6
CONTINUOUS
 62
     7
 10
54.6721558158
 20
79.5609889191
 30
0.0
 11
54.6721558158
 21
78.0609887539
 31
0.0
  0
POLYLINE
  5
AB
  8
0
  6
CONTINUOUS
 62
     7
 66
     1
 10
0.0
 20
0.0
 30
0.0
  0
VERTEX
  5
6BE
  8
0
  6
CONTINUOUS
 62
     7
 10
54.8456557848
 20
79.841987273
 30
0.0
  0
VERTEX
  5
6BF
  8
0
  6
CONTINUOUS
 62
     7
 10
54.8118078558
 20
79.836590002
 30
0.0
  0
VERTEX
  5
6C0
  8
0
  6
CONTINUOUS
 62
     7
 10
54.7792605518
 20
79.8205976534
 30
0.0
  0
VERTEX
  5
6C1
  8
0
  6
CONTINUOUS
 62
     7
 10
54.7492646317
 20
79.7946320867
 30
0.0
  0
VERTEX
  5
6C2
  8
0
  6
CONTINUOUS
 62
     7
 10
54.7229728821
 20
79.7596859304
 30
0.0
  0
VERTEX
  5
6C3
  8
0
  6
CONTINUOUS
 62
     7
 10
54.701396118
 20
79.717103809
 30
0.0
  0
VERTEX
  5
6C4
  8
0
  6
CONTINUOUS
 62
     7
 10
54.6853627032
 20
79.6685213302
 30
0.0
  0
VERTEX
  5
6C5
  8
0
  6
CONTINUOUS
 62
     7
 10
54.6754898039
 20
79.6158087658
 30
0.0
  0
VERTEX
  5
6C6
  8
0
  6
CONTINUOUS
 62
     7
 10
54.6721558158
 20
79.5609889191
 30
0.0
  0
SEQEND
  5
6C7
  8
0
  6
CONTINUOUS
 62
     7
  0
POLYLINE
  5
AC
  8
0
  6
CONTINUOUS
 62
     7
 66
     1
 10
0.0
 20
0.0
 30
0.0
  0
VERTEX
  5
6C8
  8
0
  6
CONTINUOUS
 62
     7
 10
55.0191557539
 20
79.5609889191
 30
0.0
  0
VERTEX
  5
6C9
  8
0
  6
CONTINUOUS
 62
     7
 10
55.0158223524
 20
79.6158087658
 30
0.0
  0
VERTEX
  5
6CA
  8
0
  6
CONTINUOUS
 62
     7
 10
55.0059488664
 20
79.6685213302
 30
0.0
  0
VERTEX
  5
6CB
  8
0
  6
CONTINUOUS
 62
     7
 10
54.9899160383
 20
79.717103809
 30
0.0
  0
VERTEX
  5
6CC
  8
0
  6
CONTINUOUS
 62
     7
 10
54.9683386876
 20
79.7596859304
 30
0.0
  0
VERTEX
  5
6CD
  8
0
  6
CONTINUOUS
 62
     7
 10
54.9420475246
 20
79.7946320867
 30
0.0
  0
VERTEX
  5
6CE
  8
0
  6
CONTINUOUS
 62
     7
 10
54.9120516045
 20
79.8205976534
 30
0.0
  0
VERTEX
  5
6CF
  8
0
  6
CONTINUOUS
 62
     7
 10
54.8795043005
 20
79.836590002
 30
0.0
  0
VERTEX
  5
6D0
  8
0
  6
CONTINUOUS
 62
     7
 10
54.8456557848
 20
79.841987273
 30
0.0
  0
SEQEND
  5
6D1
  8
0
  6
CONTINUOUS
 62
     7
  0
LINE
  5
AD
  8
0
  6
CONTINUOUS
 62
     7
 10
54.6721558158
 20
16.8429893894
 30
0.0
 11
54.6721558158
 21
15.3429892242
 31
0.0
  0
POLYLINE
  5
AE
  8
0
  6
CONTINUOUS
 62
     7
 66
     1
 10
0.0
 20
0.0
 30
0.0
  0
VERTEX
  5
6D2
  8
0
  6
CONTINUOUS
 62
     7
 10
54.8456557848
 20
17.1239877433
 30
0.0
  0
VERTEX
  5
6D3
  8
0
  6
CONTINUOUS
 62
     7
 10
54.8118078558
 20
17.1185881257
 30
0.0
  0
VERTEX
  5
6D4
  8
0
  6
CONTINUOUS
 62
     7
 10
54.7792605518
 20
17.1025981238
 30
0.0
  0
VERTEX
  5
6D5
  8
0
  6
CONTINUOUS
 62
     7
 10
54.7492646317
 20
17.0766302104
 30
0.0
  0
VERTEX
  5
6D6
  8
0
  6
CONTINUOUS
 62
     7
 10
54.7229728821
 20
17.0416864007
 30
0.0
  0
VERTEX
  5
6D7
  8
0
  6
CONTINUOUS
 62
     7
 10
54.701396118
 20
16.9991042793
 30
0.0
  0
VERTEX
  5
6D8
  8
0
  6
CONTINUOUS
 62
     7
 10
54.6853627032
 20
16.9505218006
 30
0.0
  0
VERTEX
  5
6D9
  8
0
  6
CONTINUOUS
 62
     7
 10
54.6754898039
 20
16.8978092362
 30
0.0
  0
VERTEX
  5
6DA
  8
0
  6
CONTINUOUS
 62
     7
 10
54.6721558158
 20
16.8429893894
 30
0.0
  0
SEQEND
  5
6DB
  8
0
  6
CONTINUOUS
 62
     7
  0
POLYLINE
  5
AF
  8
0
  6
CONTINUOUS
 62
     7
 66
     1
 10
0.0
 20
0.0
 30
0.0
  0
VERTEX
  5
6DC
  8
0
  6
CONTINUOUS
 62
     7
 10
55.0191557539
 20
16.8429893894
 30
0.0
  0
VERTEX
  5
6DD
  8
0
  6
CONTINUOUS
 62
     7
 10
55.0158223524
 20
16.8978092362
 30
0.0
  0
VERTEX
  5
6DE
  8
0
  6
CONTINUOUS
 62
     7
 10
55.0059488664
 20
16.9505218006
 30
0.0
  0
VERTEX
  5
6DF
  8
0
  6
CONTINUOUS
 62
     7
 10
54.9899160383
 20
16.9991042793
 30
0.0
  0
VERTEX
  5
6E0
  8
0
  6
CONTINUOUS
 62
     7
 10
54.9683386876
 20
17.0416864007
 30
0.0
  0
VERTEX
  5
6E1
  8
0
  6
CONTINUOUS
 62
     7
 10
54.9420475246
 20
17.0766302104
 30
0.0
  0
VERTEX
  5
6E2
  8
0
  6
CONTINUOUS
 62
     7
 10
54.9120516045
 20
17.1025981238
 30
0.0
  0
VERTEX
  5
6E3
  8
0
  6
CONTINUOUS
 62
     7
 10
54.8795043005
 20
17.1185881257
 30
0.0
  0
VERTEX
  5
6E4
  8
0
  6
CONTINUOUS
 62
     7
 10
54.8456557848
 20
17.1239877433
 30
0.0
  0
SEQEND
  5
6E5
  8
0
  6
CONTINUOUS
 62
     7
  0
LINE
  5
B0
  8
0
  6
CONTINUOUS
 62
     7
 10
57.4411558814
 20
72.0454885388
 30
0.0
 11
57.0986462381
 21
72.0454885388
 31
0.0
  0
ARC
  5
B1
  8
0
  6
CONTINUOUS
 62
     7
 10
57.7531558949
 20
72.045488255
 30
0.0
 40
0.6545098538737619
 50
90.0
 51
180.0
  0
LINE
  5
B2
  8
0
  6
CONTINUOUS
 62
     7
 10
67.6601557506
 20
75.0454888692
 30
0.0
 11
67.3176461073
 21
75.0454888692
 31
0.0
  0
ARC
  5
B3
  8
0
  6
CONTINUOUS
 62
     7
 10
67.9721558949
 20
75.045488255
 30
0.0
 40
0.6545098538737619
 50
90.0
 51
180.0
  0
LINE
  5
B4
  8
0
  6
CONTINUOUS
 62
     7
 10
67.6601557506
 20
70.0454875363
 30
0.0
 11
71.4091559085
 21
70.0454875363
 31
0.0
  0
LINE
  5
B5
  8
0
  6
CONTINUOUS
 62
     7
 10
57.4411558814
 20
73.0454878667
 30
0.0
 11
57.0986462381
 21
73.0454878667
 31
0.0
  0
ARC
  5
B6
  8
0
  6
CONTINUOUS
 62
     7
 10
57.7531558949
 20
73.045488255
 30
0.0
 40
0.6545098538737619
 50
90.0
 51
180.0
  0
LINE
  5
B7
  8
0
  6
CONTINUOUS
 62
     7
 10
67.6601557506
 20
78.0454891996
 30
0.0
 11
67.3176461073
 21
78.0454891996
 31
0.0
  0
ARC
  5
B8
  8
0
  6
CONTINUOUS
 62
     7
 10
67.9721558949
 20
78.045488255
 30
0.0
 40
0.6545098538737619
 50
90.0
 51
180.0
  0
LINE
  5
B9
  8
0
  6
CONTINUOUS
 62
     7
 10
67.6601557506
 20
72.0454885388
 30
0.0
 11
67.3176461073
 21
72.0454885388
 31
0.0
  0
ARC
  5
BA
  8
0
  6
CONTINUOUS
 62
     7
 10
67.9721558949
 20
72.045488255
 30
0.0
 40
0.6545098538737619
 50
90.0
 51
180.0
  0
ARC
  5
BB
  8
0
  6
CONTINUOUS
 62
     7
 10
60.8781558949
 20
70.045488255
 30
0.0
 40
0.654509853873769
 50
0.0
 51
90.0
  0
LINE
  5
BC
  8
0
  6
CONTINUOUS
 62
     7
 10
61.5326656826
 20
70.0454875363
 30
0.0
 11
61.1901560393
 21
70.0454875363
 31
0.0
  0
ARC
  5
BD
  8
0
  6
CONTINUOUS
 62
     7
 10
71.0971558949
 20
75.045488255
 30
0.0
 40
0.6545098538737761
 50
0.0
 51
90.0
  0
LINE
  5
BE
  8
0
  6
CONTINUOUS
 62
     7
 10
71.7516655518
 20
75.0454888692
 30
0.0
 11
71.4091559085
 21
75.0454888692
 31
0.0
  0
LINE
  5
BF
  8
0
  6
CONTINUOUS
 62
     7
 10
57.4411558814
 20
75.0454888692
 30
0.0
 11
61.1901560393
 21
75.0454888692
 31
0.0
  0
ARC
  5
C0
  8
0
  6
CONTINUOUS
 62
     7
 10
71.0971558949
 20
68.045488255
 30
0.0
 40
0.6545098538737761
 50
0.0
 51
90.0
  0
LINE
  5
C1
  8
0
  6
CONTINUOUS
 62
     7
 10
71.7516655518
 20
68.0454888805
 30
0.0
 11
71.4091559085
 21
68.0454888805
 31
0.0
  0
LINE
  5
C2
  8
0
  6
CONTINUOUS
 62
     7
 10
67.6601557506
 20
75.0454888692
 30
0.0
 11
71.4091559085
 21
75.0454888692
 31
0.0
  0
LINE
  5
C3
  8
0
  6
CONTINUOUS
 62
     7
 10
57.4411558814
 20
78.0454891996
 30
0.0
 11
57.0986462381
 21
78.0454891996
 31
0.0
  0
ARC
  5
C4
  8
0
  6
CONTINUOUS
 62
     7
 10
57.7531558949
 20
78.045488255
 30
0.0
 40
0.6545098538737619
 50
90.0
 51
180.0
  0
LINE
  5
C5
  8
0
  6
CONTINUOUS
 62
     7
 10
57.4411558814
 20
76.0454881971
 30
0.0
 11
61.1901560393
 21
76.0454881971
 31
0.0
  0
LINE
  5
C6
  8
0
  6
CONTINUOUS
 62
     7
 10
57.4411558814
 20
71.0454892109
 30
0.0
 11
57.0986462381
 21
71.0454892109
 31
0.0
  0
ARC
  5
C7
  8
0
  6
CONTINUOUS
 62
     7
 10
57.7531558949
 20
71.045488255
 30
0.0
 40
0.6545098538737619
 50
90.0
 51
180.0
  0
LINE
  5
C8
  8
0
  6
CONTINUOUS
 62
     7
 10
67.6601557506
 20
76.0454881971
 30
0.0
 11
67.3176461073
 21
76.0454881971
 31
0.0
  0
ARC
  5
C9
  8
0
  6
CONTINUOUS
 62
     7
 10
67.9721558949
 20
76.045488255
 30
0.0
 40
0.6545098538737619
 50
90.0
 51
180.0
  0
LINE
  5
CA
  8
0
  6
CONTINUOUS
 62
     7
 10
57.4411558814
 20
75.0454888692
 30
0.0
 11
57.0986462381
 21
75.0454888692
 31
0.0
  0
ARC
  5
CB
  8
0
  6
CONTINUOUS
 62
     7
 10
57.7531558949
 20
75.045488255
 30
0.0
 40
0.6545098538737619
 50
90.0
 51
180.0
  0
LINE
  5
CC
  8
0
  6
CONTINUOUS
 62
     7
 10
57.4411558814
 20
79.0454885275
 30
0.0
 11
57.0986462381
 21
79.0454885275
 31
0.0
  0
ARC
  5
CD
  8
0
  6
CONTINUOUS
 62
     7
 10
57.7531558949
 20
79.045488255
 30
0.0
 40
0.6545098538737761
 50
90.0
 51
180.0
  0
LINE
  5
CE
  8
0
  6
CONTINUOUS
 62
     7
 10
57.4411558814
 20
70.0454875363
 30
0.0
 11
61.1901560393
 21
70.0454875363
 31
0.0
  0
LINE
  5
CF
  8
0
  6
CONTINUOUS
 62
     7
 10
67.6601557506
 20
73.0454878667
 30
0.0
 11
71.4091559085
 21
73.0454878667
 31
0.0
  0
ARC
  5
D0
  8
0
  6
CONTINUOUS
 62
     7
 10
60.8781558949
 20
69.045488255
 30
0.0
 40
0.6545098538737761
 50
0.0
 51
90.0
  0
LINE
  5
D1
  8
0
  6
CONTINUOUS
 62
     7
 10
61.5326656826
 20
69.0454882084
 30
0.0
 11
61.1901560393
 21
69.0454882084
 31
0.0
  0
ARC
  5
D2
  8
0
  6
CONTINUOUS
 62
     7
 10
71.0971558949
 20
74.045488255
 30
0.0
 40
0.6545098538737761
 50
0.0
 51
90.0
  0
LINE
  5
D3
  8
0
  6
CONTINUOUS
 62
     7
 10
71.7516655518
 20
74.0454871946
 30
0.0
 11
71.4091559085
 21
74.0454871946
 31
0.0
  0
ARC
  5
D4
  8
0
  6
CONTINUOUS
 62
     7
 10
67.9721558949
 20
74.045488255
 30
0.0
 40
0.6545098538737761
 50
90.0
 51
180.0
  0
LINE
  5
D5
  8
0
  6
CONTINUOUS
 62
     7
 10
67.6601557506
 20
74.0454871946
 30
0.0
 11
67.3176461073
 21
74.0454871946
 31
0.0
  0
ARC
  5
D6
  8
0
  6
CONTINUOUS
 62
     7
 10
71.0971558949
 20
67.045488255
 30
0.0
 40
0.6545098538737761
 50
0.0
 51
90.0
  0
LINE
  5
D7
  8
0
  6
CONTINUOUS
 62
     7
 10
71.7516655518
 20
67.0454872059
 30
0.0
 11
71.4091559085
 21
67.0454872059
 31
0.0
  0
ARC
  5
D8
  8
0
  6
CONTINUOUS
 62
     7
 10
60.8781558949
 20
73.045488255
 30
0.0
 40
0.654509853873769
 50
0.0
 51
90.0
  0
LINE
  5
D9
  8
0
  6
CONTINUOUS
 62
     7
 10
61.5326656826
 20
73.0454878667
 30
0.0
 11
61.1901560393
 21
73.0454878667
 31
0.0
  0
LINE
  5
DA
  8
0
  6
CONTINUOUS
 62
     7
 10
67.6601557506
 20
67.0454872059
 30
0.0
 11
67.3176461073
 21
67.0454872059
 31
0.0
  0
ARC
  5
DB
  8
0
  6
CONTINUOUS
 62
     7
 10
67.9721558949
 20
67.045488255
 30
0.0
 40
0.6545098538737619
 50
90.0
 51
180.0
  0
ARC
  5
DC
  8
0
  6
CONTINUOUS
 62
     7
 10
71.0971558949
 20
78.045488255
 30
0.0
 40
0.6545098538737761
 50
0.0
 51
90.0
  0
LINE
  5
DD
  8
0
  6
CONTINUOUS
 62
     7
 10
71.7516655518
 20
78.0454891996
 30
0.0
 11
71.4091559085
 21
78.0454891996
 31
0.0
  0
LINE
  5
DE
  8
0
  6
CONTINUOUS
 62
     7
 10
57.4411558814
 20
73.0454878667
 30
0.0
 11
61.1901560393
 21
73.0454878667
 31
0.0
  0
LINE
  5
DF
  8
0
  6
CONTINUOUS
 62
     7
 10
67.6601557506
 20
78.0454891996
 30
0.0
 11
71.4091559085
 21
78.0454891996
 31
0.0
  0
ARC
  5
E0
  8
0
  6
CONTINUOUS
 62
     7
 10
60.8781558949
 20
74.045488255
 30
0.0
 40
0.6545098538737761
 50
0.0
 51
90.0
  0
LINE
  5
E1
  8
0
  6
CONTINUOUS
 62
     7
 10
61.5326656826
 20
74.0454871946
 30
0.0
 11
61.1901560393
 21
74.0454871946
 31
0.0
  0
ARC
  5
E2
  8
0
  6
CONTINUOUS
 62
     7
 10
60.8781558949
 20
67.045488255
 30
0.0
 40
0.654509853873769
 50
0.0
 51
90.0
  0
LINE
  5
E3
  8
0
  6
CONTINUOUS
 62
     7
 10
61.5326656826
 20
67.0454872059
 30
0.0
 11
61.1901560393
 21
67.0454872059
 31
0.0
  0
ARC
  5
E4
  8
0
  6
CONTINUOUS
 62
     7
 10
71.0971558949
 20
72.045488255
 30
0.0
 40
0.6545098538737761
 50
0.0
 51
90.0
  0
LINE
  5
E5
  8
0
  6
CONTINUOUS
 62
     7
 10
71.7516655518
 20
72.0454885388
 30
0.0
 11
71.4091559085
 21
72.0454885388
 31
0.0
  0
LINE
  5
E6
  8
0
  6
CONTINUOUS
 62
     7
 10
57.4411558814
 20
67.0454872059
 30
0.0
 11
57.0986462381
 21
67.0454872059
 31
0.0
  0
ARC
  5
E7
  8
0
  6
CONTINUOUS
 62
     7
 10
57.7531558949
 20
67.045488255
 30
0.0
 40
0.6545098538737619
 50
90.0
 51
180.0
  0
ARC
  5
E8
  8
0
  6
CONTINUOUS
 62
     7
 10
60.8781558949
 20
78.045488255
 30
0.0
 40
0.654509853873769
 50
0.0
 51
90.0
  0
LINE
  5
E9
  8
0
  6
CONTINUOUS
 62
     7
 10
61.5326656826
 20
78.0454891996
 30
0.0
 11
61.1901560393
 21
78.0454891996
 31
0.0
  0
ARC
  5
EA
  8
0
  6
CONTINUOUS
 62
     7
 10
71.0971558949
 20
69.045488255
 30
0.0
 40
0.6545098538737761
 50
0.0
 51
90.0
  0
LINE
  5
EB
  8
0
  6
CONTINUOUS
 62
     7
 10
71.7516655518
 20
69.0454882084
 30
0.0
 11
71.4091559085
 21
69.0454882084
 31
0.0
  0
ARC
  5
EC
  8
0
  6
CONTINUOUS
 62
     7
 10
60.8781558949
 20
75.045488255
 30
0.0
 40
0.654509853873769
 50
0.0
 51
90.0
  0
LINE
  5
ED
  8
0
  6
CONTINUOUS
 62
     7
 10
61.5326656826
 20
75.0454888692
 30
0.0
 11
61.1901560393
 21
75.0454888692
 31
0.0
  0
LINE
  5
EE
  8
0
  6
CONTINUOUS
 62
     7
 10
57.4411558814
 20
78.0454891996
 30
0.0
 11
61.1901560393
 21
78.0454891996
 31
0.0
  0
ARC
  5
EF
  8
0
  6
CONTINUOUS
 62
     7
 10
60.8781558949
 20
68.045488255
 30
0.0
 40
0.654509853873769
 50
0.0
 51
90.0
  0
LINE
  5
F0
  8
0
  6
CONTINUOUS
 62
     7
 10
61.5326656826
 20
68.0454888805
 30
0.0
 11
61.1901560393
 21
68.0454888805
 31
0.0
  0
LINE
  5
F1
  8
0
  6
CONTINUOUS
 62
     7
 10
67.6601557506
 20
69.0454882084
 30
0.0
 11
71.4091559085
 21
69.0454882084
 31
0.0
  0
ARC
  5
F2
  8
0
  6
CONTINUOUS
 62
     7
 10
71.0971558949
 20
66.045488255
 30
0.0
 40
0.6545098538737761
 50
0.0
 51
90.0
  0
LINE
  5
F3
  8
0
  6
CONTINUOUS
 62
     7
 10
71.7516655518
 20
66.045487878
 30
0.0
 11
71.4091559085
 21
66.045487878
 31
0.0
  0
ARC
  5
F4
  8
0
  6
CONTINUOUS
 62
     7
 10
60.8781558949
 20
72.045488255
 30
0.0
 40
0.654509853873769
 50
0.0
 51
90.0
  0
LINE
  5
F5
  8
0
  6
CONTINUOUS
 62
     7
 10
61.5326656826
 20
72.0454885388
 30
0.0
 11
61.1901560393
 21
72.0454885388
 31
0.0
  0
LINE
  5
F6
  8
0
  6
CONTINUOUS
 62
     7
 10
67.6601557506
 20
66.045487878
 30
0.0
 11
67.3176461073
 21
66.045487878
 31
0.0
  0
ARC
  5
F7
  8
0
  6
CONTINUOUS
 62
     7
 10
67.9721558949
 20
66.045488255
 30
0.0
 40
0.6545098538737619
 50
90.0
 51
180.0
  0
ARC
  5
F8
  8
0
  6
CONTINUOUS
 62
     7
 10
71.0971558949
 20
77.045488255
 30
0.0
 40
0.6545098538737761
 50
0.0
 51
90.0
  0
LINE
  5
F9
  8
0
  6
CONTINUOUS
 62
     7
 10
71.7516655518
 20
77.045487525
 30
0.0
 11
71.4091559085
 21
77.045487525
 31
0.0
  0
LINE
  5
FA
  8
0
  6
CONTINUOUS
 62
     7
 10
67.6601557506
 20
77.045487525
 30
0.0
 11
67.3176461073
 21
77.045487525
 31
0.0
  0
ARC
  5
FB
  8
0
  6
CONTINUOUS
 62
     7
 10
67.9721558949
 20
77.045488255
 30
0.0
 40
0.6545098538737619
 50
90.0
 51
180.0
  0
LINE
  5
FC
  8
0
  6
CONTINUOUS
 62
     7
 10
57.4411558814
 20
72.0454885388
 30
0.0
 11
61.1901560393
 21
72.0454885388
 31
0.0
  0
LINE
  5
FD
  8
0
  6
CONTINUOUS
 62
     7
 10
67.6601557506
 20
77.045487525
 30
0.0
 11
71.4091559085
 21
77.045487525
 31
0.0
  0
LINE
  5
FE
  8
0
  6
CONTINUOUS
 62
     7
 10
67.6601557506
 20
79.0454885275
 30
0.0
 11
67.3176461073
 21
79.0454885275
 31
0.0
  0
ARC
  5
FF
  8
0
  6
CONTINUOUS
 62
     7
 10
67.9721558949
 20
79.045488255
 30
0.0
 40
0.6545098538737761
 50
90.0
 51
180.0
  0
LINE
  5
100
  8
0
  6
CONTINUOUS
 62
     7
 10
67.6601557506
 20
74.0454871946
 30
0.0
 11
71.4091559085
 21
74.0454871946
 31
0.0
  0
LINE
  5
101
  8
0
  6
CONTINUOUS
 62
     7
 10
67.6601557506
 20
79.0454885275
 30
0.0
 11
71.4091559085
 21
79.0454885275
 31
0.0
  0
ARC
  5
102
  8
0
  6
CONTINUOUS
 62
     7
 10
67.9721558949
 20
71.045488255
 30
0.0
 40
0.6545098538737619
 50
90.0
 51
180.0
  0
LINE
  5
103
  8
0
  6
CONTINUOUS
 62
     7
 10
67.6601557506
 20
71.0454892109
 30
0.0
 11
67.3176461073
 21
71.0454892109
 31
0.0
  0
ARC
  5
104
  8
0
  6
CONTINUOUS
 62
     7
 10
57.7531558949
 20
77.045488255
 30
0.0
 40
0.6545098538737619
 50
90.0
 51
180.0
  0
LINE
  5
105
  8
0
  6
CONTINUOUS
 62
     7
 10
57.4411558814
 20
77.045487525
 30
0.0
 11
57.0986462381
 21
77.045487525
 31
0.0
  0
ARC
  5
106
  8
0
  6
CONTINUOUS
 62
     7
 10
57.7531558949
 20
70.045488255
 30
0.0
 40
0.6545098538737619
 50
90.0
 51
180.0
  0
LINE
  5
107
  8
0
  6
CONTINUOUS
 62
     7
 10
57.4411558814
 20
70.0454875363
 30
0.0
 11
57.0986462381
 21
70.0454875363
 31
0.0
  0
ARC
  5
108
  8
0
  6
CONTINUOUS
 62
     7
 10
57.7531558949
 20
74.045488255
 30
0.0
 40
0.6545098538737761
 50
90.0
 51
180.0
  0
LINE
  5
109
  8
0
  6
CONTINUOUS
 62
     7
 10
57.4411558814
 20
74.0454871946
 30
0.0
 11
57.0986462381
 21
74.0454871946
 31
0.0
  0
LINE
  5
10A
  8
0
  6
CONTINUOUS
 62
     7
 10
57.4411558814
 20
77.045487525
 30
0.0
 11
61.1901560393
 21
77.045487525
 31
0.0
  0
LINE
  5
10B
  8
0
  6
CONTINUOUS
 62
     7
 10
67.6601557506
 20
68.0454888805
 30
0.0
 11
71.4091559085
 21
68.0454888805
 31
0.0
  0
LINE
  5
10C
  8
0
  6
CONTINUOUS
 62
     7
 10
57.4411558814
 20
74.0454871946
 30
0.0
 11
61.1901560393
 21
74.0454871946
 31
0.0
  0
ARC
  5
10D
  8
0
  6
CONTINUOUS
 62
     7
 10
60.8781558949
 20
71.045488255
 30
0.0
 40
0.654509853873769
 50
0.0
 51
90.0
  0
LINE
  5
10E
  8
0
  6
CONTINUOUS
 62
     7
 10
61.5326656826
 20
71.0454892109
 30
0.0
 11
61.1901560393
 21
71.0454892109
 31
0.0
  0
ARC
  5
10F
  8
0
  6
CONTINUOUS
 62
     7
 10
71.0971558949
 20
76.045488255
 30
0.0
 40
0.6545098538737761
 50
0.0
 51
90.0
  0
LINE
  5
110
  8
0
  6
CONTINUOUS
 62
     7
 10
71.7516655518
 20
76.0454881971
 30
0.0
 11
71.4091559085
 21
76.0454881971
 31
0.0
  0
ARC
  5
111
  8
0
  6
CONTINUOUS
 62
     7
 10
67.9721558949
 20
69.045488255
 30
0.0
 40
0.6545098538737761
 50
90.0
 51
180.0
  0
LINE
  5
112
  8
0
  6
CONTINUOUS
 62
     7
 10
67.6601557506
 20
69.0454882084
 30
0.0
 11
67.3176461073
 21
69.0454882084
 31
0.0
  0
ARC
  5
113
  8
0
  6
CONTINUOUS
 62
     7
 10
67.9721558949
 20
73.045488255
 30
0.0
 40
0.6545098538737619
 50
90.0
 51
180.0
  0
LINE
  5
114
  8
0
  6
CONTINUOUS
 62
     7
 10
67.6601557506
 20
73.0454878667
 30
0.0
 11
67.3176461073
 21
73.0454878667
 31
0.0
  0
ARC
  5
115
  8
0
  6
CONTINUOUS
 62
     7
 10
60.8781558949
 20
79.045488255
 30
0.0
 40
0.6545098538737761
 50
0.0
 51
90.0
  0
LINE
  5
116
  8
0
  6
CONTINUOUS
 62
     7
 10
61.5326656826
 20
79.0454885275
 30
0.0
 11
61.1901560393
 21
79.0454885275
 31
0.0
  0
ARC
  5
117
  8
0
  6
CONTINUOUS
 62
     7
 10
71.0971558949
 20
70.045488255
 30
0.0
 40
0.6545098538737761
 50
0.0
 51
90.0
  0
LINE
  5
118
  8
0
  6
CONTINUOUS
 62
     7
 10
71.7516655518
 20
70.0454875363
 30
0.0
 11
71.4091559085
 21
70.0454875363
 31
0.0
  0
LINE
  5
119
  8
0
  6
CONTINUOUS
 62
     7
 10
57.4411558814
 20
79.0454885275
 30
0.0
 11
61.1901560393
 21
79.0454885275
 31
0.0
  0
ARC
  5
11A
  8
0
  6
CONTINUOUS
 62
     7
 10
60.8781558949
 20
76.045488255
 30
0.0
 40
0.654509853873769
 50
0.0
 51
90.0
  0
LINE
  5
11B
  8
0
  6
CONTINUOUS
 62
     7
 10
61.5326656826
 20
76.0454881971
 30
0.0
 11
61.1901560393
 21
76.0454881971
 31
0.0
  0
LINE
  5
11C
  8
0
  6
CONTINUOUS
 62
     7
 10
57.4411558814
 20
76.0454881971
 30
0.0
 11
57.0986462381
 21
76.0454881971
 31
0.0
  0
ARC
  5
11D
  8
0
  6
CONTINUOUS
 62
     7
 10
57.7531558949
 20
76.045488255
 30
0.0
 40
0.6545098538737619
 50
90.0
 51
180.0
  0
LINE
  5
11E
  8
0
  6
CONTINUOUS
 62
     7
 10
57.4411558814
 20
65.0454885501
 30
0.0
 11
61.1901560393
 21
65.0454885501
 31
0.0
  0
LINE
  5
11F
  8
0
  6
CONTINUOUS
 62
     7
 10
57.4411558814
 20
69.0454882084
 30
0.0
 11
61.1901560393
 21
69.0454882084
 31
0.0
  0
ARC
  5
120
  8
0
  6
CONTINUOUS
 62
     7
 10
71.0971558949
 20
71.045488255
 30
0.0
 40
0.6545098538737761
 50
0.0
 51
90.0
  0
LINE
  5
121
  8
0
  6
CONTINUOUS
 62
     7
 10
71.7516655518
 20
71.0454892109
 30
0.0
 11
71.4091559085
 21
71.0454892109
 31
0.0
  0
LINE
  5
122
  8
0
  6
CONTINUOUS
 62
     7
 10
67.6601557506
 20
67.0454872059
 30
0.0
 11
71.4091559085
 21
67.0454872059
 31
0.0
  0
ARC
  5
123
  8
0
  6
CONTINUOUS
 62
     7
 10
60.8781558949
 20
77.045488255
 30
0.0
 40
0.654509853873769
 50
0.0
 51
90.0
  0
LINE
  5
124
  8
0
  6
CONTINUOUS
 62
     7
 10
61.5326656826
 20
77.045487525
 30
0.0
 11
61.1901560393
 21
77.045487525
 31
0.0
  0
LINE
  5
125
  8
0
  6
CONTINUOUS
 62
     7
 10
57.4411558814
 20
71.0454892109
 30
0.0
 11
61.1901560393
 21
71.0454892109
 31
0.0
  0
LINE
  5
126
  8
0
  6
CONTINUOUS
 62
     7
 10
57.4411558814
 20
66.045487878
 30
0.0
 11
61.1901560393
 21
66.045487878
 31
0.0
  0
ARC
  5
127
  8
0
  6
CONTINUOUS
 62
     7
 10
67.9721558949
 20
68.045488255
 30
0.0
 40
0.6545098538737619
 50
90.0
 51
180.0
  0
LINE
  5
128
  8
0
  6
CONTINUOUS
 62
     7
 10
67.6601557506
 20
68.0454888805
 30
0.0
 11
67.3176461073
 21
68.0454888805
 31
0.0
  0
LINE
  5
129
  8
0
  6
CONTINUOUS
 62
     7
 10
67.6601557506
 20
71.0454892109
 30
0.0
 11
71.4091559085
 21
71.0454892109
 31
0.0
  0
LINE
  5
12A
  8
0
  6
CONTINUOUS
 62
     7
 10
67.6601557506
 20
66.045487878
 30
0.0
 11
71.4091559085
 21
66.045487878
 31
0.0
  0
ARC
  5
12B
  8
0
  6
CONTINUOUS
 62
     7
 10
71.0971558949
 20
65.045488255
 30
0.0
 40
0.6545098538737761
 50
0.0
 51
90.0
  0
LINE
  5
12C
  8
0
  6
CONTINUOUS
 62
     7
 10
71.7516655518
 20
65.0454885501
 30
0.0
 11
71.4091559085
 21
65.0454885501
 31
0.0
  0
ARC
  5
12D
  8
0
  6
CONTINUOUS
 62
     7
 10
67.9721558949
 20
65.045488255
 30
0.0
 40
0.6545098538737619
 50
90.0
 51
180.0
  0
LINE
  5
12E
  8
0
  6
CONTINUOUS
 62
     7
 10
67.6601557506
 20
65.0454885501
 30
0.0
 11
67.3176461073
 21
65.0454885501
 31
0.0
  0
LINE
  5
12F
  8
0
  6
CONTINUOUS
 62
     7
 10
67.6601557506
 20
72.0454885388
 30
0.0
 11
71.4091559085
 21
72.0454885388
 31
0.0
  0
ARC
  5
130
  8
0
  6
CONTINUOUS
 62
     7
 10
71.0971558949
 20
73.045488255
 30
0.0
 40
0.6545098538737761
 50
0.0
 51
90.0
  0
LINE
  5
131
  8
0
  6
CONTINUOUS
 62
     7
 10
71.7516655518
 20
73.0454878667
 30
0.0
 11
71.4091559085
 21
73.0454878667
 31
0.0
  0
LINE
  5
132
  8
0
  6
CONTINUOUS
 62
     7
 10
67.6601557506
 20
76.0454881971
 30
0.0
 11
71.4091559085
 21
76.0454881971
 31
0.0
  0
ARC
  5
133
  8
0
  6
CONTINUOUS
 62
     7
 10
57.7531558949
 20
69.045488255
 30
0.0
 40
0.6545098538737761
 50
90.0
 51
180.0
  0
LINE
  5
134
  8
0
  6
CONTINUOUS
 62
     7
 10
57.4411558814
 20
69.0454882084
 30
0.0
 11
57.0986462381
 21
69.0454882084
 31
0.0
  0
LINE
  5
135
  8
0
  6
CONTINUOUS
 62
     7
 10
67.6601557506
 20
65.0454885501
 30
0.0
 11
71.4091559085
 21
65.0454885501
 31
0.0
  0
LINE
  5
136
  8
0
  6
CONTINUOUS
 62
     7
 10
57.4411558814
 20
68.0454888805
 30
0.0
 11
61.1901560393
 21
68.0454888805
 31
0.0
  0
ARC
  5
137
  8
0
  6
CONTINUOUS
 62
     7
 10
71.0971558949
 20
79.045488255
 30
0.0
 40
0.6545098538737761
 50
0.0
 51
90.0
  0
LINE
  5
138
  8
0
  6
CONTINUOUS
 62
     7
 10
71.7516655518
 20
79.0454885275
 30
0.0
 11
71.4091559085
 21
79.0454885275
 31
0.0
  0
ARC
  5
139
  8
0
  6
CONTINUOUS
 62
     7
 10
57.7531558949
 20
65.045488255
 30
0.0
 40
0.6545098538737619
 50
90.0
 51
180.0
  0
LINE
  5
13A
  8
0
  6
CONTINUOUS
 62
     7
 10
57.4411558814
 20
65.0454885501
 30
0.0
 11
57.0986462381
 21
65.0454885501
 31
0.0
  0
ARC
  5
13B
  8
0
  6
CONTINUOUS
 62
     7
 10
57.7531558949
 20
66.045488255
 30
0.0
 40
0.6545098538737619
 50
90.0
 51
180.0
  0
LINE
  5
13C
  8
0
  6
CONTINUOUS
 62
     7
 10
57.4411558814
 20
66.045487878
 30
0.0
 11
57.0986462381
 21
66.045487878
 31
0.0
  0
ARC
  5
13D
  8
0
  6
CONTINUOUS
 62
     7
 10
57.7531558949
 20
68.045488255
 30
0.0
 40
0.6545098538737619
 50
90.0
 51
180.0
  0
LINE
  5
13E
  8
0
  6
CONTINUOUS
 62
     7
 10
57.4411558814
 20
68.0454888805
 30
0.0
 11
57.0986462381
 21
68.0454888805
 31
0.0
  0
LINE
  5
13F
  8
0
  6
CONTINUOUS
 62
     7
 10
57.4411558814
 20
67.0454872059
 30
0.0
 11
61.1901560393
 21
67.0454872059
 31
0.0
  0
ARC
  5
140
  8
0
  6
CONTINUOUS
 62
     7
 10
60.8781558949
 20
66.045488255
 30
0.0
 40
0.654509853873769
 50
0.0
 51
90.0
  0
LINE
  5
141
  8
0
  6
CONTINUOUS
 62
     7
 10
61.5326656826
 20
66.045487878
 30
0.0
 11
61.1901560393
 21
66.045487878
 31
0.0
  0
ARC
  5
142
  8
0
  6
CONTINUOUS
 62
     7
 10
67.9721558949
 20
70.045488255
 30
0.0
 40
0.6545098538737619
 50
90.0
 51
180.0
  0
LINE
  5
143
  8
0
  6
CONTINUOUS
 62
     7
 10
67.6601557506
 20
70.0454875363
 30
0.0
 11
67.3176461073
 21
70.0454875363
 31
0.0
  0
ARC
  5
144
  8
0
  6
CONTINUOUS
 62
     7
 10
60.8781558949
 20
65.045488255
 30
0.0
 40
0.654509853873769
 50
0.0
 51
90.0
  0
LINE
  5
145
  8
0
  6
CONTINUOUS
 62
     7
 10
61.5326656826
 20
65.0454885501
 30
0.0
 11
61.1901560393
 21
65.0454885501
 31
0.0
  0
LINE
  5
146
  8
0
  6
CONTINUOUS
 62
     7
 10
71.0971560994
 20
69.6999988341
 30
0.0
 11
67.972155853
 21
69.6999988341
 31
0.0
  0
LINE
  5
147
  8
0
  6
CONTINUOUS
 62
     7
 10
71.0971560994
 20
75.6999971483
 30
0.0
 11
67.972155853
 21
75.6999971483
 31
0.0
  0
LINE
  5
148
  8
0
  6
CONTINUOUS
 62
     7
 10
71.0971560994
 20
68.6999971595
 30
0.0
 11
67.972155853
 21
68.6999971595
 31
0.0
  0
LINE
  5
149
  8
0
  6
CONTINUOUS
 62
     7
 10
60.8781559369
 20
79.6999991532
 30
0.0
 11
57.7531556905
 21
79.6999991532
 31
0.0
  0
LINE
  5
14A
  8
0
  6
CONTINUOUS
 62
     7
 10
71.0971560994
 20
67.6999978316
 30
0.0
 11
67.972155853
 21
67.6999978316
 31
0.0
  0
LINE
  5
14B
  8
0
  6
CONTINUOUS
 62
     7
 10
71.0971560994
 20
73.6999984924
 30
0.0
 11
67.972155853
 21
73.6999984924
 31
0.0
  0
LINE
  5
14C
  8
0
  6
CONTINUOUS
 62
     7
 10
71.0971560994
 20
71.6999974899
 30
0.0
 11
67.972155853
 21
71.6999974899
 31
0.0
  0
LINE
  5
14D
  8
0
  6
CONTINUOUS
 62
     7
 10
60.8781559369
 20
74.6999978203
 30
0.0
 11
57.7531556905
 21
74.6999978203
 31
0.0
  0
LINE
  5
14E
  8
0
  6
CONTINUOUS
 62
     7
 10
60.8781559369
 20
69.6999988341
 30
0.0
 11
57.7531556905
 21
69.6999988341
 31
0.0
  0
LINE
  5
14F
  8
0
  6
CONTINUOUS
 62
     7
 10
71.0971560994
 20
70.699998162
 30
0.0
 11
67.972155853
 21
70.699998162
 31
0.0
  0
LINE
  5
150
  8
0
  6
CONTINUOUS
 62
     7
 10
71.0971560994
 20
65.6999980024
 30
0.0
 11
67.972155853
 21
65.6999980024
 31
0.0
  0
LINE
  5
151
  8
0
  6
CONTINUOUS
 62
     7
 10
60.8781559369
 20
75.6999971483
 30
0.0
 11
57.7531556905
 21
75.6999971483
 31
0.0
  0
LINE
  5
152
  8
0
  6
CONTINUOUS
 62
     7
 10
60.8781559369
 20
70.699998162
 30
0.0
 11
57.7531556905
 21
70.699998162
 31
0.0
  0
LINE
  5
153
  8
0
  6
CONTINUOUS
 62
     7
 10
71.0971560994
 20
79.6999991532
 30
0.0
 11
67.972155853
 21
79.6999991532
 31
0.0
  0
LINE
  5
154
  8
0
  6
CONTINUOUS
 62
     7
 10
60.8781559369
 20
67.6999978316
 30
0.0
 11
57.7531556905
 21
67.6999978316
 31
0.0
  0
LINE
  5
155
  8
0
  6
CONTINUOUS
 62
     7
 10
60.8781559369
 20
77.6999981507
 30
0.0
 11
57.7531556905
 21
77.6999981507
 31
0.0
  0
LINE
  5
156
  8
0
  6
CONTINUOUS
 62
     7
 10
60.8781559369
 20
68.6999971595
 30
0.0
 11
57.7531556905
 21
68.6999971595
 31
0.0
  0
LINE
  5
157
  8
0
  6
CONTINUOUS
 62
     7
 10
71.0971560994
 20
66.6999985037
 30
0.0
 11
67.972155853
 21
66.6999985037
 31
0.0
  0
LINE
  5
158
  8
0
  6
CONTINUOUS
 62
     7
 10
71.0971560994
 20
74.6999978203
 30
0.0
 11
67.972155853
 21
74.6999978203
 31
0.0
  0
LINE
  5
159
  8
0
  6
CONTINUOUS
 62
     7
 10
71.0971560994
 20
76.6999988228
 30
0.0
 11
67.972155853
 21
76.6999988228
 31
0.0
  0
LINE
  5
15A
  8
0
  6
CONTINUOUS
 62
     7
 10
60.8781559369
 20
73.6999984924
 30
0.0
 11
57.7531556905
 21
73.6999984924
 31
0.0
  0
LINE
  5
15B
  8
0
  6
CONTINUOUS
 62
     7
 10
71.0971560994
 20
77.6999981507
 30
0.0
 11
67.972155853
 21
77.6999981507
 31
0.0
  0
LINE
  5
15C
  8
0
  6
CONTINUOUS
 62
     7
 10
60.8781559369
 20
76.6999988228
 30
0.0
 11
57.7531556905
 21
76.6999988228
 31
0.0
  0
LINE
  5
15D
  8
0
  6
CONTINUOUS
 62
     7
 10
60.8781559369
 20
65.6999980024
 30
0.0
 11
57.7531556905
 21
65.6999980024
 31
0.0
  0
LINE
  5
15E
  8
0
  6
CONTINUOUS
 62
     7
 10
60.8781559369
 20
66.6999985037
 30
0.0
 11
57.7531556905
 21
66.6999985037
 31
0.0
  0
LINE
  5
15F
  8
0
  6
CONTINUOUS
 62
     7
 10
71.0971560994
 20
78.6999974787
 30
0.0
 11
67.972155853
 21
78.6999974787
 31
0.0
  0
LINE
  5
160
  8
0
  6
CONTINUOUS
 62
     7
 10
60.8781559369
 20
72.6999991645
 30
0.0
 11
57.7531556905
 21
72.6999991645
 31
0.0
  0
LINE
  5
161
  8
0
  6
CONTINUOUS
 62
     7
 10
60.8781559369
 20
71.6999974899
 30
0.0
 11
57.7531556905
 21
71.6999974899
 31
0.0
  0
LINE
  5
162
  8
0
  6
CONTINUOUS
 62
     7
 10
60.8781559369
 20
78.6999974787
 30
0.0
 11
57.7531556905
 21
78.6999974787
 31
0.0
  0
LINE
  5
163
  8
0
  6
CONTINUOUS
 62
     7
 10
71.0971560994
 20
72.6999991645
 30
0.0
 11
67.972155853
 21
72.6999991645
 31
0.0
  0
LINE
  5
164
  8
0
  6
CONTINUOUS
 62
     7
 10
57.4411558814
 20
14.6084886959
 30
0.0
 11
57.0986462381
 21
14.6084886959
 31
0.0
  0
ARC
  5
165
  8
0
  6
CONTINUOUS
 62
     7
 10
57.7531558949
 20
14.608488255
 30
0.0
 40
0.6545098538733463
 50
90.0
 51
180.0
  0
LINE
  5
166
  8
0
  6
CONTINUOUS
 62
     7
 10
67.6601557506
 20
26.6084876709
 30
0.0
 11
71.4091559085
 21
26.6084876709
 31
0.0
  0
LINE
  5
167
  8
0
  6
CONTINUOUS
 62
     7
 10
57.4411558814
 20
28.6084886734
 30
0.0
 11
57.0986462381
 21
28.6084886734
 31
0.0
  0
ARC
  5
168
  8
0
  6
CONTINUOUS
 62
     7
 10
57.7531558949
 20
28.608488255
 30
0.0
 40
0.6545098538733463
 50
90.0
 51
180.0
  0
ARC
  5
169
  8
0
  6
CONTINUOUS
 62
     7
 10
60.8781558949
 20
15.608488255
 30
0.0
 40
0.6545098538733498
 50
0.0
 51
90.0
  0
LINE
  5
16A
  8
0
  6
CONTINUOUS
 62
     7
 10
61.5326656826
 20
15.6084880238
 30
0.0
 11
61.1901560393
 21
15.6084880238
 31
0.0
  0
LINE
  5
16B
  8
0
  6
CONTINUOUS
 62
     7
 10
57.4411558814
 20
16.6084873518
 30
0.0
 11
57.0986462381
 21
16.6084873518
 31
0.0
  0
ARC
  5
16C
  8
0
  6
CONTINUOUS
 62
     7
 10
57.7531558949
 20
16.608488255
 30
0.0
 40
0.6545098538733463
 50
90.0
 51
180.0
  0
LINE
  5
16D
  8
0
  6
CONTINUOUS
 62
     7
 10
67.6601557506
 20
16.6084873518
 30
0.0
 11
67.3176461073
 21
16.6084873518
 31
0.0
  0
ARC
  5
16E
  8
0
  6
CONTINUOUS
 62
     7
 10
67.9721558949
 20
16.608488255
 30
0.0
 40
0.6545098538733463
 50
90.0
 51
180.0
  0
ARC
  5
16F
  8
0
  6
CONTINUOUS
 62
     7
 10
71.0971558949
 20
16.608488255
 30
0.0
 40
0.6545098538733498
 50
0.0
 51
90.0
  0
LINE
  5
170
  8
0
  6
CONTINUOUS
 62
     7
 10
71.7516655518
 20
16.6084873518
 30
0.0
 11
71.4091559085
 21
16.6084873518
 31
0.0
  0
ARC
  5
171
  8
0
  6
CONTINUOUS
 62
     7
 10
60.8781558949
 20
19.608488255
 30
0.0
 40
0.6545098538733498
 50
0.0
 51
90.0
  0
LINE
  5
172
  8
0
  6
CONTINUOUS
 62
     7
 10
61.5326656826
 20
19.6084876822
 30
0.0
 11
61.1901560393
 21
19.6084876822
 31
0.0
  0
LINE
  5
173
  8
0
  6
CONTINUOUS
 62
     7
 10
67.6601557506
 20
27.6084881721
 30
0.0
 11
71.4091559085
 21
27.6084881721
 31
0.0
  0
LINE
  5
174
  8
0
  6
CONTINUOUS
 62
     7
 10
67.6601557506
 20
24.6084890151
 30
0.0
 11
67.3176461073
 21
24.6084890151
 31
0.0
  0
ARC
  5
175
  8
0
  6
CONTINUOUS
 62
     7
 10
67.9721558949
 20
24.608488255
 30
0.0
 40
0.6545098538733427
 50
90.0
 51
180.0
  0
ARC
  5
176
  8
0
  6
CONTINUOUS
 62
     7
 10
60.8781558949
 20
25.608488255
 30
0.0
 40
0.6545098538733498
 50
0.0
 51
90.0
  0
LINE
  5
177
  8
0
  6
CONTINUOUS
 62
     7
 10
61.5326656826
 20
25.608488343
 30
0.0
 11
61.1901560393
 21
25.608488343
 31
0.0
  0
ARC
  5
178
  8
0
  6
CONTINUOUS
 62
     7
 10
60.8781558949
 20
23.608488255
 30
0.0
 40
0.6545098538733498
 50
0.0
 51
90.0
  0
LINE
  5
179
  8
0
  6
CONTINUOUS
 62
     7
 10
61.5326656826
 20
23.6084873405
 30
0.0
 11
61.1901560393
 21
23.6084873405
 31
0.0
  0
LINE
  5
17A
  8
0
  6
CONTINUOUS
 62
     7
 10
57.4411558814
 20
25.608488343
 30
0.0
 11
57.0986462381
 21
25.608488343
 31
0.0
  0
ARC
  5
17B
  8
0
  6
CONTINUOUS
 62
     7
 10
57.7531558949
 20
25.608488255
 30
0.0
 40
0.6545098538733463
 50
90.0
 51
180.0
  0
ARC
  5
17C
  8
0
  6
CONTINUOUS
 62
     7
 10
71.0971558949
 20
23.608488255
 30
0.0
 40
0.6545098538733498
 50
0.0
 51
90.0
  0
LINE
  5
17D
  8
0
  6
CONTINUOUS
 62
     7
 10
71.7516655518
 20
23.6084873405
 30
0.0
 11
71.4091559085
 21
23.6084873405
 31
0.0
  0
LINE
  5
17E
  8
0
  6
CONTINUOUS
 62
     7
 10
67.6601557506
 20
14.6084886959
 30
0.0
 11
67.3176461073
 21
14.6084886959
 31
0.0
  0
ARC
  5
17F
  8
0
  6
CONTINUOUS
 62
     7
 10
67.9721558949
 20
14.608488255
 30
0.0
 40
0.6545098538733463
 50
90.0
 51
180.0
  0
ARC
  5
180
  8
0
  6
CONTINUOUS
 62
     7
 10
71.0971558949
 20
27.608488255
 30
0.0
 40
0.6545098538733498
 50
0.0
 51
90.0
  0
LINE
  5
181
  8
0
  6
CONTINUOUS
 62
     7
 10
71.7516655518
 20
27.6084881721
 30
0.0
 11
71.4091559085
 21
27.6084881721
 31
0.0
  0
ARC
  5
182
  8
0
  6
CONTINUOUS
 62
     7
 10
60.8781558949
 20
17.608488255
 30
0.0
 40
0.6545098538733498
 50
0.0
 51
90.0
  0
LINE
  5
183
  8
0
  6
CONTINUOUS
 62
     7
 10
61.5326656826
 20
17.6084890263
 30
0.0
 11
61.1901560393
 21
17.6084890263
 31
0.0
  0
ARC
  5
184
  8
0
  6
CONTINUOUS
 62
     7
 10
57.7531558949
 20
17.608488255
 30
0.0
 40
0.6545098538733427
 50
90.0
 51
180.0
  0
LINE
  5
185
  8
0
  6
CONTINUOUS
 62
     7
 10
57.4411558814
 20
17.6084890263
 30
0.0
 11
57.0986462381
 21
17.6084890263
 31
0.0
  0
ARC
  5
186
  8
0
  6
CONTINUOUS
 62
     7
 10
60.8781558949
 20
28.608488255
 30
0.0
 40
0.6545098538733498
 50
0.0
 51
90.0
  0
LINE
  5
187
  8
0
  6
CONTINUOUS
 62
     7
 10
61.5326656826
 20
28.6084886734
 30
0.0
 11
61.1901560393
 21
28.6084886734
 31
0.0
  0
LINE
  5
188
  8
0
  6
CONTINUOUS
 62
     7
 10
57.4411558814
 20
24.6084890151
 30
0.0
 11
57.0986462381
 21
24.6084890151
 31
0.0
  0
ARC
  5
189
  8
0
  6
CONTINUOUS
 62
     7
 10
57.7531558949
 20
24.608488255
 30
0.0
 40
0.6545098538733427
 50
90.0
 51
180.0
  0
LINE
  5
18A
  8
0
  6
CONTINUOUS
 62
     7
 10
67.6601557506
 20
15.6084880238
 30
0.0
 11
67.3176461073
 21
15.6084880238
 31
0.0
  0
ARC
  5
18B
  8
0
  6
CONTINUOUS
 62
     7
 10
67.9721558949
 20
15.608488255
 30
0.0
 40
0.6545098538733463
 50
90.0
 51
180.0
  0
ARC
  5
18C
  8
0
  6
CONTINUOUS
 62
     7
 10
71.0971558949
 20
26.608488255
 30
0.0
 40
0.6545098538733498
 50
0.0
 51
90.0
  0
LINE
  5
18D
  8
0
  6
CONTINUOUS
 62
     7
 10
71.7516655518
 20
26.6084876709
 30
0.0
 11
71.4091559085
 21
26.6084876709
 31
0.0
  0
ARC
  5
18E
  8
0
  6
CONTINUOUS
 62
     7
 10
60.8781558949
 20
14.608488255
 30
0.0
 40
0.6545098538733516
 50
0.0
 51
90.0
  0
LINE
  5
18F
  8
0
  6
CONTINUOUS
 62
     7
 10
61.5326656826
 20
14.6084886959
 30
0.0
 11
61.1901560393
 21
14.6084886959
 31
0.0
  0
LINE
  5
190
  8
0
  6
CONTINUOUS
 62
     7
 10
57.4411558814
 20
28.6084886734
 30
0.0
 11
61.1901560393
 21
28.6084886734
 31
0.0
  0
ARC
  5
191
  8
0
  6
CONTINUOUS
 62
     7
 10
67.9721558949
 20
19.608488255
 30
0.0
 40
0.6545098538733427
 50
90.0
 51
180.0
  0
LINE
  5
192
  8
0
  6
CONTINUOUS
 62
     7
 10
67.6601557506
 20
19.6084876822
 30
0.0
 11
67.3176461073
 21
19.6084876822
 31
0.0
  0
LINE
  5
193
  8
0
  6
CONTINUOUS
 62
     7
 10
67.6601557506
 20
22.6084880126
 30
0.0
 11
71.4091559085
 21
22.6084880126
 31
0.0
  0
ARC
  5
194
  8
0
  6
CONTINUOUS
 62
     7
 10
60.8781558949
 20
18.608488255
 30
0.0
 40
0.6545098538733498
 50
0.0
 51
90.0
  0
LINE
  5
195
  8
0
  6
CONTINUOUS
 62
     7
 10
61.5326656826
 20
18.6084883542
 30
0.0
 11
61.1901560393
 21
18.6084883542
 31
0.0
  0
LINE
  5
196
  8
0
  6
CONTINUOUS
 62
     7
 10
57.4411558814
 20
18.6084883542
 30
0.0
 11
57.0986462381
 21
18.6084883542
 31
0.0
  0
ARC
  5
197
  8
0
  6
CONTINUOUS
 62
     7
 10
57.7531558949
 20
18.608488255
 30
0.0
 40
0.6545098538733463
 50
90.0
 51
180.0
  0
LINE
  5
198
  8
0
  6
CONTINUOUS
 62
     7
 10
67.6601557506
 20
23.6084873405
 30
0.0
 11
67.3176461073
 21
23.6084873405
 31
0.0
  0
ARC
  5
199
  8
0
  6
CONTINUOUS
 62
     7
 10
67.9721558949
 20
23.608488255
 30
0.0
 40
0.6545098538733463
 50
90.0
 51
180.0
  0
LINE
  5
19A
  8
0
  6
CONTINUOUS
 62
     7
 10
57.4411558814
 20
15.6084880238
 30
0.0
 11
57.0986462381
 21
15.6084880238
 31
0.0
  0
ARC
  5
19B
  8
0
  6
CONTINUOUS
 62
     7
 10
57.7531558949
 20
15.608488255
 30
0.0
 40
0.6545098538733463
 50
90.0
 51
180.0
  0
ARC
  5
19C
  8
0
  6
CONTINUOUS
 62
     7
 10
60.8781558949
 20
26.608488255
 30
0.0
 40
0.6545098538733498
 50
0.0
 51
90.0
  0
LINE
  5
19D
  8
0
  6
CONTINUOUS
 62
     7
 10
61.5326656826
 20
26.6084876709
 30
0.0
 11
61.1901560393
 21
26.6084876709
 31
0.0
  0
ARC
  5
19E
  8
0
  6
CONTINUOUS
 62
     7
 10
71.0971558949
 20
24.608488255
 30
0.0
 40
0.6545098538733498
 50
0.0
 51
90.0
  0
LINE
  5
19F
  8
0
  6
CONTINUOUS
 62
     7
 10
71.7516655518
 20
24.6084890151
 30
0.0
 11
71.4091559085
 21
24.6084890151
 31
0.0
  0
LINE
  5
1A0
  8
0
  6
CONTINUOUS
 62
     7
 10
57.4411558814
 20
19.6084876822
 30
0.0
 11
57.0986462381
 21
19.6084876822
 31
0.0
  0
ARC
  5
1A1
  8
0
  6
CONTINUOUS
 62
     7
 10
57.7531558949
 20
19.608488255
 30
0.0
 40
0.6545098538733427
 50
90.0
 51
180.0
  0
ARC
  5
1A2
  8
0
  6
CONTINUOUS
 62
     7
 10
60.8781558949
 20
16.608488255
 30
0.0
 40
0.6545098538733498
 50
0.0
 51
90.0
  0
LINE
  5
1A3
  8
0
  6
CONTINUOUS
 62
     7
 10
61.5326656826
 20
16.6084873518
 30
0.0
 11
61.1901560393
 21
16.6084873518
 31
0.0
  0
ARC
  5
1A4
  8
0
  6
CONTINUOUS
 62
     7
 10
71.0971558949
 20
17.608488255
 30
0.0
 40
0.6545098538733498
 50
0.0
 51
90.0
  0
LINE
  5
1A5
  8
0
  6
CONTINUOUS
 62
     7
 10
71.7516655518
 20
17.6084890263
 30
0.0
 11
71.4091559085
 21
17.6084890263
 31
0.0
  0
ARC
  5
1A6
  8
0
  6
CONTINUOUS
 62
     7
 10
60.8781558949
 20
27.608488255
 30
0.0
 40
0.6545098538733498
 50
0.0
 51
90.0
  0
LINE
  5
1A7
  8
0
  6
CONTINUOUS
 62
     7
 10
61.5326656826
 20
27.6084881721
 30
0.0
 11
61.1901560393
 21
27.6084881721
 31
0.0
  0
LINE
  5
1A8
  8
0
  6
CONTINUOUS
 62
     7
 10
57.4411558814
 20
23.6084873405
 30
0.0
 11
57.0986462381
 21
23.6084873405
 31
0.0
  0
ARC
  5
1A9
  8
0
  6
CONTINUOUS
 62
     7
 10
57.7531558949
 20
23.608488255
 30
0.0
 40
0.6545098538733463
 50
90.0
 51
180.0
  0
ARC
  5
1AA
  8
0
  6
CONTINUOUS
 62
     7
 10
71.0971558949
 20
14.608488255
 30
0.0
 40
0.6545098538733516
 50
0.0
 51
90.0
  0
LINE
  5
1AB
  8
0
  6
CONTINUOUS
 62
     7
 10
71.7516655518
 20
14.6084886959
 30
0.0
 11
71.4091559085
 21
14.6084886959
 31
0.0
  0
LINE
  5
1AC
  8
0
  6
CONTINUOUS
 62
     7
 10
57.4411558814
 20
23.6084873405
 30
0.0
 11
61.1901560393
 21
23.6084873405
 31
0.0
  0
LINE
  5
1AD
  8
0
  6
CONTINUOUS
 62
     7
 10
67.6601557506
 20
18.6084883542
 30
0.0
 11
67.3176461073
 21
18.6084883542
 31
0.0
  0
ARC
  5
1AE
  8
0
  6
CONTINUOUS
 62
     7
 10
67.9721558949
 20
18.608488255
 30
0.0
 40
0.6545098538733463
 50
90.0
 51
180.0
  0
ARC
  5
1AF
  8
0
  6
CONTINUOUS
 62
     7
 10
71.0971558949
 20
22.608488255
 30
0.0
 40
0.6545098538733498
 50
0.0
 51
90.0
  0
LINE
  5
1B0
  8
0
  6
CONTINUOUS
 62
     7
 10
71.7516655518
 20
22.6084880126
 30
0.0
 11
71.4091559085
 21
22.6084880126
 31
0.0
  0
LINE
  5
1B1
  8
0
  6
CONTINUOUS
 62
     7
 10
67.6601557506
 20
22.6084880126
 30
0.0
 11
67.3176461073
 21
22.6084880126
 31
0.0
  0
ARC
  5
1B2
  8
0
  6
CONTINUOUS
 62
     7
 10
67.9721558949
 20
22.608488255
 30
0.0
 40
0.6545098538733427
 50
90.0
 51
180.0
  0
LINE
  5
1B3
  8
0
  6
CONTINUOUS
 62
     7
 10
67.6601557506
 20
25.608488343
 30
0.0
 11
71.4091559085
 21
25.608488343
 31
0.0
  0
ARC
  5
1B4
  8
0
  6
CONTINUOUS
 62
     7
 10
60.8781558949
 20
21.608488255
 30
0.0
 40
0.6545098538733498
 50
0.0
 51
90.0
  0
LINE
  5
1B5
  8
0
  6
CONTINUOUS
 62
     7
 10
61.5326656826
 20
21.6084886847
 30
0.0
 11
61.1901560393
 21
21.6084886847
 31
0.0
  0
ARC
  5
1B6
  8
0
  6
CONTINUOUS
 62
     7
 10
71.0971558949
 20
19.608488255
 30
0.0
 40
0.6545098538733498
 50
0.0
 51
90.0
  0
LINE
  5
1B7
  8
0
  6
CONTINUOUS
 62
     7
 10
71.7516655518
 20
19.6084876822
 30
0.0
 11
71.4091559085
 21
19.6084876822
 31
0.0
  0
ARC
  5
1B8
  8
0
  6
CONTINUOUS
 62
     7
 10
67.9721558949
 20
28.608488255
 30
0.0
 40
0.6545098538733463
 50
90.0
 51
180.0
  0
LINE
  5
1B9
  8
0
  6
CONTINUOUS
 62
     7
 10
67.6601557506
 20
28.6084886734
 30
0.0
 11
67.3176461073
 21
28.6084886734
 31
0.0
  0
ARC
  5
1BA
  8
0
  6
CONTINUOUS
 62
     7
 10
60.8781558949
 20
22.608488255
 30
0.0
 40
0.6545098538733498
 50
0.0
 51
90.0
  0
LINE
  5
1BB
  8
0
  6
CONTINUOUS
 62
     7
 10
61.5326656826
 20
22.6084880126
 30
0.0
 11
61.1901560393
 21
22.6084880126
 31
0.0
  0
LINE
  5
1BC
  8
0
  6
CONTINUOUS
 62
     7
 10
57.4411558814
 20
22.6084880126
 30
0.0
 11
57.0986462381
 21
22.6084880126
 31
0.0
  0
ARC
  5
1BD
  8
0
  6
CONTINUOUS
 62
     7
 10
57.7531558949
 20
22.608488255
 30
0.0
 40
0.6545098538733427
 50
90.0
 51
180.0
  0
ARC
  5
1BE
  8
0
  6
CONTINUOUS
 62
     7
 10
67.9721558949
 20
27.608488255
 30
0.0
 40
0.6545098538733427
 50
90.0
 51
180.0
  0
LINE
  5
1BF
  8
0
  6
CONTINUOUS
 62
     7
 10
67.6601557506
 20
27.6084881721
 30
0.0
 11
67.3176461073
 21
27.6084881721
 31
0.0
  0
LINE
  5
1C0
  8
0
  6
CONTINUOUS
 62
     7
 10
67.6601557506
 20
20.6084893567
 30
0.0
 11
67.3176461073
 21
20.6084893567
 31
0.0
  0
ARC
  5
1C1
  8
0
  6
CONTINUOUS
 62
     7
 10
67.9721558949
 20
20.608488255
 30
0.0
 40
0.6545098538733463
 50
90.0
 51
180.0
  0
LINE
  5
1C2
  8
0
  6
CONTINUOUS
 62
     7
 10
57.4411558814
 20
26.6084876709
 30
0.0
 11
57.0986462381
 21
26.6084876709
 31
0.0
  0
ARC
  5
1C3
  8
0
  6
CONTINUOUS
 62
     7
 10
57.7531558949
 20
26.608488255
 30
0.0
 40
0.6545098538733463
 50
90.0
 51
180.0
  0
LINE
  5
1C4
  8
0
  6
CONTINUOUS
 62
     7
 10
57.4411558814
 20
22.6084880126
 30
0.0
 11
61.1901560393
 21
22.6084880126
 31
0.0
  0
LINE
  5
1C5
  8
0
  6
CONTINUOUS
 62
     7
 10
67.6601557506
 20
16.6084873518
 30
0.0
 11
71.4091559085
 21
16.6084873518
 31
0.0
  0
LINE
  5
1C6
  8
0
  6
CONTINUOUS
 62
     7
 10
67.6601557506
 20
17.6084890263
 30
0.0
 11
67.3176461073
 21
17.6084890263
 31
0.0
  0
ARC
  5
1C7
  8
0
  6
CONTINUOUS
 62
     7
 10
67.9721558949
 20
17.608488255
 30
0.0
 40
0.6545098538733427
 50
90.0
 51
180.0
  0
ARC
  5
1C8
  8
0
  6
CONTINUOUS
 62
     7
 10
71.0971558949
 20
21.608488255
 30
0.0
 40
0.6545098538733498
 50
0.0
 51
90.0
  0
LINE
  5
1C9
  8
0
  6
CONTINUOUS
 62
     7
 10
71.7516655518
 20
21.6084886847
 30
0.0
 11
71.4091559085
 21
21.6084886847
 31
0.0
  0
ARC
  5
1CA
  8
0
  6
CONTINUOUS
 62
     7
 10
67.9721558949
 20
21.608488255
 30
0.0
 40
0.6545098538733463
 50
90.0
 51
180.0
  0
LINE
  5
1CB
  8
0
  6
CONTINUOUS
 62
     7
 10
67.6601557506
 20
21.6084886847
 30
0.0
 11
67.3176461073
 21
21.6084886847
 31
0.0
  0
ARC
  5
1CC
  8
0
  6
CONTINUOUS
 62
     7
 10
71.0971558949
 20
25.608488255
 30
0.0
 40
0.6545098538733498
 50
0.0
 51
90.0
  0
LINE
  5
1CD
  8
0
  6
CONTINUOUS
 62
     7
 10
71.7516655518
 20
25.608488343
 30
0.0
 11
71.4091559085
 21
25.608488343
 31
0.0
  0
LINE
  5
1CE
  8
0
  6
CONTINUOUS
 62
     7
 10
67.6601557506
 20
24.6084890151
 30
0.0
 11
71.4091559085
 21
24.6084890151
 31
0.0
  0
ARC
  5
1CF
  8
0
  6
CONTINUOUS
 62
     7
 10
60.8781558949
 20
24.608488255
 30
0.0
 40
0.6545098538733498
 50
0.0
 51
90.0
  0
LINE
  5
1D0
  8
0
  6
CONTINUOUS
 62
     7
 10
61.5326656826
 20
24.6084890151
 30
0.0
 11
61.1901560393
 21
24.6084890151
 31
0.0
  0
ARC
  5
1D1
  8
0
  6
CONTINUOUS
 62
     7
 10
71.0971558949
 20
18.608488255
 30
0.0
 40
0.6545098538733498
 50
0.0
 51
90.0
  0
LINE
  5
1D2
  8
0
  6
CONTINUOUS
 62
     7
 10
71.7516655518
 20
18.6084883542
 30
0.0
 11
71.4091559085
 21
18.6084883542
 31
0.0
  0
LINE
  5
1D3
  8
0
  6
CONTINUOUS
 62
     7
 10
67.6601557506
 20
17.6084890263
 30
0.0
 11
71.4091559085
 21
17.6084890263
 31
0.0
  0
LINE
  5
1D4
  8
0
  6
CONTINUOUS
 62
     7
 10
57.4411558814
 20
27.6084881721
 30
0.0
 11
61.1901560393
 21
27.6084881721
 31
0.0
  0
LINE
  5
1D5
  8
0
  6
CONTINUOUS
 62
     7
 10
67.6601557506
 20
21.6084886847
 30
0.0
 11
71.4091559085
 21
21.6084886847
 31
0.0
  0
ARC
  5
1D6
  8
0
  6
CONTINUOUS
 62
     7
 10
71.0971558949
 20
15.608488255
 30
0.0
 40
0.6545098538733498
 50
0.0
 51
90.0
  0
LINE
  5
1D7
  8
0
  6
CONTINUOUS
 62
     7
 10
71.7516655518
 20
15.6084880238
 30
0.0
 11
71.4091559085
 21
15.6084880238
 31
0.0
  0
LINE
  5
1D8
  8
0
  6
CONTINUOUS
 62
     7
 10
57.4411558814
 20
20.6084893567
 30
0.0
 11
61.1901560393
 21
20.6084893567
 31
0.0
  0
ARC
  5
1D9
  8
0
  6
CONTINUOUS
 62
     7
 10
67.9721558949
 20
26.608488255
 30
0.0
 40
0.6545098538733463
 50
90.0
 51
180.0
  0
LINE
  5
1DA
  8
0
  6
CONTINUOUS
 62
     7
 10
67.6601557506
 20
26.6084876709
 30
0.0
 11
67.3176461073
 21
26.6084876709
 31
0.0
  0
LINE
  5
1DB
  8
0
  6
CONTINUOUS
 62
     7
 10
57.4411558814
 20
24.6084890151
 30
0.0
 11
61.1901560393
 21
24.6084890151
 31
0.0
  0
LINE
  5
1DC
  8
0
  6
CONTINUOUS
 62
     7
 10
57.4411558814
 20
17.6084890263
 30
0.0
 11
61.1901560393
 21
17.6084890263
 31
0.0
  0
LINE
  5
1DD
  8
0
  6
CONTINUOUS
 62
     7
 10
67.6601557506
 20
20.6084893567
 30
0.0
 11
71.4091559085
 21
20.6084893567
 31
0.0
  0
LINE
  5
1DE
  8
0
  6
CONTINUOUS
 62
     7
 10
57.4411558814
 20
21.6084886847
 30
0.0
 11
61.1901560393
 21
21.6084886847
 31
0.0
  0
LINE
  5
1DF
  8
0
  6
CONTINUOUS
 62
     7
 10
67.6601557506
 20
15.6084880238
 30
0.0
 11
71.4091559085
 21
15.6084880238
 31
0.0
  0
LINE
  5
1E0
  8
0
  6
CONTINUOUS
 62
     7
 10
67.6601557506
 20
28.6084886734
 30
0.0
 11
71.4091559085
 21
28.6084886734
 31
0.0
  0
ARC
  5
1E1
  8
0
  6
CONTINUOUS
 62
     7
 10
71.0971558949
 20
20.608488255
 30
0.0
 40
0.6545098538733498
 50
0.0
 51
90.0
  0
LINE
  5
1E2
  8
0
  6
CONTINUOUS
 62
     7
 10
71.7516655518
 20
20.6084893567
 30
0.0
 11
71.4091559085
 21
20.6084893567
 31
0.0
  0
LINE
  5
1E3
  8
0
  6
CONTINUOUS
 62
     7
 10
57.4411558814
 20
18.6084883542
 30
0.0
 11
61.1901560393
 21
18.6084883542
 31
0.0
  0
LINE
  5
1E4
  8
0
  6
CONTINUOUS
 62
     7
 10
67.6601557506
 20
23.6084873405
 30
0.0
 11
71.4091559085
 21
23.6084873405
 31
0.0
  0
ARC
  5
1E5
  8
0
  6
CONTINUOUS
 62
     7
 10
57.7531558949
 20
21.608488255
 30
0.0
 40
0.6545098538733463
 50
90.0
 51
180.0
  0
LINE
  5
1E6
  8
0
  6
CONTINUOUS
 62
     7
 10
57.4411558814
 20
21.6084886847
 30
0.0
 11
57.0986462381
 21
21.6084886847
 31
0.0
  0
LINE
  5
1E7
  8
0
  6
CONTINUOUS
 62
     7
 10
57.4411558814
 20
26.6084876709
 30
0.0
 11
61.1901560393
 21
26.6084876709
 31
0.0
  0
LINE
  5
1E8
  8
0
  6
CONTINUOUS
 62
     7
 10
67.6601557506
 20
18.6084883542
 30
0.0
 11
71.4091559085
 21
18.6084883542
 31
0.0
  0
ARC
  5
1E9
  8
0
  6
CONTINUOUS
 62
     7
 10
60.8781558949
 20
20.608488255
 30
0.0
 40
0.6545098538733498
 50
0.0
 51
90.0
  0
LINE
  5
1EA
  8
0
  6
CONTINUOUS
 62
     7
 10
61.5326656826
 20
20.6084893567
 30
0.0
 11
61.1901560393
 21
20.6084893567
 31
0.0
  0
LINE
  5
1EB
  8
0
  6
CONTINUOUS
 62
     7
 10
57.4411558814
 20
19.6084876822
 30
0.0
 11
61.1901560393
 21
19.6084876822
 31
0.0
  0
LINE
  5
1EC
  8
0
  6
CONTINUOUS
 62
     7
 10
67.6601557506
 20
25.608488343
 30
0.0
 11
67.3176461073
 21
25.608488343
 31
0.0
  0
ARC
  5
1ED
  8
0
  6
CONTINUOUS
 62
     7
 10
67.9721558949
 20
25.608488255
 30
0.0
 40
0.6545098538733463
 50
90.0
 51
180.0
  0
LINE
  5
1EE
  8
0
  6
CONTINUOUS
 62
     7
 10
57.4411558814
 20
16.6084873518
 30
0.0
 11
61.1901560393
 21
16.6084873518
 31
0.0
  0
LINE
  5
1EF
  8
0
  6
CONTINUOUS
 62
     7
 10
67.6601557506
 20
14.6084886959
 30
0.0
 11
71.4091559085
 21
14.6084886959
 31
0.0
  0
ARC
  5
1F0
  8
0
  6
CONTINUOUS
 62
     7
 10
57.7531558949
 20
27.608488255
 30
0.0
 40
0.6545098538733427
 50
90.0
 51
180.0
  0
LINE
  5
1F1
  8
0
  6
CONTINUOUS
 62
     7
 10
57.4411558814
 20
27.6084881721
 30
0.0
 11
57.0986462381
 21
27.6084881721
 31
0.0
  0
ARC
  5
1F2
  8
0
  6
CONTINUOUS
 62
     7
 10
71.0971558949
 20
28.608488255
 30
0.0
 40
0.6545098538733498
 50
0.0
 51
90.0
  0
LINE
  5
1F3
  8
0
  6
CONTINUOUS
 62
     7
 10
71.7516655518
 20
28.6084886734
 30
0.0
 11
71.4091559085
 21
28.6084886734
 31
0.0
  0
LINE
  5
1F4
  8
0
  6
CONTINUOUS
 62
     7
 10
57.4411558814
 20
15.6084880238
 30
0.0
 11
61.1901560393
 21
15.6084880238
 31
0.0
  0
LINE
  5
1F5
  8
0
  6
CONTINUOUS
 62
     7
 10
67.6601557506
 20
19.6084876822
 30
0.0
 11
71.4091559085
 21
19.6084876822
 31
0.0
  0
LINE
  5
1F6
  8
0
  6
CONTINUOUS
 62
     7
 10
57.4411558814
 20
25.608488343
 30
0.0
 11
61.1901560393
 21
25.608488343
 31
0.0
  0
LINE
  5
1F7
  8
0
  6
CONTINUOUS
 62
     7
 10
57.4411558814
 20
14.6084886959
 30
0.0
 11
61.1901560393
 21
14.6084886959
 31
0.0
  0
ARC
  5
1F8
  8
0
  6
CONTINUOUS
 62
     7
 10
57.7531558949
 20
20.608488255
 30
0.0
 40
0.6545098538733463
 50
90.0
 51
180.0
  0
LINE
  5
1F9
  8
0
  6
CONTINUOUS
 62
     7
 10
57.4411558814
 20
20.6084893567
 30
0.0
 11
57.0986462381
 21
20.6084893567
 31
0.0
  0
LINE
  5
1FA
  8
0
  6
CONTINUOUS
 62
     7
 10
71.0971560994
 20
20.2629983079
 30
0.0
 11
67.972155853
 21
20.2629983079
 31
0.0
  0
LINE
  5
1FB
  8
0
  6
CONTINUOUS
 62
     7
 10
71.0971560994
 20
26.2629989687
 30
0.0
 11
67.972155853
 21
26.2629989687
 31
0.0
  0
LINE
  5
1FC
  8
0
  6
CONTINUOUS
 62
     7
 10
60.8781559369
 20
26.2629989687
 30
0.0
 11
57.7531556905
 21
26.2629989687
 31
0.0
  0
LINE
  5
1FD
  8
0
  6
CONTINUOUS
 62
     7
 10
60.8781559369
 20
15.262996975
 30
0.0
 11
57.7531556905
 21
15.262996975
 31
0.0
  0
LINE
  5
1FE
  8
0
  6
CONTINUOUS
 62
     7
 10
60.8781559369
 20
22.2629969637
 30
0.0
 11
57.7531556905
 21
22.2629969637
 31
0.0
  0
LINE
  5
1FF
  8
0
  6
CONTINUOUS
 62
     7
 10
71.0971560994
 20
16.2629986495
 30
0.0
 11
67.972155853
 21
16.2629986495
 31
0.0
  0
LINE
  5
200
  8
0
  6
CONTINUOUS
 62
     7
 10
71.0971560994
 20
19.2629989799
 30
0.0
 11
67.972155853
 21
19.2629989799
 31
0.0
  0
LINE
  5
201
  8
0
  6
CONTINUOUS
 62
     7
 10
60.8781559369
 20
20.2629983079
 30
0.0
 11
57.7531556905
 21
20.2629983079
 31
0.0
  0
LINE
  5
202
  8
0
  6
CONTINUOUS
 62
     7
 10
71.0971560994
 20
21.2629976358
 30
0.0
 11
67.972155853
 21
21.2629976358
 31
0.0
  0
LINE
  5
203
  8
0
  6
CONTINUOUS
 62
     7
 10
71.0971560994
 20
23.2629986383
 30
0.0
 11
67.972155853
 21
23.2629986383
 31
0.0
  0
LINE
  5
204
  8
0
  6
CONTINUOUS
 62
     7
 10
60.8781559369
 20
21.2629976358
 30
0.0
 11
57.7531556905
 21
21.2629976358
 31
0.0
  0
LINE
  5
205
  8
0
  6
CONTINUOUS
 62
     7
 10
71.0971560994
 20
15.262996975
 30
0.0
 11
67.972155853
 21
15.262996975
 31
0.0
  0
LINE
  5
206
  8
0
  6
CONTINUOUS
 62
     7
 10
71.0971560994
 20
27.2629982966
 30
0.0
 11
67.972155853
 21
27.2629982966
 31
0.0
  0
LINE
  5
207
  8
0
  6
CONTINUOUS
 62
     7
 10
71.0971560994
 20
24.2629979662
 30
0.0
 11
67.972155853
 21
24.2629979662
 31
0.0
  0
LINE
  5
208
  8
0
  6
CONTINUOUS
 62
     7
 10
71.0971560994
 20
22.2629969637
 30
0.0
 11
67.972155853
 21
22.2629969637
 31
0.0
  0
LINE
  5
209
  8
0
  6
CONTINUOUS
 62
     7
 10
60.8781559369
 20
27.2629982966
 30
0.0
 11
57.7531556905
 21
27.2629982966
 31
0.0
  0
LINE
  5
20A
  8
0
  6
CONTINUOUS
 62
     7
 10
60.8781559369
 20
24.2629979662
 30
0.0
 11
57.7531556905
 21
24.2629979662
 31
0.0
  0
LINE
  5
20B
  8
0
  6
CONTINUOUS
 62
     7
 10
60.8781559369
 20
29.2629981258
 30
0.0
 11
57.7531556905
 21
29.2629981258
 31
0.0
  0
LINE
  5
20C
  8
0
  6
CONTINUOUS
 62
     7
 10
71.0971560994
 20
25.2629972941
 30
0.0
 11
67.972155853
 21
25.2629972941
 31
0.0
  0
LINE
  5
20D
  8
0
  6
CONTINUOUS
 62
     7
 10
60.8781559369
 20
25.2629972941
 30
0.0
 11
57.7531556905
 21
25.2629972941
 31
0.0
  0
LINE
  5
20E
  8
0
  6
CONTINUOUS
 62
     7
 10
71.0971560994
 20
17.2629979775
 30
0.0
 11
67.972155853
 21
17.2629979775
 31
0.0
  0
LINE
  5
20F
  8
0
  6
CONTINUOUS
 62
     7
 10
71.0971560994
 20
18.2629973054
 30
0.0
 11
67.972155853
 21
18.2629973054
 31
0.0
  0
LINE
  5
210
  8
0
  6
CONTINUOUS
 62
     7
 10
60.8781559369
 20
16.2629986495
 30
0.0
 11
57.7531556905
 21
16.2629986495
 31
0.0
  0
LINE
  5
211
  8
0
  6
CONTINUOUS
 62
     7
 10
71.0971560994
 20
29.2629981258
 30
0.0
 11
67.972155853
 21
29.2629981258
 31
0.0
  0
LINE
  5
212
  8
0
  6
CONTINUOUS
 62
     7
 10
60.8781559369
 20
19.2629989799
 30
0.0
 11
57.7531556905
 21
19.2629989799
 31
0.0
  0
LINE
  5
213
  8
0
  6
CONTINUOUS
 62
     7
 10
60.8781559369
 20
28.2629976245
 30
0.0
 11
57.7531556905
 21
28.2629976245
 31
0.0
  0
LINE
  5
214
  8
0
  6
CONTINUOUS
 62
     7
 10
71.0971560994
 20
28.2629976245
 30
0.0
 11
67.972155853
 21
28.2629976245
 31
0.0
  0
LINE
  5
215
  8
0
  6
CONTINUOUS
 62
     7
 10
60.8781559369
 20
23.2629986383
 30
0.0
 11
57.7531556905
 21
23.2629986383
 31
0.0
  0
LINE
  5
216
  8
0
  6
CONTINUOUS
 62
     7
 10
60.8781559369
 20
18.2629973054
 30
0.0
 11
57.7531556905
 21
18.2629973054
 31
0.0
  0
LINE
  5
217
  8
0
  6
CONTINUOUS
 62
     7
 10
60.8781559369
 20
17.2629979775
 30
0.0
 11
57.7531556905
 21
17.2629979775
 31
0.0
  0
LINE
  5
218
  8
0
  6
CONTINUOUS
 62
     7
 10
73.831156036
 20
82.0929871892
 30
0.0
 11
73.831156036
 21
12.1859893208
 31
0.0
  0
LINE
  5
219
  8
0
  6
CONTINUOUS
 62
     7
 10
73.7851560341
 20
12.1859893208
 30
0.0
 11
73.831156036
 21
12.1859893208
 31
0.0
  0
LINE
  5
21A
  8
0
  6
CONTINUOUS
 62
     7
 10
73.7851560341
 20
82.0929871892
 30
0.0
 11
73.831156036
 21
82.0929871892
 31
0.0
  0
LINE
  5
21B
  8
0
  6
CONTINUOUS
 62
     7
 10
55.0191557539
 20
82.0929871892
 30
0.0
 11
55.0191557539
 21
79.5609889191
 31
0.0
  0
LINE
  5
21C
  8
0
  6
CONTINUOUS
 62
     7
 10
55.0191557539
 20
76.5609885887
 30
0.0
 11
55.0191557539
 21
16.8429893894
 31
0.0
  0
LINE
  5
21D
  8
0
  6
CONTINUOUS
 62
     7
 10
55.0191557539
 20
13.842989059
 30
0.0
 11
55.0191557539
 21
12.1859893208
 31
0.0
  0
LINE
  5
21E
  8
0
  6
CONTINUOUS
 62
     7
 10
55.0651557558
 20
82.0929871892
 30
0.0
 11
55.0191557539
 21
82.0929871892
 31
0.0
  0
LINE
  5
21F
  8
0
  6
CONTINUOUS
 62
     7
 10
55.0651557558
 20
12.1859893208
 30
0.0
 11
55.0191557539
 21
12.1859893208
 31
0.0
  0
LINE
  5
220
  8
0
  6
CONTINUOUS
 62
     7
 10
73.7591558544
 20
12.2169884294
 30
0.0
 11
73.7591558544
 21
12.1859893208
 31
0.0
  0
LINE
  5
221
  8
0
  6
CONTINUOUS
 62
     7
 10
55.0911559354
 20
12.2169884294
 30
0.0
 11
55.0911559354
 21
12.1859893208
 31
0.0
  0
LINE
  5
222
  8
0
  6
CONTINUOUS
 62
     7
 10
55.0911559354
 20
82.0619880807
 30
0.0
 11
55.0911559354
 21
82.0929871892
 31
0.0
  0
LINE
  5
223
  8
0
  6
CONTINUOUS
 62
     7
 10
73.7591558544
 20
82.0619880807
 30
0.0
 11
73.7591558544
 21
82.0929871892
 31
0.0
  0
LINE
  5
224
  8
0
  6
CONTINUOUS
 62
     7
 10
73.7851560341
 20
82.0929871892
 30
0.0
 11
73.7591558544
 21
82.0929871892
 31
0.0
  0
LINE
  5
225
  8
0
  6
CONTINUOUS
 62
     7
 10
73.7851560341
 20
12.1859893208
 30
0.0
 11
73.7591558544
 21
12.1859893208
 31
0.0
  0
LINE
  5
226
  8
0
  6
CONTINUOUS
 62
     7
 10
55.0651557558
 20
82.0929871892
 30
0.0
 11
55.0911559354
 21
82.0929871892
 31
0.0
  0
LINE
  5
227
  8
0
  6
CONTINUOUS
 62
     7
 10
55.0651557558
 20
12.1859893208
 30
0.0
 11
55.0911559354
 21
12.1859893208
 31
0.0
  0
LINE
  5
228
  8
0
  6
CONTINUOUS
 62
     7
 10
55.0911559354
 20
82.1079892559
 30
0.0
 11
55.0911559354
 21
82.0929871892
 31
0.0
  0
LINE
  5
229
  8
0
  6
CONTINUOUS
 62
     7
 10
55.0911559354
 20
82.1079892559
 30
0.0
 11
73.7591558544
 21
82.1079892559
 31
0.0
  0
LINE
  5
22A
  8
0
  6
CONTINUOUS
 62
     7
 10
73.7591558544
 20
82.1079892559
 30
0.0
 11
73.7591558544
 21
82.0929871892
 31
0.0
  0
LINE
  5
22B
  8
0
  6
CONTINUOUS
 62
     7
 10
73.7591558544
 20
12.1709872541
 30
0.0
 11
73.7591558544
 21
12.1859893208
 31
0.0
  0
LINE
  5
22C
  8
0
  6
CONTINUOUS
 62
     7
 10
55.0911559354
 20
12.1709872541
 30
0.0
 11
73.7591558544
 21
12.1709872541
 31
0.0
  0
LINE
  5
22D
  8
0
  6
CONTINUOUS
 62
     7
 10
55.0911559354
 20
12.1709872541
 30
0.0
 11
55.0911559354
 21
12.1859893208
 31
0.0
  0
LINE
  5
22E
  8
0
  6
CONTINUOUS
 62
     7
 10
55.0191557539
 20
76.5609885887
 30
0.0
 11
55.0191557539
 21
78.0609887539
 31
0.0
  0
LINE
  5
22F
  8
0
  6
CONTINUOUS
 62
     7
 10
54.6721558158
 20
78.0609887539
 30
0.0
 11
55.0191557539
 21
78.0609887539
 31
0.0
  0
LINE
  5
230
  8
0
  6
CONTINUOUS
 62
     7
 10
54.6721558158
 20
15.3429892242
 30
0.0
 11
55.0191557539
 21
15.3429892242
 31
0.0
  0
LINE
  5
231
  8
0
  6
CONTINUOUS
 62
     7
 10
55.0191557539
 20
13.842989059
 30
0.0
 11
55.0191557539
 21
15.3429892242
 31
0.0
  0
ARC
  5
232
  8
0
  6
CONTINUOUS
 62
     7
 10
74.0191558949
 20
47.138988255
 30
0.0
 40
0.3119999999999976
 50
270.0
 51
0.0
  0
LINE
  5
233
  8
0
  6
CONTINUOUS
 62
     7
 10
73.831156036
 20
46.8269882451
 30
0.0
 11
74.0191558909
 21
46.8269882451
 31
0.0
  0
LINE
  5
234
  8
0
  6
CONTINUOUS
 62
     7
 10
73.831156036
 20
47.451988265
 30
0.0
 11
74.0191558909
 21
47.451988265
 31
0.0
  0
ARC
  5
235
  8
0
  6
CONTINUOUS
 62
     7
 10
74.0191558949
 20
47.139988255
 30
0.0
 40
0.3119999999999976
 50
0.0
 51
90.0
  0
LINE
  5
236
  8
0
  6
CONTINUOUS
 62
     7
 10
74.3311557
 20
47.139988255
 30
0.0
 11
74.3311557
 21
47.138988255
 31
0.0
  0
LINE
  5
237
  8
0
  6
CONTINUOUS
 62
     7
 10
72.8761558683
 20
47.0058619087
 30
0.0
 11
72.8761558683
 21
47.2731146014
 31
0.0
  0
ARC
  5
238
  8
0
  6
CONTINUOUS
 62
     7
 10
72.8311558949
 20
47.139488255
 30
0.0
 40
0.1410000000000005
 50
288.6114639665
 51
71.3885360335
  0
CIRCLE
  5
239
  8
0
  6
CONTINUOUS
 62
     7
 10
72.8311558949
 20
47.139488255
 30
0.0
 40
0.3099999999999881
  0
LINE
  5
23A
  8
0
  6
CONTINUOUS
 62
     7
 10
72.8761558683
 20
47.0058619087
 30
0.0
 11
72.8761558683
 21
46.9044882531
 31
0.0
  0
LINE
  5
23B
  8
0
  6
CONTINUOUS
 62
     7
 10
72.8761558683
 20
47.2944882528
 30
0.0
 11
72.8761558683
 21
47.2731146014
 31
0.0
  0
ARC
  5
23C
  8
0
  6
CONTINUOUS
 62
     7
 10
72.8311558949
 20
47.139488255
 30
0.0
 40
0.1410000000000005
 50
108.6114639665
 51
251.3885360335
  0
LINE
  5
23D
  8
0
  6
CONTINUOUS
 62
     7
 10
72.8761558683
 20
46.9044882531
 30
0.0
 11
72.786155788
 21
46.9044882531
 31
0.0
  0
LINE
  5
23E
  8
0
  6
CONTINUOUS
 62
     7
 10
72.786155788
 20
46.9044882531
 30
0.0
 11
72.786155788
 21
47.0058619087
 31
0.0
  0
LINE
  5
23F
  8
0
  6
CONTINUOUS
 62
     7
 10
72.786155788
 20
47.2731146014
 30
0.0
 11
72.786155788
 21
47.2944882528
 31
0.0
  0
LINE
  5
240
  8
0
  6
CONTINUOUS
 62
     7
 10
72.786155788
 20
47.2944882528
 30
0.0
 11
72.8761558683
 21
47.2944882528
 31
0.0
  0
LINE
  5
241
  8
0
  6
CONTINUOUS
 62
     7
 10
72.786155788
 20
47.2731146014
 30
0.0
 11
72.786155788
 21
47.0058619087
 31
0.0
  0
CIRCLE
  5
242
  8
0
  6
CONTINUOUS
 62
     7
 10
72.8311558949
 20
47.139488255
 30
0.0
 40
0.4549999999999841
  0
CIRCLE
  5
243
  8
0
  6
CONTINUOUS
 62
     7
 10
72.8311558949
 20
47.139488255
 30
0.0
 40
0.3119999999999976
  0
LINE
  5
244
  8
0
  6
CONTINUOUS
 62
     7
 10
55.0191557539
 20
79.5609889191
 30
0.0
 11
55.0191557539
 21
78.0609887539
 31
0.0
  0
LINE
  5
245
  8
0
  6
CONTINUOUS
 62
     7
 10
55.0191557539
 20
16.8429893894
 30
0.0
 11
55.0191557539
 21
15.3429892242
 31
0.0
  0
DIMENSION
  5
246
  8
0
  6
CONTINUOUS
 62
     7
  2
*D8
 10
50.3190396565
 20
82.107988255
 30
0.0
 11
50.3190396565
 21
85.3664726451
 31
0.0
 70
   160
  3
SLDDIMSTYLE0
 13
54.6721558949
 23
79.560988255
 33
0.0
 14
55.0911558949
 24
82.107988255
 34
0.0
 50
90.0
  0
DIMENSION
  5
25C
  8
0
  6
CONTINUOUS
 62
     7
  2
*D9
 10
57.1281558949
 20
33.7504982945
 30
0.0
 11
48.7989223608
 21
33.7504982945
 31
0.0
 70
   160
  3
SLDDIMSTYLE0
 13
61.5031558949
 23
28.608488255
 33
0.0
 14
57.1281558949
 24
28.608488255
 34
0.0
  0
DIMENSION
  5
270
  8
0
  6
CONTINUOUS
 62
     7
  2
*D10
 10
73.8311558949
 20
86.1616918099
 30
0.0
 11
64.4251558949
 21
86.1616918099
 31
0.0
 70
   160
  3
SLDDIMSTYLE1
 13
55.0191558949
 23
82.092988255
 33
0.0
 14
73.8311558949
 24
82.092988255
 34
0.0
  0
DIMENSION
  5
285
  8
0
  6
CONTINUOUS
 62
     7
  2
*D11
 10
50.3190396565
 20
12.170988255
 30
0.0
 11
50.3190396565
 21
8.6320903901
 31
0.0
 70
   160
  3
SLDDIMSTYLE0
 13
54.6721558949
 23
15.342988255
 33
0.0
 14
55.0911558949
 24
12.170988255
 34
0.0
 50
90.0
  0
DIMENSION
  5
29A
  8
0
  6
CONTINUOUS
 62
     7
  2
*D12
 10
88.3862740052
 20
12.170988255
 30
0.0
 11
88.3862740052
 21
29.655238255
 31
0.0
 70
   160
  3
SLDDIMSTYLE1
 13
72.8311558949
 23
47.139488255
 33
0.0
 14
73.7591558949
 24
12.170988255
 34
0.0
 50
90.0
  0
DIMENSION
  5
2AE
  8
0
  6
CONTINUOUS
 62
     7
  2
*D13
 10
97.421707076
 20
82.107988255
 30
0.0
 11
97.421707076
 21
47.139488255
 31
0.0
 70
   160
  3
SLDDIMSTYLE1
 13
73.7591558949
 23
12.170988255
 33
0.0
 14
73.7591558949
 24
82.107988255
 34
0.0
 50
90.0
  0
DIMENSION
  5
2C2
  8
0
  6
CONTINUOUS
 62
     7
  2
*D14
 10
73.8311558949
 20
52.948826173
 30
0.0
 11
80.9959141199
 21
52.948826173
 31
0.0
 70
   160
  3
SLDDIMSTYLE2
 13
72.8311558949
 23
47.139488255
 33
0.0
 14
73.8311558949
 24
82.092988255
 34
0.0
  0
DIMENSION
  5
2D6
  8
0
  6
CONTINUOUS
 62
     7
  2
*D15
 10
71.7221558949
 20
8.168503315
 30
0.0
 11
62.9554452115
 21
8.168503315
 31
0.0
 70
   160
  1
<> TYP.
  3
SLDDIMSTYLE3
 13
73.8311558949
 23
12.185988255
 33
0.0
 14
71.7221558949
 24
14.608488255
 34
0.0
  0
DIMENSION
  5
2EA
  8
0
  6
CONTINUOUS
 62
     7
  2
*D16
 10
79.5120590684
 20
12.170988255
 30
0.0
 11
79.5120590684
 21
9.0496491187
 31
0.0
 70
   160
  3
SLDDIMSTYLE0
 13
71.7516657488
 23
14.608488255
 33
0.0
 14
73.7591558949
 24
12.170988255
 34
0.0
 50
90.0
  0
DIMENSION
  5
2FF
  8
0
  6
CONTINUOUS
 62
     7
  2
*D17
 10
79.5120590684
 20
29.233488255
 30
0.0
 11
79.5120590684
 21
21.920988255
 31
0.0
 70
   160
  3
SLDDIMSTYLE1
 13
71.7516657488
 23
14.608488255
 33
0.0
 14
71.0971558949
 24
29.233488255
 34
0.0
 50
90.0
  0
INSERT
  5
319
  8
0
  6
CONTINUOUS
 62
     7
  2
SW_NOTE_7
 10
73.0472293064
 20
47.5399096342
 30
0.0
  0
LINE
  5
31A
  8
0
  6
CONTINUOUS
 62
     7
 10
104.7803024561
 20
78.0609887539
 30
0.0
 11
104.7803024561
 21
76.5609885887
 31
0.0
  0
ARC
  5
31B
  8
0
  6
CONTINUOUS
 62
     7
 10
105.1019843932
 20
76.5399495969
 30
0.0
 40
0.3223692104072097
 50
176.2580085982
 51
225.8155231235
  0
LINE
  5
31C
  8
0
  6
CONTINUOUS
 62
     7
 10
104.7803024561
 20
15.3429892242
 30
0.0
 11
104.7803024561
 21
13.842989059
 31
0.0
  0
POLYLINE
  5
31D
  8
0
  6
CONTINUOUS
 62
     7
 66
     1
 10
0.0
 20
0.0
 30
0.0
  0
VERTEX
  5
6E6
  8
0
  6
CONTINUOUS
 62
     7
 10
104.9538024435
 20
13.5619883585
 30
0.0
  0
VERTEX
  5
6E7
  8
0
  6
CONTINUOUS
 62
     7
 10
104.9876506108
 20
13.5673879761
 30
0.0
  0
VERTEX
  5
6E8
  8
0
  6
CONTINUOUS
 62
     7
 10
105.0201980249
 20
13.5833779781
 30
0.0
  0
VERTEX
  5
6E9
  8
0
  6
CONTINUOUS
 62
     7
 10
105.0501938808
 20
13.6093458914
 30
0.0
  0
VERTEX
  5
6EA
  8
0
  6
CONTINUOUS
 62
     7
 10
105.0764854746
 20
13.6442920477
 30
0.0
  0
VERTEX
  5
6EB
  8
0
  6
CONTINUOUS
 62
     7
 10
105.098062422
 20
13.6868741692
 30
0.0
  0
VERTEX
  5
6EC
  8
0
  6
CONTINUOUS
 62
     7
 10
105.1140955435
 20
13.7354543013
 30
0.0
  0
VERTEX
  5
6ED
  8
0
  6
CONTINUOUS
 62
     7
 10
105.1239686903
 20
13.7881668657
 30
0.0
  0
VERTEX
  5
6EE
  8
0
  6
CONTINUOUS
 62
     7
 10
105.1273024447
 20
13.842989059
 30
0.0
  0
SEQEND
  5
6EF
  8
0
  6
CONTINUOUS
 62
     7
  0
POLYLINE
  5
31E
  8
0
  6
CONTINUOUS
 62
     7
 66
     1
 10
0.0
 20
0.0
 30
0.0
  0
VERTEX
  5
6F0
  8
0
  6
CONTINUOUS
 62
     7
 10
104.7803024561
 20
13.842989059
 30
0.0
  0
VERTEX
  5
6F1
  8
0
  6
CONTINUOUS
 62
     7
 10
104.7836361876
 20
13.7881668657
 30
0.0
  0
VERTEX
  5
6F2
  8
0
  6
CONTINUOUS
 62
     7
 10
104.7935093436
 20
13.7354543013
 30
0.0
  0
VERTEX
  5
6F3
  8
0
  6
CONTINUOUS
 62
     7
 10
104.809542465
 20
13.6868741692
 30
0.0
  0
VERTEX
  5
6F4
  8
0
  6
CONTINUOUS
 62
     7
 10
104.8311194124
 20
13.6442920477
 30
0.0
  0
VERTEX
  5
6F5
  8
0
  6
CONTINUOUS
 62
     7
 10
104.8574110154
 20
13.6093458914
 30
0.0
  0
VERTEX
  5
6F6
  8
0
  6
CONTINUOUS
 62
     7
 10
104.8874068622
 20
13.5833779781
 30
0.0
  0
VERTEX
  5
6F7
  8
0
  6
CONTINUOUS
 62
     7
 10
104.9199542762
 20
13.5673879761
 30
0.0
  0
VERTEX
  5
6F8
  8
0
  6
CONTINUOUS
 62
     7
 10
104.9538024435
 20
13.5619883585
 30
0.0
  0
SEQEND
  5
6F9
  8
0
  6
CONTINUOUS
 62
     7
  0
ARC
  5
31F
  8
0
  6
CONTINUOUS
 62
     7
 10
106.2843024447
 20
47.279488255
 30
0.0
 40
0.0940000000000083
 50
0.0
 51
90.0
  0
ARC
  5
320
  8
0
  6
CONTINUOUS
 62
     7
 10
106.2843024447
 20
46.999488255
 30
0.0
 40
0.0940000000000083
 50
270.0
 51
0.0
  0
LINE
  5
321
  8
0
  6
CONTINUOUS
 62
     7
 10
106.1903024677
 20
46.9054882516
 30
0.0
 11
106.2843024685
 21
46.9054882516
 31
0.0
  0
LINE
  5
322
  8
0
  6
CONTINUOUS
 62
     7
 10
106.2843024685
 20
47.3734882585
 30
0.0
 11
106.1903024677
 21
47.3734882585
 31
0.0
  0
LINE
  5
323
  8
0
  6
CONTINUOUS
 62
     7
 10
106.158302444
 20
47.0444882558
 30
0.0
 11
106.1903024677
 21
47.0444882558
 31
0.0
  0
LINE
  5
324
  8
0
  6
CONTINUOUS
 62
     7
 10
106.1903024677
 20
47.2344882543
 30
0.0
 11
106.158302444
 21
47.2344882543
 31
0.0
  0
ARC
  5
325
  8
0
  6
CONTINUOUS
 62
     7
 10
105.5274778946
 20
46.8334875629
 30
0.0
 40
0.8327572805799102
 50
113.9595289398
 51
132.0882061718
  0
ARC
  5
326
  8
0
  6
CONTINUOUS
 62
     7
 10
105.5274778946
 20
47.4454889472
 30
0.0
 40
0.8327572805799102
 50
227.9117938282
 51
246.0404710602
  0
LINE
  5
327
  8
0
  6
CONTINUOUS
 62
     7
 10
105.9393024539
 20
46.772488238
 30
0.0
 11
106.0643024433
 21
46.772488238
 31
0.0
  0
LINE
  5
328
  8
0
  6
CONTINUOUS
 62
     7
 10
106.0643024433
 20
47.5064882721
 30
0.0
 11
105.9393024539
 21
47.5064882721
 31
0.0
  0
LINE
  5
329
  8
0
  6
CONTINUOUS
 62
     7
 10
104.7803024561
 20
79.5609889191
 30
0.0
 11
104.7803024561
 21
78.0609887539
 31
0.0
  0
POLYLINE
  5
32A
  8
0
  6
CONTINUOUS
 62
     7
 66
     1
 10
0.0
 20
0.0
 30
0.0
  0
VERTEX
  5
6FA
  8
0
  6
CONTINUOUS
 62
     7
 10
104.9538024435
 20
79.841987273
 30
0.0
  0
VERTEX
  5
6FB
  8
0
  6
CONTINUOUS
 62
     7
 10
104.9199542762
 20
79.836590002
 30
0.0
  0
VERTEX
  5
6FC
  8
0
  6
CONTINUOUS
 62
     7
 10
104.8874068622
 20
79.8205976534
 30
0.0
  0
VERTEX
  5
6FD
  8
0
  6
CONTINUOUS
 62
     7
 10
104.8574110154
 20
79.7946320867
 30
0.0
  0
VERTEX
  5
6FE
  8
0
  6
CONTINUOUS
 62
     7
 10
104.8311194124
 20
79.7596859304
 30
0.0
  0
VERTEX
  5
6FF
  8
0
  6
CONTINUOUS
 62
     7
 10
104.809542465
 20
79.717103809
 30
0.0
  0
VERTEX
  5
700
  8
0
  6
CONTINUOUS
 62
     7
 10
104.7935093436
 20
79.6685213302
 30
0.0
  0
VERTEX
  5
701
  8
0
  6
CONTINUOUS
 62
     7
 10
104.7836361876
 20
79.6158087658
 30
0.0
  0
VERTEX
  5
702
  8
0
  6
CONTINUOUS
 62
     7
 10
104.7803024561
 20
79.5609889191
 30
0.0
  0
SEQEND
  5
703
  8
0
  6
CONTINUOUS
 62
     7
  0
ARC
  5
32B
  8
0
  6
CONTINUOUS
 62
     7
 10
104.9194403866
 20
79.6518963221
 30
0.0
 40
0.1931717384894247
 50
9.2708201016
 51
79.7534985448
  0
LINE
  5
32C
  8
0
  6
CONTINUOUS
 62
     7
 10
104.7803024561
 20
16.8429893894
 30
0.0
 11
104.7803024561
 21
15.3429892242
 31
0.0
  0
POLYLINE
  5
32D
  8
0
  6
CONTINUOUS
 62
     7
 66
     1
 10
0.0
 20
0.0
 30
0.0
  0
VERTEX
  5
704
  8
0
  6
CONTINUOUS
 62
     7
 10
104.9435942315
 20
17.1235019889
 30
0.0
  0
VERTEX
  5
705
  8
0
  6
CONTINUOUS
 62
     7
 10
104.9199542762
 20
17.1185881257
 30
0.0
  0
VERTEX
  5
706
  8
0
  6
CONTINUOUS
 62
     7
 10
104.8874068622
 20
17.1025981238
 30
0.0
  0
VERTEX
  5
707
  8
0
  6
CONTINUOUS
 62
     7
 10
104.8574110154
 20
17.0766302104
 30
0.0
  0
VERTEX
  5
708
  8
0
  6
CONTINUOUS
 62
     7
 10
104.8311194124
 20
17.0416864007
 30
0.0
  0
VERTEX
  5
709
  8
0
  6
CONTINUOUS
 62
     7
 10
104.809542465
 20
16.9991042793
 30
0.0
  0
VERTEX
  5
70A
  8
0
  6
CONTINUOUS
 62
     7
 10
104.7935093436
 20
16.9505218006
 30
0.0
  0
VERTEX
  5
70B
  8
0
  6
CONTINUOUS
 62
     7
 10
104.7836361876
 20
16.8978092362
 30
0.0
  0
VERTEX
  5
70C
  8
0
  6
CONTINUOUS
 62
     7
 10
104.7803024561
 20
16.8429893894
 30
0.0
  0
SEQEND
  5
70D
  8
0
  6
CONTINUOUS
 62
     7
  0
LINE
  5
32E
  8
0
  6
CONTINUOUS
 62
     7
 10
105.893302452
 20
82.0929871892
 30
0.0
 11
105.893302452
 21
82.0619880807
 31
0.0
  0
LINE
  5
32F
  8
0
  6
CONTINUOUS
 62
     7
 10
105.893302452
 20
12.1859893208
 30
0.0
 11
105.893302452
 21
12.2169884294
 31
0.0
  0
LINE
  5
330
  8
0
  6
CONTINUOUS
 62
     7
 10
105.2353024466
 20
12.1859893208
 30
0.0
 11
105.893302452
 21
12.1859893208
 31
0.0
  0
LINE
  5
331
  8
0
  6
CONTINUOUS
 62
     7
 10
105.2353024466
 20
82.0929871892
 30
0.0
 11
105.893302452
 21
82.0929871892
 31
0.0
  0
ARC
  5
332
  8
0
  6
CONTINUOUS
 62
     7
 10
105.8888698365
 20
81.9703599563
 30
0.0
 40
0.0917352780939742
 50
56.6492777503
 51
87.2304101503
  0
LINE
  5
333
  8
0
  6
CONTINUOUS
 62
     7
 10
105.9393024539
 20
82.0469883606
 30
0.0
 11
105.9393024539
 21
47.451988265
 31
0.0
  0
LINE
  5
334
  8
0
  6
CONTINUOUS
 62
     7
 10
105.9393024539
 20
46.8269882451
 30
0.0
 11
105.9393024539
 21
12.2319881495
 31
0.0
  0
ARC
  5
335
  8
0
  6
CONTINUOUS
 62
     7
 10
105.8888698365
 20
12.3086165537
 30
0.0
 40
0.091735278093845
 50
272.7695898496
 51
303.3507222498
  0
LINE
  5
336
  8
0
  6
CONTINUOUS
 62
     7
 10
105.1893024447
 20
12.1859893208
 30
0.0
 11
105.1893024447
 21
82.0929871892
 31
0.0
  0
LINE
  5
337
  8
0
  6
CONTINUOUS
 62
     7
 10
105.1893024447
 20
82.0929871892
 30
0.0
 11
105.2353024466
 21
82.0929871892
 31
0.0
  0
LINE
  5
338
  8
0
  6
CONTINUOUS
 62
     7
 10
105.1893024447
 20
12.1859893208
 30
0.0
 11
105.2353024466
 21
12.1859893208
 31
0.0
  0
LINE
  5
339
  8
0
  6
CONTINUOUS
 62
     7
 10
105.9393024539
 20
82.0509893811
 30
0.0
 11
105.9351361421
 21
82.0509893811
 31
0.0
  0
LINE
  5
33A
  8
0
  6
CONTINUOUS
 62
     7
 10
105.9083024654
 20
82.0587919576
 30
0.0
 11
105.9083024654
 21
82.0619880807
 31
0.0
  0
LINE
  5
33B
  8
0
  6
CONTINUOUS
 62
     7
 10
105.9393024539
 20
82.0509893811
 30
0.0
 11
105.9393024539
 21
82.0619880807
 31
0.0
  0
LINE
  5
33C
  8
0
  6
CONTINUOUS
 62
     7
 10
105.9393024539
 20
12.2319881495
 30
0.0
 11
105.9393024539
 21
12.227987129
 31
0.0
  0
LINE
  5
33D
  8
0
  6
CONTINUOUS
 62
     7
 10
105.9393024539
 20
12.227987129
 30
0.0
 11
105.9351361421
 21
12.227987129
 31
0.0
  0
LINE
  5
33E
  8
0
  6
CONTINUOUS
 62
     7
 10
105.9393024539
 20
82.0469883606
 30
0.0
 11
105.9393024539
 21
82.0509893811
 31
0.0
  0
LINE
  5
33F
  8
0
  6
CONTINUOUS
 62
     7
 10
105.9393024539
 20
12.227987129
 30
0.0
 11
105.9393024539
 21
12.2169884294
 31
0.0
  0
LINE
  5
340
  8
0
  6
CONTINUOUS
 62
     7
 10
105.893302452
 20
12.1709872541
 30
0.0
 11
105.2353024466
 21
12.1709872541
 31
0.0
  0
ARC
  5
341
  8
0
  6
CONTINUOUS
 62
     7
 10
105.8933024447
 20
12.216988255
 30
0.0
 40
0.0150000000000041
 50
270.0
 51
0.0
  0
ARC
  5
342
  8
0
  6
CONTINUOUS
 62
     7
 10
105.8933024447
 20
12.216988255
 30
0.0
 40
0.0459999999999958
 50
270.0
 51
0.0
  0
ARC
  5
343
  8
0
  6
CONTINUOUS
 62
     7
 10
105.8933024447
 20
82.061988255
 30
0.0
 40
0.0459999999999923
 50
0.0
 51
90.0
  0
ARC
  5
344
  8
0
  6
CONTINUOUS
 62
     7
 10
105.8933024447
 20
82.061988255
 30
0.0
 40
0.0150000000000006
 50
0.0
 51
90.0
  0
LINE
  5
345
  8
0
  6
CONTINUOUS
 62
     7
 10
105.893302452
 20
82.1079892559
 30
0.0
 11
105.2353024466
 21
82.1079892559
 31
0.0
  0
ARC
  5
346
  8
0
  6
CONTINUOUS
 62
     7
 10
105.2353024447
 20
82.061988255
 30
0.0
 40
0.0459999999999929
 50
90.0
 51
137.6302014306
  0
ARC
  5
347
  8
0
  6
CONTINUOUS
 62
     7
 10
105.2353024447
 20
12.216988255
 30
0.0
 40
0.0459999999999965
 50
222.3697985694
 51
270.0
  0
LINE
  5
348
  8
0
  6
CONTINUOUS
 62
     7
 10
104.8773024523
 20
68.0454888805
 30
0.0
 11
104.8773024523
 21
68.3574886895
 31
0.0
  0
ARC
  5
349
  8
0
  6
CONTINUOUS
 62
     7
 10
105.2213040472
 20
68.357488255
 30
0.0
 40
0.3440016025641057
 50
95.3377999904
 51
180.0
  0
LINE
  5
34A
  8
0
  6
CONTINUOUS
 62
     7
 10
105.1893024447
 20
68.0454888805
 30
0.0
 11
104.8773024523
 21
68.0454888805
 31
0.0
  0
LINE
  5
34B
  8
0
  6
CONTINUOUS
 62
     7
 10
104.8773024523
 20
71.0454892109
 30
0.0
 11
104.8773024523
 21
71.35748902
 31
0.0
  0
ARC
  5
34C
  8
0
  6
CONTINUOUS
 62
     7
 10
105.2213040472
 20
71.357488255
 30
0.0
 40
0.3440016025641057
 50
95.3377999904
 51
180.0
  0
LINE
  5
34D
  8
0
  6
CONTINUOUS
 62
     7
 10
105.1893024447
 20
71.0454892109
 30
0.0
 11
104.8773024523
 21
71.0454892109
 31
0.0
  0
LINE
  5
34E
  8
0
  6
CONTINUOUS
 62
     7
 10
104.8773024523
 20
77.045487525
 30
0.0
 11
104.8773024523
 21
77.3574873341
 31
0.0
  0
ARC
  5
34F
  8
0
  6
CONTINUOUS
 62
     7
 10
105.2213040472
 20
77.357488255
 30
0.0
 40
0.3440016025641057
 50
95.3377999904
 51
180.0
  0
LINE
  5
350
  8
0
  6
CONTINUOUS
 62
     7
 10
105.1893024447
 20
77.045487525
 30
0.0
 11
104.8773024523
 21
77.045487525
 31
0.0
  0
LINE
  5
351
  8
0
  6
CONTINUOUS
 62
     7
 10
104.8773024523
 20
65.0454885501
 30
0.0
 11
104.8773024523
 21
65.3574883591
 31
0.0
  0
ARC
  5
352
  8
0
  6
CONTINUOUS
 62
     7
 10
105.2213040472
 20
65.357488255
 30
0.0
 40
0.3440016025641057
 50
95.3377999904
 51
180.0
  0
LINE
  5
353
  8
0
  6
CONTINUOUS
 62
     7
 10
105.1893024447
 20
65.0454885501
 30
0.0
 11
104.8773024523
 21
65.0454885501
 31
0.0
  0
LINE
  5
354
  8
0
  6
CONTINUOUS
 62
     7
 10
104.8773024523
 20
72.0454885388
 30
0.0
 11
104.8773024523
 21
72.3574883479
 31
0.0
  0
ARC
  5
355
  8
0
  6
CONTINUOUS
 62
     7
 10
105.2213040472
 20
72.357488255
 30
0.0
 40
0.3440016025641057
 50
95.3377999904
 51
180.0
  0
LINE
  5
356
  8
0
  6
CONTINUOUS
 62
     7
 10
105.1893024447
 20
72.0454885388
 30
0.0
 11
104.8773024523
 21
72.0454885388
 31
0.0
  0
LINE
  5
357
  8
0
  6
CONTINUOUS
 62
     7
 10
104.8773024523
 20
76.0454881971
 30
0.0
 11
104.8773024523
 21
76.3574880062
 31
0.0
  0
ARC
  5
358
  8
0
  6
CONTINUOUS
 62
     7
 10
105.2213040472
 20
76.357488255
 30
0.0
 40
0.3440016025641057
 50
95.3377999904
 51
180.0
  0
LINE
  5
359
  8
0
  6
CONTINUOUS
 62
     7
 10
105.1893024447
 20
76.0454881971
 30
0.0
 11
104.8773024523
 21
76.0454881971
 31
0.0
  0
LINE
  5
35A
  8
0
  6
CONTINUOUS
 62
     7
 10
104.8773024523
 20
69.0454882084
 30
0.0
 11
104.8773024523
 21
69.3574880175
 31
0.0
  0
ARC
  5
35B
  8
0
  6
CONTINUOUS
 62
     7
 10
105.2213040472
 20
69.357488255
 30
0.0
 40
0.3440016025641057
 50
95.3377999904
 51
180.0
  0
LINE
  5
35C
  8
0
  6
CONTINUOUS
 62
     7
 10
105.1893024447
 20
69.0454882084
 30
0.0
 11
104.8773024523
 21
69.0454882084
 31
0.0
  0
LINE
  5
35D
  8
0
  6
CONTINUOUS
 62
     7
 10
104.8773024523
 20
78.0454891996
 30
0.0
 11
104.8773024523
 21
78.3574890087
 31
0.0
  0
ARC
  5
35E
  8
0
  6
CONTINUOUS
 62
     7
 10
105.2213040472
 20
78.357488255
 30
0.0
 40
0.3440016025641057
 50
95.3377999904
 51
180.0
  0
LINE
  5
35F
  8
0
  6
CONTINUOUS
 62
     7
 10
105.1893024447
 20
78.0454891996
 30
0.0
 11
104.8773024523
 21
78.0454891996
 31
0.0
  0
LINE
  5
360
  8
0
  6
CONTINUOUS
 62
     7
 10
104.8773024523
 20
75.0454888692
 30
0.0
 11
104.8773024523
 21
75.3574886783
 31
0.0
  0
ARC
  5
361
  8
0
  6
CONTINUOUS
 62
     7
 10
105.2213040472
 20
75.357488255
 30
0.0
 40
0.3440016025641057
 50
95.3377999904
 51
180.0
  0
LINE
  5
362
  8
0
  6
CONTINUOUS
 62
     7
 10
105.1893024447
 20
75.0454888692
 30
0.0
 11
104.8773024523
 21
75.0454888692
 31
0.0
  0
LINE
  5
363
  8
0
  6
CONTINUOUS
 62
     7
 10
104.8773024523
 20
70.0454875363
 30
0.0
 11
104.8773024523
 21
70.3574873454
 31
0.0
  0
ARC
  5
364
  8
0
  6
CONTINUOUS
 62
     7
 10
105.2213040472
 20
70.357488255
 30
0.0
 40
0.3440016025641057
 50
95.3377999904
 51
180.0
  0
LINE
  5
365
  8
0
  6
CONTINUOUS
 62
     7
 10
105.1893024447
 20
70.0454875363
 30
0.0
 11
104.8773024523
 21
70.0454875363
 31
0.0
  0
LINE
  5
366
  8
0
  6
CONTINUOUS
 62
     7
 10
104.8773024523
 20
74.0454871946
 30
0.0
 11
104.8773024523
 21
74.3574893504
 31
0.0
  0
ARC
  5
367
  8
0
  6
CONTINUOUS
 62
     7
 10
105.2213040472
 20
74.357488255
 30
0.0
 40
0.3440016025641057
 50
95.3377999904
 51
180.0
  0
LINE
  5
368
  8
0
  6
CONTINUOUS
 62
     7
 10
105.1893024447
 20
74.0454871946
 30
0.0
 11
104.8773024523
 21
74.0454871946
 31
0.0
  0
LINE
  5
369
  8
0
  6
CONTINUOUS
 62
     7
 10
104.8773024523
 20
79.0454885275
 30
0.0
 11
104.8773024523
 21
79.3574883366
 31
0.0
  0
ARC
  5
36A
  8
0
  6
CONTINUOUS
 62
     7
 10
105.2213040472
 20
79.357488255
 30
0.0
 40
0.3440016025641057
 50
95.3377999904
 51
180.0
  0
LINE
  5
36B
  8
0
  6
CONTINUOUS
 62
     7
 10
105.1893024447
 20
79.0454885275
 30
0.0
 11
104.8773024523
 21
79.0454885275
 31
0.0
  0
LINE
  5
36C
  8
0
  6
CONTINUOUS
 62
     7
 10
104.8773024523
 20
67.0454872059
 30
0.0
 11
104.8773024523
 21
67.3574893616
 31
0.0
  0
ARC
  5
36D
  8
0
  6
CONTINUOUS
 62
     7
 10
105.2213040472
 20
67.357488255
 30
0.0
 40
0.3440016025641057
 50
95.3377999904
 51
180.0
  0
LINE
  5
36E
  8
0
  6
CONTINUOUS
 62
     7
 10
105.1893024447
 20
67.0454872059
 30
0.0
 11
104.8773024523
 21
67.0454872059
 31
0.0
  0
LINE
  5
36F
  8
0
  6
CONTINUOUS
 62
     7
 10
104.8773024523
 20
73.0454878667
 30
0.0
 11
104.8773024523
 21
73.3574876758
 31
0.0
  0
ARC
  5
370
  8
0
  6
CONTINUOUS
 62
     7
 10
105.2213040472
 20
73.357488255
 30
0.0
 40
0.3440016025641057
 50
95.3377999904
 51
180.0
  0
LINE
  5
371
  8
0
  6
CONTINUOUS
 62
     7
 10
105.1893024447
 20
73.0454878667
 30
0.0
 11
104.8773024523
 21
73.0454878667
 31
0.0
  0
LINE
  5
372
  8
0
  6
CONTINUOUS
 62
     7
 10
104.8773024523
 20
66.045487878
 30
0.0
 11
104.8773024523
 21
66.3574876871
 31
0.0
  0
ARC
  5
373
  8
0
  6
CONTINUOUS
 62
     7
 10
105.2213040472
 20
66.357488255
 30
0.0
 40
0.3440016025641057
 50
95.3377999904
 51
180.0
  0
LINE
  5
374
  8
0
  6
CONTINUOUS
 62
     7
 10
105.1893024447
 20
66.045487878
 30
0.0
 11
104.8773024523
 21
66.045487878
 31
0.0
  0
LINE
  5
375
  8
0
  6
CONTINUOUS
 62
     7
 10
104.8773024523
 20
15.6084880238
 30
0.0
 11
104.8773024523
 21
15.9204878329
 31
0.0
  0
ARC
  5
376
  8
0
  6
CONTINUOUS
 62
     7
 10
105.2213040472
 20
15.920488255
 30
0.0
 40
0.3440016025641057
 50
95.3377999911
 51
180.0
  0
LINE
  5
377
  8
0
  6
CONTINUOUS
 62
     7
 10
105.1893024447
 20
15.6084880238
 30
0.0
 11
104.8773024523
 21
15.6084880238
 31
0.0
  0
LINE
  5
378
  8
0
  6
CONTINUOUS
 62
     7
 10
104.8773024523
 20
23.6084873405
 30
0.0
 11
104.8773024523
 21
23.9204871496
 31
0.0
  0
ARC
  5
379
  8
0
  6
CONTINUOUS
 62
     7
 10
105.2213040472
 20
23.920488255
 30
0.0
 40
0.3440016025641067
 50
95.3377999911
 51
180.0
  0
LINE
  5
37A
  8
0
  6
CONTINUOUS
 62
     7
 10
105.1893024447
 20
23.6084873405
 30
0.0
 11
104.8773024523
 21
23.6084873405
 31
0.0
  0
LINE
  5
37B
  8
0
  6
CONTINUOUS
 62
     7
 10
104.8773024523
 20
24.6084890151
 30
0.0
 11
104.8773024523
 21
24.9204888241
 31
0.0
  0
ARC
  5
37C
  8
0
  6
CONTINUOUS
 62
     7
 10
105.2213040472
 20
24.920488255
 30
0.0
 40
0.3440016025641057
 50
95.3377999911
 51
180.0
  0
LINE
  5
37D
  8
0
  6
CONTINUOUS
 62
     7
 10
105.1893024447
 20
24.6084890151
 30
0.0
 11
104.8773024523
 21
24.6084890151
 31
0.0
  0
LINE
  5
37E
  8
0
  6
CONTINUOUS
 62
     7
 10
104.8773024523
 20
28.6084886734
 30
0.0
 11
104.8773024523
 21
28.9204884825
 31
0.0
  0
ARC
  5
37F
  8
0
  6
CONTINUOUS
 62
     7
 10
105.2213040472
 20
28.920488255
 30
0.0
 40
0.3440016025641057
 50
95.3377999911
 51
180.0
  0
LINE
  5
380
  8
0
  6
CONTINUOUS
 62
     7
 10
105.1893024447
 20
28.6084886734
 30
0.0
 11
104.8773024523
 21
28.6084886734
 31
0.0
  0
LINE
  5
381
  8
0
  6
CONTINUOUS
 62
     7
 10
104.8773024523
 20
22.6084880126
 30
0.0
 11
104.8773024523
 21
22.9204878217
 31
0.0
  0
ARC
  5
382
  8
0
  6
CONTINUOUS
 62
     7
 10
105.2213040472
 20
22.920488255
 30
0.0
 40
0.3440016025641057
 50
95.3377999911
 51
180.0
  0
LINE
  5
383
  8
0
  6
CONTINUOUS
 62
     7
 10
105.1893024447
 20
22.6084880126
 30
0.0
 11
104.8773024523
 21
22.6084880126
 31
0.0
  0
LINE
  5
384
  8
0
  6
CONTINUOUS
 62
     7
 10
104.8773024523
 20
26.6084876709
 30
0.0
 11
104.8773024523
 21
26.92048748
 31
0.0
  0
ARC
  5
385
  8
0
  6
CONTINUOUS
 62
     7
 10
105.2213040472
 20
26.920488255
 30
0.0
 40
0.3440016025641057
 50
95.3377999911
 51
180.0
  0
LINE
  5
386
  8
0
  6
CONTINUOUS
 62
     7
 10
105.1893024447
 20
26.6084876709
 30
0.0
 11
104.8773024523
 21
26.6084876709
 31
0.0
  0
LINE
  5
387
  8
0
  6
CONTINUOUS
 62
     7
 10
104.8773024523
 20
20.6084893567
 30
0.0
 11
104.8773024523
 21
20.9204891658
 31
0.0
  0
ARC
  5
388
  8
0
  6
CONTINUOUS
 62
     7
 10
105.2213040472
 20
20.920488255
 30
0.0
 40
0.3440016025641067
 50
95.3377999911
 51
180.0
  0
LINE
  5
389
  8
0
  6
CONTINUOUS
 62
     7
 10
105.1893024447
 20
20.6084893567
 30
0.0
 11
104.8773024523
 21
20.6084893567
 31
0.0
  0
LINE
  5
38A
  8
0
  6
CONTINUOUS
 62
     7
 10
104.8773024523
 20
21.6084886847
 30
0.0
 11
104.8773024523
 21
21.9204884937
 31
0.0
  0
ARC
  5
38B
  8
0
  6
CONTINUOUS
 62
     7
 10
105.2213040472
 20
21.920488255
 30
0.0
 40
0.3440016025641057
 50
95.3377999911
 51
180.0
  0
LINE
  5
38C
  8
0
  6
CONTINUOUS
 62
     7
 10
105.1893024447
 20
21.6084886847
 30
0.0
 11
104.8773024523
 21
21.6084886847
 31
0.0
  0
LINE
  5
38D
  8
0
  6
CONTINUOUS
 62
     7
 10
104.8773024523
 20
14.6084886959
 30
0.0
 11
104.8773024523
 21
14.920488505
 31
0.0
  0
ARC
  5
38E
  8
0
  6
CONTINUOUS
 62
     7
 10
105.2213040472
 20
14.920488255
 30
0.0
 40
0.3440016025641057
 50
95.3377999911
 51
180.0
  0
LINE
  5
38F
  8
0
  6
CONTINUOUS
 62
     7
 10
105.1893024447
 20
14.6084886959
 30
0.0
 11
104.8773024523
 21
14.6084886959
 31
0.0
  0
LINE
  5
390
  8
0
  6
CONTINUOUS
 62
     7
 10
104.8773024523
 20
27.6084881721
 30
0.0
 11
104.8773024523
 21
27.9204879812
 31
0.0
  0
ARC
  5
391
  8
0
  6
CONTINUOUS
 62
     7
 10
105.2213040472
 20
27.920488255
 30
0.0
 40
0.3440016025641057
 50
95.3377999911
 51
180.0
  0
LINE
  5
392
  8
0
  6
CONTINUOUS
 62
     7
 10
105.1893024447
 20
27.6084881721
 30
0.0
 11
104.8773024523
 21
27.6084881721
 31
0.0
  0
LINE
  5
393
  8
0
  6
CONTINUOUS
 62
     7
 10
104.8773024523
 20
18.6084883542
 30
0.0
 11
104.8773024523
 21
18.9204881633
 31
0.0
  0
ARC
  5
394
  8
0
  6
CONTINUOUS
 62
     7
 10
105.2213040472
 20
18.920488255
 30
0.0
 40
0.3440016025641067
 50
95.3377999911
 51
180.0
  0
LINE
  5
395
  8
0
  6
CONTINUOUS
 62
     7
 10
105.1893024447
 20
18.6084883542
 30
0.0
 11
104.8773024523
 21
18.6084883542
 31
0.0
  0
LINE
  5
396
  8
0
  6
CONTINUOUS
 62
     7
 10
104.8773024523
 20
19.6084876822
 30
0.0
 11
104.8773024523
 21
19.9204874913
 31
0.0
  0
ARC
  5
397
  8
0
  6
CONTINUOUS
 62
     7
 10
105.2213040472
 20
19.920488255
 30
0.0
 40
0.3440016025641057
 50
95.3377999911
 51
180.0
  0
LINE
  5
398
  8
0
  6
CONTINUOUS
 62
     7
 10
105.1893024447
 20
19.6084876822
 30
0.0
 11
104.8773024523
 21
19.6084876822
 31
0.0
  0
LINE
  5
399
  8
0
  6
CONTINUOUS
 62
     7
 10
104.8773024523
 20
17.6084890263
 30
0.0
 11
104.8773024523
 21
17.9204888354
 31
0.0
  0
ARC
  5
39A
  8
0
  6
CONTINUOUS
 62
     7
 10
105.2213040472
 20
17.920488255
 30
0.0
 40
0.3440016025641057
 50
95.3377999911
 51
180.0
  0
LINE
  5
39B
  8
0
  6
CONTINUOUS
 62
     7
 10
105.1893024447
 20
17.6084890263
 30
0.0
 11
104.8773024523
 21
17.6084890263
 31
0.0
  0
LINE
  5
39C
  8
0
  6
CONTINUOUS
 62
     7
 10
104.8773024523
 20
25.608488343
 30
0.0
 11
104.8773024523
 21
25.9204881521
 31
0.0
  0
ARC
  5
39D
  8
0
  6
CONTINUOUS
 62
     7
 10
105.2213040472
 20
25.920488255
 30
0.0
 40
0.3440016025641057
 50
95.3377999911
 51
180.0
  0
LINE
  5
39E
  8
0
  6
CONTINUOUS
 62
     7
 10
105.1893024447
 20
25.608488343
 30
0.0
 11
104.8773024523
 21
25.608488343
 31
0.0
  0
LINE
  5
39F
  8
0
  6
CONTINUOUS
 62
     7
 10
104.8773024523
 20
16.6084873518
 30
0.0
 11
104.8773024523
 21
16.9204871608
 31
0.0
  0
ARC
  5
3A0
  8
0
  6
CONTINUOUS
 62
     7
 10
105.2213040472
 20
16.920488255
 30
0.0
 40
0.3440016025641057
 50
95.3377999911
 51
180.0
  0
LINE
  5
3A1
  8
0
  6
CONTINUOUS
 62
     7
 10
105.1893024447
 20
16.6084873518
 30
0.0
 11
104.8773024523
 21
16.6084873518
 31
0.0
  0
LINE
  5
3A2
  8
0
  6
CONTINUOUS
 62
     7
 10
105.1273024447
 20
78.0454891996
 30
0.0
 11
105.1273024447
 21
77.9989881901
 31
0.0
  0
LINE
  5
3A3
  8
0
  6
CONTINUOUS
 62
     7
 10
105.1273024447
 20
77.9989881901
 30
0.0
 11
105.1893024447
 21
77.9989881901
 31
0.0
  0
LINE
  5
3A4
  8
0
  6
CONTINUOUS
 62
     7
 10
104.7803024561
 20
78.0609887539
 30
0.0
 11
104.8773024523
 21
78.0609887539
 31
0.0
  0
LINE
  5
3A5
  8
0
  6
CONTINUOUS
 62
     7
 10
105.1893024447
 20
13.842989059
 30
0.0
 11
104.9538024435
 21
13.842989059
 31
0.0
  0
LINE
  5
3A6
  8
0
  6
CONTINUOUS
 62
     7
 10
105.1273024447
 20
15.3429892242
 30
0.0
 11
104.9538024435
 21
15.3429892242
 31
0.0
  0
LINE
  5
3A7
  8
0
  6
CONTINUOUS
 62
     7
 10
105.1273024447
 20
15.3429892242
 30
0.0
 11
105.1273024447
 21
15.2809886605
 31
0.0
  0
LINE
  5
3A8
  8
0
  6
CONTINUOUS
 62
     7
 10
105.1273024447
 20
15.2809886605
 30
0.0
 11
105.1893024447
 21
15.2809886605
 31
0.0
  0
LINE
  5
3A9
  8
0
  6
CONTINUOUS
 62
     7
 10
104.7803024561
 20
15.3429892242
 30
0.0
 11
104.9538024435
 21
15.3429892242
 31
0.0
  0
LINE
  5
3AA
  8
0
  6
CONTINUOUS
 62
     7
 10
106.0293024609
 20
46.8269882451
 30
0.0
 11
105.9393024539
 21
46.8269882451
 31
0.0
  0
LINE
  5
3AB
  8
0
  6
CONTINUOUS
 62
     7
 10
105.9393024539
 20
46.8269882451
 30
0.0
 11
105.9393024539
 21
47.138988255
 31
0.0
  0
LINE
  5
3AC
  8
0
  6
CONTINUOUS
 62
     7
 10
106.0293024609
 20
47.138988255
 30
0.0
 11
106.0293024609
 21
46.8269882451
 31
0.0
  0
LINE
  5
3AD
  8
0
  6
CONTINUOUS
 62
     7
 10
106.0293024609
 20
47.139988255
 30
0.0
 11
106.0293024609
 21
47.138988255
 31
0.0
  0
LINE
  5
3AE
  8
0
  6
CONTINUOUS
 62
     7
 10
105.9393024539
 20
47.139988255
 30
0.0
 11
105.9393024539
 21
47.138988255
 31
0.0
  0
LINE
  5
3AF
  8
0
  6
CONTINUOUS
 62
     7
 10
105.9393024539
 20
47.451988265
 30
0.0
 11
106.0293024609
 21
47.451988265
 31
0.0
  0
LINE
  5
3B0
  8
0
  6
CONTINUOUS
 62
     7
 10
106.0293024609
 20
47.451988265
 30
0.0
 11
106.0293024609
 21
47.139988255
 31
0.0
  0
LINE
  5
3B1
  8
0
  6
CONTINUOUS
 62
     7
 10
105.9393024539
 20
47.139988255
 30
0.0
 11
105.9393024539
 21
47.451988265
 31
0.0
  0
LINE
  5
3B2
  8
0
  6
CONTINUOUS
 62
     7
 10
106.1543024502
 20
47.451988265
 30
0.0
 11
106.1543024502
 21
46.8269882451
 31
0.0
  0
LINE
  5
3B3
  8
0
  6
CONTINUOUS
 62
     7
 10
106.1543024502
 20
47.451988265
 30
0.0
 11
106.0293024609
 21
47.451988265
 31
0.0
  0
LINE
  5
3B4
  8
0
  6
CONTINUOUS
 62
     7
 10
106.1543024502
 20
46.8269882451
 30
0.0
 11
106.0293024609
 21
46.8269882451
 31
0.0
  0
LINE
  5
3B5
  8
0
  6
CONTINUOUS
 62
     7
 10
106.3783024692
 20
47.2775860497
 30
0.0
 11
106.3783024692
 21
47.1784882541
 31
0.0
  0
LINE
  5
3B6
  8
0
  6
CONTINUOUS
 62
     7
 10
106.3783024692
 20
47.1784882541
 30
0.0
 11
106.3294548202
 21
47.1784882541
 31
0.0
  0
ARC
  5
3B7
  8
0
  6
CONTINUOUS
 62
     7
 10
106.2015154902
 20
47.139488255
 30
0.0
 40
0.1337515311917165
 50
343.0471021434
 51
16.9528978566
  0
LINE
  5
3B8
  8
0
  6
CONTINUOUS
 62
     7
 10
106.3294548202
 20
47.100488256
 30
0.0
 11
106.3783024692
 21
47.100488256
 31
0.0
  0
LINE
  5
3B9
  8
0
  6
CONTINUOUS
 62
     7
 10
106.3783024692
 20
47.100488256
 30
0.0
 11
106.3783024692
 21
47.0013904604
 31
0.0
  0
LINE
  5
3BA
  8
0
  6
CONTINUOUS
 62
     7
 10
106.3783024692
 20
47.0013904604
 30
0.0
 11
106.3782725496
 21
46.9989882531
 31
0.0
  0
LINE
  5
3BB
  8
0
  6
CONTINUOUS
 62
     7
 10
106.3782725496
 20
47.279988257
 30
0.0
 11
106.3783024692
 21
47.2775860497
 31
0.0
  0
LINE
  5
3BC
  8
0
  6
CONTINUOUS
 62
     7
 10
106.1903024677
 20
47.3734882585
 30
0.0
 11
106.1903024677
 21
46.9054882516
 31
0.0
  0
LINE
  5
3BD
  8
0
  6
CONTINUOUS
 62
     7
 10
106.158302444
 20
47.3114882631
 30
0.0
 11
106.158302444
 21
46.967488247
 31
0.0
  0
LINE
  5
3BE
  8
0
  6
CONTINUOUS
 62
     7
 10
106.158302444
 20
46.967488247
 30
0.0
 11
106.1543024502
 21
46.967488247
 31
0.0
  0
LINE
  5
3BF
  8
0
  6
CONTINUOUS
 62
     7
 10
106.158302444
 20
47.3114882631
 30
0.0
 11
106.1543024502
 21
47.3114882631
 31
0.0
  0
LINE
  5
3C0
  8
0
  6
CONTINUOUS
 62
     7
 10
104.9693024378
 20
47.139488255
 30
0.0
 11
104.9693024378
 21
47.4514882474
 31
0.0
  0
LINE
  5
3C1
  8
0
  6
CONTINUOUS
 62
     7
 10
104.9693024378
 20
46.8274882626
 30
0.0
 11
104.9693024378
 21
47.139488255
 31
0.0
  0
LINE
  5
3C2
  8
0
  6
CONTINUOUS
 62
     7
 10
106.0643024433
 20
46.8269882451
 30
0.0
 11
106.0643024433
 21
46.772488238
 31
0.0
  0
LINE
  5
3C3
  8
0
  6
CONTINUOUS
 62
     7
 10
106.0643024433
 20
47.5064882721
 30
0.0
 11
106.0643024433
 21
47.451988265
 31
0.0
  0
LINE
  5
3C4
  8
0
  6
CONTINUOUS
 62
     7
 10
105.1893024447
 20
15.3429892242
 30
0.0
 11
104.9538024435
 21
15.3429892242
 31
0.0
  0
DIMENSION
  5
3C5
  8
0
  6
CONTINUOUS
 62
     7
  2
*D19
 10
105.1893024447
 20
86.3767721935
 30
0.0
 11
98.2735765009
 21
86.3767721935
 31
0.0
 70
   160
  3
SLDDIMSTYLE0
 13
105.9393024447
 23
82.046988255
 33
0.0
 14
105.1893024447
 24
82.092988255
 34
0.0
  0
POLYLINE
  5
3D9
  8
0
  6
CONTINUOUS
 62
     7
 66
     1
 10
0.0
 20
0.0
 30
0.0
  0
VERTEX
  5
70E
  8
0
  6
CONTINUOUS
 62
     7
 10
130.9072972353
 20
76.2799878882
 30
0.0
  0
VERTEX
  5
70F
  8
0
  6
CONTINUOUS
 62
     7
 10
130.9411451643
 20
76.2853875058
 30
0.0
  0
VERTEX
  5
710
  8
0
  6
CONTINUOUS
 62
     7
 10
130.9736924683
 20
76.3013775077
 30
0.0
  0
VERTEX
  5
711
  8
0
  6
CONTINUOUS
 62
     7
 10
131.0036883885
 20
76.3273454211
 30
0.0
  0
VERTEX
  5
712
  8
0
  6
CONTINUOUS
 62
     7
 10
131.0299801381
 20
76.3622915774
 30
0.0
  0
VERTEX
  5
713
  8
0
  6
CONTINUOUS
 62
     7
 10
131.0515569022
 20
76.4048736988
 30
0.0
  0
VERTEX
  5
714
  8
0
  6
CONTINUOUS
 62
     7
 10
131.0675903169
 20
76.4534538309
 30
0.0
  0
VERTEX
  5
715
  8
0
  6
CONTINUOUS
 62
     7
 10
131.0774632162
 20
76.506168742
 30
0.0
  0
VERTEX
  5
716
  8
0
  6
CONTINUOUS
 62
     7
 10
131.0807972044
 20
76.5609885887
 30
0.0
  0
SEQEND
  5
717
  8
0
  6
CONTINUOUS
 62
     7
  0
POLYLINE
  5
3DA
  8
0
  6
CONTINUOUS
 62
     7
 66
     1
 10
0.0
 20
0.0
 30
0.0
  0
VERTEX
  5
718
  8
0
  6
CONTINUOUS
 62
     7
 10
130.7337972663
 20
76.5609885887
 30
0.0
  0
VERTEX
  5
719
  8
0
  6
CONTINUOUS
 62
     7
 10
130.7371306678
 20
76.506168742
 30
0.0
  0
VERTEX
  5
71A
  8
0
  6
CONTINUOUS
 62
     7
 10
130.7470041537
 20
76.4534538309
 30
0.0
  0
VERTEX
  5
71B
  8
0
  6
CONTINUOUS
 62
     7
 10
130.7630369818
 20
76.4048736988
 30
0.0
  0
VERTEX
  5
71C
  8
0
  6
CONTINUOUS
 62
     7
 10
130.7846143326
 20
76.3622915774
 30
0.0
  0
VERTEX
  5
71D
  8
0
  6
CONTINUOUS
 62
     7
 10
130.8109054955
 20
76.3273454211
 30
0.0
  0
VERTEX
  5
71E
  8
0
  6
CONTINUOUS
 62
     7
 10
130.8409014157
 20
76.3013775077
 30
0.0
  0
VERTEX
  5
71F
  8
0
  6
CONTINUOUS
 62
     7
 10
130.8734487197
 20
76.2853875058
 30
0.0
  0
VERTEX
  5
720
  8
0
  6
CONTINUOUS
 62
     7
 10
130.9072972353
 20
76.2799878882
 30
0.0
  0
SEQEND
  5
721
  8
0
  6
CONTINUOUS
 62
     7
  0
LINE
  5
3DB
  8
0
  6
CONTINUOUS
 62
     7
 10
131.0807972044
 20
76.5609885887
 30
0.0
 11
131.0807972044
 21
78.0609887539
 31
0.0
  0
LINE
  5
3DC
  8
0
  6
CONTINUOUS
 62
     7
 10
130.812796887
 20
78.8109888365
 30
0.0
 11
130.812796887
 21
76.5609885887
 31
0.0
  0
LINE
  5
3DD
  8
0
  6
CONTINUOUS
 62
     7
 10
130.8267969386
 20
78.8632367663
 30
0.0
 11
130.812796887
 21
78.8109888365
 31
0.0
  0
LINE
  5
3DE
  8
0
  6
CONTINUOUS
 62
     7
 10
131.0807972044
 20
13.842989059
 30
0.0
 11
131.0807972044
 21
15.3429892242
 31
0.0
  0
POLYLINE
  5
3DF
  8
0
  6
CONTINUOUS
 62
     7
 66
     1
 10
0.0
 20
0.0
 30
0.0
  0
VERTEX
  5
722
  8
0
  6
CONTINUOUS
 62
     7
 10
130.9072972353
 20
13.5619883585
 30
0.0
  0
VERTEX
  5
723
  8
0
  6
CONTINUOUS
 62
     7
 10
130.9411451643
 20
13.5673879761
 30
0.0
  0
VERTEX
  5
724
  8
0
  6
CONTINUOUS
 62
     7
 10
130.9736924683
 20
13.5833779781
 30
0.0
  0
VERTEX
  5
725
  8
0
  6
CONTINUOUS
 62
     7
 10
131.0036883885
 20
13.6093458914
 30
0.0
  0
VERTEX
  5
726
  8
0
  6
CONTINUOUS
 62
     7
 10
131.0299801381
 20
13.6442920477
 30
0.0
  0
VERTEX
  5
727
  8
0
  6
CONTINUOUS
 62
     7
 10
131.0515569022
 20
13.6868741692
 30
0.0
  0
VERTEX
  5
728
  8
0
  6
CONTINUOUS
 62
     7
 10
131.0675903169
 20
13.7354543013
 30
0.0
  0
VERTEX
  5
729
  8
0
  6
CONTINUOUS
 62
     7
 10
131.0774632162
 20
13.7881668657
 30
0.0
  0
VERTEX
  5
72A
  8
0
  6
CONTINUOUS
 62
     7
 10
131.0807972044
 20
13.842989059
 30
0.0
  0
SEQEND
  5
72B
  8
0
  6
CONTINUOUS
 62
     7
  0
POLYLINE
  5
3E0
  8
0
  6
CONTINUOUS
 62
     7
 66
     1
 10
0.0
 20
0.0
 30
0.0
  0
VERTEX
  5
72C
  8
0
  6
CONTINUOUS
 62
     7
 10
130.7337972663
 20
13.842989059
 30
0.0
  0
VERTEX
  5
72D
  8
0
  6
CONTINUOUS
 62
     7
 10
130.7371306678
 20
13.7881668657
 30
0.0
  0
VERTEX
  5
72E
  8
0
  6
CONTINUOUS
 62
     7
 10
130.7470041537
 20
13.7354543013
 30
0.0
  0
VERTEX
  5
72F
  8
0
  6
CONTINUOUS
 62
     7
 10
130.7630369818
 20
13.6868741692
 30
0.0
  0
VERTEX
  5
730
  8
0
  6
CONTINUOUS
 62
     7
 10
130.7846143326
 20
13.6442920477
 30
0.0
  0
VERTEX
  5
731
  8
0
  6
CONTINUOUS
 62
     7
 10
130.8109054955
 20
13.6093458914
 30
0.0
  0
VERTEX
  5
732
  8
0
  6
CONTINUOUS
 62
     7
 10
130.8409014157
 20
13.5833779781
 30
0.0
  0
VERTEX
  5
733
  8
0
  6
CONTINUOUS
 62
     7
 10
130.8734487197
 20
13.5673879761
 30
0.0
  0
VERTEX
  5
734
  8
0
  6
CONTINUOUS
 62
     7
 10
130.9072972353
 20
13.5619883585
 30
0.0
  0
SEQEND
  5
735
  8
0
  6
CONTINUOUS
 62
     7
  0
LINE
  5
3E1
  8
0
  6
CONTINUOUS
 62
     7
 10
130.812796887
 20
16.4229878413
 30
0.0
 11
130.812796887
 21
13.842989059
 31
0.0
  0
LINE
  5
3E2
  8
0
  6
CONTINUOUS
 62
     7
 10
130.8267969386
 20
16.4752381177
 30
0.0
 11
130.812796887
 21
16.4229878413
 31
0.0
  0
LINE
  5
3E3
  8
0
  6
CONTINUOUS
 62
     7
 10
131.0807972044
 20
78.0609887539
 30
0.0
 11
131.0807972044
 21
79.5609889191
 31
0.0
  0
POLYLINE
  5
3E4
  8
0
  6
CONTINUOUS
 62
     7
 66
     1
 10
0.0
 20
0.0
 30
0.0
  0
VERTEX
  5
736
  8
0
  6
CONTINUOUS
 62
     7
 10
130.9072972353
 20
79.841987273
 30
0.0
  0
VERTEX
  5
737
  8
0
  6
CONTINUOUS
 62
     7
 10
130.8734487197
 20
79.836590002
 30
0.0
  0
VERTEX
  5
738
  8
0
  6
CONTINUOUS
 62
     7
 10
130.8409014157
 20
79.8205976534
 30
0.0
  0
VERTEX
  5
739
  8
0
  6
CONTINUOUS
 62
     7
 10
130.8109054955
 20
79.7946320867
 30
0.0
  0
VERTEX
  5
73A
  8
0
  6
CONTINUOUS
 62
     7
 10
130.7846143326
 20
79.7596859304
 30
0.0
  0
VERTEX
  5
73B
  8
0
  6
CONTINUOUS
 62
     7
 10
130.7630369818
 20
79.717103809
 30
0.0
  0
VERTEX
  5
73C
  8
0
  6
CONTINUOUS
 62
     7
 10
130.7470041537
 20
79.6685213302
 30
0.0
  0
VERTEX
  5
73D
  8
0
  6
CONTINUOUS
 62
     7
 10
130.7371306678
 20
79.6158087658
 30
0.0
  0
VERTEX
  5
73E
  8
0
  6
CONTINUOUS
 62
     7
 10
130.7337972663
 20
79.5609889191
 30
0.0
  0
SEQEND
  5
73F
  8
0
  6
CONTINUOUS
 62
     7
  0
POLYLINE
  5
3E5
  8
0
  6
CONTINUOUS
 62
     7
 66
     1
 10
0.0
 20
0.0
 30
0.0
  0
VERTEX
  5
740
  8
0
  6
CONTINUOUS
 62
     7
 10
131.0807972044
 20
79.5609889191
 30
0.0
  0
VERTEX
  5
741
  8
0
  6
CONTINUOUS
 62
     7
 10
131.0774632162
 20
79.6158087658
 30
0.0
  0
VERTEX
  5
742
  8
0
  6
CONTINUOUS
 62
     7
 10
131.0675903169
 20
79.6685213302
 30
0.0
  0
VERTEX
  5
743
  8
0
  6
CONTINUOUS
 62
     7
 10
131.0515569022
 20
79.717103809
 30
0.0
  0
VERTEX
  5
744
  8
0
  6
CONTINUOUS
 62
     7
 10
131.0299801381
 20
79.7596859304
 30
0.0
  0
VERTEX
  5
745
  8
0
  6
CONTINUOUS
 62
     7
 10
131.0036883885
 20
79.7946320867
 30
0.0
  0
VERTEX
  5
746
  8
0
  6
CONTINUOUS
 62
     7
 10
130.9736924683
 20
79.8205976534
 30
0.0
  0
VERTEX
  5
747
  8
0
  6
CONTINUOUS
 62
     7
 10
130.9411451643
 20
79.836590002
 30
0.0
  0
VERTEX
  5
748
  8
0
  6
CONTINUOUS
 62
     7
 10
130.9072972353
 20
79.841987273
 30
0.0
  0
SEQEND
  5
749
  8
0
  6
CONTINUOUS
 62
     7
  0
LINE
  5
3E6
  8
0
  6
CONTINUOUS
 62
     7
 10
131.0807972044
 20
15.3429892242
 30
0.0
 11
131.0807972044
 21
16.8429893894
 31
0.0
  0
POLYLINE
  5
3E7
  8
0
  6
CONTINUOUS
 62
     7
 66
     1
 10
0.0
 20
0.0
 30
0.0
  0
VERTEX
  5
74A
  8
0
  6
CONTINUOUS
 62
     7
 10
130.9072972353
 20
17.1239877433
 30
0.0
  0
VERTEX
  5
74B
  8
0
  6
CONTINUOUS
 62
     7
 10
130.8734487197
 20
17.1185881257
 30
0.0
  0
VERTEX
  5
74C
  8
0
  6
CONTINUOUS
 62
     7
 10
130.8409014157
 20
17.1025981238
 30
0.0
  0
VERTEX
  5
74D
  8
0
  6
CONTINUOUS
 62
     7
 10
130.8109054955
 20
17.0766302104
 30
0.0
  0
VERTEX
  5
74E
  8
0
  6
CONTINUOUS
 62
     7
 10
130.7846143326
 20
17.0416864007
 30
0.0
  0
VERTEX
  5
74F
  8
0
  6
CONTINUOUS
 62
     7
 10
130.7630369818
 20
16.9991042793
 30
0.0
  0
VERTEX
  5
750
  8
0
  6
CONTINUOUS
 62
     7
 10
130.7470041537
 20
16.9505218006
 30
0.0
  0
VERTEX
  5
751
  8
0
  6
CONTINUOUS
 62
     7
 10
130.7371306678
 20
16.8978092362
 30
0.0
  0
VERTEX
  5
752
  8
0
  6
CONTINUOUS
 62
     7
 10
130.7337972663
 20
16.8429893894
 30
0.0
  0
SEQEND
  5
753
  8
0
  6
CONTINUOUS
 62
     7
  0
POLYLINE
  5
3E8
  8
0
  6
CONTINUOUS
 62
     7
 66
     1
 10
0.0
 20
0.0
 30
0.0
  0
VERTEX
  5
754
  8
0
  6
CONTINUOUS
 62
     7
 10
131.0807972044
 20
16.8429893894
 30
0.0
  0
VERTEX
  5
755
  8
0
  6
CONTINUOUS
 62
     7
 10
131.0774632162
 20
16.8978092362
 30
0.0
  0
VERTEX
  5
756
  8
0
  6
CONTINUOUS
 62
     7
 10
131.0675903169
 20
16.9505218006
 30
0.0
  0
VERTEX
  5
757
  8
0
  6
CONTINUOUS
 62
     7
 10
131.0515569022
 20
16.9991042793
 30
0.0
  0
VERTEX
  5
758
  8
0
  6
CONTINUOUS
 62
     7
 10
131.0299801381
 20
17.0416864007
 30
0.0
  0
VERTEX
  5
759
  8
0
  6
CONTINUOUS
 62
     7
 10
131.0036883885
 20
17.0766302104
 30
0.0
  0
VERTEX
  5
75A
  8
0
  6
CONTINUOUS
 62
     7
 10
130.9736924683
 20
17.1025981238
 30
0.0
  0
VERTEX
  5
75B
  8
0
  6
CONTINUOUS
 62
     7
 10
130.9411451643
 20
17.1185881257
 30
0.0
  0
VERTEX
  5
75C
  8
0
  6
CONTINUOUS
 62
     7
 10
130.9072972353
 20
17.1239877433
 30
0.0
  0
SEQEND
  5
75D
  8
0
  6
CONTINUOUS
 62
     7
  0
LINE
  5
3E9
  8
0
  6
CONTINUOUS
 62
     7
 10
122.4682970967
 20
12.6709880914
 30
0.0
 11
122.4682970967
 21
81.6079884186
 31
0.0
  0
LINE
  5
3EA
  8
0
  6
CONTINUOUS
 62
     7
 10
120.1872971537
 20
81.6079884186
 30
0.0
 11
120.1872971537
 21
12.6709880914
 31
0.0
  0
LINE
  5
3EB
  8
0
  6
CONTINUOUS
 62
     7
 10
123.0302971778
 20
81.6079884186
 30
0.0
 11
123.0302971778
 21
12.6709880914
 31
0.0
  0
LINE
  5
3EC
  8
0
  6
CONTINUOUS
 62
     7
 10
119.6252970726
 20
81.6079884186
 30
0.0
 11
119.6252970726
 21
12.6709880914
 31
0.0
  0
ARC
  5
3ED
  8
0
  6
CONTINUOUS
 62
     7
 10
130.683363866
 20
12.1403576246
 30
0.0
 40
0.0917377136849222
 50
56.6496936269
 51
87.2299942737
  0
LINE
  5
3EE
  8
0
  6
CONTINUOUS
 62
     7
 10
130.7027969844
 20
12.2169884294
 30
0.0
 11
130.7337972663
 21
12.2169884294
 31
0.0
  0
ARC
  5
3EF
  8
0
  6
CONTINUOUS
 62
     7
 10
130.6780876969
 20
12.207278862
 30
0.0
 40
0.026548532632705
 50
21.4524514015
 51
68.5475485984
  0
ARC
  5
3F0
  8
0
  6
CONTINUOUS
 62
     7
 10
130.683363866
 20
82.1386188855
 30
0.0
 40
0.0917377136851763
 50
272.7700057264
 51
303.3503063731
  0
LINE
  5
3F1
  8
0
  6
CONTINUOUS
 62
     7
 10
130.7337972663
 20
12.2169884294
 30
0.0
 11
130.7337972663
 21
13.842989059
 31
0.0
  0
LINE
  5
3F2
  8
0
  6
CONTINUOUS
 62
     7
 10
130.7337972663
 20
15.2809886605
 30
0.0
 11
130.7337972663
 21
15.3429892242
 31
0.0
  0
LINE
  5
3F3
  8
0
  6
CONTINUOUS
 62
     7
 10
130.7337972663
 20
16.8429893894
 30
0.0
 11
130.7337972663
 21
76.5609885887
 31
0.0
  0
LINE
  5
3F4
  8
0
  6
CONTINUOUS
 62
     7
 10
130.7337972663
 20
77.9989881901
 30
0.0
 11
130.7337972663
 21
78.0609887539
 31
0.0
  0
LINE
  5
3F5
  8
0
  6
CONTINUOUS
 62
     7
 10
130.7337972663
 20
79.5609889191
 30
0.0
 11
130.7337972663
 21
82.0619880807
 31
0.0
  0
ARC
  5
3F6
  8
0
  6
CONTINUOUS
 62
     7
 10
130.6780876969
 20
82.0716976481
 30
0.0
 40
0.0265485326328561
 50
291.4524514018
 51
338.5475485984
  0
LINE
  5
3F7
  8
0
  6
CONTINUOUS
 62
     7
 10
130.7027969844
 20
82.0619880807
 30
0.0
 11
130.7337972663
 21
82.0619880807
 31
0.0
  0
ARC
  5
3F8
  8
0
  6
CONTINUOUS
 62
     7
 10
111.9775065534
 20
12.207278862
 30
0.0
 40
0.0265485326326591
 50
111.4524514015
 51
158.5475485985
  0
LINE
  5
3F9
  8
0
  6
CONTINUOUS
 62
     7
 10
111.952797266
 20
12.2169884294
 30
0.0
 11
111.9217969841
 21
12.2169884294
 31
0.0
  0
ARC
  5
3FA
  8
0
  6
CONTINUOUS
 62
     7
 10
111.9722303844
 20
12.1403576246
 30
0.0
 40
0.0917377136851444
 50
92.7700057264
 51
123.350306373
  0
ARC
  5
3FB
  8
0
  6
CONTINUOUS
 62
     7
 10
111.9722303844
 20
82.1386188855
 30
0.0
 40
0.0917377136850304
 50
236.6496936269
 51
267.2299942737
  0
LINE
  5
3FC
  8
0
  6
CONTINUOUS
 62
     7
 10
111.9217969841
 20
12.2169884294
 30
0.0
 11
111.9217969841
 21
46.8269882451
 31
0.0
  0
LINE
  5
3FD
  8
0
  6
CONTINUOUS
 62
     7
 10
111.9217969841
 20
47.451988265
 30
0.0
 11
111.9217969841
 21
82.0619880807
 31
0.0
  0
LINE
  5
3FE
  8
0
  6
CONTINUOUS
 62
     7
 10
111.952797266
 20
82.0619880807
 30
0.0
 11
111.9217969841
 21
82.0619880807
 31
0.0
  0
ARC
  5
3FF
  8
0
  6
CONTINUOUS
 62
     7
 10
111.9775065534
 20
82.0716976481
 30
0.0
 40
0.0265485326326374
 50
201.4524514015
 51
248.5475485985
  0
LINE
  5
400
  8
0
  6
CONTINUOUS
 62
     7
 10
112.4367969548
 20
81.6079884186
 30
0.0
 11
111.9937971657
 21
82.0509893811
 31
0.0
  0
LINE
  5
401
  8
0
  6
CONTINUOUS
 62
     7
 10
111.9937971657
 20
82.0509893811
 30
0.0
 11
111.9937971657
 21
82.0619880807
 31
0.0
  0
LINE
  5
402
  8
0
  6
CONTINUOUS
 62
     7
 10
130.6617970847
 20
82.0509893811
 30
0.0
 11
130.6617970847
 21
82.0619880807
 31
0.0
  0
LINE
  5
403
  8
0
  6
CONTINUOUS
 62
     7
 10
130.2187972956
 20
81.6079884186
 30
0.0
 11
112.4367969548
 21
81.6079884186
 31
0.0
  0
LINE
  5
404
  8
0
  6
CONTINUOUS
 62
     7
 10
130.2187972956
 20
81.6079884186
 30
0.0
 11
130.6617970847
 21
82.0509893811
 31
0.0
  0
LINE
  5
405
  8
0
  6
CONTINUOUS
 62
     7
 10
111.9937971657
 20
12.227987129
 30
0.0
 11
111.9937971657
 21
12.2169884294
 31
0.0
  0
LINE
  5
406
  8
0
  6
CONTINUOUS
 62
     7
 10
112.4367969548
 20
12.6709880914
 30
0.0
 11
111.9937971657
 21
12.227987129
 31
0.0
  0
LINE
  5
407
  8
0
  6
CONTINUOUS
 62
     7
 10
130.2187972956
 20
12.6709880914
 30
0.0
 11
112.4367969548
 21
12.6709880914
 31
0.0
  0
LINE
  5
408
  8
0
  6
CONTINUOUS
 62
     7
 10
130.6617970847
 20
12.227987129
 30
0.0
 11
130.6617970847
 21
12.2169884294
 31
0.0
  0
LINE
  5
409
  8
0
  6
CONTINUOUS
 62
     7
 10
130.2187972956
 20
12.6709880914
 30
0.0
 11
130.6617970847
 21
12.227987129
 31
0.0
  0
CIRCLE
  5
40A
  8
0
  6
CONTINUOUS
 62
     7
 10
130.4837971252
 20
14.170988255
 30
0.0
 40
0.125
  0
LINE
  5
40B
  8
0
  6
CONTINUOUS
 62
     7
 10
130.2337970157
 20
81.5929886986
 30
0.0
 11
130.2337970157
 21
12.6859878115
 31
0.0
  0
CIRCLE
  5
40C
  8
0
  6
CONTINUOUS
 62
     7
 10
130.4837971252
 20
80.107988255
 30
0.0
 40
0.125
  0
LINE
  5
40D
  8
0
  6
CONTINUOUS
 62
     7
 10
130.6877972643
 20
82.0469883606
 30
0.0
 11
130.2337970157
 21
81.5929886986
 31
0.0
  0
LINE
  5
40E
  8
0
  6
CONTINUOUS
 62
     7
 10
130.6877972643
 20
12.2319881495
 30
0.0
 11
130.2337970157
 21
12.6859878115
 31
0.0
  0
LINE
  5
40F
  8
0
  6
CONTINUOUS
 62
     7
 10
111.9937971657
 20
12.2169884294
 30
0.0
 11
111.9937971657
 21
12.1709872541
 31
0.0
  0
LINE
  5
410
  8
0
  6
CONTINUOUS
 62
     7
 10
130.6617970847
 20
12.2169884294
 30
0.0
 11
130.6617970847
 21
12.1709872541
 31
0.0
  0
LINE
  5
411
  8
0
  6
CONTINUOUS
 62
     7
 10
130.6617970847
 20
12.1709872541
 30
0.0
 11
111.9937971657
 21
12.1709872541
 31
0.0
  0
LINE
  5
412
  8
0
  6
CONTINUOUS
 62
     7
 10
130.6617970847
 20
82.0619880807
 30
0.0
 11
130.6617970847
 21
82.1079892559
 31
0.0
  0
LINE
  5
413
  8
0
  6
CONTINUOUS
 62
     7
 10
111.9937971657
 20
82.0619880807
 30
0.0
 11
111.9937971657
 21
82.1079892559
 31
0.0
  0
LINE
  5
414
  8
0
  6
CONTINUOUS
 62
     7
 10
130.6617970847
 20
82.1079892559
 30
0.0
 11
111.9937971657
 21
82.1079892559
 31
0.0
  0
CIRCLE
  5
415
  8
0
  6
CONTINUOUS
 62
     7
 10
112.1717971252
 20
14.170988255
 30
0.0
 40
0.125
  0
LINE
  5
416
  8
0
  6
CONTINUOUS
 62
     7
 10
111.967796986
 20
12.2319881495
 30
0.0
 11
112.4217972347
 21
12.6859878115
 31
0.0
  0
CIRCLE
  5
417
  8
0
  6
CONTINUOUS
 62
     7
 10
112.1717971252
 20
80.107988255
 30
0.0
 40
0.125
  0
LINE
  5
418
  8
0
  6
CONTINUOUS
 62
     7
 10
112.4217972347
 20
81.5929886986
 30
0.0
 11
112.4217972347
 21
47.451988265
 31
0.0
  0
LINE
  5
419
  8
0
  6
CONTINUOUS
 62
     7
 10
112.4217972347
 20
46.8269882451
 30
0.0
 11
112.4217972347
 21
12.6859878115
 31
0.0
  0
LINE
  5
41A
  8
0
  6
CONTINUOUS
 62
     7
 10
111.967796986
 20
82.0469883606
 30
0.0
 11
112.4217972347
 21
81.5929886986
 31
0.0
  0
LINE
  5
41B
  8
0
  6
CONTINUOUS
 62
     7
 10
130.7337972663
 20
12.1859893208
 30
0.0
 11
130.7027969844
 21
12.1859893208
 31
0.0
  0
LINE
  5
41C
  8
0
  6
CONTINUOUS
 62
     7
 10
130.7027969844
 20
12.1859893208
 30
0.0
 11
130.7027969844
 21
12.2169884294
 31
0.0
  0
LINE
  5
41D
  8
0
  6
CONTINUOUS
 62
     7
 10
130.7337972663
 20
12.1859893208
 30
0.0
 11
130.7337972663
 21
12.2169884294
 31
0.0
  0
LINE
  5
41E
  8
0
  6
CONTINUOUS
 62
     7
 10
130.7027969844
 20
82.0929871892
 30
0.0
 11
130.7027969844
 21
82.0619880807
 31
0.0
  0
LINE
  5
41F
  8
0
  6
CONTINUOUS
 62
     7
 10
130.7337972663
 20
82.0929871892
 30
0.0
 11
130.7027969844
 21
82.0929871892
 31
0.0
  0
LINE
  5
420
  8
0
  6
CONTINUOUS
 62
     7
 10
130.7337972663
 20
82.0929871892
 30
0.0
 11
130.7337972663
 21
82.0619880807
 31
0.0
  0
LINE
  5
421
  8
0
  6
CONTINUOUS
 62
     7
 10
111.9217969841
 20
82.0929871892
 30
0.0
 11
111.9217969841
 21
82.0619880807
 31
0.0
  0
LINE
  5
422
  8
0
  6
CONTINUOUS
 62
     7
 10
111.9217969841
 20
82.0929871892
 30
0.0
 11
111.952797266
 21
82.0929871892
 31
0.0
  0
LINE
  5
423
  8
0
  6
CONTINUOUS
 62
     7
 10
111.952797266
 20
82.0929871892
 30
0.0
 11
111.952797266
 21
82.0619880807
 31
0.0
  0
LINE
  5
424
  8
0
  6
CONTINUOUS
 62
     7
 10
111.9217969841
 20
12.1859893208
 30
0.0
 11
111.952797266
 21
12.1859893208
 31
0.0
  0
LINE
  5
425
  8
0
  6
CONTINUOUS
 62
     7
 10
111.9217969841
 20
12.1859893208
 30
0.0
 11
111.9217969841
 21
12.2169884294
 31
0.0
  0
LINE
  5
426
  8
0
  6
CONTINUOUS
 62
     7
 10
111.952797266
 20
12.1859893208
 30
0.0
 11
111.952797266
 21
12.2169884294
 31
0.0
  0
LINE
  5
427
  8
0
  6
CONTINUOUS
 62
     7
 10
130.6877972643
 20
12.1859893208
 30
0.0
 11
130.7027969844
 21
12.1859893208
 31
0.0
  0
LINE
  5
428
  8
0
  6
CONTINUOUS
 62
     7
 10
130.6877972643
 20
82.0929871892
 30
0.0
 11
130.7027969844
 21
82.0929871892
 31
0.0
  0
LINE
  5
429
  8
0
  6
CONTINUOUS
 62
     7
 10
111.967796986
 20
12.1859893208
 30
0.0
 11
111.952797266
 21
12.1859893208
 31
0.0
  0
LINE
  5
42A
  8
0
  6
CONTINUOUS
 62
     7
 10
111.967796986
 20
82.0929871892
 30
0.0
 11
111.952797266
 21
82.0929871892
 31
0.0
  0
ARC
  5
42B
  8
0
  6
CONTINUOUS
 62
     7
 10
124.8747971252
 20
14.608488255
 30
0.0
 40
0.6250000000000213
 50
90.0
 51
180.0
  0
LINE
  5
42C
  8
0
  6
CONTINUOUS
 62
     7
 10
128.624797203
 20
14.6084886959
 30
0.0
 11
124.24979721
 21
14.6084886959
 31
0.0
  0
ARC
  5
42D
  8
0
  6
CONTINUOUS
 62
     7
 10
127.9997971252
 20
14.608488255
 30
0.0
 40
0.6250000000000071
 50
0.0
 51
90.0
  0
LINE
  5
42E
  8
0
  6
CONTINUOUS
 62
     7
 10
127.9997973297
 20
15.2334879825
 30
0.0
 11
124.8747970833
 21
15.2334879825
 31
0.0
  0
ARC
  5
42F
  8
0
  6
CONTINUOUS
 62
     7
 10
124.8747971252
 20
15.608488255
 30
0.0
 40
0.6250000000000178
 50
90.0
 51
180.0
  0
LINE
  5
430
  8
0
  6
CONTINUOUS
 62
     7
 10
128.624797203
 20
15.6084880238
 30
0.0
 11
124.24979721
 21
15.6084880238
 31
0.0
  0
ARC
  5
431
  8
0
  6
CONTINUOUS
 62
     7
 10
127.9997971252
 20
15.608488255
 30
0.0
 40
0.6250000000000036
 50
0.0
 51
90.0
  0
LINE
  5
432
  8
0
  6
CONTINUOUS
 62
     7
 10
127.9997973297
 20
16.2334873105
 30
0.0
 11
124.8747970833
 21
16.2334873105
 31
0.0
  0
ARC
  5
433
  8
0
  6
CONTINUOUS
 62
     7
 10
124.8747971252
 20
16.608488255
 30
0.0
 40
0.6250000000000178
 50
90.0
 51
180.0
  0
LINE
  5
434
  8
0
  6
CONTINUOUS
 62
     7
 10
128.624797203
 20
16.6084873518
 30
0.0
 11
124.24979721
 21
16.6084873518
 31
0.0
  0
ARC
  5
435
  8
0
  6
CONTINUOUS
 62
     7
 10
127.9997971252
 20
16.608488255
 30
0.0
 40
0.6250000000000036
 50
0.0
 51
90.0
  0
LINE
  5
436
  8
0
  6
CONTINUOUS
 62
     7
 10
127.9997973297
 20
17.233488985
 30
0.0
 11
124.8747970833
 21
17.233488985
 31
0.0
  0
ARC
  5
437
  8
0
  6
CONTINUOUS
 62
     7
 10
124.8747971252
 20
17.608488255
 30
0.0
 40
0.6250000000000178
 50
90.0
 51
180.0
  0
LINE
  5
438
  8
0
  6
CONTINUOUS
 62
     7
 10
128.624797203
 20
17.6084890263
 30
0.0
 11
124.24979721
 21
17.6084890263
 31
0.0
  0
ARC
  5
439
  8
0
  6
CONTINUOUS
 62
     7
 10
127.9997971252
 20
17.608488255
 30
0.0
 40
0.6250000000000036
 50
0.0
 51
90.0
  0
LINE
  5
43A
  8
0
  6
CONTINUOUS
 62
     7
 10
127.9997973297
 20
18.2334883129
 30
0.0
 11
124.8747970833
 21
18.2334883129
 31
0.0
  0
ARC
  5
43B
  8
0
  6
CONTINUOUS
 62
     7
 10
124.8747971252
 20
18.608488255
 30
0.0
 40
0.6250000000000178
 50
90.0
 51
180.0
  0
LINE
  5
43C
  8
0
  6
CONTINUOUS
 62
     7
 10
128.624797203
 20
18.6084883542
 30
0.0
 11
124.24979721
 21
18.6084883542
 31
0.0
  0
ARC
  5
43D
  8
0
  6
CONTINUOUS
 62
     7
 10
127.9997971252
 20
18.608488255
 30
0.0
 40
0.6250000000000036
 50
0.0
 51
90.0
  0
LINE
  5
43E
  8
0
  6
CONTINUOUS
 62
     7
 10
127.9997973297
 20
19.2334876409
 30
0.0
 11
124.8747970833
 21
19.2334876409
 31
0.0
  0
ARC
  5
43F
  8
0
  6
CONTINUOUS
 62
     7
 10
124.8747971252
 20
19.608488255
 30
0.0
 40
0.6250000000000142
 50
90.0
 51
180.0
  0
LINE
  5
440
  8
0
  6
CONTINUOUS
 62
     7
 10
128.624797203
 20
19.6084876822
 30
0.0
 11
124.24979721
 21
19.6084876822
 31
0.0
  0
ARC
  5
441
  8
0
  6
CONTINUOUS
 62
     7
 10
127.9997971252
 20
19.608488255
 30
0.0
 40
0.625
 50
0.0
 51
90.0
  0
LINE
  5
442
  8
0
  6
CONTINUOUS
 62
     7
 10
127.9997973297
 20
20.2334893154
 30
0.0
 11
124.8747970833
 21
20.2334893154
 31
0.0
  0
ARC
  5
443
  8
0
  6
CONTINUOUS
 62
     7
 10
124.8747971252
 20
20.608488255
 30
0.0
 40
0.6250000000000178
 50
90.0
 51
180.0
  0
LINE
  5
444
  8
0
  6
CONTINUOUS
 62
     7
 10
128.624797203
 20
20.6084893567
 30
0.0
 11
124.24979721
 21
20.6084893567
 31
0.0
  0
ARC
  5
445
  8
0
  6
CONTINUOUS
 62
     7
 10
127.9997971252
 20
20.608488255
 30
0.0
 40
0.6250000000000036
 50
0.0
 51
90.0
  0
LINE
  5
446
  8
0
  6
CONTINUOUS
 62
     7
 10
127.9997973297
 20
21.2334886434
 30
0.0
 11
124.8747970833
 21
21.2334886434
 31
0.0
  0
ARC
  5
447
  8
0
  6
CONTINUOUS
 62
     7
 10
124.8747971252
 20
21.608488255
 30
0.0
 40
0.6250000000000178
 50
90.0
 51
180.0
  0
LINE
  5
448
  8
0
  6
CONTINUOUS
 62
     7
 10
128.624797203
 20
21.6084886847
 30
0.0
 11
124.24979721
 21
21.6084886847
 31
0.0
  0
ARC
  5
449
  8
0
  6
CONTINUOUS
 62
     7
 10
127.9997971252
 20
21.608488255
 30
0.0
 40
0.6250000000000036
 50
0.0
 51
90.0
  0
LINE
  5
44A
  8
0
  6
CONTINUOUS
 62
     7
 10
127.9997973297
 20
22.2334879713
 30
0.0
 11
124.8747970833
 21
22.2334879713
 31
0.0
  0
ARC
  5
44B
  8
0
  6
CONTINUOUS
 62
     7
 10
124.8747971252
 20
22.608488255
 30
0.0
 40
0.6250000000000178
 50
90.0
 51
180.0
  0
LINE
  5
44C
  8
0
  6
CONTINUOUS
 62
     7
 10
128.624797203
 20
22.6084880126
 30
0.0
 11
124.24979721
 21
22.6084880126
 31
0.0
  0
ARC
  5
44D
  8
0
  6
CONTINUOUS
 62
     7
 10
127.9997971252
 20
22.608488255
 30
0.0
 40
0.6250000000000036
 50
0.0
 51
90.0
  0
LINE
  5
44E
  8
0
  6
CONTINUOUS
 62
     7
 10
127.9997973297
 20
23.2334872992
 30
0.0
 11
124.8747970833
 21
23.2334872992
 31
0.0
  0
ARC
  5
44F
  8
0
  6
CONTINUOUS
 62
     7
 10
124.8747971252
 20
23.608488255
 30
0.0
 40
0.6250000000000178
 50
90.0
 51
180.0
  0
LINE
  5
450
  8
0
  6
CONTINUOUS
 62
     7
 10
128.624797203
 20
23.6084873405
 30
0.0
 11
124.24979721
 21
23.6084873405
 31
0.0
  0
ARC
  5
451
  8
0
  6
CONTINUOUS
 62
     7
 10
127.9997971252
 20
23.608488255
 30
0.0
 40
0.6250000000000036
 50
0.0
 51
90.0
  0
LINE
  5
452
  8
0
  6
CONTINUOUS
 62
     7
 10
127.9997973297
 20
24.2334889738
 30
0.0
 11
124.8747970833
 21
24.2334889738
 31
0.0
  0
ARC
  5
453
  8
0
  6
CONTINUOUS
 62
     7
 10
124.8747971252
 20
24.608488255
 30
0.0
 40
0.6250000000000142
 50
90.0
 51
180.0
  0
LINE
  5
454
  8
0
  6
CONTINUOUS
 62
     7
 10
128.624797203
 20
24.6084890151
 30
0.0
 11
124.24979721
 21
24.6084890151
 31
0.0
  0
ARC
  5
455
  8
0
  6
CONTINUOUS
 62
     7
 10
127.9997971252
 20
24.608488255
 30
0.0
 40
0.625
 50
0.0
 51
90.0
  0
LINE
  5
456
  8
0
  6
CONTINUOUS
 62
     7
 10
127.9997973297
 20
25.2334883017
 30
0.0
 11
124.8747970833
 21
25.2334883017
 31
0.0
  0
ARC
  5
457
  8
0
  6
CONTINUOUS
 62
     7
 10
124.8747971252
 20
25.608488255
 30
0.0
 40
0.6250000000000178
 50
90.0
 51
180.0
  0
LINE
  5
458
  8
0
  6
CONTINUOUS
 62
     7
 10
128.624797203
 20
25.608488343
 30
0.0
 11
124.24979721
 21
25.608488343
 31
0.0
  0
ARC
  5
459
  8
0
  6
CONTINUOUS
 62
     7
 10
127.9997971252
 20
25.608488255
 30
0.0
 40
0.6250000000000036
 50
0.0
 51
90.0
  0
LINE
  5
45A
  8
0
  6
CONTINUOUS
 62
     7
 10
127.9997973297
 20
26.2334876296
 30
0.0
 11
124.8747970833
 21
26.2334876296
 31
0.0
  0
ARC
  5
45B
  8
0
  6
CONTINUOUS
 62
     7
 10
124.8747971252
 20
26.608488255
 30
0.0
 40
0.6250000000000178
 50
90.0
 51
180.0
  0
LINE
  5
45C
  8
0
  6
CONTINUOUS
 62
     7
 10
128.624797203
 20
26.6084876709
 30
0.0
 11
124.24979721
 21
26.6084876709
 31
0.0
  0
ARC
  5
45D
  8
0
  6
CONTINUOUS
 62
     7
 10
127.9997971252
 20
26.608488255
 30
0.0
 40
0.6250000000000036
 50
0.0
 51
90.0
  0
LINE
  5
45E
  8
0
  6
CONTINUOUS
 62
     7
 10
127.9997973297
 20
27.2334893042
 30
0.0
 11
124.8747970833
 21
27.2334893042
 31
0.0
  0
ARC
  5
45F
  8
0
  6
CONTINUOUS
 62
     7
 10
124.8747971252
 20
27.608488255
 30
0.0
 40
0.6250000000000178
 50
90.0
 51
180.0
  0
LINE
  5
460
  8
0
  6
CONTINUOUS
 62
     7
 10
128.624797203
 20
27.6084881721
 30
0.0
 11
124.24979721
 21
27.6084881721
 31
0.0
  0
ARC
  5
461
  8
0
  6
CONTINUOUS
 62
     7
 10
127.9997971252
 20
27.608488255
 30
0.0
 40
0.625
 50
0.0
 51
90.0
  0
LINE
  5
462
  8
0
  6
CONTINUOUS
 62
     7
 10
127.9997973297
 20
28.2334886321
 30
0.0
 11
124.8747970833
 21
28.2334886321
 31
0.0
  0
ARC
  5
463
  8
0
  6
CONTINUOUS
 62
     7
 10
124.8747971252
 20
28.608488255
 30
0.0
 40
0.6250000000000142
 50
90.0
 51
180.0
  0
LINE
  5
464
  8
0
  6
CONTINUOUS
 62
     7
 10
128.624797203
 20
28.6084886734
 30
0.0
 11
124.24979721
 21
28.6084886734
 31
0.0
  0
ARC
  5
465
  8
0
  6
CONTINUOUS
 62
     7
 10
127.9997971252
 20
28.608488255
 30
0.0
 40
0.6249999999999964
 50
0.0
 51
90.0
  0
LINE
  5
466
  8
0
  6
CONTINUOUS
 62
     7
 10
127.9997973297
 20
29.23348796
 30
0.0
 11
124.8747970833
 21
29.23348796
 31
0.0
  0
ARC
  5
467
  8
0
  6
CONTINUOUS
 62
     7
 10
114.6557971252
 20
65.045488255
 30
0.0
 40
0.6250000000000426
 50
90.0
 51
180.0
  0
LINE
  5
468
  8
0
  6
CONTINUOUS
 62
     7
 10
118.4057970404
 20
65.0454885501
 30
0.0
 11
114.0307970474
 21
65.0454885501
 31
0.0
  0
ARC
  5
469
  8
0
  6
CONTINUOUS
 62
     7
 10
117.7807971252
 20
65.045488255
 30
0.0
 40
0.625
 50
0.0
 51
90.0
  0
LINE
  5
46A
  8
0
  6
CONTINUOUS
 62
     7
 10
117.7807971671
 20
65.6704878367
 30
0.0
 11
114.6557969207
 21
65.6704878367
 31
0.0
  0
ARC
  5
46B
  8
0
  6
CONTINUOUS
 62
     7
 10
114.6557971252
 20
66.045488255
 30
0.0
 40
0.6250000000000426
 50
90.0
 51
180.0
  0
LINE
  5
46C
  8
0
  6
CONTINUOUS
 62
     7
 10
118.4057970404
 20
66.045487878
 30
0.0
 11
114.0307970474
 21
66.045487878
 31
0.0
  0
ARC
  5
46D
  8
0
  6
CONTINUOUS
 62
     7
 10
117.7807971252
 20
66.045488255
 30
0.0
 40
0.625
 50
0.0
 51
90.0
  0
LINE
  5
46E
  8
0
  6
CONTINUOUS
 62
     7
 10
117.7807971671
 20
66.6704883379
 30
0.0
 11
114.6557969207
 21
66.6704883379
 31
0.0
  0
ARC
  5
46F
  8
0
  6
CONTINUOUS
 62
     7
 10
114.6557971252
 20
67.045488255
 30
0.0
 40
0.6250000000000284
 50
90.0
 51
180.0
  0
LINE
  5
470
  8
0
  6
CONTINUOUS
 62
     7
 10
118.4057970404
 20
67.0454872059
 30
0.0
 11
114.0307970474
 21
67.0454872059
 31
0.0
  0
ARC
  5
471
  8
0
  6
CONTINUOUS
 62
     7
 10
117.7807971252
 20
67.045488255
 30
0.0
 40
0.625
 50
0.0
 51
90.0
  0
LINE
  5
472
  8
0
  6
CONTINUOUS
 62
     7
 10
117.7807971671
 20
67.6704888392
 30
0.0
 11
114.6557969207
 21
67.6704888392
 31
0.0
  0
ARC
  5
473
  8
0
  6
CONTINUOUS
 62
     7
 10
114.6557971252
 20
68.045488255
 30
0.0
 40
0.6250000000000284
 50
90.0
 51
180.0
  0
LINE
  5
474
  8
0
  6
CONTINUOUS
 62
     7
 10
118.4057970404
 20
68.0454888805
 30
0.0
 11
114.0307970474
 21
68.0454888805
 31
0.0
  0
ARC
  5
475
  8
0
  6
CONTINUOUS
 62
     7
 10
117.7807971252
 20
68.045488255
 30
0.0
 40
0.625
 50
0.0
 51
90.0
  0
LINE
  5
476
  8
0
  6
CONTINUOUS
 62
     7
 10
117.7807971671
 20
68.6704881671
 30
0.0
 11
114.6557969207
 21
68.6704881671
 31
0.0
  0
ARC
  5
477
  8
0
  6
CONTINUOUS
 62
     7
 10
114.6557971252
 20
69.045488255
 30
0.0
 40
0.6250000000000284
 50
90.0
 51
180.0
  0
LINE
  5
478
  8
0
  6
CONTINUOUS
 62
     7
 10
118.4057970404
 20
69.0454882084
 30
0.0
 11
114.0307970474
 21
69.0454882084
 31
0.0
  0
ARC
  5
479
  8
0
  6
CONTINUOUS
 62
     7
 10
117.7807971252
 20
69.045488255
 30
0.0
 40
0.625
 50
0.0
 51
90.0
  0
LINE
  5
47A
  8
0
  6
CONTINUOUS
 62
     7
 10
117.7807971671
 20
69.670487495
 30
0.0
 11
114.6557969207
 21
69.670487495
 31
0.0
  0
ARC
  5
47B
  8
0
  6
CONTINUOUS
 62
     7
 10
114.6557971252
 20
70.045488255
 30
0.0
 40
0.6250000000000284
 50
90.0
 51
180.0
  0
LINE
  5
47C
  8
0
  6
CONTINUOUS
 62
     7
 10
118.4057970404
 20
70.0454875363
 30
0.0
 11
114.0307970474
 21
70.0454875363
 31
0.0
  0
ARC
  5
47D
  8
0
  6
CONTINUOUS
 62
     7
 10
117.7807971252
 20
70.045488255
 30
0.0
 40
0.625
 50
0.0
 51
90.0
  0
LINE
  5
47E
  8
0
  6
CONTINUOUS
 62
     7
 10
117.7807971671
 20
70.6704891696
 30
0.0
 11
114.6557969207
 21
70.6704891696
 31
0.0
  0
ARC
  5
47F
  8
0
  6
CONTINUOUS
 62
     7
 10
114.6557971252
 20
71.045488255
 30
0.0
 40
0.6250000000000284
 50
90.0
 51
180.0
  0
LINE
  5
480
  8
0
  6
CONTINUOUS
 62
     7
 10
118.4057970404
 20
71.0454892109
 30
0.0
 11
114.0307970474
 21
71.0454892109
 31
0.0
  0
ARC
  5
481
  8
0
  6
CONTINUOUS
 62
     7
 10
117.7807971252
 20
71.045488255
 30
0.0
 40
0.6250000000000142
 50
0.0
 51
90.0
  0
LINE
  5
482
  8
0
  6
CONTINUOUS
 62
     7
 10
117.7807971671
 20
71.6704884975
 30
0.0
 11
114.6557969207
 21
71.6704884975
 31
0.0
  0
ARC
  5
483
  8
0
  6
CONTINUOUS
 62
     7
 10
114.6557971252
 20
72.045488255
 30
0.0
 40
0.6250000000000284
 50
90.0
 51
180.0
  0
LINE
  5
484
  8
0
  6
CONTINUOUS
 62
     7
 10
118.4057970404
 20
72.0454885388
 30
0.0
 11
114.0307970474
 21
72.0454885388
 31
0.0
  0
ARC
  5
485
  8
0
  6
CONTINUOUS
 62
     7
 10
117.7807971252
 20
72.045488255
 30
0.0
 40
0.625
 50
0.0
 51
90.0
  0
LINE
  5
486
  8
0
  6
CONTINUOUS
 62
     7
 10
117.7807971671
 20
72.6704878254
 30
0.0
 11
114.6557969207
 21
72.6704878254
 31
0.0
  0
ARC
  5
487
  8
0
  6
CONTINUOUS
 62
     7
 10
114.6557971252
 20
73.045488255
 30
0.0
 40
0.6250000000000284
 50
90.0
 51
180.0
  0
LINE
  5
488
  8
0
  6
CONTINUOUS
 62
     7
 10
118.4057970404
 20
73.0454878667
 30
0.0
 11
114.0307970474
 21
73.0454878667
 31
0.0
  0
ARC
  5
489
  8
0
  6
CONTINUOUS
 62
     7
 10
117.7807971252
 20
73.045488255
 30
0.0
 40
0.625
 50
0.0
 51
90.0
  0
LINE
  5
48A
  8
0
  6
CONTINUOUS
 62
     7
 10
117.7807971671
 20
73.6704871533
 30
0.0
 11
114.6557969207
 21
73.6704871533
 31
0.0
  0
ARC
  5
48B
  8
0
  6
CONTINUOUS
 62
     7
 10
114.6557971252
 20
74.045488255
 30
0.0
 40
0.6250000000000284
 50
90.0
 51
180.0
  0
LINE
  5
48C
  8
0
  6
CONTINUOUS
 62
     7
 10
118.4057970404
 20
74.0454871946
 30
0.0
 11
114.0307970474
 21
74.0454871946
 31
0.0
  0
ARC
  5
48D
  8
0
  6
CONTINUOUS
 62
     7
 10
117.7807971252
 20
74.045488255
 30
0.0
 40
0.625
 50
0.0
 51
90.0
  0
LINE
  5
48E
  8
0
  6
CONTINUOUS
 62
     7
 10
117.7807971671
 20
74.6704888279
 30
0.0
 11
114.6557969207
 21
74.6704888279
 31
0.0
  0
ARC
  5
48F
  8
0
  6
CONTINUOUS
 62
     7
 10
114.6557971252
 20
75.045488255
 30
0.0
 40
0.6250000000000284
 50
90.0
 51
180.0
  0
LINE
  5
490
  8
0
  6
CONTINUOUS
 62
     7
 10
118.4057970404
 20
75.0454888692
 30
0.0
 11
114.0307970474
 21
75.0454888692
 31
0.0
  0
ARC
  5
491
  8
0
  6
CONTINUOUS
 62
     7
 10
117.7807971252
 20
75.045488255
 30
0.0
 40
0.625
 50
0.0
 51
90.0
  0
LINE
  5
492
  8
0
  6
CONTINUOUS
 62
     7
 10
117.7807971671
 20
75.6704881558
 30
0.0
 11
114.6557969207
 21
75.6704881558
 31
0.0
  0
ARC
  5
493
  8
0
  6
CONTINUOUS
 62
     7
 10
114.6557971252
 20
76.045488255
 30
0.0
 40
0.6250000000000284
 50
90.0
 51
180.0
  0
LINE
  5
494
  8
0
  6
CONTINUOUS
 62
     7
 10
118.4057970404
 20
76.0454881971
 30
0.0
 11
114.0307970474
 21
76.0454881971
 31
0.0
  0
ARC
  5
495
  8
0
  6
CONTINUOUS
 62
     7
 10
117.7807971252
 20
76.045488255
 30
0.0
 40
0.6250000000000142
 50
0.0
 51
90.0
  0
LINE
  5
496
  8
0
  6
CONTINUOUS
 62
     7
 10
117.7807971671
 20
76.6704874837
 30
0.0
 11
114.6557969207
 21
76.6704874837
 31
0.0
  0
ARC
  5
497
  8
0
  6
CONTINUOUS
 62
     7
 10
114.6557971252
 20
77.045488255
 30
0.0
 40
0.6250000000000284
 50
90.0
 51
180.0
  0
LINE
  5
498
  8
0
  6
CONTINUOUS
 62
     7
 10
118.4057970404
 20
77.045487525
 30
0.0
 11
114.0307970474
 21
77.045487525
 31
0.0
  0
ARC
  5
499
  8
0
  6
CONTINUOUS
 62
     7
 10
117.7807971252
 20
77.045488255
 30
0.0
 40
0.625
 50
0.0
 51
90.0
  0
LINE
  5
49A
  8
0
  6
CONTINUOUS
 62
     7
 10
117.7807971671
 20
77.6704891583
 30
0.0
 11
114.6557969207
 21
77.6704891583
 31
0.0
  0
ARC
  5
49B
  8
0
  6
CONTINUOUS
 62
     7
 10
114.6557971252
 20
78.045488255
 30
0.0
 40
0.6250000000000284
 50
90.0
 51
180.0
  0
LINE
  5
49C
  8
0
  6
CONTINUOUS
 62
     7
 10
118.4057970404
 20
78.0454891996
 30
0.0
 11
114.0307970474
 21
78.0454891996
 31
0.0
  0
ARC
  5
49D
  8
0
  6
CONTINUOUS
 62
     7
 10
117.7807971252
 20
78.045488255
 30
0.0
 40
0.625
 50
0.0
 51
90.0
  0
LINE
  5
49E
  8
0
  6
CONTINUOUS
 62
     7
 10
117.7807971671
 20
78.6704884862
 30
0.0
 11
114.6557969207
 21
78.6704884862
 31
0.0
  0
ARC
  5
49F
  8
0
  6
CONTINUOUS
 62
     7
 10
114.6557971252
 20
28.608488255
 30
0.0
 40
0.6250000000000142
 50
90.0
 51
180.0
  0
LINE
  5
4A0
  8
0
  6
CONTINUOUS
 62
     7
 10
118.4057970404
 20
28.6084886734
 30
0.0
 11
114.0307970474
 21
28.6084886734
 31
0.0
  0
ARC
  5
4A1
  8
0
  6
CONTINUOUS
 62
     7
 10
117.7807971252
 20
28.608488255
 30
0.0
 40
0.625
 50
0.0
 51
90.0
  0
LINE
  5
4A2
  8
0
  6
CONTINUOUS
 62
     7
 10
117.7807971671
 20
29.23348796
 30
0.0
 11
114.6557969207
 21
29.23348796
 31
0.0
  0
LINE
  5
4A3
  8
0
  6
CONTINUOUS
 62
     7
 10
130.6877972643
 20
82.0929871892
 30
0.0
 11
130.6617970847
 21
82.0929871892
 31
0.0
  0
LINE
  5
4A4
  8
0
  6
CONTINUOUS
 62
     7
 10
130.6877972643
 20
12.1859893208
 30
0.0
 11
130.6617970847
 21
12.1859893208
 31
0.0
  0
LINE
  5
4A5
  8
0
  6
CONTINUOUS
 62
     7
 10
111.967796986
 20
12.1859893208
 30
0.0
 11
111.9937971657
 21
12.1859893208
 31
0.0
  0
LINE
  5
4A6
  8
0
  6
CONTINUOUS
 62
     7
 10
111.967796986
 20
82.0929871892
 30
0.0
 11
111.9937971657
 21
82.0929871892
 31
0.0
  0
ARC
  5
4A7
  8
0
  6
CONTINUOUS
 62
     7
 10
114.6557971252
 20
79.045488255
 30
0.0
 40
0.6250000000000284
 50
90.0
 51
180.0
  0
LINE
  5
4A8
  8
0
  6
CONTINUOUS
 62
     7
 10
118.4057970404
 20
79.0454885275
 30
0.0
 11
114.0307970474
 21
79.0454885275
 31
0.0
  0
ARC
  5
4A9
  8
0
  6
CONTINUOUS
 62
     7
 10
117.7807971252
 20
79.045488255
 30
0.0
 40
0.625
 50
0.0
 51
90.0
  0
LINE
  5
4AA
  8
0
  6
CONTINUOUS
 62
     7
 10
117.7807971671
 20
79.6704878142
 30
0.0
 11
114.6557969207
 21
79.6704878142
 31
0.0
  0
ARC
  5
4AB
  8
0
  6
CONTINUOUS
 62
     7
 10
124.8747971252
 20
79.045488255
 30
0.0
 40
0.6250000000000284
 50
90.0
 51
180.0
  0
LINE
  5
4AC
  8
0
  6
CONTINUOUS
 62
     7
 10
128.624797203
 20
79.0454885275
 30
0.0
 11
124.24979721
 21
79.0454885275
 31
0.0
  0
ARC
  5
4AD
  8
0
  6
CONTINUOUS
 62
     7
 10
127.9997971252
 20
79.045488255
 30
0.0
 40
0.625
 50
0.0
 51
90.0
  0
LINE
  5
4AE
  8
0
  6
CONTINUOUS
 62
     7
 10
127.9997973297
 20
79.6704878142
 30
0.0
 11
124.8747970833
 21
79.6704878142
 31
0.0
  0
ARC
  5
4AF
  8
0
  6
CONTINUOUS
 62
     7
 10
124.8747971252
 20
78.045488255
 30
0.0
 40
0.6250000000000284
 50
90.0
 51
180.0
  0
LINE
  5
4B0
  8
0
  6
CONTINUOUS
 62
     7
 10
128.624797203
 20
78.0454891996
 30
0.0
 11
124.24979721
 21
78.0454891996
 31
0.0
  0
ARC
  5
4B1
  8
0
  6
CONTINUOUS
 62
     7
 10
127.9997971252
 20
78.045488255
 30
0.0
 40
0.625
 50
0.0
 51
90.0
  0
LINE
  5
4B2
  8
0
  6
CONTINUOUS
 62
     7
 10
127.9997973297
 20
78.6704884862
 30
0.0
 11
124.8747970833
 21
78.6704884862
 31
0.0
  0
ARC
  5
4B3
  8
0
  6
CONTINUOUS
 62
     7
 10
124.8747971252
 20
77.045488255
 30
0.0
 40
0.6250000000000284
 50
90.0
 51
180.0
  0
LINE
  5
4B4
  8
0
  6
CONTINUOUS
 62
     7
 10
128.624797203
 20
77.045487525
 30
0.0
 11
124.24979721
 21
77.045487525
 31
0.0
  0
ARC
  5
4B5
  8
0
  6
CONTINUOUS
 62
     7
 10
127.9997971252
 20
77.045488255
 30
0.0
 40
0.625
 50
0.0
 51
90.0
  0
LINE
  5
4B6
  8
0
  6
CONTINUOUS
 62
     7
 10
127.9997973297
 20
77.6704891583
 30
0.0
 11
124.8747970833
 21
77.6704891583
 31
0.0
  0
ARC
  5
4B7
  8
0
  6
CONTINUOUS
 62
     7
 10
124.8747971252
 20
76.045488255
 30
0.0
 40
0.6250000000000284
 50
90.0
 51
180.0
  0
LINE
  5
4B8
  8
0
  6
CONTINUOUS
 62
     7
 10
128.624797203
 20
76.0454881971
 30
0.0
 11
124.24979721
 21
76.0454881971
 31
0.0
  0
ARC
  5
4B9
  8
0
  6
CONTINUOUS
 62
     7
 10
127.9997971252
 20
76.045488255
 30
0.0
 40
0.6250000000000142
 50
0.0
 51
90.0
  0
LINE
  5
4BA
  8
0
  6
CONTINUOUS
 62
     7
 10
127.9997973297
 20
76.6704874837
 30
0.0
 11
124.8747970833
 21
76.6704874837
 31
0.0
  0
ARC
  5
4BB
  8
0
  6
CONTINUOUS
 62
     7
 10
124.8747971252
 20
75.045488255
 30
0.0
 40
0.6250000000000284
 50
90.0
 51
180.0
  0
LINE
  5
4BC
  8
0
  6
CONTINUOUS
 62
     7
 10
128.624797203
 20
75.0454888692
 30
0.0
 11
124.24979721
 21
75.0454888692
 31
0.0
  0
ARC
  5
4BD
  8
0
  6
CONTINUOUS
 62
     7
 10
127.9997971252
 20
75.045488255
 30
0.0
 40
0.625
 50
0.0
 51
90.0
  0
LINE
  5
4BE
  8
0
  6
CONTINUOUS
 62
     7
 10
127.9997973297
 20
75.6704881558
 30
0.0
 11
124.8747970833
 21
75.6704881558
 31
0.0
  0
ARC
  5
4BF
  8
0
  6
CONTINUOUS
 62
     7
 10
124.8747971252
 20
74.045488255
 30
0.0
 40
0.6250000000000284
 50
90.0
 51
180.0
  0
LINE
  5
4C0
  8
0
  6
CONTINUOUS
 62
     7
 10
128.624797203
 20
74.0454871946
 30
0.0
 11
124.24979721
 21
74.0454871946
 31
0.0
  0
ARC
  5
4C1
  8
0
  6
CONTINUOUS
 62
     7
 10
127.9997971252
 20
74.045488255
 30
0.0
 40
0.625
 50
0.0
 51
90.0
  0
LINE
  5
4C2
  8
0
  6
CONTINUOUS
 62
     7
 10
127.9997973297
 20
74.6704888279
 30
0.0
 11
124.8747970833
 21
74.6704888279
 31
0.0
  0
ARC
  5
4C3
  8
0
  6
CONTINUOUS
 62
     7
 10
124.8747971252
 20
73.045488255
 30
0.0
 40
0.6250000000000284
 50
90.0
 51
180.0
  0
LINE
  5
4C4
  8
0
  6
CONTINUOUS
 62
     7
 10
128.624797203
 20
73.0454878667
 30
0.0
 11
124.24979721
 21
73.0454878667
 31
0.0
  0
ARC
  5
4C5
  8
0
  6
CONTINUOUS
 62
     7
 10
127.9997971252
 20
73.045488255
 30
0.0
 40
0.625
 50
0.0
 51
90.0
  0
LINE
  5
4C6
  8
0
  6
CONTINUOUS
 62
     7
 10
127.9997973297
 20
73.6704871533
 30
0.0
 11
124.8747970833
 21
73.6704871533
 31
0.0
  0
ARC
  5
4C7
  8
0
  6
CONTINUOUS
 62
     7
 10
124.8747971252
 20
72.045488255
 30
0.0
 40
0.6250000000000284
 50
90.0
 51
180.0
  0
LINE
  5
4C8
  8
0
  6
CONTINUOUS
 62
     7
 10
128.624797203
 20
72.0454885388
 30
0.0
 11
124.24979721
 21
72.0454885388
 31
0.0
  0
ARC
  5
4C9
  8
0
  6
CONTINUOUS
 62
     7
 10
127.9997971252
 20
72.045488255
 30
0.0
 40
0.625
 50
0.0
 51
90.0
  0
LINE
  5
4CA
  8
0
  6
CONTINUOUS
 62
     7
 10
127.9997973297
 20
72.6704878254
 30
0.0
 11
124.8747970833
 21
72.6704878254
 31
0.0
  0
ARC
  5
4CB
  8
0
  6
CONTINUOUS
 62
     7
 10
124.8747971252
 20
71.045488255
 30
0.0
 40
0.6250000000000284
 50
90.0
 51
180.0
  0
LINE
  5
4CC
  8
0
  6
CONTINUOUS
 62
     7
 10
128.624797203
 20
71.0454892109
 30
0.0
 11
124.24979721
 21
71.0454892109
 31
0.0
  0
ARC
  5
4CD
  8
0
  6
CONTINUOUS
 62
     7
 10
127.9997971252
 20
71.045488255
 30
0.0
 40
0.6250000000000142
 50
0.0
 51
90.0
  0
LINE
  5
4CE
  8
0
  6
CONTINUOUS
 62
     7
 10
127.9997973297
 20
71.6704884975
 30
0.0
 11
124.8747970833
 21
71.6704884975
 31
0.0
  0
ARC
  5
4CF
  8
0
  6
CONTINUOUS
 62
     7
 10
124.8747971252
 20
70.045488255
 30
0.0
 40
0.6250000000000284
 50
90.0
 51
180.0
  0
LINE
  5
4D0
  8
0
  6
CONTINUOUS
 62
     7
 10
128.624797203
 20
70.0454875363
 30
0.0
 11
124.24979721
 21
70.0454875363
 31
0.0
  0
ARC
  5
4D1
  8
0
  6
CONTINUOUS
 62
     7
 10
127.9997971252
 20
70.045488255
 30
0.0
 40
0.625
 50
0.0
 51
90.0
  0
LINE
  5
4D2
  8
0
  6
CONTINUOUS
 62
     7
 10
127.9997973297
 20
70.6704891696
 30
0.0
 11
124.8747970833
 21
70.6704891696
 31
0.0
  0
ARC
  5
4D3
  8
0
  6
CONTINUOUS
 62
     7
 10
124.8747971252
 20
69.045488255
 30
0.0
 40
0.6250000000000284
 50
90.0
 51
180.0
  0
LINE
  5
4D4
  8
0
  6
CONTINUOUS
 62
     7
 10
128.624797203
 20
69.0454882084
 30
0.0
 11
124.24979721
 21
69.0454882084
 31
0.0
  0
ARC
  5
4D5
  8
0
  6
CONTINUOUS
 62
     7
 10
127.9997971252
 20
69.045488255
 30
0.0
 40
0.625
 50
0.0
 51
90.0
  0
LINE
  5
4D6
  8
0
  6
CONTINUOUS
 62
     7
 10
127.9997973297
 20
69.670487495
 30
0.0
 11
124.8747970833
 21
69.670487495
 31
0.0
  0
ARC
  5
4D7
  8
0
  6
CONTINUOUS
 62
     7
 10
124.8747971252
 20
68.045488255
 30
0.0
 40
0.6250000000000284
 50
90.0
 51
180.0
  0
LINE
  5
4D8
  8
0
  6
CONTINUOUS
 62
     7
 10
128.624797203
 20
68.0454888805
 30
0.0
 11
124.24979721
 21
68.0454888805
 31
0.0
  0
ARC
  5
4D9
  8
0
  6
CONTINUOUS
 62
     7
 10
127.9997971252
 20
68.045488255
 30
0.0
 40
0.625
 50
0.0
 51
90.0
  0
LINE
  5
4DA
  8
0
  6
CONTINUOUS
 62
     7
 10
127.9997973297
 20
68.6704881671
 30
0.0
 11
124.8747970833
 21
68.6704881671
 31
0.0
  0
ARC
  5
4DB
  8
0
  6
CONTINUOUS
 62
     7
 10
124.8747971252
 20
67.045488255
 30
0.0
 40
0.6250000000000284
 50
90.0
 51
180.0
  0
LINE
  5
4DC
  8
0
  6
CONTINUOUS
 62
     7
 10
128.624797203
 20
67.0454872059
 30
0.0
 11
124.24979721
 21
67.0454872059
 31
0.0
  0
ARC
  5
4DD
  8
0
  6
CONTINUOUS
 62
     7
 10
127.9997971252
 20
67.045488255
 30
0.0
 40
0.625
 50
0.0
 51
90.0
  0
LINE
  5
4DE
  8
0
  6
CONTINUOUS
 62
     7
 10
127.9997973297
 20
67.6704888392
 30
0.0
 11
124.8747970833
 21
67.6704888392
 31
0.0
  0
ARC
  5
4DF
  8
0
  6
CONTINUOUS
 62
     7
 10
124.8747971252
 20
66.045488255
 30
0.0
 40
0.6250000000000426
 50
90.0
 51
180.0
  0
LINE
  5
4E0
  8
0
  6
CONTINUOUS
 62
     7
 10
128.624797203
 20
66.045487878
 30
0.0
 11
124.24979721
 21
66.045487878
 31
0.0
  0
ARC
  5
4E1
  8
0
  6
CONTINUOUS
 62
     7
 10
127.9997971252
 20
66.045488255
 30
0.0
 40
0.625
 50
0.0
 51
90.0
  0
LINE
  5
4E2
  8
0
  6
CONTINUOUS
 62
     7
 10
127.9997973297
 20
66.6704883379
 30
0.0
 11
124.8747970833
 21
66.6704883379
 31
0.0
  0
ARC
  5
4E3
  8
0
  6
CONTINUOUS
 62
     7
 10
124.8747971252
 20
65.045488255
 30
0.0
 40
0.6250000000000426
 50
90.0
 51
180.0
  0
LINE
  5
4E4
  8
0
  6
CONTINUOUS
 62
     7
 10
128.624797203
 20
65.0454885501
 30
0.0
 11
124.24979721
 21
65.0454885501
 31
0.0
  0
ARC
  5
4E5
  8
0
  6
CONTINUOUS
 62
     7
 10
127.9997971252
 20
65.045488255
 30
0.0
 40
0.625
 50
0.0
 51
90.0
  0
LINE
  5
4E6
  8
0
  6
CONTINUOUS
 62
     7
 10
127.9997973297
 20
65.6704878367
 30
0.0
 11
124.8747970833
 21
65.6704878367
 31
0.0
  0
ARC
  5
4E7
  8
0
  6
CONTINUOUS
 62
     7
 10
114.6557971252
 20
27.608488255
 30
0.0
 40
0.6250000000000178
 50
90.0
 51
180.0
  0
LINE
  5
4E8
  8
0
  6
CONTINUOUS
 62
     7
 10
118.4057970404
 20
27.6084881721
 30
0.0
 11
114.0307970474
 21
27.6084881721
 31
0.0
  0
ARC
  5
4E9
  8
0
  6
CONTINUOUS
 62
     7
 10
117.7807971252
 20
27.608488255
 30
0.0
 40
0.625
 50
0.0
 51
90.0
  0
LINE
  5
4EA
  8
0
  6
CONTINUOUS
 62
     7
 10
117.7807971671
 20
28.2334886321
 30
0.0
 11
114.6557969207
 21
28.2334886321
 31
0.0
  0
ARC
  5
4EB
  8
0
  6
CONTINUOUS
 62
     7
 10
114.6557971252
 20
26.608488255
 30
0.0
 40
0.6250000000000178
 50
90.0
 51
180.0
  0
LINE
  5
4EC
  8
0
  6
CONTINUOUS
 62
     7
 10
118.4057970404
 20
26.6084876709
 30
0.0
 11
114.0307970474
 21
26.6084876709
 31
0.0
  0
ARC
  5
4ED
  8
0
  6
CONTINUOUS
 62
     7
 10
117.7807971252
 20
26.608488255
 30
0.0
 40
0.6250000000000036
 50
0.0
 51
90.0
  0
LINE
  5
4EE
  8
0
  6
CONTINUOUS
 62
     7
 10
117.7807971671
 20
27.2334893042
 30
0.0
 11
114.6557969207
 21
27.2334893042
 31
0.0
  0
ARC
  5
4EF
  8
0
  6
CONTINUOUS
 62
     7
 10
114.6557971252
 20
25.608488255
 30
0.0
 40
0.6250000000000178
 50
90.0
 51
180.0
  0
LINE
  5
4F0
  8
0
  6
CONTINUOUS
 62
     7
 10
118.4057970404
 20
25.608488343
 30
0.0
 11
114.0307970474
 21
25.608488343
 31
0.0
  0
ARC
  5
4F1
  8
0
  6
CONTINUOUS
 62
     7
 10
117.7807971252
 20
25.608488255
 30
0.0
 40
0.6250000000000036
 50
0.0
 51
90.0
  0
LINE
  5
4F2
  8
0
  6
CONTINUOUS
 62
     7
 10
117.7807971671
 20
26.2334876296
 30
0.0
 11
114.6557969207
 21
26.2334876296
 31
0.0
  0
ARC
  5
4F3
  8
0
  6
CONTINUOUS
 62
     7
 10
114.6557971252
 20
24.608488255
 30
0.0
 40
0.6250000000000142
 50
90.0
 51
180.0
  0
LINE
  5
4F4
  8
0
  6
CONTINUOUS
 62
     7
 10
118.4057970404
 20
24.6084890151
 30
0.0
 11
114.0307970474
 21
24.6084890151
 31
0.0
  0
ARC
  5
4F5
  8
0
  6
CONTINUOUS
 62
     7
 10
117.7807971252
 20
24.608488255
 30
0.0
 40
0.625
 50
0.0
 51
90.0
  0
LINE
  5
4F6
  8
0
  6
CONTINUOUS
 62
     7
 10
117.7807971671
 20
25.2334883017
 30
0.0
 11
114.6557969207
 21
25.2334883017
 31
0.0
  0
ARC
  5
4F7
  8
0
  6
CONTINUOUS
 62
     7
 10
114.6557971252
 20
23.608488255
 30
0.0
 40
0.6250000000000178
 50
90.0
 51
180.0
  0
LINE
  5
4F8
  8
0
  6
CONTINUOUS
 62
     7
 10
118.4057970404
 20
23.6084873405
 30
0.0
 11
114.0307970474
 21
23.6084873405
 31
0.0
  0
ARC
  5
4F9
  8
0
  6
CONTINUOUS
 62
     7
 10
117.7807971252
 20
23.608488255
 30
0.0
 40
0.6250000000000036
 50
0.0
 51
90.0
  0
LINE
  5
4FA
  8
0
  6
CONTINUOUS
 62
     7
 10
117.7807971671
 20
24.2334889738
 30
0.0
 11
114.6557969207
 21
24.2334889738
 31
0.0
  0
ARC
  5
4FB
  8
0
  6
CONTINUOUS
 62
     7
 10
114.6557971252
 20
22.608488255
 30
0.0
 40
0.6250000000000178
 50
90.0
 51
180.0
  0
LINE
  5
4FC
  8
0
  6
CONTINUOUS
 62
     7
 10
118.4057970404
 20
22.6084880126
 30
0.0
 11
114.0307970474
 21
22.6084880126
 31
0.0
  0
ARC
  5
4FD
  8
0
  6
CONTINUOUS
 62
     7
 10
117.7807971252
 20
22.608488255
 30
0.0
 40
0.6250000000000036
 50
0.0
 51
90.0
  0
LINE
  5
4FE
  8
0
  6
CONTINUOUS
 62
     7
 10
117.7807971671
 20
23.2334872992
 30
0.0
 11
114.6557969207
 21
23.2334872992
 31
0.0
  0
ARC
  5
4FF
  8
0
  6
CONTINUOUS
 62
     7
 10
114.6557971252
 20
21.608488255
 30
0.0
 40
0.6250000000000178
 50
90.0
 51
180.0
  0
LINE
  5
500
  8
0
  6
CONTINUOUS
 62
     7
 10
118.4057970404
 20
21.6084886847
 30
0.0
 11
114.0307970474
 21
21.6084886847
 31
0.0
  0
ARC
  5
501
  8
0
  6
CONTINUOUS
 62
     7
 10
117.7807971252
 20
21.608488255
 30
0.0
 40
0.6250000000000036
 50
0.0
 51
90.0
  0
LINE
  5
502
  8
0
  6
CONTINUOUS
 62
     7
 10
117.7807971671
 20
22.2334879713
 30
0.0
 11
114.6557969207
 21
22.2334879713
 31
0.0
  0
ARC
  5
503
  8
0
  6
CONTINUOUS
 62
     7
 10
114.6557971252
 20
20.608488255
 30
0.0
 40
0.6250000000000178
 50
90.0
 51
180.0
  0
LINE
  5
504
  8
0
  6
CONTINUOUS
 62
     7
 10
118.4057970404
 20
20.6084893567
 30
0.0
 11
114.0307970474
 21
20.6084893567
 31
0.0
  0
ARC
  5
505
  8
0
  6
CONTINUOUS
 62
     7
 10
117.7807971252
 20
20.608488255
 30
0.0
 40
0.6250000000000036
 50
0.0
 51
90.0
  0
LINE
  5
506
  8
0
  6
CONTINUOUS
 62
     7
 10
117.7807971671
 20
21.2334886434
 30
0.0
 11
114.6557969207
 21
21.2334886434
 31
0.0
  0
ARC
  5
507
  8
0
  6
CONTINUOUS
 62
     7
 10
114.6557971252
 20
19.608488255
 30
0.0
 40
0.6250000000000142
 50
90.0
 51
180.0
  0
LINE
  5
508
  8
0
  6
CONTINUOUS
 62
     7
 10
118.4057970404
 20
19.6084876822
 30
0.0
 11
114.0307970474
 21
19.6084876822
 31
0.0
  0
ARC
  5
509
  8
0
  6
CONTINUOUS
 62
     7
 10
117.7807971252
 20
19.608488255
 30
0.0
 40
0.625
 50
0.0
 51
90.0
  0
LINE
  5
50A
  8
0
  6
CONTINUOUS
 62
     7
 10
117.7807971671
 20
20.2334893154
 30
0.0
 11
114.6557969207
 21
20.2334893154
 31
0.0
  0
ARC
  5
50B
  8
0
  6
CONTINUOUS
 62
     7
 10
114.6557971252
 20
18.608488255
 30
0.0
 40
0.6250000000000178
 50
90.0
 51
180.0
  0
LINE
  5
50C
  8
0
  6
CONTINUOUS
 62
     7
 10
118.4057970404
 20
18.6084883542
 30
0.0
 11
114.0307970474
 21
18.6084883542
 31
0.0
  0
ARC
  5
50D
  8
0
  6
CONTINUOUS
 62
     7
 10
117.7807971252
 20
18.608488255
 30
0.0
 40
0.6250000000000036
 50
0.0
 51
90.0
  0
LINE
  5
50E
  8
0
  6
CONTINUOUS
 62
     7
 10
117.7807971671
 20
19.2334876409
 30
0.0
 11
114.6557969207
 21
19.2334876409
 31
0.0
  0
ARC
  5
50F
  8
0
  6
CONTINUOUS
 62
     7
 10
114.6557971252
 20
17.608488255
 30
0.0
 40
0.6250000000000178
 50
90.0
 51
180.0
  0
LINE
  5
510
  8
0
  6
CONTINUOUS
 62
     7
 10
118.4057970404
 20
17.6084890263
 30
0.0
 11
114.0307970474
 21
17.6084890263
 31
0.0
  0
ARC
  5
511
  8
0
  6
CONTINUOUS
 62
     7
 10
117.7807971252
 20
17.608488255
 30
0.0
 40
0.6250000000000036
 50
0.0
 51
90.0
  0
LINE
  5
512
  8
0
  6
CONTINUOUS
 62
     7
 10
117.7807971671
 20
18.2334883129
 30
0.0
 11
114.6557969207
 21
18.2334883129
 31
0.0
  0
ARC
  5
513
  8
0
  6
CONTINUOUS
 62
     7
 10
114.6557971252
 20
16.608488255
 30
0.0
 40
0.6250000000000178
 50
90.0
 51
180.0
  0
LINE
  5
514
  8
0
  6
CONTINUOUS
 62
     7
 10
118.4057970404
 20
16.6084873518
 30
0.0
 11
114.0307970474
 21
16.6084873518
 31
0.0
  0
ARC
  5
515
  8
0
  6
CONTINUOUS
 62
     7
 10
117.7807971252
 20
16.608488255
 30
0.0
 40
0.6250000000000036
 50
0.0
 51
90.0
  0
LINE
  5
516
  8
0
  6
CONTINUOUS
 62
     7
 10
117.7807971671
 20
17.233488985
 30
0.0
 11
114.6557969207
 21
17.233488985
 31
0.0
  0
ARC
  5
517
  8
0
  6
CONTINUOUS
 62
     7
 10
114.6557971252
 20
15.608488255
 30
0.0
 40
0.6250000000000178
 50
90.0
 51
180.0
  0
LINE
  5
518
  8
0
  6
CONTINUOUS
 62
     7
 10
118.4057970404
 20
15.6084880238
 30
0.0
 11
114.0307970474
 21
15.6084880238
 31
0.0
  0
ARC
  5
519
  8
0
  6
CONTINUOUS
 62
     7
 10
117.7807971252
 20
15.608488255
 30
0.0
 40
0.6250000000000036
 50
0.0
 51
90.0
  0
LINE
  5
51A
  8
0
  6
CONTINUOUS
 62
     7
 10
117.7807971671
 20
16.2334873105
 30
0.0
 11
114.6557969207
 21
16.2334873105
 31
0.0
  0
ARC
  5
51B
  8
0
  6
CONTINUOUS
 62
     7
 10
114.6557971252
 20
14.608488255
 30
0.0
 40
0.6250000000000213
 50
90.0
 51
180.0
  0
LINE
  5
51C
  8
0
  6
CONTINUOUS
 62
     7
 10
118.4057970404
 20
14.6084886959
 30
0.0
 11
114.0307970474
 21
14.6084886959
 31
0.0
  0
ARC
  5
51D
  8
0
  6
CONTINUOUS
 62
     7
 10
117.7807971252
 20
14.608488255
 30
0.0
 40
0.6250000000000071
 50
0.0
 51
90.0
  0
LINE
  5
51E
  8
0
  6
CONTINUOUS
 62
     7
 10
117.7807971671
 20
15.2334879825
 30
0.0
 11
114.6557969207
 21
15.2334879825
 31
0.0
  0
LINE
  5
51F
  8
0
  6
CONTINUOUS
 62
     7
 10
130.7337972663
 20
76.5609885887
 30
0.0
 11
130.7337972663
 21
77.9989881901
 31
0.0
  0
LINE
  5
520
  8
0
  6
CONTINUOUS
 62
     7
 10
130.8117972185
 20
77.9989881901
 30
0.0
 11
130.7337972663
 21
77.9989881901
 31
0.0
  0
LINE
  5
521
  8
0
  6
CONTINUOUS
 62
     7
 10
130.8117972185
 20
76.5609885887
 30
0.0
 11
130.8117972185
 21
77.9989881901
 31
0.0
  0
LINE
  5
522
  8
0
  6
CONTINUOUS
 62
     7
 10
130.8117972185
 20
76.5609885887
 30
0.0
 11
130.7337972663
 21
76.5609885887
 31
0.0
  0
LINE
  5
523
  8
0
  6
CONTINUOUS
 62
     7
 10
130.8117972185
 20
76.5609885887
 30
0.0
 11
130.8267969386
 21
76.5609885887
 31
0.0
  0
LINE
  5
524
  8
0
  6
CONTINUOUS
 62
     7
 10
130.9072972353
 20
78.0609887539
 30
0.0
 11
131.0807972044
 21
78.0609887539
 31
0.0
  0
LINE
  5
525
  8
0
  6
CONTINUOUS
 62
     7
 10
130.8267969386
 20
76.5609885887
 30
0.0
 11
130.8267969386
 21
78.0609887539
 31
0.0
  0
LINE
  5
526
  8
0
  6
CONTINUOUS
 62
     7
 10
130.9072972353
 20
78.0609887539
 30
0.0
 11
130.8267969386
 21
78.0609887539
 31
0.0
  0
LINE
  5
527
  8
0
  6
CONTINUOUS
 62
     7
 10
130.9072972353
 20
76.5609885887
 30
0.0
 11
130.8267969386
 21
76.5609885887
 31
0.0
  0
LINE
  5
528
  8
0
  6
CONTINUOUS
 62
     7
 10
130.8117972185
 20
77.9989881901
 30
0.0
 11
130.8117972185
 21
78.0609887539
 31
0.0
  0
LINE
  5
529
  8
0
  6
CONTINUOUS
 62
     7
 10
130.8117972185
 20
78.0609887539
 30
0.0
 11
130.812796887
 21
78.0609887539
 31
0.0
  0
LINE
  5
52A
  8
0
  6
CONTINUOUS
 62
     7
 10
130.8267969386
 20
78.8109888365
 30
0.0
 11
130.812796887
 21
78.8109888365
 31
0.0
  0
LINE
  5
52B
  8
0
  6
CONTINUOUS
 62
     7
 10
130.8117972185
 20
13.842989059
 30
0.0
 11
130.8117972185
 21
15.2809886605
 31
0.0
  0
LINE
  5
52C
  8
0
  6
CONTINUOUS
 62
     7
 10
130.8117972185
 20
13.842989059
 30
0.0
 11
130.7337972663
 21
13.842989059
 31
0.0
  0
LINE
  5
52D
  8
0
  6
CONTINUOUS
 62
     7
 10
130.7337972663
 20
13.842989059
 30
0.0
 11
130.7337972663
 21
15.2809886605
 31
0.0
  0
LINE
  5
52E
  8
0
  6
CONTINUOUS
 62
     7
 10
130.8117972185
 20
15.2809886605
 30
0.0
 11
130.7337972663
 21
15.2809886605
 31
0.0
  0
LINE
  5
52F
  8
0
  6
CONTINUOUS
 62
     7
 10
130.9072972353
 20
15.3429892242
 30
0.0
 11
131.0807972044
 21
15.3429892242
 31
0.0
  0
LINE
  5
530
  8
0
  6
CONTINUOUS
 62
     7
 10
130.8267969386
 20
13.842989059
 30
0.0
 11
130.8267969386
 21
15.3429892242
 31
0.0
  0
LINE
  5
531
  8
0
  6
CONTINUOUS
 62
     7
 10
130.9072972353
 20
15.3429892242
 30
0.0
 11
130.8267969386
 21
15.3429892242
 31
0.0
  0
LINE
  5
532
  8
0
  6
CONTINUOUS
 62
     7
 10
130.9072972353
 20
13.842989059
 30
0.0
 11
130.8267969386
 21
13.842989059
 31
0.0
  0
LINE
  5
533
  8
0
  6
CONTINUOUS
 62
     7
 10
130.8117972185
 20
13.842989059
 30
0.0
 11
130.8267969386
 21
13.842989059
 31
0.0
  0
LINE
  5
534
  8
0
  6
CONTINUOUS
 62
     7
 10
130.8117972185
 20
15.2809886605
 30
0.0
 11
130.8117972185
 21
15.3429892242
 31
0.0
  0
LINE
  5
535
  8
0
  6
CONTINUOUS
 62
     7
 10
130.8117972185
 20
15.3429892242
 30
0.0
 11
130.812796887
 21
15.3429892242
 31
0.0
  0
LINE
  5
536
  8
0
  6
CONTINUOUS
 62
     7
 10
130.8267969386
 20
16.4229878413
 30
0.0
 11
130.812796887
 21
16.4229878413
 31
0.0
  0
ARC
  5
537
  8
0
  6
CONTINUOUS
 62
     7
 10
112.9227971252
 20
47.138988255
 30
0.0
 40
0.3119999999999834
 50
270.0
 51
0.0000000001
  0
LINE
  5
538
  8
0
  6
CONTINUOUS
 62
     7
 10
112.9227971538
 20
46.8269882451
 30
0.0
 11
112.4300145798
 21
46.8269882451
 31
0.0
  0
LINE
  5
539
  8
0
  6
CONTINUOUS
 62
     7
 10
112.4300145798
 20
47.451988265
 30
0.0
 11
112.4300145798
 21
46.8269882451
 31
0.0
  0
LINE
  5
53A
  8
0
  6
CONTINUOUS
 62
     7
 10
112.9227971538
 20
47.451988265
 30
0.0
 11
112.4300145798
 21
47.451988265
 31
0.0
  0
LINE
  5
53B
  8
0
  6
CONTINUOUS
 62
     7
 10
113.2347969629
 20
47.139988255
 30
0.0
 11
113.2347969629
 21
47.138988255
 31
0.0
  0
ARC
  5
53C
  8
0
  6
CONTINUOUS
 62
     7
 10
112.9227971252
 20
47.139988255
 30
0.0
 40
0.3119999999999976
 50
0.0000000001
 51
90.0
  0
LINE
  5
53D
  8
0
  6
CONTINUOUS
 62
     7
 10
112.2100141879
 20
47.451988265
 30
0.0
 11
112.2100141879
 21
46.8269882451
 31
0.0
  0
LINE
  5
53E
  8
0
  6
CONTINUOUS
 62
     7
 10
112.4300145798
 20
46.8269882451
 30
0.0
 11
112.2100141879
 21
46.8269882451
 31
0.0
  0
LINE
  5
53F
  8
0
  6
CONTINUOUS
 62
     7
 10
112.4300145798
 20
47.451988265
 30
0.0
 11
112.2100141879
 21
47.451988265
 31
0.0
  0
ARC
  5
540
  8
0
  6
CONTINUOUS
 62
     7
 10
111.7337971252
 20
47.138988255
 30
0.0
 40
0.311999999999955
 50
180.0
 51
270.0
  0
LINE
  5
541
  8
0
  6
CONTINUOUS
 62
     7
 10
111.4217973201
 20
47.139988255
 30
0.0
 11
111.4217973201
 21
47.138988255
 31
0.0
  0
ARC
  5
542
  8
0
  6
CONTINUOUS
 62
     7
 10
111.7337971252
 20
47.139988255
 30
0.0
 40
0.3119999999999692
 50
90.0
 51
180.0
  0
LINE
  5
543
  8
0
  6
CONTINUOUS
 62
     7
 10
112.2100141879
 20
46.8269882451
 30
0.0
 11
111.7337971292
 21
46.8269882451
 31
0.0
  0
LINE
  5
544
  8
0
  6
CONTINUOUS
 62
     7
 10
112.2100141879
 20
47.451988265
 30
0.0
 11
111.7337971292
 21
47.451988265
 31
0.0
  0
ARC
  5
545
  8
0
  6
CONTINUOUS
 62
     7
 10
112.9217971252
 20
47.139488255
 30
0.0
 40
0.3589999999999959
 50
330.5137143289
 51
29.4862856711
  0
LINE
  5
546
  8
0
  6
CONTINUOUS
 62
     7
 10
112.9217968987
 20
47.5924882486
 30
0.0
 11
112.6784439233
 21
47.451988265
 31
0.0
  0
LINE
  5
547
  8
0
  6
CONTINUOUS
 62
     7
 10
113.31410634
 20
47.3659882518
 30
0.0
 11
112.9217968987
 21
47.5924882486
 31
0.0
  0
LINE
  5
548
  8
0
  6
CONTINUOUS
 62
     7
 10
113.31410634
 20
46.9129882582
 30
0.0
 11
113.31410634
 21
47.3659882518
 31
0.0
  0
LINE
  5
549
  8
0
  6
CONTINUOUS
 62
     7
 10
112.9217968987
 20
46.6864882615
 30
0.0
 11
113.31410634
 21
46.9129882582
 31
0.0
  0
LINE
  5
54A
  8
0
  6
CONTINUOUS
 62
     7
 10
112.6784439233
 20
46.8269882451
 30
0.0
 11
112.9217968987
 21
46.6864882615
 31
0.0
  0
CIRCLE
  5
54B
  8
0
  6
CONTINUOUS
 62
     7
 10
112.9217971252
 20
47.139488255
 30
0.0
 40
0.2339999999999947
  0
LINE
  5
54C
  8
0
  6
CONTINUOUS
 62
     7
 10
112.7873391453
 20
47.1784882541
 30
0.0
 11
112.7027973486
 21
47.1784882541
 31
0.0
  0
LINE
  5
54D
  8
0
  6
CONTINUOUS
 62
     7
 10
112.7027973486
 20
47.1784882541
 30
0.0
 11
112.7027973486
 21
47.100488256
 31
0.0
  0
LINE
  5
54E
  8
0
  6
CONTINUOUS
 62
     7
 10
112.7027973486
 20
47.100488256
 30
0.0
 11
112.7873391453
 21
47.100488256
 31
0.0
  0
LINE
  5
54F
  8
0
  6
CONTINUOUS
 62
     7
 10
112.8987968977
 20
47.0013904604
 30
0.0
 11
112.8987968977
 21
46.9989882531
 31
0.0
  0
LINE
  5
550
  8
0
  6
CONTINUOUS
 62
     7
 10
112.8987968977
 20
46.9989882531
 30
0.0
 11
112.9447968997
 21
46.9989882531
 31
0.0
  0
LINE
  5
551
  8
0
  6
CONTINUOUS
 62
     7
 10
112.9447968997
 20
46.9989882531
 30
0.0
 11
112.9447968997
 21
47.0013904604
 31
0.0
  0
LINE
  5
552
  8
0
  6
CONTINUOUS
 62
     7
 10
113.0562552387
 20
47.100488256
 30
0.0
 11
113.1407970354
 21
47.100488256
 31
0.0
  0
LINE
  5
553
  8
0
  6
CONTINUOUS
 62
     7
 10
113.1407970354
 20
47.100488256
 30
0.0
 11
113.1407970354
 21
47.1784882541
 31
0.0
  0
LINE
  5
554
  8
0
  6
CONTINUOUS
 62
     7
 10
113.1407970354
 20
47.1784882541
 30
0.0
 11
113.0562552387
 21
47.1784882541
 31
0.0
  0
LINE
  5
555
  8
0
  6
CONTINUOUS
 62
     7
 10
112.9447968997
 20
47.2775860497
 30
0.0
 11
112.9447968997
 21
47.279988257
 31
0.0
  0
LINE
  5
556
  8
0
  6
CONTINUOUS
 62
     7
 10
112.9447968997
 20
47.279988257
 30
0.0
 11
112.8987968977
 21
47.279988257
 31
0.0
  0
LINE
  5
557
  8
0
  6
CONTINUOUS
 62
     7
 10
112.8987968977
 20
47.279988257
 30
0.0
 11
112.8987968977
 21
47.2775860497
 31
0.0
  0
LINE
  5
558
  8
0
  6
CONTINUOUS
 62
     7
 10
112.9757971815
 20
47.100488256
 30
0.0
 11
112.9447968997
 21
47.0694882537
 31
0.0
  0
LINE
  5
559
  8
0
  6
CONTINUOUS
 62
     7
 10
112.9447968997
 20
47.0013904604
 30
0.0
 11
112.9447968997
 21
47.0694882537
 31
0.0
  0
LINE
  5
55A
  8
0
  6
CONTINUOUS
 62
     7
 10
112.9757971815
 20
47.100488256
 30
0.0
 11
113.0562552387
 21
47.100488256
 31
0.0
  0
LINE
  5
55B
  8
0
  6
CONTINUOUS
 62
     7
 10
112.9447968997
 20
47.2094882564
 30
0.0
 11
112.9757971815
 21
47.1784882541
 31
0.0
  0
LINE
  5
55C
  8
0
  6
CONTINUOUS
 62
     7
 10
112.9447968997
 20
47.2094882564
 30
0.0
 11
112.9447968997
 21
47.2775860497
 31
0.0
  0
LINE
  5
55D
  8
0
  6
CONTINUOUS
 62
     7
 10
113.0562552387
 20
47.1784882541
 30
0.0
 11
112.9757971815
 21
47.1784882541
 31
0.0
  0
LINE
  5
55E
  8
0
  6
CONTINUOUS
 62
     7
 10
112.8987968977
 20
47.0694882537
 30
0.0
 11
112.8677972025
 21
47.100488256
 31
0.0
  0
LINE
  5
55F
  8
0
  6
CONTINUOUS
 62
     7
 10
112.8987968977
 20
47.0694882537
 30
0.0
 11
112.8987968977
 21
47.0013904604
 31
0.0
  0
LINE
  5
560
  8
0
  6
CONTINUOUS
 62
     7
 10
112.7873391453
 20
47.100488256
 30
0.0
 11
112.8677972025
 21
47.100488256
 31
0.0
  0
LINE
  5
561
  8
0
  6
CONTINUOUS
 62
     7
 10
112.8677972025
 20
47.1784882541
 30
0.0
 11
112.8987968977
 21
47.2094882564
 31
0.0
  0
LINE
  5
562
  8
0
  6
CONTINUOUS
 62
     7
 10
112.8987968977
 20
47.2775860497
 30
0.0
 11
112.8987968977
 21
47.2094882564
 31
0.0
  0
LINE
  5
563
  8
0
  6
CONTINUOUS
 62
     7
 10
112.8677972025
 20
47.1784882541
 30
0.0
 11
112.7873391453
 21
47.1784882541
 31
0.0
  0
LINE
  5
564
  8
0
  6
CONTINUOUS
 62
     7
 10
113.0937973651
 20
47.3114882631
 30
0.0
 11
113.0804537859
 21
47.3114882631
 31
0.0
  0
LINE
  5
565
  8
0
  6
CONTINUOUS
 62
     7
 10
112.7631400115
 20
47.3114882631
 30
0.0
 11
112.749797019
 21
47.3114882631
 31
0.0
  0
LINE
  5
566
  8
0
  6
CONTINUOUS
 62
     7
 10
112.749797019
 20
46.967488247
 30
0.0
 11
112.7631400115
 21
46.967488247
 31
0.0
  0
LINE
  5
567
  8
0
  6
CONTINUOUS
 62
     7
 10
113.0804537859
 20
46.967488247
 30
0.0
 11
113.0937973651
 21
46.967488247
 31
0.0
  0
LINE
  5
568
  8
0
  6
CONTINUOUS
 62
     7
 10
112.749797019
 20
47.3114882631
 30
0.0
 11
112.749797019
 21
47.2981451239
 31
0.0
  0
LINE
  5
569
  8
0
  6
CONTINUOUS
 62
     7
 10
112.749797019
 20
46.9808313862
 30
0.0
 11
112.749797019
 21
46.967488247
 31
0.0
  0
LINE
  5
56A
  8
0
  6
CONTINUOUS
 62
     7
 10
113.0937973651
 20
46.967488247
 30
0.0
 11
113.0937973651
 21
46.9808313862
 31
0.0
  0
LINE
  5
56B
  8
0
  6
CONTINUOUS
 62
     7
 10
113.0937973651
 20
47.2981451239
 30
0.0
 11
113.0937973651
 21
47.3114882631
 31
0.0
  0
ARC
  5
56C
  8
0
  6
CONTINUOUS
 62
     7
 10
112.9217971252
 20
47.139488255
 30
0.0
 40
0.3670000000000003
 50
31.6249544882
 51
121.6249544884
  0
LINE
  5
56D
  8
0
  6
CONTINUOUS
 62
     7
 10
113.2342971287
 20
46.9470493098
 30
0.0
 11
113.2342971287
 21
47.1213318109
 31
0.0
  0
LINE
  5
56E
  8
0
  6
CONTINUOUS
 62
     7
 10
113.2342971287
 20
47.1576446991
 30
0.0
 11
113.2342971287
 21
47.3319272003
 31
0.0
  0
ARC
  5
56F
  8
0
  6
CONTINUOUS
 62
     7
 10
112.9217971252
 20
47.139488255
 30
0.0
 40
0.3669999999999987
 50
238.3750455118
 51
328.3750455118
  0
LINE
  5
570
  8
0
  6
CONTINUOUS
 62
     7
 10
130.7337972663
 20
79.5609889191
 30
0.0
 11
130.7337972663
 21
78.0609887539
 31
0.0
  0
LINE
  5
571
  8
0
  6
CONTINUOUS
 62
     7
 10
130.8117972185
 20
79.5609889191
 30
0.0
 11
130.7337972663
 21
79.5609889191
 31
0.0
  0
LINE
  5
572
  8
0
  6
CONTINUOUS
 62
     7
 10
130.8117972185
 20
79.5609889191
 30
0.0
 11
130.8117972185
 21
78.0609887539
 31
0.0
  0
LINE
  5
573
  8
0
  6
CONTINUOUS
 62
     7
 10
130.8117972185
 20
78.0609887539
 30
0.0
 11
130.7337972663
 21
78.0609887539
 31
0.0
  0
LINE
  5
574
  8
0
  6
CONTINUOUS
 62
     7
 10
130.9072972353
 20
79.5609889191
 30
0.0
 11
130.8267969386
 21
79.5609889191
 31
0.0
  0
LINE
  5
575
  8
0
  6
CONTINUOUS
 62
     7
 10
130.8267969386
 20
79.5609889191
 30
0.0
 11
130.8267969386
 21
78.0609887539
 31
0.0
  0
LINE
  5
576
  8
0
  6
CONTINUOUS
 62
     7
 10
130.8117972185
 20
79.5609889191
 30
0.0
 11
130.8267969386
 21
79.5609889191
 31
0.0
  0
LINE
  5
577
  8
0
  6
CONTINUOUS
 62
     7
 10
130.7337972663
 20
16.8429893894
 30
0.0
 11
130.7337972663
 21
15.3429892242
 31
0.0
  0
LINE
  5
578
  8
0
  6
CONTINUOUS
 62
     7
 10
130.8117972185
 20
16.8429893894
 30
0.0
 11
130.7337972663
 21
16.8429893894
 31
0.0
  0
LINE
  5
579
  8
0
  6
CONTINUOUS
 62
     7
 10
130.8117972185
 20
16.8429893894
 30
0.0
 11
130.8117972185
 21
15.3429892242
 31
0.0
  0
LINE
  5
57A
  8
0
  6
CONTINUOUS
 62
     7
 10
130.8117972185
 20
15.3429892242
 30
0.0
 11
130.7337972663
 21
15.3429892242
 31
0.0
  0
LINE
  5
57B
  8
0
  6
CONTINUOUS
 62
     7
 10
130.9072972353
 20
16.8429893894
 30
0.0
 11
130.8267969386
 21
16.8429893894
 31
0.0
  0
LINE
  5
57C
  8
0
  6
CONTINUOUS
 62
     7
 10
130.8267969386
 20
16.8429893894
 30
0.0
 11
130.8267969386
 21
15.3429892242
 31
0.0
  0
LINE
  5
57D
  8
0
  6
CONTINUOUS
 62
     7
 10
130.8117972185
 20
16.8429893894
 30
0.0
 11
130.8267969386
 21
16.8429893894
 31
0.0
  0
INSERT
  5
58C
  8
0
  6
CONTINUOUS
 62
     7
  2
SW_NOTE_8
 10
121.3044725744
 20
15.871245539
 30
0.0
  0
ARC
  5
58D
  8
0
  6
CONTINUOUS
 62
     7
 10
72.6911558949
 20
94.6352915649
 30
0.0
 40
0.094000000000016
 50
147.1951542182
 51
180.0
  0
ARC
  5
58E
  8
0
  6
CONTINUOUS
 62
     7
 10
72.9711558949
 20
94.6352915649
 30
0.0
 40
0.0940000000000034
 50
0.0
 51
32.7829057558
  0
LINE
  5
58F
  8
0
  6
CONTINUOUS
 62
     7
 10
73.0651559783
 20
94.541291588
 30
0.0
 11
73.0651559783
 21
94.6352915887
 31
0.0
  0
LINE
  5
590
  8
0
  6
CONTINUOUS
 62
     7
 10
72.597155678
 20
94.6352915887
 30
0.0
 11
72.597155678
 21
94.541291588
 31
0.0
  0
LINE
  5
591
  8
0
  6
CONTINUOUS
 62
     7
 10
72.9261557173
 20
94.5092915643
 30
0.0
 11
72.9261557173
 21
94.541291588
 31
0.0
  0
LINE
  5
592
  8
0
  6
CONTINUOUS
 62
     7
 10
72.7361559389
 20
94.541291588
 30
0.0
 11
72.7361559389
 21
94.5092915643
 31
0.0
  0
ARC
  5
593
  8
0
  6
CONTINUOUS
 62
     7
 10
73.1371565871
 20
93.8784670148
 30
0.0
 40
0.8327572805799166
 50
203.9595289398
 51
222.0882061718
  0
ARC
  5
594
  8
0
  6
CONTINUOUS
 62
     7
 10
72.5251552028
 20
93.8784670148
 30
0.0
 40
0.8327572805799036
 50
317.9117938282
 51
336.0404710602
  0
LINE
  5
595
  8
0
  6
CONTINUOUS
 62
     7
 10
73.7591558544
 20
94.2442915723
 30
0.0
 11
73.7591558544
 21
93.5862915669
 31
0.0
  0
LINE
  5
596
  8
0
  6
CONTINUOUS
 62
     7
 10
55.0911559354
 20
94.2442915723
 30
0.0
 11
55.0911559354
 21
93.5862915669
 31
0.0
  0
LINE
  5
597
  8
0
  6
CONTINUOUS
 62
     7
 10
55.0911559354
 20
94.2902915742
 30
0.0
 11
55.0911559354
 21
94.2442915723
 31
0.0
  0
LINE
  5
598
  8
0
  6
CONTINUOUS
 62
     7
 10
55.0911559354
 20
94.2902915742
 30
0.0
 11
73.7591558544
 21
94.2902915742
 31
0.0
  0
LINE
  5
599
  8
0
  6
CONTINUOUS
 62
     7
 10
73.7591558544
 20
94.2902915742
 30
0.0
 11
73.7591558544
 21
94.2442915723
 31
0.0
  0
LINE
  5
59A
  8
0
  6
CONTINUOUS
 62
     7
 10
73.7591558544
 20
93.5402915649
 30
0.0
 11
55.0911559354
 21
93.5402915649
 31
0.0
  0
LINE
  5
59B
  8
0
  6
CONTINUOUS
 62
     7
 10
55.0911559354
 20
93.5862915669
 30
0.0
 11
55.0911559354
 21
93.5523062735
 31
0.0
  0
LINE
  5
59C
  8
0
  6
CONTINUOUS
 62
     7
 10
73.7591558544
 20
93.5862915669
 30
0.0
 11
73.7591558544
 21
93.5523062735
 31
0.0
  0
LINE
  5
59D
  8
0
  6
CONTINUOUS
 62
     7
 10
55.0191557539
 20
93.5862915669
 30
0.0
 11
55.0191557539
 21
94.2442915723
 31
0.0
  0
LINE
  5
59E
  8
0
  6
CONTINUOUS
 62
     7
 10
55.0501560357
 20
93.5862915669
 30
0.0
 11
55.0501560357
 21
94.2442915723
 31
0.0
  0
LINE
  5
59F
  8
0
  6
CONTINUOUS
 62
     7
 10
55.0191557539
 20
94.2442915723
 30
0.0
 11
55.0501560357
 21
94.2442915723
 31
0.0
  0
LINE
  5
5A0
  8
0
  6
CONTINUOUS
 62
     7
 10
73.831156036
 20
93.5862915669
 30
0.0
 11
73.831156036
 21
94.2442915723
 31
0.0
  0
LINE
  5
5A1
  8
0
  6
CONTINUOUS
 62
     7
 10
73.831156036
 20
94.2442915723
 30
0.0
 11
73.8001557541
 21
94.2442915723
 31
0.0
  0
LINE
  5
5A2
  8
0
  6
CONTINUOUS
 62
     7
 10
73.8001557541
 20
93.5862915669
 30
0.0
 11
73.8001557541
 21
94.2442915723
 31
0.0
  0
LINE
  5
5A3
  8
0
  6
CONTINUOUS
 62
     7
 10
73.7851560341
 20
93.5402915649
 30
0.0
 11
73.7591558544
 21
93.5402915649
 31
0.0
  0
LINE
  5
5A4
  8
0
  6
CONTINUOUS
 62
     7
 10
73.7851560341
 20
93.571291565
 30
0.0
 11
73.7591558544
 21
93.571291565
 31
0.0
  0
LINE
  5
5A5
  8
0
  6
CONTINUOUS
 62
     7
 10
73.7591558544
 20
93.5523062735
 30
0.0
 11
73.7591558544
 21
93.5402915649
 31
0.0
  0
ARC
  5
5A6
  8
0
  6
CONTINUOUS
 62
     7
 10
73.7851558949
 20
93.5862915649
 30
0.0
 40
0.0460000000000065
 50
270.0
 51
0.0
  0
ARC
  5
5A7
  8
0
  6
CONTINUOUS
 62
     7
 10
73.7851558949
 20
93.5862915649
 30
0.0
 40
0.0150000000000006
 50
270.0
 51
0.0
  0
ARC
  5
5A8
  8
0
  6
CONTINUOUS
 62
     7
 10
55.0651558949
 20
93.5862915649
 30
0.0
 40
0.0150000000000077
 50
180.0
 51
270.0
  0
ARC
  5
5A9
  8
0
  6
CONTINUOUS
 62
     7
 10
55.0651558949
 20
93.5862915649
 30
0.0
 40
0.0460000000000065
 50
180.0
 51
270.0
  0
LINE
  5
5AA
  8
0
  6
CONTINUOUS
 62
     7
 10
55.0651557558
 20
93.5402915649
 30
0.0
 11
55.0911559354
 21
93.5402915649
 31
0.0
  0
LINE
  5
5AB
  8
0
  6
CONTINUOUS
 62
     7
 10
55.0911559354
 20
93.5523062735
 30
0.0
 11
55.0911559354
 21
93.5402915649
 31
0.0
  0
LINE
  5
5AC
  8
0
  6
CONTINUOUS
 62
     7
 10
55.0651557558
 20
93.571291565
 30
0.0
 11
55.0911559354
 21
93.571291565
 31
0.0
  0
LINE
  5
5AD
  8
0
  6
CONTINUOUS
 62
     7
 10
73.7851560341
 20
94.2592915857
 30
0.0
 11
73.7851560341
 21
94.2902915742
 31
0.0
  0
ARC
  5
5AE
  8
0
  6
CONTINUOUS
 62
     7
 10
73.7851557536
 20
94.2442915852
 30
0.0
 40
0.0150000005108026
 50
359.9999508133
 51
89.9989287391
  0
ARC
  5
5AF
  8
0
  6
CONTINUOUS
 62
     7
 10
73.7851556714
 20
94.2442912096
 30
0.0
 40
0.0460003645878912
 50
0.0004516977
 51
89.9995483023
  0
ARC
  5
5B0
  8
0
  6
CONTINUOUS
 62
     7
 10
55.0651560363
 20
94.2442915852
 30
0.0
 40
0.0150000005107797
 50
90.001071261
 51
180.0000491868
  0
LINE
  5
5B1
  8
0
  6
CONTINUOUS
 62
     7
 10
55.0651557558
 20
94.2592915857
 30
0.0
 11
55.0651557558
 21
94.2902915742
 31
0.0
  0
ARC
  5
5B2
  8
0
  6
CONTINUOUS
 62
     7
 10
55.0651561184
 20
94.2442912096
 30
0.0
 40
0.046000364587877
 50
90.0004516977
 51
179.9995483023
  0
LINE
  5
5B3
  8
0
  6
CONTINUOUS
 62
     7
 10
73.7851560341
 20
94.2902915742
 30
0.0
 11
73.7591558544
 21
94.2902915742
 31
0.0
  0
LINE
  5
5B4
  8
0
  6
CONTINUOUS
 62
     7
 10
73.7851560341
 20
94.2592915857
 30
0.0
 11
73.7591558544
 21
94.2592915857
 31
0.0
  0
LINE
  5
5B5
  8
0
  6
CONTINUOUS
 62
     7
 10
55.0651557558
 20
94.2592915857
 30
0.0
 11
55.0911559354
 21
94.2592915857
 31
0.0
  0
LINE
  5
5B6
  8
0
  6
CONTINUOUS
 62
     7
 10
55.0651557558
 20
94.2902915742
 30
0.0
 11
55.0911559354
 21
94.2902915742
 31
0.0
  0
LINE
  5
5B7
  8
0
  6
CONTINUOUS
 62
     7
 10
67.972155853
 20
93.2282915725
 30
0.0
 11
71.0971560994
 21
93.2282915725
 31
0.0
  0
LINE
  5
5B8
  8
0
  6
CONTINUOUS
 62
     7
 10
61.1901560393
 20
93.2282915725
 30
0.0
 11
60.8781559369
 21
93.2282915725
 31
0.0
  0
ARC
  5
5B9
  8
0
  6
CONTINUOUS
 62
     7
 10
61.1901558949
 20
93.5722931675
 30
0.0
 40
0.3440016025641125
 50
270.0
 51
354.6622000096
  0
LINE
  5
5BA
  8
0
  6
CONTINUOUS
 62
     7
 10
57.7531556905
 20
93.2282915725
 30
0.0
 11
60.8781559369
 21
93.2282915725
 31
0.0
  0
LINE
  5
5BB
  8
0
  6
CONTINUOUS
 62
     7
 10
71.4091559085
 20
93.2282915725
 30
0.0
 11
71.0971560994
 21
93.2282915725
 31
0.0
  0
ARC
  5
5BC
  8
0
  6
CONTINUOUS
 62
     7
 10
71.4091558949
 20
93.5722931675
 30
0.0
 40
0.3440016025641057
 50
270.0
 51
354.6622000096
  0
LINE
  5
5BD
  8
0
  6
CONTINUOUS
 62
     7
 10
57.4411558814
 20
93.2282915725
 30
0.0
 11
57.7531556905
 21
93.2282915725
 31
0.0
  0
ARC
  5
5BE
  8
0
  6
CONTINUOUS
 62
     7
 10
57.4411558949
 20
93.5722931675
 30
0.0
 40
0.3440016025641057
 50
185.3377999904
 51
270.0
  0
LINE
  5
5BF
  8
0
  6
CONTINUOUS
 62
     7
 10
67.6601557506
 20
93.2282915725
 30
0.0
 11
67.972155853
 21
93.2282915725
 31
0.0
  0
ARC
  5
5C0
  8
0
  6
CONTINUOUS
 62
     7
 10
67.6601558949
 20
93.5722931675
 30
0.0
 40
0.3440016025641057
 50
185.3377999904
 51
270.0
  0
LINE
  5
5C1
  8
0
  6
CONTINUOUS
 62
     7
 10
74.3311557
 20
94.3802915812
 30
0.0
 11
74.3311557
 21
94.2902915742
 31
0.0
  0
LINE
  5
5C2
  8
0
  6
CONTINUOUS
 62
     7
 10
74.3311557
 20
94.2902915742
 30
0.0
 11
74.0191558909
 21
94.2902915742
 31
0.0
  0
LINE
  5
5C3
  8
0
  6
CONTINUOUS
 62
     7
 10
74.0191558909
 20
94.3802915812
 30
0.0
 11
74.3311557
 21
94.3802915812
 31
0.0
  0
LINE
  5
5C4
  8
0
  6
CONTINUOUS
 62
     7
 10
73.5429388322
 20
94.3802915812
 30
0.0
 11
74.0191558909
 21
94.3802915812
 31
0.0
  0
LINE
  5
5C5
  8
0
  6
CONTINUOUS
 62
     7
 10
73.2991558351
 20
94.4152915635
 30
0.0
 11
73.5191556403
 21
94.2902915742
 31
0.0
  0
LINE
  5
5C6
  8
0
  6
CONTINUOUS
 62
     7
 10
73.023594645
 20
94.4152915635
 30
0.0
 11
73.2991558351
 21
94.4152915635
 31
0.0
  0
LINE
  5
5C7
  8
0
  6
CONTINUOUS
 62
     7
 10
72.8301558663
 20
94.5052915705
 30
0.0
 11
73.3229384403
 21
94.5052915705
 31
0.0
  0
LINE
  5
5C8
  8
0
  6
CONTINUOUS
 62
     7
 10
73.3229384403
 20
94.5052915705
 30
0.0
 11
73.5429388322
 21
94.3802915812
 31
0.0
  0
LINE
  5
5C9
  8
0
  6
CONTINUOUS
 62
     7
 10
73.7851560341
 20
94.2902915742
 30
0.0
 11
74.0191558909
 21
94.2902915742
 31
0.0
  0
LINE
  5
5CA
  8
0
  6
CONTINUOUS
 62
     7
 10
72.5181560572
 20
94.4152915635
 30
0.0
 11
72.5181560572
 21
94.5052915705
 31
0.0
  0
LINE
  5
5CB
  8
0
  6
CONTINUOUS
 62
     7
 10
72.5181560572
 20
94.5052915705
 30
0.0
 11
72.8301558663
 21
94.5052915705
 31
0.0
  0
LINE
  5
5CC
  8
0
  6
CONTINUOUS
 62
     7
 10
72.5186558915
 20
94.4152915635
 30
0.0
 11
72.5181560572
 21
94.4152915635
 31
0.0
  0
LINE
  5
5CD
  8
0
  6
CONTINUOUS
 62
     7
 10
72.8541561224
 20
94.7292915895
 30
0.0
 11
72.9656138748
 21
94.7292915895
 31
0.0
  0
ARC
  5
5CE
  8
0
  6
CONTINUOUS
 62
     7
 10
72.9666434843
 20
94.633490478
 30
0.0
 40
0.0958066441346635
 50
29.3462119382
 51
90.6157548957
  0
LINE
  5
5CF
  8
0
  6
CONTINUOUS
 62
     7
 10
73.0501556715
 20
94.6804439405
 30
0.0
 11
73.0501556715
 21
94.6862327336
 31
0.0
  0
LINE
  5
5D0
  8
0
  6
CONTINUOUS
 62
     7
 10
72.6121559847
 20
94.6862105139
 30
0.0
 11
72.6121559847
 21
94.6804439405
 31
0.0
  0
ARC
  5
5D1
  8
0
  6
CONTINUOUS
 62
     7
 10
72.6960272996
 20
94.6328689272
 30
0.0
 40
0.0964249934097131
 50
89.6015961777
 51
150.4364369885
  0
LINE
  5
5D2
  8
0
  6
CONTINUOUS
 62
     7
 10
72.6966977814
 20
94.7292915895
 30
0.0
 11
72.8081561205
 21
94.7292915895
 31
0.0
  0
LINE
  5
5D3
  8
0
  6
CONTINUOUS
 62
     7
 10
72.8081561205
 20
94.7292915895
 30
0.0
 11
72.8081561205
 21
94.7292616699
 31
0.0
  0
POLYLINE
  5
5D4
  8
0
  6
CONTINUOUS
 62
     7
 66
     1
 10
0.0
 20
0.0
 30
0.0
  0
VERTEX
  5
75E
  8
0
  6
CONTINUOUS
 62
     7
 10
72.8081561205
 20
94.7292616699
 30
0.0
  0
VERTEX
  5
75F
  8
0
  6
CONTINUOUS
 62
     7
 10
72.8311561214
 20
94.7292902695
 30
0.0
  0
VERTEX
  5
760
  8
0
  6
CONTINUOUS
 62
     7
 10
72.8541561224
 20
94.7292616699
 30
0.0
  0
SEQEND
  5
761
  8
0
  6
CONTINUOUS
 62
     7
  0
LINE
  5
5D5
  8
0
  6
CONTINUOUS
 62
     7
 10
72.8541561224
 20
94.7292616699
 30
0.0
 11
72.8541561224
 21
94.7292915895
 31
0.0
  0
LINE
  5
5D6
  8
0
  6
CONTINUOUS
 62
     7
 10
72.597155678
 20
94.541291588
 30
0.0
 11
73.0651559783
 21
94.541291588
 31
0.0
  0
LINE
  5
5D7
  8
0
  6
CONTINUOUS
 62
     7
 10
72.6591556551
 20
94.5092915643
 30
0.0
 11
73.0031560012
 21
94.5092915643
 31
0.0
  0
LINE
  5
5D8
  8
0
  6
CONTINUOUS
 62
     7
 10
73.0031560012
 20
94.5092915643
 30
0.0
 11
73.0031560012
 21
94.5052915705
 31
0.0
  0
LINE
  5
5D9
  8
0
  6
CONTINUOUS
 62
     7
 10
72.6591556551
 20
94.5092915643
 30
0.0
 11
72.6591556551
 21
94.5052915705
 31
0.0
  0
LINE
  5
5DA
  8
0
  6
CONTINUOUS
 62
     7
 10
73.1431559305
 20
93.3202915581
 30
0.0
 11
72.5191557257
 21
93.3202915581
 31
0.0
  0
LINE
  5
5DB
  8
0
  6
CONTINUOUS
 62
     7
 10
72.5186558915
 20
94.4152915635
 30
0.0
 11
72.5186558915
 21
94.2902915742
 31
0.0
  0
LINE
  5
5DC
  8
0
  6
CONTINUOUS
 62
     7
 10
73.1436557648
 20
94.4152915635
 30
0.0
 11
73.1436557648
 21
94.2902915742
 31
0.0
  0
LINE
  5
5DD
  8
0
  6
CONTINUOUS
 62
     7
 10
72.5186558915
 20
94.4152915635
 30
0.0
 11
73.023594645
 21
94.4152915635
 31
0.0
  0
ARC
  5
5DE
  8
0
  6
CONTINUOUS
 62
     7
 10
54.8456558949
 20
93.3047915649
 30
0.0
 40
0.1735000000000042
 50
90.0
 51
0.0
  0
ARC
  5
5DF
  8
0
  6
CONTINUOUS
 62
     7
 10
54.8456558949
 20
93.3047915649
 30
0.0
 40
0.1735000000000051
 50
62.3559682225
 51
90.0
  0
ARC
  5
5E0
  8
0
  6
CONTINUOUS
 62
     7
 10
54.8456558949
 20
93.3047915649
 30
0.0
 40
0.1735000000000051
 50
56.6033259913
 51
62.3559682225
  0
ARC
  5
5E1
  8
0
  6
CONTINUOUS
 62
     7
 10
54.8456558949
 20
93.3047915649
 30
0.0
 40
0.1735000000000042
 50
0.0
 51
56.6033259913
  0
LINE
  5
5E2
  8
0
  6
CONTINUOUS
 62
     7
 10
54.9411558016
 20
94.2752915608
 30
0.0
 11
55.0191557539
 21
94.2752915608
 31
0.0
  0
LINE
  5
5E3
  8
0
  6
CONTINUOUS
 62
     7
 10
55.0191557539
 20
94.2752915608
 30
0.0
 11
55.0191557539
 21
94.2442915723
 31
0.0
  0
LINE
  5
5E4
  8
0
  6
CONTINUOUS
 62
     7
 10
55.0191557539
 20
93.5862915669
 30
0.0
 11
55.0191557539
 21
93.3047915638
 31
0.0
  0
LINE
  5
5E5
  8
0
  6
CONTINUOUS
 62
     7
 10
54.9411558016
 20
93.4496432163
 30
0.0
 11
54.9411558016
 21
94.2752915608
 31
0.0
  0
LINE
  5
5E6
  8
0
  6
CONTINUOUS
 62
     7
 10
54.8456557848
 20
93.4782915649
 30
0.0
 11
54.9261560815
 21
93.4782915649
 31
0.0
  0
LINE
  5
5E7
  8
0
  6
CONTINUOUS
 62
     7
 10
54.9261560815
 20
93.4782915649
 30
0.0
 11
54.9261560815
 21
93.4584860691
 31
0.0
  0
POLYLINE
  5
5E8
  8
0
  6
CONTINUOUS
 62
     7
 66
     1
 10
0.0
 20
0.0
 30
0.0
  0
VERTEX
  5
762
  8
0
  6
CONTINUOUS
 62
     7
 10
42.818479028
 20
76.2799878882
 30
0.0
  0
VERTEX
  5
763
  8
0
  6
CONTINUOUS
 62
     7
 10
42.8523271953
 20
76.2853875058
 30
0.0
  0
VERTEX
  5
764
  8
0
  6
CONTINUOUS
 62
     7
 10
42.8848746093
 20
76.3013775077
 30
0.0
  0
VERTEX
  5
765
  8
0
  6
CONTINUOUS
 62
     7
 10
42.9148704561
 20
76.3273454211
 30
0.0
  0
VERTEX
  5
766
  8
0
  6
CONTINUOUS
 62
     7
 10
42.9411620591
 20
76.3622915774
 30
0.0
  0
VERTEX
  5
767
  8
0
  6
CONTINUOUS
 62
     7
 10
42.9627390065
 20
76.4048736988
 30
0.0
  0
VERTEX
  5
768
  8
0
  6
CONTINUOUS
 62
     7
 10
42.9787721279
 20
76.4534538309
 30
0.0
  0
VERTEX
  5
769
  8
0
  6
CONTINUOUS
 62
     7
 10
42.9886452839
 20
76.506168742
 30
0.0
  0
VERTEX
  5
76A
  8
0
  6
CONTINUOUS
 62
     7
 10
42.9919790154
 20
76.5609885887
 30
0.0
  0
SEQEND
  5
76B
  8
0
  6
CONTINUOUS
 62
     7
  0
POLYLINE
  5
5E9
  8
0
  6
CONTINUOUS
 62
     7
 66
     1
 10
0.0
 20
0.0
 30
0.0
  0
VERTEX
  5
76C
  8
0
  6
CONTINUOUS
 62
     7
 10
42.6449790269
 20
76.5609885887
 30
0.0
  0
VERTEX
  5
76D
  8
0
  6
CONTINUOUS
 62
     7
 10
42.6483127813
 20
76.506168742
 30
0.0
  0
VERTEX
  5
76E
  8
0
  6
CONTINUOUS
 62
     7
 10
42.658185928
 20
76.4534538309
 30
0.0
  0
VERTEX
  5
76F
  8
0
  6
CONTINUOUS
 62
     7
 10
42.6742190495
 20
76.4048736988
 30
0.0
  0
VERTEX
  5
770
  8
0
  6
CONTINUOUS
 62
     7
 10
42.6957959969
 20
76.3622915774
 30
0.0
  0
VERTEX
  5
771
  8
0
  6
CONTINUOUS
 62
     7
 10
42.7220875907
 20
76.3273454211
 30
0.0
  0
VERTEX
  5
772
  8
0
  6
CONTINUOUS
 62
     7
 10
42.7520834467
 20
76.3013775077
 30
0.0
  0
VERTEX
  5
773
  8
0
  6
CONTINUOUS
 62
     7
 10
42.7846308607
 20
76.2853875058
 30
0.0
  0
VERTEX
  5
774
  8
0
  6
CONTINUOUS
 62
     7
 10
42.818479028
 20
76.2799878882
 30
0.0
  0
SEQEND
  5
775
  8
0
  6
CONTINUOUS
 62
     7
  0
LINE
  5
5EA
  8
0
  6
CONTINUOUS
 62
     7
 10
42.9919790154
 20
76.5609885887
 30
0.0
 11
42.9919790154
 21
78.0609887539
 31
0.0
  0
LINE
  5
5EB
  8
0
  6
CONTINUOUS
 62
     7
 10
42.9919790154
 20
13.842989059
 30
0.0
 11
42.9919790154
 21
15.3429892242
 31
0.0
  0
POLYLINE
  5
5EC
  8
0
  6
CONTINUOUS
 62
     7
 66
     1
 10
0.0
 20
0.0
 30
0.0
  0
VERTEX
  5
776
  8
0
  6
CONTINUOUS
 62
     7
 10
42.818479028
 20
13.5619883585
 30
0.0
  0
VERTEX
  5
777
  8
0
  6
CONTINUOUS
 62
     7
 10
42.8523271953
 20
13.5673879761
 30
0.0
  0
VERTEX
  5
778
  8
0
  6
CONTINUOUS
 62
     7
 10
42.8848746093
 20
13.5833779781
 30
0.0
  0
VERTEX
  5
779
  8
0
  6
CONTINUOUS
 62
     7
 10
42.9148704561
 20
13.6093458914
 30
0.0
  0
VERTEX
  5
77A
  8
0
  6
CONTINUOUS
 62
     7
 10
42.9411620591
 20
13.6442920477
 30
0.0
  0
VERTEX
  5
77B
  8
0
  6
CONTINUOUS
 62
     7
 10
42.9627390065
 20
13.6868741692
 30
0.0
  0
VERTEX
  5
77C
  8
0
  6
CONTINUOUS
 62
     7
 10
42.9787721279
 20
13.7354543013
 30
0.0
  0
VERTEX
  5
77D
  8
0
  6
CONTINUOUS
 62
     7
 10
42.9886452839
 20
13.7881668657
 30
0.0
  0
VERTEX
  5
77E
  8
0
  6
CONTINUOUS
 62
     7
 10
42.9919790154
 20
13.842989059
 30
0.0
  0
SEQEND
  5
77F
  8
0
  6
CONTINUOUS
 62
     7
  0
POLYLINE
  5
5ED
  8
0
  6
CONTINUOUS
 62
     7
 66
     1
 10
0.0
 20
0.0
 30
0.0
  0
VERTEX
  5
780
  8
0
  6
CONTINUOUS
 62
     7
 10
42.6449790269
 20
13.842989059
 30
0.0
  0
VERTEX
  5
781
  8
0
  6
CONTINUOUS
 62
     7
 10
42.6483127813
 20
13.7881668657
 30
0.0
  0
VERTEX
  5
782
  8
0
  6
CONTINUOUS
 62
     7
 10
42.658185928
 20
13.7354543013
 30
0.0
  0
VERTEX
  5
783
  8
0
  6
CONTINUOUS
 62
     7
 10
42.6742190495
 20
13.6868741692
 30
0.0
  0
VERTEX
  5
784
  8
0
  6
CONTINUOUS
 62
     7
 10
42.6957959969
 20
13.6442920477
 30
0.0
  0
VERTEX
  5
785
  8
0
  6
CONTINUOUS
 62
     7
 10
42.7220875907
 20
13.6093458914
 30
0.0
  0
VERTEX
  5
786
  8
0
  6
CONTINUOUS
 62
     7
 10
42.7520834467
 20
13.5833779781
 30
0.0
  0
VERTEX
  5
787
  8
0
  6
CONTINUOUS
 62
     7
 10
42.7846308607
 20
13.5673879761
 30
0.0
  0
VERTEX
  5
788
  8
0
  6
CONTINUOUS
 62
     7
 10
42.818479028
 20
13.5619883585
 30
0.0
  0
SEQEND
  5
789
  8
0
  6
CONTINUOUS
 62
     7
  0
ARC
  5
5EE
  8
0
  6
CONTINUOUS
 62
     7
 10
41.4879790268
 20
46.999488255
 30
0.0
 40
0.0940000000000012
 50
180.0
 51
270.0
  0
ARC
  5
5EF
  8
0
  6
CONTINUOUS
 62
     7
 10
41.4879790268
 20
47.279488255
 30
0.0
 40
0.0940000000000012
 50
90.0
 51
180.0
  0
LINE
  5
5F0
  8
0
  6
CONTINUOUS
 62
     7
 10
41.5819790038
 20
47.3734882585
 30
0.0
 11
41.487979003
 21
47.3734882585
 31
0.0
  0
LINE
  5
5F1
  8
0
  6
CONTINUOUS
 62
     7
 10
41.487979003
 20
46.9054882516
 30
0.0
 11
41.5819790038
 21
46.9054882516
 31
0.0
  0
LINE
  5
5F2
  8
0
  6
CONTINUOUS
 62
     7
 10
41.6139790275
 20
47.2344882543
 30
0.0
 11
41.5819790038
 21
47.2344882543
 31
0.0
  0
LINE
  5
5F3
  8
0
  6
CONTINUOUS
 62
     7
 10
41.5819790038
 20
47.0444882558
 30
0.0
 11
41.6139790275
 21
47.0444882558
 31
0.0
  0
ARC
  5
5F4
  8
0
  6
CONTINUOUS
 62
     7
 10
42.244803577
 20
47.4454889472
 30
0.0
 40
0.8327572805799102
 50
293.9595289398
 51
312.0882061718
  0
ARC
  5
5F5
  8
0
  6
CONTINUOUS
 62
     7
 10
42.244803577
 20
46.8334875629
 30
0.0
 40
0.8327572805799102
 50
47.9117938282
 51
66.0404710602
  0
LINE
  5
5F6
  8
0
  6
CONTINUOUS
 62
     7
 10
41.7079790283
 20
46.772488238
 30
0.0
 11
41.8329790176
 21
46.772488238
 31
0.0
  0
LINE
  5
5F7
  8
0
  6
CONTINUOUS
 62
     7
 10
41.8329790176
 20
47.5064882721
 30
0.0
 11
41.7079790283
 21
47.5064882721
 31
0.0
  0
LINE
  5
5F8
  8
0
  6
CONTINUOUS
 62
     7
 10
42.9919790154
 20
78.0609887539
 30
0.0
 11
42.9919790154
 21
79.5609889191
 31
0.0
  0
POLYLINE
  5
5F9
  8
0
  6
CONTINUOUS
 62
     7
 66
     1
 10
0.0
 20
0.0
 30
0.0
  0
VERTEX
  5
78A
  8
0
  6
CONTINUOUS
 62
     7
 10
42.818479028
 20
79.841987273
 30
0.0
  0
VERTEX
  5
78B
  8
0
  6
CONTINUOUS
 62
     7
 10
42.7846308607
 20
79.836590002
 30
0.0
  0
VERTEX
  5
78C
  8
0
  6
CONTINUOUS
 62
     7
 10
42.7520834467
 20
79.8205976534
 30
0.0
  0
VERTEX
  5
78D
  8
0
  6
CONTINUOUS
 62
     7
 10
42.7220875907
 20
79.7946320867
 30
0.0
  0
VERTEX
  5
78E
  8
0
  6
CONTINUOUS
 62
     7
 10
42.6957959969
 20
79.7596859304
 30
0.0
  0
VERTEX
  5
78F
  8
0
  6
CONTINUOUS
 62
     7
 10
42.6742190495
 20
79.717103809
 30
0.0
  0
VERTEX
  5
790
  8
0
  6
CONTINUOUS
 62
     7
 10
42.658185928
 20
79.6685213302
 30
0.0
  0
VERTEX
  5
791
  8
0
  6
CONTINUOUS
 62
     7
 10
42.6483127813
 20
79.6158087658
 30
0.0
  0
VERTEX
  5
792
  8
0
  6
CONTINUOUS
 62
     7
 10
42.6449790269
 20
79.5609889191
 30
0.0
  0
SEQEND
  5
793
  8
0
  6
CONTINUOUS
 62
     7
  0
POLYLINE
  5
5FA
  8
0
  6
CONTINUOUS
 62
     7
 66
     1
 10
0.0
 20
0.0
 30
0.0
  0
VERTEX
  5
794
  8
0
  6
CONTINUOUS
 62
     7
 10
42.9919790154
 20
79.5609889191
 30
0.0
  0
VERTEX
  5
795
  8
0
  6
CONTINUOUS
 62
     7
 10
42.9886452839
 20
79.6158087658
 30
0.0
  0
VERTEX
  5
796
  8
0
  6
CONTINUOUS
 62
     7
 10
42.9787721279
 20
79.6685213302
 30
0.0
  0
VERTEX
  5
797
  8
0
  6
CONTINUOUS
 62
     7
 10
42.9627390065
 20
79.717103809
 30
0.0
  0
VERTEX
  5
798
  8
0
  6
CONTINUOUS
 62
     7
 10
42.9411620591
 20
79.7596859304
 30
0.0
  0
VERTEX
  5
799
  8
0
  6
CONTINUOUS
 62
     7
 10
42.9148704561
 20
79.7946320867
 30
0.0
  0
VERTEX
  5
79A
  8
0
  6
CONTINUOUS
 62
     7
 10
42.8848746093
 20
79.8205976534
 30
0.0
  0
VERTEX
  5
79B
  8
0
  6
CONTINUOUS
 62
     7
 10
42.8523271953
 20
79.836590002
 30
0.0
  0
VERTEX
  5
79C
  8
0
  6
CONTINUOUS
 62
     7
 10
42.818479028
 20
79.841987273
 30
0.0
  0
SEQEND
  5
79D
  8
0
  6
CONTINUOUS
 62
     7
  0
LINE
  5
5FB
  8
0
  6
CONTINUOUS
 62
     7
 10
42.9919790154
 20
15.3429892242
 30
0.0
 11
42.9919790154
 21
16.8429893894
 31
0.0
  0
POLYLINE
  5
5FC
  8
0
  6
CONTINUOUS
 62
     7
 66
     1
 10
0.0
 20
0.0
 30
0.0
  0
VERTEX
  5
79E
  8
0
  6
CONTINUOUS
 62
     7
 10
42.818479028
 20
17.1239877433
 30
0.0
  0
VERTEX
  5
79F
  8
0
  6
CONTINUOUS
 62
     7
 10
42.7846308607
 20
17.1185881257
 30
0.0
  0
VERTEX
  5
7A0
  8
0
  6
CONTINUOUS
 62
     7
 10
42.7520834467
 20
17.1025981238
 30
0.0
  0
VERTEX
  5
7A1
  8
0
  6
CONTINUOUS
 62
     7
 10
42.7220875907
 20
17.0766302104
 30
0.0
  0
VERTEX
  5
7A2
  8
0
  6
CONTINUOUS
 62
     7
 10
42.6957959969
 20
17.0416864007
 30
0.0
  0
VERTEX
  5
7A3
  8
0
  6
CONTINUOUS
 62
     7
 10
42.6742190495
 20
16.9991042793
 30
0.0
  0
VERTEX
  5
7A4
  8
0
  6
CONTINUOUS
 62
     7
 10
42.658185928
 20
16.9505218006
 30
0.0
  0
VERTEX
  5
7A5
  8
0
  6
CONTINUOUS
 62
     7
 10
42.6483127813
 20
16.8978092362
 30
0.0
  0
VERTEX
  5
7A6
  8
0
  6
CONTINUOUS
 62
     7
 10
42.6449790269
 20
16.8429893894
 30
0.0
  0
SEQEND
  5
7A7
  8
0
  6
CONTINUOUS
 62
     7
  0
POLYLINE
  5
5FD
  8
0
  6
CONTINUOUS
 62
     7
 66
     1
 10
0.0
 20
0.0
 30
0.0
  0
VERTEX
  5
7A8
  8
0
  6
CONTINUOUS
 62
     7
 10
42.9919790154
 20
16.8429893894
 30
0.0
  0
VERTEX
  5
7A9
  8
0
  6
CONTINUOUS
 62
     7
 10
42.9886452839
 20
16.8978092362
 30
0.0
  0
VERTEX
  5
7AA
  8
0
  6
CONTINUOUS
 62
     7
 10
42.9787721279
 20
16.9505218006
 30
0.0
  0
VERTEX
  5
7AB
  8
0
  6
CONTINUOUS
 62
     7
 10
42.9627390065
 20
16.9991042793
 30
0.0
  0
VERTEX
  5
7AC
  8
0
  6
CONTINUOUS
 62
     7
 10
42.9411620591
 20
17.0416864007
 30
0.0
  0
VERTEX
  5
7AD
  8
0
  6
CONTINUOUS
 62
     7
 10
42.9148704561
 20
17.0766302104
 30
0.0
  0
VERTEX
  5
7AE
  8
0
  6
CONTINUOUS
 62
     7
 10
42.8848746093
 20
17.1025981238
 30
0.0
  0
VERTEX
  5
7AF
  8
0
  6
CONTINUOUS
 62
     7
 10
42.8523271953
 20
17.1185881257
 30
0.0
  0
VERTEX
  5
7B0
  8
0
  6
CONTINUOUS
 62
     7
 10
42.818479028
 20
17.1239877433
 30
0.0
  0
SEQEND
  5
7B1
  8
0
  6
CONTINUOUS
 62
     7
  0
LINE
  5
5FE
  8
0
  6
CONTINUOUS
 62
     7
 10
41.8329790176
 20
82.0469883606
 30
0.0
 11
41.8329790176
 21
12.2319881495
 31
0.0
  0
ARC
  5
5FF
  8
0
  6
CONTINUOUS
 62
     7
 10
41.8834116351
 20
12.3086165537
 30
0.0
 40
0.0917352780938274
 50
236.6492777502
 51
267.2304101504
  0
ARC
  5
600
  8
0
  6
CONTINUOUS
 62
     7
 10
41.8834116351
 20
81.9703599563
 30
0.0
 40
0.0917352780939696
 50
92.7695898496
 51
123.3507222498
  0
LINE
  5
601
  8
0
  6
CONTINUOUS
 62
     7
 10
42.5369790249
 20
12.1859893208
 30
0.0
 11
41.8789790195
 21
12.1859893208
 31
0.0
  0
LINE
  5
602
  8
0
  6
CONTINUOUS
 62
     7
 10
41.8789790195
 20
12.1859893208
 30
0.0
 11
41.8789790195
 21
12.2169884294
 31
0.0
  0
LINE
  5
603
  8
0
  6
CONTINUOUS
 62
     7
 10
42.5369790249
 20
82.0929871892
 30
0.0
 11
41.8789790195
 21
82.0929871892
 31
0.0
  0
LINE
  5
604
  8
0
  6
CONTINUOUS
 62
     7
 10
41.8789790195
 20
82.0929871892
 30
0.0
 11
41.8789790195
 21
82.0619880807
 31
0.0
  0
LINE
  5
605
  8
0
  6
CONTINUOUS
 62
     7
 10
42.5829790268
 20
12.1859893208
 30
0.0
 11
42.5369790249
 21
12.1859893208
 31
0.0
  0
LINE
  5
606
  8
0
  6
CONTINUOUS
 62
     7
 10
42.5829790268
 20
82.0929871892
 30
0.0
 11
42.5369790249
 21
82.0929871892
 31
0.0
  0
LINE
  5
607
  8
0
  6
CONTINUOUS
 62
     7
 10
42.5829790268
 20
12.1859893208
 30
0.0
 11
42.5829790268
 21
13.842989059
 31
0.0
  0
LINE
  5
608
  8
0
  6
CONTINUOUS
 62
     7
 10
42.5829790268
 20
15.2809886605
 30
0.0
 11
42.5829790268
 21
15.3429892242
 31
0.0
  0
LINE
  5
609
  8
0
  6
CONTINUOUS
 62
     7
 10
42.5829790268
 20
16.8429893894
 30
0.0
 11
42.5829790268
 21
76.5609885887
 31
0.0
  0
LINE
  5
60A
  8
0
  6
CONTINUOUS
 62
     7
 10
42.5829790268
 20
77.9989881901
 30
0.0
 11
42.5829790268
 21
78.0609887539
 31
0.0
  0
LINE
  5
60B
  8
0
  6
CONTINUOUS
 62
     7
 10
42.5829790268
 20
79.5609889191
 30
0.0
 11
42.5829790268
 21
82.0929871892
 31
0.0
  0
LINE
  5
60C
  8
0
  6
CONTINUOUS
 62
     7
 10
41.8329790176
 20
82.0469883606
 30
0.0
 11
41.8329790176
 21
82.0509893811
 31
0.0
  0
LINE
  5
60D
  8
0
  6
CONTINUOUS
 62
     7
 10
41.8329790176
 20
82.0509893811
 30
0.0
 11
41.8371453294
 21
82.0509893811
 31
0.0
  0
LINE
  5
60E
  8
0
  6
CONTINUOUS
 62
     7
 10
41.8329790176
 20
12.227987129
 30
0.0
 11
41.8371453294
 21
12.227987129
 31
0.0
  0
LINE
  5
60F
  8
0
  6
CONTINUOUS
 62
     7
 10
41.8329790176
 20
12.227987129
 30
0.0
 11
41.8329790176
 21
12.2169884294
 31
0.0
  0
LINE
  5
610
  8
0
  6
CONTINUOUS
 62
     7
 10
41.8639790061
 20
12.2201845525
 30
0.0
 11
41.8639790061
 21
12.2169884294
 31
0.0
  0
LINE
  5
611
  8
0
  6
CONTINUOUS
 62
     7
 10
41.8329790176
 20
12.2319881495
 30
0.0
 11
41.8329790176
 21
12.227987129
 31
0.0
  0
LINE
  5
612
  8
0
  6
CONTINUOUS
 62
     7
 10
41.8329790176
 20
82.0509893811
 30
0.0
 11
41.8329790176
 21
82.0619880807
 31
0.0
  0
ARC
  5
613
  8
0
  6
CONTINUOUS
 62
     7
 10
41.8789790268
 20
12.216988255
 30
0.0
 40
0.0459999999999994
 50
180.0
 51
270.0
  0
ARC
  5
614
  8
0
  6
CONTINUOUS
 62
     7
 10
41.8789790268
 20
12.216988255
 30
0.0
 40
0.0150000000000041
 50
180.0
 51
270.0
  0
LINE
  5
615
  8
0
  6
CONTINUOUS
 62
     7
 10
41.8789790195
 20
82.1079892559
 30
0.0
 11
42.5369790249
 21
82.1079892559
 31
0.0
  0
LINE
  5
616
  8
0
  6
CONTINUOUS
 62
     7
 10
41.8789790195
 20
12.1709872541
 30
0.0
 11
42.5369790249
 21
12.1709872541
 31
0.0
  0
ARC
  5
617
  8
0
  6
CONTINUOUS
 62
     7
 10
41.8789790268
 20
82.061988255
 30
0.0
 40
0.0150000000000006
 50
90.0
 51
180.0
  0
ARC
  5
618
  8
0
  6
CONTINUOUS
 62
     7
 10
41.8789790268
 20
82.061988255
 30
0.0
 40
0.0459999999999994
 50
90.0
 51
180.0
  0
ARC
  5
619
  8
0
  6
CONTINUOUS
 62
     7
 10
42.5369790268
 20
12.216988255
 30
0.0
 40
0.0459999999999965
 50
270.0
 51
317.6302014306
  0
ARC
  5
61A
  8
0
  6
CONTINUOUS
 62
     7
 10
42.5369790268
 20
82.061988255
 30
0.0
 40
0.0459999999999929
 50
42.3697985694
 51
90.0
  0
LINE
  5
61B
  8
0
  6
CONTINUOUS
 62
     7
 10
42.8949790193
 20
70.0454875363
 30
0.0
 11
42.8949790193
 21
70.3574873454
 31
0.0
  0
ARC
  5
61C
  8
0
  6
CONTINUOUS
 62
     7
 10
42.5509774243
 20
70.357488255
 30
0.0
 40
0.3440016025641057
 50
0.0
 51
84.6622000096
  0
LINE
  5
61D
  8
0
  6
CONTINUOUS
 62
     7
 10
42.8949790193
 20
70.0454875363
 30
0.0
 11
42.5829790268
 21
70.0454875363
 31
0.0
  0
LINE
  5
61E
  8
0
  6
CONTINUOUS
 62
     7
 10
42.8949790193
 20
67.0454872059
 30
0.0
 11
42.8949790193
 21
67.3574893616
 31
0.0
  0
LINE
  5
61F
  8
0
  6
CONTINUOUS
 62
     7
 10
42.8949790193
 20
67.0454872059
 30
0.0
 11
42.5829790268
 21
67.0454872059
 31
0.0
  0
ARC
  5
620
  8
0
  6
CONTINUOUS
 62
     7
 10
42.5509774243
 20
67.357488255
 30
0.0
 40
0.3440016025641057
 50
0.0
 51
84.6622000096
  0
LINE
  5
621
  8
0
  6
CONTINUOUS
 62
     7
 10
42.8949790193
 20
76.0454881971
 30
0.0
 11
42.8949790193
 21
76.3087788089
 31
0.0
  0
LINE
  5
622
  8
0
  6
CONTINUOUS
 62
     7
 10
42.8949790193
 20
76.0454881971
 30
0.0
 11
42.5829790268
 21
76.0454881971
 31
0.0
  0
LINE
  5
623
  8
0
  6
CONTINUOUS
 62
     7
 10
42.8949790193
 20
75.0454888692
 30
0.0
 11
42.8949790193
 21
75.3574886783
 31
0.0
  0
ARC
  5
624
  8
0
  6
CONTINUOUS
 62
     7
 10
42.5509774243
 20
75.357488255
 30
0.0
 40
0.3440016025641057
 50
0.0
 51
84.6622000096
  0
LINE
  5
625
  8
0
  6
CONTINUOUS
 62
     7
 10
42.8949790193
 20
75.0454888692
 30
0.0
 11
42.5829790268
 21
75.0454888692
 31
0.0
  0
LINE
  5
626
  8
0
  6
CONTINUOUS
 62
     7
 10
42.8949790193
 20
71.0454892109
 30
0.0
 11
42.8949790193
 21
71.35748902
 31
0.0
  0
LINE
  5
627
  8
0
  6
CONTINUOUS
 62
     7
 10
42.8949790193
 20
71.0454892109
 30
0.0
 11
42.5829790268
 21
71.0454892109
 31
0.0
  0
ARC
  5
628
  8
0
  6
CONTINUOUS
 62
     7
 10
42.5509774243
 20
71.357488255
 30
0.0
 40
0.3440016025641057
 50
0.0
 51
84.6622000096
  0
LINE
  5
629
  8
0
  6
CONTINUOUS
 62
     7
 10
42.8949790193
 20
68.0454888805
 30
0.0
 11
42.8949790193
 21
68.3574886895
 31
0.0
  0
LINE
  5
62A
  8
0
  6
CONTINUOUS
 62
     7
 10
42.8949790193
 20
68.0454888805
 30
0.0
 11
42.5829790268
 21
68.0454888805
 31
0.0
  0
ARC
  5
62B
  8
0
  6
CONTINUOUS
 62
     7
 10
42.5509774243
 20
68.357488255
 30
0.0
 40
0.3440016025641057
 50
0.0
 51
84.6622000096
  0
LINE
  5
62C
  8
0
  6
CONTINUOUS
 62
     7
 10
42.8949790193
 20
66.045487878
 30
0.0
 11
42.8949790193
 21
66.3574876871
 31
0.0
  0
LINE
  5
62D
  8
0
  6
CONTINUOUS
 62
     7
 10
42.8949790193
 20
66.045487878
 30
0.0
 11
42.5829790268
 21
66.045487878
 31
0.0
  0
ARC
  5
62E
  8
0
  6
CONTINUOUS
 62
     7
 10
42.5509774243
 20
66.357488255
 30
0.0
 40
0.3440016025641057
 50
0.0
 51
84.6622000096
  0
LINE
  5
62F
  8
0
  6
CONTINUOUS
 62
     7
 10
42.8949790193
 20
74.0454871946
 30
0.0
 11
42.8949790193
 21
74.3574893504
 31
0.0
  0
LINE
  5
630
  8
0
  6
CONTINUOUS
 62
     7
 10
42.8949790193
 20
74.0454871946
 30
0.0
 11
42.5829790268
 21
74.0454871946
 31
0.0
  0
ARC
  5
631
  8
0
  6
CONTINUOUS
 62
     7
 10
42.5509774243
 20
74.357488255
 30
0.0
 40
0.3440016025641057
 50
0.0
 51
84.6622000096
  0
LINE
  5
632
  8
0
  6
CONTINUOUS
 62
     7
 10
42.8949790193
 20
69.0454882084
 30
0.0
 11
42.8949790193
 21
69.3574880175
 31
0.0
  0
LINE
  5
633
  8
0
  6
CONTINUOUS
 62
     7
 10
42.8949790193
 20
69.0454882084
 30
0.0
 11
42.5829790268
 21
69.0454882084
 31
0.0
  0
ARC
  5
634
  8
0
  6
CONTINUOUS
 62
     7
 10
42.5509774243
 20
69.357488255
 30
0.0
 40
0.3440016025641057
 50
0.0
 51
84.6622000096
  0
LINE
  5
635
  8
0
  6
CONTINUOUS
 62
     7
 10
42.6449790269
 20
78.0454891996
 30
0.0
 11
42.5829790268
 21
78.0454891996
 31
0.0
  0
POLYLINE
  5
636
  8
0
  6
CONTINUOUS
 62
     7
 66
     1
 10
0.0
 20
0.0
 30
0.0
  0
VERTEX
  5
7B2
  8
0
  6
CONTINUOUS
 62
     7
 10
42.6621925768
 20
79.6830165228
 30
0.0
  0
VERTEX
  5
7B3
  8
0
  6
CONTINUOUS
 62
     7
 10
42.6453386356
 20
79.6882941151
 30
0.0
  0
VERTEX
  5
7B4
  8
0
  6
CONTINUOUS
 62
     7
 10
42.5829790268
 20
79.6999991532
 30
0.0
  0
SEQEND
  5
7B5
  8
0
  6
CONTINUOUS
 62
     7
  0
LINE
  5
637
  8
0
  6
CONTINUOUS
 62
     7
 10
42.8949790193
 20
73.0454878667
 30
0.0
 11
42.8949790193
 21
73.3574876758
 31
0.0
  0
ARC
  5
638
  8
0
  6
CONTINUOUS
 62
     7
 10
42.5509774243
 20
73.357488255
 30
0.0
 40
0.3440016025641057
 50
0.0
 51
84.6622000096
  0
LINE
  5
639
  8
0
  6
CONTINUOUS
 62
     7
 10
42.8949790193
 20
73.0454878667
 30
0.0
 11
42.5829790268
 21
73.0454878667
 31
0.0
  0
LINE
  5
63A
  8
0
  6
CONTINUOUS
 62
     7
 10
42.8949790193
 20
72.0454885388
 30
0.0
 11
42.8949790193
 21
72.3574883479
 31
0.0
  0
ARC
  5
63B
  8
0
  6
CONTINUOUS
 62
     7
 10
42.5509774243
 20
72.357488255
 30
0.0
 40
0.3440016025641057
 50
0.0
 51
84.6622000096
  0
LINE
  5
63C
  8
0
  6
CONTINUOUS
 62
     7
 10
42.8949790193
 20
72.0454885388
 30
0.0
 11
42.5829790268
 21
72.0454885388
 31
0.0
  0
LINE
  5
63D
  8
0
  6
CONTINUOUS
 62
     7
 10
42.8949790193
 20
65.0454885501
 30
0.0
 11
42.8949790193
 21
65.3574883591
 31
0.0
  0
ARC
  5
63E
  8
0
  6
CONTINUOUS
 62
     7
 10
42.5509774243
 20
65.357488255
 30
0.0
 40
0.3440016025641057
 50
0.0
 51
84.6622000096
  0
LINE
  5
63F
  8
0
  6
CONTINUOUS
 62
     7
 10
42.8949790193
 20
65.0454885501
 30
0.0
 11
42.5829790268
 21
65.0454885501
 31
0.0
  0
LINE
  5
640
  8
0
  6
CONTINUOUS
 62
     7
 10
42.8949790193
 20
25.608488343
 30
0.0
 11
42.8949790193
 21
25.9204881521
 31
0.0
  0
LINE
  5
641
  8
0
  6
CONTINUOUS
 62
     7
 10
42.8949790193
 20
25.608488343
 30
0.0
 11
42.5829790268
 21
25.608488343
 31
0.0
  0
ARC
  5
642
  8
0
  6
CONTINUOUS
 62
     7
 10
42.5509774243
 20
25.920488255
 30
0.0
 40
0.3440016025641057
 50
0.0
 51
84.6622000089
  0
LINE
  5
643
  8
0
  6
CONTINUOUS
 62
     7
 10
42.8949790193
 20
19.6084876822
 30
0.0
 11
42.8949790193
 21
19.9204874913
 31
0.0
  0
LINE
  5
644
  8
0
  6
CONTINUOUS
 62
     7
 10
42.8949790193
 20
19.6084876822
 30
0.0
 11
42.5829790268
 21
19.6084876822
 31
0.0
  0
ARC
  5
645
  8
0
  6
CONTINUOUS
 62
     7
 10
42.5509774243
 20
19.920488255
 30
0.0
 40
0.3440016025641073
 50
0.0
 51
84.6622000089
  0
LINE
  5
646
  8
0
  6
CONTINUOUS
 62
     7
 10
42.8949790193
 20
26.6084876709
 30
0.0
 11
42.8949790193
 21
26.92048748
 31
0.0
  0
LINE
  5
647
  8
0
  6
CONTINUOUS
 62
     7
 10
42.8949790193
 20
26.6084876709
 30
0.0
 11
42.5829790268
 21
26.6084876709
 31
0.0
  0
ARC
  5
648
  8
0
  6
CONTINUOUS
 62
     7
 10
42.5509774243
 20
26.920488255
 30
0.0
 40
0.3440016025641057
 50
0.0
 51
84.6622000089
  0
LINE
  5
649
  8
0
  6
CONTINUOUS
 62
     7
 10
42.8949790193
 20
24.6084890151
 30
0.0
 11
42.8949790193
 21
24.9204888241
 31
0.0
  0
LINE
  5
64A
  8
0
  6
CONTINUOUS
 62
     7
 10
42.8949790193
 20
24.6084890151
 30
0.0
 11
42.5829790268
 21
24.6084890151
 31
0.0
  0
ARC
  5
64B
  8
0
  6
CONTINUOUS
 62
     7
 10
42.5509774243
 20
24.920488255
 30
0.0
 40
0.3440016025641073
 50
0.0
 51
84.6622000089
  0
LINE
  5
64C
  8
0
  6
CONTINUOUS
 62
     7
 10
42.8949790193
 20
27.6084881721
 30
0.0
 11
42.8949790193
 21
27.9204879812
 31
0.0
  0
LINE
  5
64D
  8
0
  6
CONTINUOUS
 62
     7
 10
42.8949790193
 20
27.6084881721
 30
0.0
 11
42.5829790268
 21
27.6084881721
 31
0.0
  0
ARC
  5
64E
  8
0
  6
CONTINUOUS
 62
     7
 10
42.5509774243
 20
27.920488255
 30
0.0
 40
0.3440016025641057
 50
0.0
 51
84.6622000089
  0
LINE
  5
64F
  8
0
  6
CONTINUOUS
 62
     7
 10
42.8949790193
 20
28.6084886734
 30
0.0
 11
42.8949790193
 21
28.9204884825
 31
0.0
  0
LINE
  5
650
  8
0
  6
CONTINUOUS
 62
     7
 10
42.8949790193
 20
28.6084886734
 30
0.0
 11
42.5829790268
 21
28.6084886734
 31
0.0
  0
ARC
  5
651
  8
0
  6
CONTINUOUS
 62
     7
 10
42.5509774243
 20
28.920488255
 30
0.0
 40
0.3440016025641073
 50
0.0
 51
84.6622000089
  0
LINE
  5
652
  8
0
  6
CONTINUOUS
 62
     7
 10
42.8949790193
 20
17.6084890263
 30
0.0
 11
42.8949790193
 21
17.9204888354
 31
0.0
  0
LINE
  5
653
  8
0
  6
CONTINUOUS
 62
     7
 10
42.8949790193
 20
17.6084890263
 30
0.0
 11
42.5829790268
 21
17.6084890263
 31
0.0
  0
ARC
  5
654
  8
0
  6
CONTINUOUS
 62
     7
 10
42.5509774243
 20
17.920488255
 30
0.0
 40
0.3440016025641057
 50
0.0
 51
84.6622000089
  0
ARC
  5
655
  8
0
  6
CONTINUOUS
 62
     7
 10
42.5509774243
 20
16.920488255
 30
0.0
 40
0.3440016025641096
 50
36.1677876556
 51
84.6622000089
  0
LINE
  5
656
  8
0
  6
CONTINUOUS
 62
     7
 10
42.8949790193
 20
21.6084886847
 30
0.0
 11
42.8949790193
 21
21.9204884937
 31
0.0
  0
ARC
  5
657
  8
0
  6
CONTINUOUS
 62
     7
 10
42.5509774243
 20
21.920488255
 30
0.0
 40
0.3440016025641057
 50
0.0
 51
84.6622000089
  0
LINE
  5
658
  8
0
  6
CONTINUOUS
 62
     7
 10
42.8949790193
 20
21.6084886847
 30
0.0
 11
42.5829790268
 21
21.6084886847
 31
0.0
  0
LINE
  5
659
  8
0
  6
CONTINUOUS
 62
     7
 10
42.8949790193
 20
22.6084880126
 30
0.0
 11
42.8949790193
 21
22.9204878217
 31
0.0
  0
ARC
  5
65A
  8
0
  6
CONTINUOUS
 62
     7
 10
42.5509774243
 20
22.920488255
 30
0.0
 40
0.3440016025641057
 50
0.0
 51
84.6622000089
  0
LINE
  5
65B
  8
0
  6
CONTINUOUS
 62
     7
 10
42.8949790193
 20
22.6084880126
 30
0.0
 11
42.5829790268
 21
22.6084880126
 31
0.0
  0
LINE
  5
65C
  8
0
  6
CONTINUOUS
 62
     7
 10
42.8949790193
 20
18.6084883542
 30
0.0
 11
42.8949790193
 21
18.9204881633
 31
0.0
  0
ARC
  5
65D
  8
0
  6
CONTINUOUS
 62
     7
 10
42.5509774243
 20
18.920488255
 30
0.0
 40
0.3440016025641073
 50
0.0
 51
84.6622000089
  0
LINE
  5
65E
  8
0
  6
CONTINUOUS
 62
     7
 10
42.8949790193
 20
18.6084883542
 30
0.0
 11
42.5829790268
 21
18.6084883542
 31
0.0
  0
LINE
  5
65F
  8
0
  6
CONTINUOUS
 62
     7
 10
42.8949790193
 20
23.6084873405
 30
0.0
 11
42.8949790193
 21
23.9204871496
 31
0.0
  0
ARC
  5
660
  8
0
  6
CONTINUOUS
 62
     7
 10
42.5509774243
 20
23.920488255
 30
0.0
 40
0.3440016025641073
 50
0.0
 51
84.6622000089
  0
LINE
  5
661
  8
0
  6
CONTINUOUS
 62
     7
 10
42.8949790193
 20
23.6084873405
 30
0.0
 11
42.5829790268
 21
23.6084873405
 31
0.0
  0
LINE
  5
662
  8
0
  6
CONTINUOUS
 62
     7
 10
42.8949790193
 20
20.6084893567
 30
0.0
 11
42.8949790193
 21
20.9204891658
 31
0.0
  0
ARC
  5
663
  8
0
  6
CONTINUOUS
 62
     7
 10
42.5509774243
 20
20.920488255
 30
0.0
 40
0.3440016025641057
 50
0.0
 51
84.6622000089
  0
LINE
  5
664
  8
0
  6
CONTINUOUS
 62
     7
 10
42.8949790193
 20
20.6084893567
 30
0.0
 11
42.5829790268
 21
20.6084893567
 31
0.0
  0
LINE
  5
665
  8
0
  6
CONTINUOUS
 62
     7
 10
42.6449790269
 20
76.5609885887
 30
0.0
 11
42.6449790269
 21
78.0609887539
 31
0.0
  0
LINE
  5
666
  8
0
  6
CONTINUOUS
 62
     7
 10
42.6449790269
 20
78.0609887539
 30
0.0
 11
42.9919790154
 21
78.0609887539
 31
0.0
  0
LINE
  5
667
  8
0
  6
CONTINUOUS
 62
     7
 10
41.847979031
 20
76.5609885887
 30
0.0
 11
41.847979031
 21
77.9989881901
 31
0.0
  0
LINE
  5
668
  8
0
  6
CONTINUOUS
 62
     7
 10
41.847979031
 20
77.9989881901
 30
0.0
 11
42.6449790269
 21
77.9989881901
 31
0.0
  0
LINE
  5
669
  8
0
  6
CONTINUOUS
 62
     7
 10
42.6449790269
 20
76.5609885887
 30
0.0
 11
41.847979031
 21
76.5609885887
 31
0.0
  0
CIRCLE
  5
66A
  8
0
  6
CONTINUOUS
 62
     7
 10
42.2229790268
 20
76.966988255
 30
0.0
 40
0.1404999999999959
  0
CIRCLE
  5
66B
  8
0
  6
CONTINUOUS
 62
     7
 10
42.2229790268
 20
77.654988255
 30
0.0
 40
0.140500000000003
  0
LINE
  5
66C
  8
0
  6
CONTINUOUS
 62
     7
 10
42.6449790269
 20
13.842989059
 30
0.0
 11
42.6449790269
 21
15.3429892242
 31
0.0
  0
LINE
  5
66D
  8
0
  6
CONTINUOUS
 62
     7
 10
42.6449790269
 20
15.3429892242
 30
0.0
 11
42.9919790154
 21
15.3429892242
 31
0.0
  0
LINE
  5
66E
  8
0
  6
CONTINUOUS
 62
     7
 10
42.6449790269
 20
13.842989059
 30
0.0
 11
41.847979031
 21
13.842989059
 31
0.0
  0
LINE
  5
66F
  8
0
  6
CONTINUOUS
 62
     7
 10
41.847979031
 20
13.842989059
 30
0.0
 11
41.847979031
 21
15.2809886605
 31
0.0
  0
LINE
  5
670
  8
0
  6
CONTINUOUS
 62
     7
 10
41.847979031
 20
15.2809886605
 30
0.0
 11
42.6449790269
 21
15.2809886605
 31
0.0
  0
CIRCLE
  5
671
  8
0
  6
CONTINUOUS
 62
     7
 10
42.2229790268
 20
14.248988255
 30
0.0
 40
0.1404999999999959
  0
CIRCLE
  5
672
  8
0
  6
CONTINUOUS
 62
     7
 10
42.2229790268
 20
14.936988255
 30
0.0
 40
0.1404999999999887
  0
LINE
  5
673
  8
0
  6
CONTINUOUS
 62
     7
 10
41.7079790283
 20
46.8269882451
 30
0.0
 11
41.6179790213
 21
46.8269882451
 31
0.0
  0
LINE
  5
674
  8
0
  6
CONTINUOUS
 62
     7
 10
41.6179790213
 20
46.8269882451
 30
0.0
 11
41.6179790213
 21
47.138988255
 31
0.0
  0
LINE
  5
675
  8
0
  6
CONTINUOUS
 62
     7
 10
41.7079790283
 20
47.138988255
 30
0.0
 11
41.7079790283
 21
47.1213318109
 31
0.0
  0
LINE
  5
676
  8
0
  6
CONTINUOUS
 62
     7
 10
41.7079790283
 20
47.139988255
 30
0.0
 11
41.7079790283
 21
47.138988255
 31
0.0
  0
LINE
  5
677
  8
0
  6
CONTINUOUS
 62
     7
 10
41.6179790213
 20
47.139988255
 30
0.0
 11
41.6179790213
 21
47.138988255
 31
0.0
  0
LINE
  5
678
  8
0
  6
CONTINUOUS
 62
     7
 10
41.6179790213
 20
47.451988265
 30
0.0
 11
41.7079790283
 21
47.451988265
 31
0.0
  0
LINE
  5
679
  8
0
  6
CONTINUOUS
 62
     7
 10
41.7079790283
 20
47.1576446991
 30
0.0
 11
41.7079790283
 21
47.139988255
 31
0.0
  0
LINE
  5
67A
  8
0
  6
CONTINUOUS
 62
     7
 10
41.6179790213
 20
47.139988255
 30
0.0
 11
41.6179790213
 21
47.451988265
 31
0.0
  0
LINE
  5
67B
  8
0
  6
CONTINUOUS
 62
     7
 10
41.3940089219
 20
46.9989882531
 30
0.0
 11
41.3939790023
 21
47.0013904604
 31
0.0
  0
LINE
  5
67C
  8
0
  6
CONTINUOUS
 62
     7
 10
41.3939790023
 20
47.0013904604
 30
0.0
 11
41.3939790023
 21
47.100488256
 31
0.0
  0
LINE
  5
67D
  8
0
  6
CONTINUOUS
 62
     7
 10
41.3939790023
 20
47.100488256
 30
0.0
 11
41.4428266513
 21
47.100488256
 31
0.0
  0
ARC
  5
67E
  8
0
  6
CONTINUOUS
 62
     7
 10
41.5707659814
 20
47.139488255
 30
0.0
 40
0.1337515311916825
 50
163.0471021434
 51
196.9528978566
  0
LINE
  5
67F
  8
0
  6
CONTINUOUS
 62
     7
 10
41.4428266513
 20
47.1784882541
 30
0.0
 11
41.3939790023
 21
47.1784882541
 31
0.0
  0
LINE
  5
680
  8
0
  6
CONTINUOUS
 62
     7
 10
41.3939790023
 20
47.1784882541
 30
0.0
 11
41.3939790023
 21
47.2775860497
 31
0.0
  0
LINE
  5
681
  8
0
  6
CONTINUOUS
 62
     7
 10
41.3939790023
 20
47.2775860497
 30
0.0
 11
41.3940089219
 21
47.279988257
 31
0.0
  0
LINE
  5
682
  8
0
  6
CONTINUOUS
 62
     7
 10
41.5819790038
 20
47.139488255
 30
0.0
 11
41.5819790038
 21
47.3734882585
 31
0.0
  0
LINE
  5
683
  8
0
  6
CONTINUOUS
 62
     7
 10
41.5819790038
 20
46.9054882516
 30
0.0
 11
41.5819790038
 21
47.139488255
 31
0.0
  0
LINE
  5
684
  8
0
  6
CONTINUOUS
 62
     7
 10
41.6139790275
 20
46.967488247
 30
0.0
 11
41.6139790275
 21
47.3114882631
 31
0.0
  0
LINE
  5
685
  8
0
  6
CONTINUOUS
 62
     7
 10
41.6139790275
 20
46.967488247
 30
0.0
 11
41.6179790213
 21
46.967488247
 31
0.0
  0
LINE
  5
686
  8
0
  6
CONTINUOUS
 62
     7
 10
41.6139790275
 20
47.3114882631
 30
0.0
 11
41.6179790213
 21
47.3114882631
 31
0.0
  0
LINE
  5
687
  8
0
  6
CONTINUOUS
 62
     7
 10
42.8029790337
 20
47.4514882474
 30
0.0
 11
42.8029790337
 21
46.8274882626
 31
0.0
  0
LINE
  5
688
  8
0
  6
CONTINUOUS
 62
     7
 10
41.7079790283
 20
46.772488238
 30
0.0
 11
41.7079790283
 21
46.9470493098
 31
0.0
  0
LINE
  5
689
  8
0
  6
CONTINUOUS
 62
     7
 10
41.7079790283
 20
46.9470493098
 30
0.0
 11
41.8329790176
 21
46.9470493098
 31
0.0
  0
LINE
  5
68A
  8
0
  6
CONTINUOUS
 62
     7
 10
41.7079790283
 20
46.9470493098
 30
0.0
 11
41.7079790283
 21
47.1213318109
 31
0.0
  0
LINE
  5
68B
  8
0
  6
CONTINUOUS
 62
     7
 10
41.7079790283
 20
47.1576446991
 30
0.0
 11
41.7079790283
 21
47.3319272003
 31
0.0
  0
LINE
  5
68C
  8
0
  6
CONTINUOUS
 62
     7
 10
41.7079790283
 20
47.3319272003
 30
0.0
 11
41.8329790176
 21
47.3319272003
 31
0.0
  0
LINE
  5
68D
  8
0
  6
CONTINUOUS
 62
     7
 10
41.7079790283
 20
47.3319272003
 30
0.0
 11
41.7079790283
 21
47.5064882721
 31
0.0
  0
LINE
  5
68E
  8
0
  6
CONTINUOUS
 62
     7
 10
42.6449790269
 20
79.5609889191
 30
0.0
 11
42.6449790269
 21
78.0609887539
 31
0.0
  0
LINE
  5
68F
  8
0
  6
CONTINUOUS
 62
     7
 10
41.847979031
 20
79.5609889191
 30
0.0
 11
41.847979031
 21
78.0609887539
 31
0.0
  0
LINE
  5
690
  8
0
  6
CONTINUOUS
 62
     7
 10
42.6449790269
 20
79.5609889191
 30
0.0
 11
41.847979031
 21
79.5609889191
 31
0.0
  0
LINE
  5
691
  8
0
  6
CONTINUOUS
 62
     7
 10
42.6449790269
 20
78.0609887539
 30
0.0
 11
41.847979031
 21
78.0609887539
 31
0.0
  0
LINE
  5
692
  8
0
  6
CONTINUOUS
 62
     7
 10
42.6449790269
 20
16.8429893894
 30
0.0
 11
42.6449790269
 21
15.3429892242
 31
0.0
  0
LINE
  5
693
  8
0
  6
CONTINUOUS
 62
     7
 10
41.847979031
 20
16.8429893894
 30
0.0
 11
41.847979031
 21
15.3429892242
 31
0.0
  0
LINE
  5
694
  8
0
  6
CONTINUOUS
 62
     7
 10
42.6449790269
 20
16.8429893894
 30
0.0
 11
41.847979031
 21
16.8429893894
 31
0.0
  0
LINE
  5
695
  8
0
  6
CONTINUOUS
 62
     7
 10
42.6449790269
 20
15.3429892242
 30
0.0
 11
41.847979031
 21
15.3429892242
 31
0.0
  0
ENDSEC
  0
EOF
